  0
SECTION
  2
HEADER
  9
$ACADVER
  1
AC1009
  9
$DWGCODEPAGE
  3
dos932
  9
$INSBASE
 10
0.0
 20
0.0
 30
0.0
  9
$EXTMIN
 10
-21.776227779793203
 20
-318.30540550077285
 30
0.0
  9
$EXTMAX
 10
578.0
 20
69.00000011920929
 30
0.0
  9
$LIMMIN
 10
-21.776227779793203
 20
-318.30540550077285
  9
$LIMMAX
 10
578.0
 20
69.00000011920929
  9
$ORTHOMODE
 70
               0
  9
$REGENMODE
 70
               1
  9
$FILLMODE
 70
               1
  9
$QTEXTMODE
 70
               0
  9
$MIRRTEXT
 70
               1
  9
$DRAGMODE
 70
               2
  9
$LTSCALE
 40
1.0
  9
$OSMODE
 70
               0
  9
$ATTMODE
 70
               1
  9
$TEXTSIZE
 40
3.2000000476837158
  9
$TRACEWID
 40
0.05
  9
$TEXTSTYLE
  7
MX_NOTE_STANDARD
  9
$CLAYER
  8
LY_3
  9
$CELTYPE
  6
CONTINUOUS
  9
$CECOLOR
 62
             256
  9
$DIMSCALE
 40
1.0
  9
$DIMASZ
 40
2.5
  9
$DIMEXO
 40
2.0
  9
$DIMDLI
 40
3.75
  9
$DIMRND
 40
0.0
  9
$DIMDLE
 40
0.0
  9
$DIMEXE
 40
1.0
  9
$DIMTP
 40
0.0
  9
$DIMTM
 40
0.0
  9
$DIMTXT
 40
4.1655998229980469
  9
$DIMCEN
 40
2.5
  9
$DIMTSZ
 40
0.0
  9
$DIMTOL
 70
               0
  9
$DIMLIM
 70
               0
  9
$DIMTIH
 70
               0
  9
$DIMTOH
 70
               0
  9
$DIMSE1
 70
               0
  9
$DIMSE2
 70
               0
  9
$DIMTAD
 70
               1
  9
$DIMZIN
 70
               8
  9
$DIMBLK
  1

  9
$DIMASO
 70
               1
  9
$DIMSHO
 70
               1
  9
$DIMPOST
  1

  9
$DIMAPOST
  1

  9
$DIMALT
 70
               0
  9
$DIMALTD
 70
               4
  9
$DIMALTF
 40
0.03937007874016
  9
$DIMLFAC
 40
1.0
  9
$DIMTOFL
 70
               1
  9
$DIMTVP
 40
0.0
  9
$DIMTIX
 70
               0
  9
$DIMSOXD
 70
               0
  9
$DIMSAH
 70
               1
  9
$DIMBLK1
  1
_OPEN30
  9
$DIMBLK2
  1
_OPEN30
  9
$DIMSTYLE
  2
MXDIMSTYLE
  9
$DIMCLRD
 70
               0
  9
$DIMCLRE
 70
               0
  9
$DIMCLRT
 70
               0
  9
$DIMTFAC
 40
1.0
  9
$DIMGAP
 40
1.0
  9
$LUNITS
 70
               2
  9
$LUPREC
 70
               4
  9
$AXISMODE
 70
               0
  9
$AXISUNIT
 10
0.0
 20
0.0
  9
$SKETCHINC
 40
0.1
  9
$FILLETRAD
 40
0.0
  9
$AUNITS
 70
               0
  9
$AUPREC
 70
               0
  9
$MENU
  1
acad
  9
$ELEVATION
 40
0.0
  9
$PELEVATION
 40
0.0
  9
$THICKNESS
 40
0.0
  9
$LIMCHECK
 70
               0
  9
$BLIPMODE
 70
               1
  9
$CHAMFERA
 40
0.0
  9
$CHAMFERB
 40
0.0
  9
$SKPOLY
 70
               0
  9
$TDCREATE
 40
2455163.519849537
  9
$TDUPDATE
 40
2455163.519849537
  9
$TDINDWG
 40
0.0000000000
  9
$TDUSRTIMER
 40
0.0000000000
  9
$USRTIMER
 70
               1
  9
$ANGBASE
 50
0.0
  9
$ANGDIR
 70
               0
  9
$PDMODE
 70
               0
  9
$PDSIZE
 40
0.0
  9
$PLINEWID
 40
0.0
  9
$COORDS
 70
               1
  9
$SPLFRAME
 70
               0
  9
$SPLINETYPE
 70
               6
  9
$SPLINESEGS
 70
               8
  9
$ATTDIA
 70
               0
  9
$ATTREQ
 70
               1
  9
$HANDLING
 70
               1
  9
$HANDSEED
  5
43E
  9
$SURFTAB1
 70
               6
  9
$SURFTAB2
 70
               6
  9
$SURFTYPE
 70
               6
  9
$SURFU
 70
               6
  9
$SURFV
 70
               6
  9
$UCSNAME
  2

  9
$UCSORG
 10
0.0
 20
0.0
 30
0.0
  9
$UCSXDIR
 10
1.0
 20
0.0
 30
0.0
  9
$UCSYDIR
 10
0.0
 20
1.0
 30
0.0
  9
$PUCSNAME
  2

  9
$PUCSORG
 10
0.0
 20
0.0
 30
0.0
  9
$PUCSXDIR
 10
1.0
 20
0.0
 30
0.0
  9
$PUCSYDIR
 10
0.0
 20
1.0
 30
0.0
  9
$USERI1
 70
               0
  9
$USERI2
 70
               0
  9
$USERI3
 70
               0
  9
$USERI4
 70
               0
  9
$USERI5
 70
               0
  9
$USERR1
 40
0.0
  9
$USERR2
 40
0.0
  9
$USERR3
 40
0.0
  9
$USERR4
 40
0.0
  9
$USERR5
 40
0.0
  9
$WORLDVIEW
 70
               1
  9
$SHADEDGE
 70
               3
  9
$SHADEDIF
 70
              70
  9
$TILEMODE
 70
               1
  9
$MAXACTVP
 70
              16
  9
$PINSBASE
 10
0.0
 20
0.0
 30
0.0
  9
$PLIMCHECK
 70
               0
  9
$PEXTMIN
 10
1.0000000000000000E+20
 20
1.0000000000000000E+20
 30
1.0000000000000000E+20
  9
$PEXTMAX
 10
-1.0000000000000000E+20
 20
-1.0000000000000000E+20
 30
-1.0000000000000000E+20
  9
$PLIMMIN
 10
0.0
 20
0.0
  9
$PLIMMAX
 10
12.0
 20
9.0
  9
$UNITMODE
 70
               0
  9
$VISRETAIN
 70
               0
  9
$PLINEGEN
 70
               1
  9
$PSLTSCALE
 70
               0
  9
$TREEDEPTH
 70
            3020
  0
ENDSEC
  0
SECTION
  2
TABLES
  0
TABLE
  2
VPORT
 70
               1
  0
VPORT
  2
*ACTIVE
 70
               0
 10
0.0
 20
0.0
 11
1.0
 21
1.0
 12
278.1118861101034
 22
-124.65270269078178
 13
0.0
 23
0.0
 14
1.0
 24
1.0
 15
0.0
 25
0.0
 16
0.0
 26
0.0
 36
1.0
 17
0.0
 27
0.0
 37
0.0
 40
391.17845967618194
 41
1.7320508075688772
 42
50.0
 43
0.0
 44
0.0
 50
0.0
 51
0.0
 71
               0
 72
             100
 73
               1
 74
               1
 75
               0
 76
               0
 77
               0
 78
               0
  0
ENDTAB
  0
TABLE
  2
LTYPE
 70
               3
  0
LTYPE
  2
CONTINUOUS
 70
              64
  3
Solid line
 72
              65
 73
               0
 40
0.0
  0
LTYPE
  2
CENTER
 70
              64
  3
Center ____ _ ____ _ ____ _ ____ _ ____ _ ____
 72
              65
 73
               4
 40
50.800000000000004
 49
31.75
 49
-6.3499999999999996
 49
6.3499999999999996
 49
-6.3499999999999996
  0
LTYPE
  2
PHANTOM
 70
              64
  3
Phantom ______  __  __  ______  __  __  ______
 72
              65
 73
               6
 40
63.500000000000007
 49
31.75
 49
-6.3499999999999996
 49
6.3499999999999996
 49
-6.3499999999999996
 49
6.3499999999999996
 49
-6.3499999999999996
  0
ENDTAB
  0
TABLE
  2
LAYER
 70
               3
  0
LAYER
  2
0
 70
               0
 62
               7
  6
CONTINUOUS
  0
LAYER
  2
DEFPOINTS
 70
               0
 62
               7
  6
CONTINUOUS
  0
LAYER
  2
LY_3
 70
               0
 62
               7
  6
CONTINUOUS
  0
ENDTAB
  0
TABLE
  2
STYLE
 70
               4
  0
STYLE
  2
MX_NOTE_STANDARD
 70
               0
 40
0.0
 41
1.0
 50
0.0
 71
               0
 42
3.2000000476837158
  3
txt.shx
  4
extfont.shx
  0
STYLE
  2
MX_DIMTXSTY_2
 70
               0
 40
0.0
 41
1.1000000000000001
 50
0.0
 71
               0
 42
3.2000000476837158
  3
txt.shx
  4
extfont.shx
  0
STYLE
  2
MX_DIMTXSTY_3
 70
               0
 40
0.0
 41
1.05
 50
0.0
 71
               0
 42
3.2000000476837158
  3
txt.shx
  4
extfont.shx
  0
STYLE
  2
MX_DIMTXSTY_4
 70
               0
 40
0.0
 41
1.1500000000000001
 50
0.0
 71
               0
 42
3.2000000476837158
  3
txt.shx
  4
extfont.shx
  0
ENDTAB
  0
TABLE
  2
VIEW
 70
               0
  0
ENDTAB
  0
TABLE
  2
UCS
 70
               0
  0
ENDTAB
  0
TABLE
  2
APPID
 70
               1
  0
APPID
  2
ACAD
 70
               0
  0
ENDTAB
  0
TABLE
  2
DIMSTYLE
 70
               1
  0
DIMSTYLE
  2
MXDIMSTYLE
 70
               0
  3

  4

  5

  6
_OPEN30
  7
_OPEN30
 40
1.0
 41
2.5
 42
2.0
 43
3.75
 44
1.0
 45
0.0
 46
0.0
 47
0.0
 48
0.0
 71
               0
 72
               0
 73
               0
 74
               0
 75
               0
 76
               0
 77
               1
 78
               8
140
4.1655998229980469
141
2.5
142
0.0
143
0.03937007874016
144
1.0
145
0.0
146
1.0
147
1.0
170
               0
171
               4
172
               1
173
               1
174
               0
175
               0
176
               0
177
               0
178
               0
  0
ENDTAB
  0
ENDSEC
  0
SECTION
  2
BLOCKS
  0
BLOCK
  8
0
  6
BYBLOCK
 62
               0
  5
20
  2
_OPEN30
 70
               2
 10
0.0
 20
0.0
 30
0.0
  3
_OPEN30
  0
LINE
  8
0
  6
BYBLOCK
 62
               0
  5
21
 10
-1.0
 20
0.267949
 30
0.0
 11
0.0
 21
0.0
 31
0.0
  0
LINE
  8
0
  6
BYBLOCK
 62
               0
  5
22
 10
0.0
 20
0.0
 30
0.0
 11
-1.0
 21
-0.267949
 31
0.0
  0
LINE
  8
0
  6
BYBLOCK
 62
               0
  5
23
 10
0.0
 20
0.0
 30
0.0
 11
-1.0
 21
0.0
 31
0.0
  0
ENDBLK
  8
0
  6
BYBLOCK
 62
               0
  5
24
  0
BLOCK
  8
0
  6
BYBLOCK
 62
               0
  5
36
  2
*D1
 70
               1
 10
0.0
 20
0.0
 30
0.0
  3
*D1
  0
LINE
  8
0
  6
CONTINUOUS
 62
             110
  5
37
 10
298.0
 20
64.0
 30
0.0
 11
328.0
 21
64.0
 31
0.0
  0
LINE
  8
0
  6
CONTINUOUS
 62
             110
  5
38
 10
298.0
 20
49.0
 30
0.0
 11
298.0
 21
66.285999298095703
 31
0.0
  0
LINE
  8
0
  6
CONTINUOUS
 62
             110
  5
39
 10
328.0
 20
49.0
 30
0.0
 11
328.0
 21
66.285999298095703
 31
0.0
  0
INSERT
  8
0
  6
CONTINUOUS
 62
             110
  5
3A
  2
_OPEN30
 10
298.0
 20
64.0
 30
0.0
 41
2.77
 42
2.77
 50
180.0
 43
2.77
  0
INSERT
  8
0
  6
CONTINUOUS
 62
             110
  5
3B
  2
_OPEN30
 10
328.0
 20
64.0
 30
0.0
 41
2.77
 42
2.77
 43
2.77
  0
TEXT
  8
0
  6
CONTINUOUS
 62
             110
  5
3D
 10
310.30666665236157
 20
65.0
 30
0.0
 40
3.2000000476837158
  1
30
  7
MX_DIMTXSTY_2
 11
310.30666665236157
 21
66.600000023841858
 31
0.0
 73
               2
  0
POINT
  8
DEFPOINTS
  6
CONTINUOUS
 62
               0
  5
3E
 10
298.0
 20
47.0
 30
0.0
  0
POINT
  8
DEFPOINTS
  6
CONTINUOUS
 62
               0
  5
3F
 10
328.0
 20
47.0
 30
0.0
  0
POINT
  8
DEFPOINTS
  6
CONTINUOUS
 62
               0
  5
40
 10
328.0
 20
64.0
 30
0.0
  0
ENDBLK
  8
0
  6
BYBLOCK
 62
               0
  5
41
  0
BLOCK
  8
0
  6
BYBLOCK
 62
               0
  5
44
  2
*D2
 70
               1
 10
0.0
 20
0.0
 30
0.0
  3
*D2
  0
LINE
  8
0
  6
CONTINUOUS
 62
             110
  5
45
 10
248.0
 20
56.0
 30
0.0
 11
278.0
 21
56.0
 31
0.0
  0
LINE
  8
0
  6
CONTINUOUS
 62
             110
  5
46
 10
248.0
 20
47.0
 30
0.0
 11
248.0
 21
58.285999298095703
 31
0.0
  0
LINE
  8
0
  6
CONTINUOUS
 62
             110
  5
47
 10
278.0
 20
47.0
 30
0.0
 11
278.0
 21
58.285999298095703
 31
0.0
  0
INSERT
  8
0
  6
CONTINUOUS
 62
             110
  5
48
  2
_OPEN30
 10
248.0
 20
56.0
 30
0.0
 41
2.77
 42
2.77
 50
180.0
 43
2.77
  0
INSERT
  8
0
  6
CONTINUOUS
 62
             110
  5
49
  2
_OPEN30
 10
278.0
 20
56.0
 30
0.0
 41
2.77
 42
2.77
 43
2.77
  0
TEXT
  8
0
  6
CONTINUOUS
 62
             110
  5
4A
 10
260.30666665236157
 20
57.0
 30
0.0
 40
3.2000000476837158
  1
30
  7
MX_DIMTXSTY_2
 11
260.30666665236157
 21
58.600000023841858
 31
0.0
 73
               2
  0
POINT
  8
DEFPOINTS
  6
CONTINUOUS
 62
               0
  5
4B
 10
248.0
 20
45.0
 30
0.0
  0
POINT
  8
DEFPOINTS
  6
CONTINUOUS
 62
               0
  5
4C
 10
278.0
 20
45.0
 30
0.0
  0
POINT
  8
DEFPOINTS
  6
CONTINUOUS
 62
               0
  5
4D
 10
278.0
 20
56.0
 30
0.0
  0
ENDBLK
  8
0
  6
BYBLOCK
 62
               0
  5
4E
  0
BLOCK
  8
0
  6
BYBLOCK
 62
               0
  5
51
  2
*D3
 70
               1
 10
0.0
 20
0.0
 30
0.0
  3
*D3
  0
LINE
  8
0
  6
CONTINUOUS
 62
             110
  5
52
 10
198.0
 20
48.0
 30
0.0
 11
228.0
 21
48.0
 31
0.0
  0
LINE
  8
0
  6
CONTINUOUS
 62
             110
  5
53
 10
198.0
 20
37.0
 30
0.0
 11
198.0
 21
50.285999298095703
 31
0.0
  0
LINE
  8
0
  6
CONTINUOUS
 62
             110
  5
54
 10
228.0
 20
37.0
 30
0.0
 11
228.0
 21
50.285999298095703
 31
0.0
  0
INSERT
  8
0
  6
CONTINUOUS
 62
             110
  5
55
  2
_OPEN30
 10
198.0
 20
48.0
 30
0.0
 41
2.77
 42
2.77
 50
180.0
 43
2.77
  0
INSERT
  8
0
  6
CONTINUOUS
 62
             110
  5
56
  2
_OPEN30
 10
228.0
 20
48.0
 30
0.0
 41
2.77
 42
2.77
 43
2.77
  0
TEXT
  8
0
  6
CONTINUOUS
 62
             110
  5
57
 10
210.30666665236154
 20
49.0
 30
0.0
 40
3.2000000476837158
  1
30
  7
MX_DIMTXSTY_2
 11
210.30666665236154
 21
50.600000023841858
 31
0.0
 73
               2
  0
POINT
  8
DEFPOINTS
  6
CONTINUOUS
 62
               0
  5
58
 10
198.0
 20
35.0
 30
0.0
  0
POINT
  8
DEFPOINTS
  6
CONTINUOUS
 62
               0
  5
59
 10
228.0
 20
35.0
 30
0.0
  0
POINT
  8
DEFPOINTS
  6
CONTINUOUS
 62
               0
  5
5A
 10
228.0
 20
48.0
 30
0.0
  0
ENDBLK
  8
0
  6
BYBLOCK
 62
               0
  5
5B
  0
BLOCK
  8
0
  6
BYBLOCK
 62
               0
  5
5E
  2
*D4
 70
               1
 10
0.0
 20
0.0
 30
0.0
  3
*D4
  0
LINE
  8
0
  6
CONTINUOUS
 62
             110
  5
5F
 10
148.0
 20
40.0
 30
0.0
 11
178.0
 21
40.0
 31
0.0
  0
LINE
  8
0
  6
CONTINUOUS
 62
             110
  5
60
 10
148.0
 20
27.5
 30
0.0
 11
148.0
 21
42.285999298095703
 31
0.0
  0
LINE
  8
0
  6
CONTINUOUS
 62
             110
  5
61
 10
178.0
 20
27.5
 30
0.0
 11
178.0
 21
42.285999298095703
 31
0.0
  0
INSERT
  8
0
  6
CONTINUOUS
 62
             110
  5
62
  2
_OPEN30
 10
148.0
 20
40.0
 30
0.0
 41
2.77
 42
2.77
 50
180.0
 43
2.77
  0
INSERT
  8
0
  6
CONTINUOUS
 62
             110
  5
63
  2
_OPEN30
 10
178.0
 20
40.0
 30
0.0
 41
2.77
 42
2.77
 43
2.77
  0
TEXT
  8
0
  6
CONTINUOUS
 62
             110
  5
64
 10
160.30666665236154
 20
41.0
 30
0.0
 40
3.2000000476837158
  1
30
  7
MX_DIMTXSTY_2
 11
160.30666665236154
 21
42.600000023841858
 31
0.0
 73
               2
  0
POINT
  8
DEFPOINTS
  6
CONTINUOUS
 62
               0
  5
65
 10
148.0
 20
25.5
 30
0.0
  0
POINT
  8
DEFPOINTS
  6
CONTINUOUS
 62
               0
  5
66
 10
178.0
 20
25.5
 30
0.0
  0
POINT
  8
DEFPOINTS
  6
CONTINUOUS
 62
               0
  5
67
 10
178.0
 20
40.0
 30
0.0
  0
ENDBLK
  8
0
  6
BYBLOCK
 62
               0
  5
68
  0
BLOCK
  8
0
  6
BYBLOCK
 62
               0
  5
6B
  2
*D5
 70
               1
 10
0.0
 20
0.0
 30
0.0
  3
*D5
  0
LINE
  8
0
  6
CONTINUOUS
 62
             110
  5
6C
 10
98.0
 20
32.0
 30
0.0
 11
128.0
 21
32.0
 31
0.0
  0
LINE
  8
0
  6
CONTINUOUS
 62
             110
  5
6D
 10
98.0
 20
20.0
 30
0.0
 11
98.0
 21
34.285999298095703
 31
0.0
  0
LINE
  8
0
  6
CONTINUOUS
 62
             110
  5
6E
 10
128.0
 20
20.0
 30
0.0
 11
128.0
 21
34.285999298095703
 31
0.0
  0
INSERT
  8
0
  6
CONTINUOUS
 62
             110
  5
6F
  2
_OPEN30
 10
98.0
 20
32.0
 30
0.0
 41
2.77
 42
2.77
 50
180.0
 43
2.77
  0
INSERT
  8
0
  6
CONTINUOUS
 62
             110
  5
70
  2
_OPEN30
 10
128.0
 20
32.0
 30
0.0
 41
2.77
 42
2.77
 43
2.77
  0
TEXT
  8
0
  6
CONTINUOUS
 62
             110
  5
71
 10
110.30666665236156
 20
33.0
 30
0.0
 40
3.2000000476837158
  1
30
  7
MX_DIMTXSTY_2
 11
110.30666665236156
 21
34.600000023841858
 31
0.0
 73
               2
  0
POINT
  8
DEFPOINTS
  6
CONTINUOUS
 62
               0
  5
72
 10
98.0
 20
18.0
 30
0.0
  0
POINT
  8
DEFPOINTS
  6
CONTINUOUS
 62
               0
  5
73
 10
128.0
 20
18.0
 30
0.0
  0
POINT
  8
DEFPOINTS
  6
CONTINUOUS
 62
               0
  5
74
 10
128.0
 20
32.0
 30
0.0
  0
ENDBLK
  8
0
  6
BYBLOCK
 62
               0
  5
75
  0
BLOCK
  8
0
  6
BYBLOCK
 62
               0
  5
78
  2
*D6
 70
               1
 10
0.0
 20
0.0
 30
0.0
  3
*D6
  0
LINE
  8
0
  6
CONTINUOUS
 62
             110
  5
79
 10
50.0
 20
32.0
 30
0.0
 11
80.0
 21
32.0
 31
0.0
  0
LINE
  8
0
  6
CONTINUOUS
 62
             110
  5
7A
 10
50.0
 20
17.0
 30
0.0
 11
50.0
 21
34.285999298095703
 31
0.0
  0
LINE
  8
0
  6
CONTINUOUS
 62
             110
  5
7B
 10
80.0
 20
17.0
 30
0.0
 11
80.0
 21
34.285999298095703
 31
0.0
  0
INSERT
  8
0
  6
CONTINUOUS
 62
             110
  5
7C
  2
_OPEN30
 10
50.0
 20
32.0
 30
0.0
 41
2.77
 42
2.77
 50
180.0
 43
2.77
  0
INSERT
  8
0
  6
CONTINUOUS
 62
             110
  5
7D
  2
_OPEN30
 10
80.0
 20
32.0
 30
0.0
 41
2.77
 42
2.77
 43
2.77
  0
TEXT
  8
0
  6
CONTINUOUS
 62
             110
  5
7E
 10
62.30666665236155
 20
33.0
 30
0.0
 40
3.2000000476837158
  1
30
  7
MX_DIMTXSTY_2
 11
62.30666665236155
 21
34.600000023841858
 31
0.0
 73
               2
  0
POINT
  8
DEFPOINTS
  6
CONTINUOUS
 62
               0
  5
7F
 10
50.0
 20
15.0
 30
0.0
  0
POINT
  8
DEFPOINTS
  6
CONTINUOUS
 62
               0
  5
80
 10
80.0
 20
15.0
 30
0.0
  0
POINT
  8
DEFPOINTS
  6
CONTINUOUS
 62
               0
  5
81
 10
80.0
 20
32.0
 30
0.0
  0
ENDBLK
  8
0
  6
BYBLOCK
 62
               0
  5
82
  0
BLOCK
  8
0
  6
BYBLOCK
 62
               0
  5
85
  2
*D7
 70
               1
 10
0.0
 20
0.0
 30
0.0
  3
*D7
  0
LINE
  8
0
  6
CONTINUOUS
 62
             110
  5
86
 10
0.0
 20
24.0
 30
0.0
 11
30.0
 21
24.0
 31
0.0
  0
LINE
  8
0
  6
CONTINUOUS
 62
             110
  5
87
 10
0.0000000000000001
 20
13.0
 30
0.0
 11
0.0
 21
26.285999298095703
 31
0.0
  0
LINE
  8
0
  6
CONTINUOUS
 62
             110
  5
88
 10
30.0
 20
13.0
 30
0.0
 11
30.0
 21
26.285999298095703
 31
0.0
  0
INSERT
  8
0
  6
CONTINUOUS
 62
             110
  5
89
  2
_OPEN30
 10
0.0
 20
24.0
 30
0.0
 41
2.77
 42
2.77
 50
180.0
 43
2.77
  0
INSERT
  8
0
  6
CONTINUOUS
 62
             110
  5
8A
  2
_OPEN30
 10
30.0
 20
24.0
 30
0.0
 41
2.77
 42
2.77
 43
2.77
  0
TEXT
  8
0
  6
CONTINUOUS
 62
             110
  5
8B
 10
12.306666652361551
 20
25.0
 30
0.0
 40
3.2000000476837158
  1
30
  7
MX_DIMTXSTY_2
 11
12.306666652361551
 21
26.600000023841858
 31
0.0
 73
               2
  0
POINT
  8
DEFPOINTS
  6
CONTINUOUS
 62
               0
  5
8C
 10
0.0
 20
11.0
 30
0.0
  0
POINT
  8
DEFPOINTS
  6
CONTINUOUS
 62
               0
  5
8D
 10
30.0
 20
11.0
 30
0.0
  0
POINT
  8
DEFPOINTS
  6
CONTINUOUS
 62
               0
  5
8E
 10
30.0
 20
24.0
 30
0.0
  0
ENDBLK
  8
0
  6
BYBLOCK
 62
               0
  5
8F
  0
BLOCK
  8
0
  6
BYBLOCK
 62
               0
  5
92
  2
*D8
 70
               1
 10
0.0
 20
0.0
 30
0.0
  3
*D8
  0
LINE
  8
0
  6
CONTINUOUS
 62
             110
  5
93
 10
310.0
 20
35.0
 30
0.0
 11
310.0
 21
-35.0
 31
0.0
  0
INSERT
  8
0
  6
CONTINUOUS
 62
             110
  5
94
  2
_OPEN30
 10
310.0
 20
35.0
 30
0.0
 41
2.77
 42
2.77
 50
90.0
 43
2.77
  0
INSERT
  8
0
  6
CONTINUOUS
 62
             110
  5
95
  2
_OPEN30
 10
310.0
 20
-35.0
 30
0.0
 41
2.77
 42
2.77
 50
270.0
 43
2.77
  0
TEXT
  8
0
  6
CONTINUOUS
 62
             110
  5
96
 10
309.0
 20
-4.2285714944203692
 30
0.0
 40
3.2000000476837158
  1
%%c70
 50
90.000000000000014
  7
MX_NOTE_STANDARD
 11
307.39999997615814
 21
-4.2285714944203692
 31
0.0
 73
               2
  0
POINT
  8
DEFPOINTS
  6
CONTINUOUS
 62
               0
  5
97
 10
305.0
 20
35.0
 30
0.0
  0
POINT
  8
DEFPOINTS
  6
CONTINUOUS
 62
               0
  5
98
 10
305.0
 20
-35.0
 30
0.0
  0
POINT
  8
DEFPOINTS
  6
CONTINUOUS
 62
               0
  5
99
 10
310.0
 20
-35.0
 30
0.0
  0
ENDBLK
  8
0
  6
BYBLOCK
 62
               0
  5
9A
  0
BLOCK
  8
0
  6
BYBLOCK
 62
               0
  5
9D
  2
*D9
 70
               1
 10
0.0
 20
0.0
 30
0.0
  3
*D9
  0
LINE
  8
0
  6
CONTINUOUS
 62
             110
  5
9E
 10
318.0
 20
-47.0
 30
0.0
 11
318.0
 21
47.0
 31
0.0
  0
INSERT
  8
0
  6
CONTINUOUS
 62
             110
  5
9F
  2
_OPEN30
 10
318.0
 20
-47.0
 30
0.0
 41
2.77
 42
2.77
 50
270.0
 43
2.77
  0
INSERT
  8
0
  6
CONTINUOUS
 62
             110
  5
A0
  2
_OPEN30
 10
318.0
 20
47.0
 30
0.0
 41
2.77
 42
2.77
 50
90.0
 43
2.77
  0
TEXT
  8
0
  6
CONTINUOUS
 62
             110
  5
A1
 10
317.0
 20
-4.4952381451924639
 30
0.0
 40
3.2000000476837158
  1
%%c94
 50
90.0
  7
MX_NOTE_STANDARD
 11
315.39999997615814
 21
-4.4952381451924639
 31
0.0
 73
               2
  0
POINT
  8
DEFPOINTS
  6
CONTINUOUS
 62
               0
  5
A2
 10
328.0
 20
-47.0
 30
0.0
  0
POINT
  8
DEFPOINTS
  6
CONTINUOUS
 62
               0
  5
A3
 10
328.0
 20
47.0
 30
0.0
  0
POINT
  8
DEFPOINTS
  6
CONTINUOUS
 62
               0
  5
A4
 10
318.0
 20
47.0
 30
0.0
  0
ENDBLK
  8
0
  6
BYBLOCK
 62
               0
  5
A5
  0
BLOCK
  8
0
  6
BYBLOCK
 62
               0
  5
A8
  2
*D10
 70
               1
 10
0.0
 20
0.0
 30
0.0
  3
*D10
  0
LINE
  8
0
  6
CONTINUOUS
 62
             110
  5
A9
 10
260.0
 20
30.0
 30
0.0
 11
260.0
 21
-30.0
 31
0.0
  0
INSERT
  8
0
  6
CONTINUOUS
 62
             110
  5
AA
  2
_OPEN30
 10
260.0
 20
30.0
 30
0.0
 41
2.77
 42
2.77
 50
90.0
 43
2.77
  0
INSERT
  8
0
  6
CONTINUOUS
 62
             110
  5
AB
  2
_OPEN30
 10
260.0
 20
-30.0
 30
0.0
 41
2.77
 42
2.77
 50
270.0
 43
2.77
  0
TEXT
  8
0
  6
CONTINUOUS
 62
             110
  5
AC
 10
259.0
 20
-4.2285714944203692
 30
0.0
 40
3.2000000476837158
  1
%%c60
 50
90.000000000000014
  7
MX_NOTE_STANDARD
 11
257.39999997615814
 21
-4.2285714944203692
 31
0.0
 73
               2
  0
POINT
  8
DEFPOINTS
  6
CONTINUOUS
 62
               0
  5
AD
 10
255.0
 20
30.0
 30
0.0
  0
POINT
  8
DEFPOINTS
  6
CONTINUOUS
 62
               0
  5
AE
 10
255.0
 20
-30.0
 30
0.0
  0
POINT
  8
DEFPOINTS
  6
CONTINUOUS
 62
               0
  5
AF
 10
260.0
 20
-30.0
 30
0.0
  0
ENDBLK
  8
0
  6
BYBLOCK
 62
               0
  5
B0
  0
BLOCK
  8
0
  6
BYBLOCK
 62
               0
  5
B3
  2
*D11
 70
               1
 10
0.0
 20
0.0
 30
0.0
  3
*D11
  0
LINE
  8
0
  6
CONTINUOUS
 62
             110
  5
B4
 10
268.0
 20
-45.0
 30
0.0
 11
268.0
 21
45.0
 31
0.0
  0
INSERT
  8
0
  6
CONTINUOUS
 62
             110
  5
B5
  2
_OPEN30
 10
268.0
 20
-45.0
 30
0.0
 41
2.77
 42
2.77
 50
270.0
 43
2.77
  0
INSERT
  8
0
  6
CONTINUOUS
 62
             110
  5
B6
  2
_OPEN30
 10
268.0
 20
45.0
 30
0.0
 41
2.77
 42
2.77
 50
90.0
 43
2.77
  0
TEXT
  8
0
  6
CONTINUOUS
 62
             110
  5
B7
 10
267.0
 20
-4.2285714944203692
 30
0.0
 40
3.2000000476837158
  1
%%c90
 50
90.0
  7
MX_NOTE_STANDARD
 11
265.39999997615814
 21
-4.2285714944203692
 31
0.0
 73
               2
  0
POINT
  8
DEFPOINTS
  6
CONTINUOUS
 62
               0
  5
B8
 10
278.0
 20
-45.0
 30
0.0
  0
POINT
  8
DEFPOINTS
  6
CONTINUOUS
 62
               0
  5
B9
 10
278.0
 20
45.0
 30
0.0
  0
POINT
  8
DEFPOINTS
  6
CONTINUOUS
 62
               0
  5
BA
 10
268.0
 20
45.0
 30
0.0
  0
ENDBLK
  8
0
  6
BYBLOCK
 62
               0
  5
BB
  0
BLOCK
  8
0
  6
BYBLOCK
 62
               0
  5
BE
  2
*D12
 70
               1
 10
0.0
 20
0.0
 30
0.0
  3
*D12
  0
LINE
  8
0
  6
CONTINUOUS
 62
             110
  5
BF
 10
210.0
 20
25.0
 30
0.0
 11
210.0
 21
-25.0
 31
0.0
  0
INSERT
  8
0
  6
CONTINUOUS
 62
             110
  5
C0
  2
_OPEN30
 10
210.0
 20
25.0
 30
0.0
 41
2.77
 42
2.77
 50
90.0
 43
2.77
  0
INSERT
  8
0
  6
CONTINUOUS
 62
             110
  5
C1
  2
_OPEN30
 10
210.0
 20
-25.0
 30
0.0
 41
2.77
 42
2.77
 50
270.0
 43
2.77
  0
TEXT
  8
0
  6
CONTINUOUS
 62
             110
  5
C2
 10
209.0
 20
-4.2285714944203692
 30
0.0
 40
3.2000000476837158
  1
%%c50
 50
90.000000000000014
  7
MX_NOTE_STANDARD
 11
207.39999997615814
 21
-4.2285714944203692
 31
0.0
 73
               2
  0
POINT
  8
DEFPOINTS
  6
CONTINUOUS
 62
               0
  5
C3
 10
205.0
 20
25.0
 30
0.0
  0
POINT
  8
DEFPOINTS
  6
CONTINUOUS
 62
               0
  5
C4
 10
205.0
 20
-25.0
 30
0.0
  0
POINT
  8
DEFPOINTS
  6
CONTINUOUS
 62
               0
  5
C5
 10
210.0
 20
-25.0
 30
0.0
  0
ENDBLK
  8
0
  6
BYBLOCK
 62
               0
  5
C6
  0
BLOCK
  8
0
  6
BYBLOCK
 62
               0
  5
C9
  2
*D13
 70
               1
 10
0.0
 20
0.0
 30
0.0
  3
*D13
  0
LINE
  8
0
  6
CONTINUOUS
 62
             110
  5
CA
 10
218.0
 20
-35.0
 30
0.0
 11
218.0
 21
35.0
 31
0.0
  0
INSERT
  8
0
  6
CONTINUOUS
 62
             110
  5
CB
  2
_OPEN30
 10
218.0
 20
-35.0
 30
0.0
 41
2.77
 42
2.77
 50
270.0
 43
2.77
  0
INSERT
  8
0
  6
CONTINUOUS
 62
             110
  5
CC
  2
_OPEN30
 10
218.0
 20
35.0
 30
0.0
 41
2.77
 42
2.77
 50
90.0
 43
2.77
  0
TEXT
  8
0
  6
CONTINUOUS
 62
             110
  5
CD
 10
217.0
 20
-4.2285714944203692
 30
0.0
 40
3.2000000476837158
  1
%%c70
 50
90.0
  7
MX_NOTE_STANDARD
 11
215.39999997615814
 21
-4.2285714944203692
 31
0.0
 73
               2
  0
POINT
  8
DEFPOINTS
  6
CONTINUOUS
 62
               0
  5
CE
 10
228.0
 20
-35.0
 30
0.0
  0
POINT
  8
DEFPOINTS
  6
CONTINUOUS
 62
               0
  5
CF
 10
228.0
 20
35.0
 30
0.0
  0
POINT
  8
DEFPOINTS
  6
CONTINUOUS
 62
               0
  5
D0
 10
218.0
 20
35.0
 30
0.0
  0
ENDBLK
  8
0
  6
BYBLOCK
 62
               0
  5
D1
  0
BLOCK
  8
0
  6
BYBLOCK
 62
               0
  5
D4
  2
*D14
 70
               1
 10
0.0
 20
0.0
 30
0.0
  3
*D14
  0
LINE
  8
0
  6
CONTINUOUS
 62
             110
  5
D5
 10
160.0
 20
18.0
 30
0.0
 11
160.0
 21
-18.0
 31
0.0
  0
INSERT
  8
0
  6
CONTINUOUS
 62
             110
  5
D6
  2
_OPEN30
 10
160.0
 20
18.0
 30
0.0
 41
2.77
 42
2.77
 50
90.0
 43
2.77
  0
INSERT
  8
0
  6
CONTINUOUS
 62
             110
  5
D7
  2
_OPEN30
 10
160.0
 20
-18.0
 30
0.0
 41
2.77
 42
2.77
 50
270.0
 43
2.77
  0
TEXT
  8
0
  6
CONTINUOUS
 62
             110
  5
D8
 10
159.0
 20
-4.4952381451924639
 30
0.0
 40
3.2000000476837158
  1
%%c36
 50
90.000000000000014
  7
MX_NOTE_STANDARD
 11
157.39999997615814
 21
-4.4952381451924639
 31
0.0
 73
               2
  0
POINT
  8
DEFPOINTS
  6
CONTINUOUS
 62
               0
  5
D9
 10
155.0
 20
18.0
 30
0.0
  0
POINT
  8
DEFPOINTS
  6
CONTINUOUS
 62
               0
  5
DA
 10
155.0
 20
-18.0
 30
0.0
  0
POINT
  8
DEFPOINTS
  6
CONTINUOUS
 62
               0
  5
DB
 10
160.0
 20
-18.0
 30
0.0
  0
ENDBLK
  8
0
  6
BYBLOCK
 62
               0
  5
DC
  0
BLOCK
  8
0
  6
BYBLOCK
 62
               0
  5
DF
  2
*D15
 70
               1
 10
0.0
 20
0.0
 30
0.0
  3
*D15
  0
LINE
  8
0
  6
CONTINUOUS
 62
             110
  5
E0
 10
168.0
 20
-25.5
 30
0.0
 11
168.0
 21
25.5
 31
0.0
  0
INSERT
  8
0
  6
CONTINUOUS
 62
             110
  5
E1
  2
_OPEN30
 10
168.0
 20
-25.5
 30
0.0
 41
2.77
 42
2.77
 50
270.0
 43
2.77
  0
INSERT
  8
0
  6
CONTINUOUS
 62
             110
  5
E2
  2
_OPEN30
 10
168.0
 20
25.5
 30
0.0
 41
2.77
 42
2.77
 50
90.0
 43
2.77
  0
TEXT
  8
0
  6
CONTINUOUS
 62
             110
  5
E4
 10
167.0
 20
-4.1866668065388994
 30
0.0
 40
3.2000000476837158
  1
%%c51
 50
90.0
  7
MX_DIMTXSTY_3
 11
165.39999997615814
 21
-4.1866668065388994
 31
0.0
 73
               2
  0
POINT
  8
DEFPOINTS
  6
CONTINUOUS
 62
               0
  5
E5
 10
178.0
 20
-25.5
 30
0.0
  0
POINT
  8
DEFPOINTS
  6
CONTINUOUS
 62
               0
  5
E6
 10
178.0
 20
25.5
 30
0.0
  0
POINT
  8
DEFPOINTS
  6
CONTINUOUS
 62
               0
  5
E7
 10
168.0
 20
25.5
 30
0.0
  0
ENDBLK
  8
0
  6
BYBLOCK
 62
               0
  5
E8
  0
BLOCK
  8
0
  6
BYBLOCK
 62
               0
  5
EB
  2
*D16
 70
               1
 10
0.0
 20
0.0
 30
0.0
  3
*D16
  0
LINE
  8
0
  6
CONTINUOUS
 62
             110
  5
EC
 10
110.0
 20
-11.0
 30
0.0
 11
110.0
 21
11.0
 31
0.0
  0
INSERT
  8
0
  6
CONTINUOUS
 62
             110
  5
ED
  2
_OPEN30
 10
110.0
 20
-11.0
 30
0.0
 41
2.77
 42
2.77
 50
270.0
 43
2.77
  0
INSERT
  8
0
  6
CONTINUOUS
 62
             110
  5
EE
  2
_OPEN30
 10
110.0
 20
11.0
 30
0.0
 41
2.77
 42
2.77
 50
90.0
 43
2.77
  0
TEXT
  8
0
  6
CONTINUOUS
 62
             110
  5
EF
 10
109.0
 20
-4.4952381451924639
 30
0.0
 40
3.2000000476837158
  1
%%c22
 50
90.0
  7
MX_NOTE_STANDARD
 11
107.39999997615814
 21
-4.4952381451924639
 31
0.0
 73
               2
  0
POINT
  8
DEFPOINTS
  6
CONTINUOUS
 62
               0
  5
F0
 10
121.0
 20
-11.0
 30
0.0
  0
POINT
  8
DEFPOINTS
  6
CONTINUOUS
 62
               0
  5
F1
 10
121.0
 20
11.0
 30
0.0
  0
POINT
  8
DEFPOINTS
  6
CONTINUOUS
 62
               0
  5
F2
 10
110.0
 20
11.0
 30
0.0
  0
ENDBLK
  8
0
  6
BYBLOCK
 62
               0
  5
F3
  0
BLOCK
  8
0
  6
BYBLOCK
 62
               0
  5
F6
  2
*D17
 70
               1
 10
0.0
 20
0.0
 30
0.0
  3
*D17
  0
LINE
  8
0
  6
CONTINUOUS
 62
             110
  5
F7
 10
118.0
 20
-18.0
 30
0.0
 11
118.0
 21
18.0
 31
0.0
  0
INSERT
  8
0
  6
CONTINUOUS
 62
             110
  5
F8
  2
_OPEN30
 10
118.0
 20
-18.0
 30
0.0
 41
2.77
 42
2.77
 50
270.0
 43
2.77
  0
INSERT
  8
0
  6
CONTINUOUS
 62
             110
  5
F9
  2
_OPEN30
 10
118.0
 20
18.0
 30
0.0
 41
2.77
 42
2.77
 50
90.0
 43
2.77
  0
TEXT
  8
0
  6
CONTINUOUS
 62
             110
  5
FA
 10
117.0
 20
-4.4952381451924639
 30
0.0
 40
3.2000000476837158
  1
%%c36
 50
90.0
  7
MX_NOTE_STANDARD
 11
115.39999997615814
 21
-4.4952381451924639
 31
0.0
 73
               2
  0
POINT
  8
DEFPOINTS
  6
CONTINUOUS
 62
               0
  5
FB
 10
120.0
 20
-18.0
 30
0.0
  0
POINT
  8
DEFPOINTS
  6
CONTINUOUS
 62
               0
  5
FC
 10
120.0
 20
18.0
 30
0.0
  0
POINT
  8
DEFPOINTS
  6
CONTINUOUS
 62
               0
  5
FD
 10
118.0
 20
18.0
 30
0.0
  0
ENDBLK
  8
0
  6
BYBLOCK
 62
               0
  5
FE
  0
BLOCK
  8
0
  6
BYBLOCK
 62
               0
  5
101
  2
*D18
 70
               1
 10
0.0
 20
0.0
 30
0.0
  3
*D18
  0
LINE
  8
0
  6
CONTINUOUS
 62
             110
  5
102
 10
63.0
 20
8.5
 30
0.0
 11
63.0
 21
-8.5
 31
0.0
  0
INSERT
  8
0
  6
CONTINUOUS
 62
             110
  5
103
  2
_OPEN30
 10
63.0
 20
8.5
 30
0.0
 41
2.77
 42
2.77
 50
90.0
 43
2.77
  0
INSERT
  8
0
  6
CONTINUOUS
 62
             110
  5
104
  2
_OPEN30
 10
63.0
 20
-8.5
 30
0.0
 41
2.77
 42
2.77
 50
270.0
 43
2.77
  0
TEXT
  8
0
  6
CONTINUOUS
 62
             110
  5
105
 10
62.0
 20
-4.1866668065388994
 30
0.0
 40
3.2000000476837158
  1
%%c17
 50
90.000000000000014
  7
MX_DIMTXSTY_3
 11
60.399999976158142
 21
-4.1866668065388994
 31
0.0
 73
               2
  0
POINT
  8
DEFPOINTS
  6
CONTINUOUS
 62
               0
  5
106
 10
58.0
 20
8.5
 30
0.0
  0
POINT
  8
DEFPOINTS
  6
CONTINUOUS
 62
               0
  5
107
 10
58.0
 20
-8.5
 30
0.0
  0
POINT
  8
DEFPOINTS
  6
CONTINUOUS
 62
               0
  5
108
 10
63.0
 20
-8.5
 30
0.0
  0
ENDBLK
  8
0
  6
BYBLOCK
 62
               0
  5
109
  0
BLOCK
  8
0
  6
BYBLOCK
 62
               0
  5
10C
  2
*D19
 70
               1
 10
0.0
 20
0.0
 30
0.0
  3
*D19
  0
LINE
  8
0
  6
CONTINUOUS
 62
             110
  5
10D
 10
71.0
 20
-15.0
 30
0.0
 11
71.0
 21
15.0
 31
0.0
  0
INSERT
  8
0
  6
CONTINUOUS
 62
             110
  5
10E
  2
_OPEN30
 10
71.0
 20
-15.0
 30
0.0
 41
2.77
 42
2.77
 50
270.0
 43
2.77
  0
INSERT
  8
0
  6
CONTINUOUS
 62
             110
  5
10F
  2
_OPEN30
 10
71.0
 20
15.0
 30
0.0
 41
2.77
 42
2.77
 50
90.0
 43
2.77
  0
TEXT
  8
0
  6
CONTINUOUS
 62
             110
  5
110
 10
70.0
 20
-4.2285714944203692
 30
0.0
 40
3.2000000476837158
  1
%%c30
 50
90.0
  7
MX_NOTE_STANDARD
 11
68.399999976158142
 21
-4.2285714944203692
 31
0.0
 73
               2
  0
POINT
  8
DEFPOINTS
  6
CONTINUOUS
 62
               0
  5
111
 10
81.0
 20
-15.0
 30
0.0
  0
POINT
  8
DEFPOINTS
  6
CONTINUOUS
 62
               0
  5
112
 10
81.0
 20
15.0
 30
0.0
  0
POINT
  8
DEFPOINTS
  6
CONTINUOUS
 62
               0
  5
113
 10
71.0
 20
15.0
 30
0.0
  0
ENDBLK
  8
0
  6
BYBLOCK
 62
               0
  5
114
  0
BLOCK
  8
0
  6
BYBLOCK
 62
               0
  5
117
  2
*D20
 70
               1
 10
0.0
 20
0.0
 30
0.0
  3
*D20
  0
LINE
  8
0
  6
CONTINUOUS
 62
             110
  5
118
 10
18.0
 20
-11.0
 30
0.0
 11
18.0
 21
11.0
 31
0.0
  0
INSERT
  8
0
  6
CONTINUOUS
 62
             110
  5
119
  2
_OPEN30
 10
18.0
 20
-11.0
 30
0.0
 41
2.77
 42
2.77
 50
270.0
 43
2.77
  0
INSERT
  8
0
  6
CONTINUOUS
 62
             110
  5
11A
  2
_OPEN30
 10
18.0
 20
11.0
 30
0.0
 41
2.77
 42
2.77
 50
90.0
 43
2.77
  0
TEXT
  8
0
  6
CONTINUOUS
 62
             110
  5
11B
 10
17.0
 20
-2.6666667064030962
 30
0.0
 40
3.2000000476837158
  1
22
 50
90.0
  7
MX_NOTE_STANDARD
 11
15.399999976158142
 21
-2.6666667064030962
 31
0.0
 73
               2
  0
POINT
  8
DEFPOINTS
  6
CONTINUOUS
 62
               0
  5
11C
 10
24.0
 20
-11.0
 30
0.0
  0
POINT
  8
DEFPOINTS
  6
CONTINUOUS
 62
               0
  5
11D
 10
24.0
 20
11.0
 30
0.0
  0
POINT
  8
DEFPOINTS
  6
CONTINUOUS
 62
               0
  5
11E
 10
18.0
 20
11.0
 30
0.0
  0
ENDBLK
  8
0
  6
BYBLOCK
 62
               0
  5
11F
  0
BLOCK
  8
0
  6
BYBLOCK
 62
               0
  5
122
  2
*D21
 70
               1
 10
0.0
 20
0.0
 30
0.0
  3
*D21
  0
LINE
  8
0
  6
CONTINUOUS
 62
             110
  5
123
 10
10.0
 20
4.0
 30
0.0
 11
10.0
 21
-4.0
 31
0.0
  0
LINE
  8
0
  6
CONTINUOUS
 62
             110
  5
124
 10
10.0
 20
4.0
 30
0.0
 11
10.0
 21
8.0
 31
0.0
  0
LINE
  8
0
  6
CONTINUOUS
 62
             110
  5
125
 10
10.0
 20
-4.0
 30
0.0
 11
10.0
 21
-8.0
 31
0.0
  0
INSERT
  8
0
  6
CONTINUOUS
 62
             110
  5
126
  2
_OPEN30
 10
10.0
 20
4.0
 30
0.0
 41
2.77
 42
2.77
 50
270.0
 43
2.77
  0
INSERT
  8
0
  6
CONTINUOUS
 62
             110
  5
127
  2
_OPEN30
 10
10.0
 20
-4.0
 30
0.0
 41
2.77
 42
2.77
 50
90.0
 43
2.77
  0
TEXT
  8
0
  6
CONTINUOUS
 62
             110
  5
128
 10
9.0
 20
-1.0920683801488325
 30
0.0
 40
3.2000000476837158
  1
8
 50
90.000000000000014
 41
0.9523718177329771
  7
MX_NOTE_STANDARD
 11
7.3999999761581421
 21
-1.0920683801488327
 31
0.0
 73
               2
  0
POINT
  8
DEFPOINTS
  6
CONTINUOUS
 62
               0
  5
129
 10
1.0
 20
4.0
 30
0.0
  0
POINT
  8
DEFPOINTS
  6
CONTINUOUS
 62
               0
  5
12A
 10
1.0
 20
-4.0
 30
0.0
  0
POINT
  8
DEFPOINTS
  6
CONTINUOUS
 62
               0
  5
12B
 10
10.0
 20
-4.0
 30
0.0
  0
ENDBLK
  8
0
  6
BYBLOCK
 62
               0
  5
12C
  0
BLOCK
  8
0
  6
BYBLOCK
 62
               0
  5
172
  2
*D22
 70
               1
 10
0.0
 20
0.0
 30
0.0
  3
*D22
  0
LINE
  8
0
  6
CONTINUOUS
 62
             110
  5
173
 10
60.0
 20
-128.0
 30
0.0
 11
100.0
 21
-128.0
 31
0.0
  0
LINE
  8
0
  6
CONTINUOUS
 62
             110
  5
174
 10
60.0
 20
-138.0
 30
0.0
 11
60.0
 21
-125.7140007019043
 31
0.0
  0
LINE
  8
0
  6
CONTINUOUS
 62
             110
  5
175
 10
100.0
 20
-138.0
 30
0.0
 11
100.0
 21
-125.7140007019043
 31
0.0
  0
INSERT
  8
0
  6
CONTINUOUS
 62
             110
  5
176
  2
_OPEN30
 10
60.0
 20
-128.0
 30
0.0
 41
2.77
 42
2.77
 50
180.0
 43
2.77
  0
INSERT
  8
0
  6
CONTINUOUS
 62
             110
  5
177
  2
_OPEN30
 10
100.0
 20
-128.0
 30
0.0
 41
2.77
 42
2.77
 43
2.77
  0
TEXT
  8
0
  6
CONTINUOUS
 62
             110
  5
178
 10
77.306666652361557
 20
-127.0
 30
0.0
 40
3.2000000476837158
  1
40
  7
MX_DIMTXSTY_2
 11
77.306666652361557
 21
-125.39999997615814
 31
0.0
 73
               2
  0
POINT
  8
DEFPOINTS
  6
CONTINUOUS
 62
               0
  5
179
 10
60.0
 20
-140.0
 30
0.0
  0
POINT
  8
DEFPOINTS
  6
CONTINUOUS
 62
               0
  5
17A
 10
100.0
 20
-140.0
 30
0.0
  0
POINT
  8
DEFPOINTS
  6
CONTINUOUS
 62
               0
  5
17B
 10
100.0
 20
-128.0
 30
0.0
  0
ENDBLK
  8
0
  6
BYBLOCK
 62
               0
  5
17C
  0
BLOCK
  8
0
  6
BYBLOCK
 62
               0
  5
17F
  2
*D23
 70
               1
 10
0.0
 20
0.0
 30
0.0
  3
*D23
  0
LINE
  8
0
  6
CONTINUOUS
 62
             110
  5
180
 10
80.0
 20
-155.0
 30
0.0
 11
80.0
 21
-245.0
 31
0.0
  0
INSERT
  8
0
  6
CONTINUOUS
 62
             110
  5
181
  2
_OPEN30
 10
80.0
 20
-155.0
 30
0.0
 41
2.77
 42
2.77
 50
90.0
 43
2.77
  0
INSERT
  8
0
  6
CONTINUOUS
 62
             110
  5
182
  2
_OPEN30
 10
80.0
 20
-245.0
 30
0.0
 41
2.77
 42
2.77
 50
270.0
 43
2.77
  0
TEXT
  8
0
  6
CONTINUOUS
 62
             110
  5
183
 10
79.0
 20
-204.22857149442038
 30
0.0
 40
3.2000000476837158
  1
%%c90
 50
90.000000000000014
  7
MX_NOTE_STANDARD
 11
77.399999976158142
 21
-204.22857149442038
 31
0.0
 73
               2
  0
POINT
  8
DEFPOINTS
  6
CONTINUOUS
 62
               0
  5
184
 10
63.0
 20
-155.0
 30
0.0
  0
POINT
  8
DEFPOINTS
  6
CONTINUOUS
 62
               0
  5
185
 10
63.0
 20
-245.0
 30
0.0
  0
POINT
  8
DEFPOINTS
  6
CONTINUOUS
 62
               0
  5
186
 10
80.0
 20
-245.0
 30
0.0
  0
ENDBLK
  8
0
  6
BYBLOCK
 62
               0
  5
187
  0
BLOCK
  8
0
  6
BYBLOCK
 62
               0
  5
18A
  2
*D24
 70
               1
 10
0.0
 20
0.0
 30
0.0
  3
*D24
  0
LINE
  8
0
  6
CONTINUOUS
 62
             110
  5
18B
 10
90.0
 20
-260.0
 30
0.0
 11
90.0
 21
-140.0
 31
0.0
  0
INSERT
  8
0
  6
CONTINUOUS
 62
             110
  5
18C
  2
_OPEN30
 10
90.0
 20
-260.0
 30
0.0
 41
2.77
 42
2.77
 50
270.0
 43
2.77
  0
INSERT
  8
0
  6
CONTINUOUS
 62
             110
  5
18D
  2
_OPEN30
 10
90.0
 20
-140.0
 30
0.0
 41
2.77
 42
2.77
 50
90.0
 43
2.77
  0
TEXT
  8
0
  6
CONTINUOUS
 62
             110
  5
18E
 10
89.0
 20
-205.87809558709463
 30
0.0
 40
3.2000000476837158
  1
%%c120
 50
90.0
  7
MX_DIMTXSTY_2
 11
87.399999976158142
 21
-205.87809558709463
 31
0.0
 73
               2
  0
POINT
  8
DEFPOINTS
  6
CONTINUOUS
 62
               0
  5
18F
 10
96.0
 20
-260.0
 30
0.0
  0
POINT
  8
DEFPOINTS
  6
CONTINUOUS
 62
               0
  5
190
 10
96.0
 20
-140.0
 30
0.0
  0
POINT
  8
DEFPOINTS
  6
CONTINUOUS
 62
               0
  5
191
 10
90.0
 20
-140.0
 30
0.0
  0
ENDBLK
  8
0
  6
BYBLOCK
 62
               0
  5
192
  0
BLOCK
  8
0
  6
BYBLOCK
 62
               0
  5
195
  2
*D25
 70
               1
 10
0.0
 20
0.0
 30
0.0
  3
*D25
  0
LINE
  8
0
  6
CONTINUOUS
 62
             110
  5
196
 10
270.0
 20
-80.0
 30
0.0
 11
310.0
 21
-80.0
 31
0.0
  0
LINE
  8
0
  6
CONTINUOUS
 62
             110
  5
197
 10
270.0
 20
-93.0
 30
0.0
 11
270.0
 21
-77.714000701904297
 31
0.0
  0
LINE
  8
0
  6
CONTINUOUS
 62
             110
  5
198
 10
310.0
 20
-93.0
 30
0.0
 11
310.0
 21
-77.714000701904297
 31
0.0
  0
INSERT
  8
0
  6
CONTINUOUS
 62
             110
  5
199
  2
_OPEN30
 10
270.0
 20
-80.0
 30
0.0
 41
2.77
 42
2.77
 50
180.0
 43
2.77
  0
INSERT
  8
0
  6
CONTINUOUS
 62
             110
  5
19A
  2
_OPEN30
 10
310.0
 20
-80.0
 30
0.0
 41
2.77
 42
2.77
 43
2.77
  0
TEXT
  8
0
  6
CONTINUOUS
 62
             110
  5
19B
 10
287.30666665236157
 20
-79.0
 30
0.0
 40
3.2000000476837158
  1
40
  7
MX_DIMTXSTY_2
 11
287.30666665236157
 21
-77.399999976158142
 31
0.0
 73
               2
  0
POINT
  8
DEFPOINTS
  6
CONTINUOUS
 62
               0
  5
19C
 10
270.0
 20
-95.0
 30
0.0
  0
POINT
  8
DEFPOINTS
  6
CONTINUOUS
 62
               0
  5
19D
 10
310.0
 20
-95.0
 30
0.0
  0
POINT
  8
DEFPOINTS
  6
CONTINUOUS
 62
               0
  5
19E
 10
310.0
 20
-80.0
 30
0.0
  0
ENDBLK
  8
0
  6
BYBLOCK
 62
               0
  5
19F
  0
BLOCK
  8
0
  6
BYBLOCK
 62
               0
  5
1A2
  2
*D26
 70
               1
 10
0.0
 20
0.0
 30
0.0
  3
*D26
  0
LINE
  8
0
  6
CONTINUOUS
 62
             110
  5
1A3
 10
290.0
 20
-120.0
 30
0.0
 11
290.0
 21
-280.0
 31
0.0
  0
INSERT
  8
0
  6
CONTINUOUS
 62
             110
  5
1A4
  2
_OPEN30
 10
290.0
 20
-120.0
 30
0.0
 41
2.77
 42
2.77
 50
90.0
 43
2.77
  0
INSERT
  8
0
  6
CONTINUOUS
 62
             110
  5
1A5
  2
_OPEN30
 10
290.0
 20
-280.0
 30
0.0
 41
2.77
 42
2.77
 50
270.0
 43
2.77
  0
TEXT
  8
0
  6
CONTINUOUS
 62
             110
  5
1A6
 10
289.0
 20
-205.87809558709463
 30
0.0
 40
3.2000000476837158
  1
%%c160
 50
90.000000000000014
  7
MX_DIMTXSTY_2
 11
287.39999997615814
 21
-205.87809558709463
 31
0.0
 73
               2
  0
POINT
  8
DEFPOINTS
  6
CONTINUOUS
 62
               0
  5
1A7
 10
273.0
 20
-120.0
 30
0.0
  0
POINT
  8
DEFPOINTS
  6
CONTINUOUS
 62
               0
  5
1A8
 10
273.0
 20
-280.0
 30
0.0
  0
POINT
  8
DEFPOINTS
  6
CONTINUOUS
 62
               0
  5
1A9
 10
290.0
 20
-280.0
 30
0.0
  0
ENDBLK
  8
0
  6
BYBLOCK
 62
               0
  5
1AA
  0
BLOCK
  8
0
  6
BYBLOCK
 62
               0
  5
1AD
  2
*D27
 70
               1
 10
0.0
 20
0.0
 30
0.0
  3
*D27
  0
LINE
  8
0
  6
CONTINUOUS
 62
             110
  5
1AE
 10
300.0
 20
-305.0
 30
0.0
 11
300.0
 21
-95.000000000000028
 31
0.0
  0
INSERT
  8
0
  6
CONTINUOUS
 62
             110
  5
1AF
  2
_OPEN30
 10
300.0
 20
-305.0
 30
0.0
 41
2.77
 42
2.77
 50
270.0
 43
2.77
  0
INSERT
  8
0
  6
CONTINUOUS
 62
             110
  5
1B0
  2
_OPEN30
 10
300.0
 20
-95.000000000000028
 30
0.0
 41
2.77
 42
2.77
 50
90.0
 43
2.77
  0
TEXT
  8
0
  6
CONTINUOUS
 62
             110
  5
1B1
 10
299.0
 20
-205.87809558709463
 30
0.0
 40
3.2000000476837158
  1
%%c210
 50
90.0
  7
MX_DIMTXSTY_2
 11
297.39999997615814
 21
-205.87809558709463
 31
0.0
 73
               2
  0
POINT
  8
DEFPOINTS
  6
CONTINUOUS
 62
               0
  5
1B2
 10
306.0
 20
-305.0
 30
0.0
  0
POINT
  8
DEFPOINTS
  6
CONTINUOUS
 62
               0
  5
1B3
 10
306.0
 20
-95.000000000000028
 30
0.0
  0
POINT
  8
DEFPOINTS
  6
CONTINUOUS
 62
               0
  5
1B4
 10
300.0
 20
-95.000000000000028
 30
0.0
  0
ENDBLK
  8
0
  6
BYBLOCK
 62
               0
  5
1B5
  0
BLOCK
  8
0
  6
BYBLOCK
 62
               0
  5
1B8
  2
*D28
 70
               1
 10
0.0
 20
0.0
 30
0.0
  3
*D28
  0
LINE
  8
0
  6
CONTINUOUS
 62
             110
  5
1B9
 10
200.0
 20
-112.0
 30
0.0
 11
240.0
 21
-112.0
 31
0.0
  0
LINE
  8
0
  6
CONTINUOUS
 62
             110
  5
1BA
 10
200.0
 20
-123.0
 30
0.0
 11
200.0
 21
-109.7140007019043
 31
0.0
  0
LINE
  8
0
  6
CONTINUOUS
 62
             110
  5
1BB
 10
240.0
 20
-123.0
 30
0.0
 11
240.0
 21
-109.7140007019043
 31
0.0
  0
INSERT
  8
0
  6
CONTINUOUS
 62
             110
  5
1BC
  2
_OPEN30
 10
200.0
 20
-112.0
 30
0.0
 41
2.77
 42
2.77
 50
180.0
 43
2.77
  0
INSERT
  8
0
  6
CONTINUOUS
 62
             110
  5
1BD
  2
_OPEN30
 10
240.0
 20
-112.0
 30
0.0
 41
2.77
 42
2.77
 43
2.77
  0
TEXT
  8
0
  6
CONTINUOUS
 62
             110
  5
1BE
 10
217.30666665236154
 20
-111.0
 30
0.0
 40
3.2000000476837158
  1
40
  7
MX_DIMTXSTY_2
 11
217.30666665236154
 21
-109.39999997615814
 31
0.0
 73
               2
  0
POINT
  8
DEFPOINTS
  6
CONTINUOUS
 62
               0
  5
1BF
 10
200.0
 20
-125.0
 30
0.0
  0
POINT
  8
DEFPOINTS
  6
CONTINUOUS
 62
               0
  5
1C0
 10
240.0
 20
-125.0
 30
0.0
  0
POINT
  8
DEFPOINTS
  6
CONTINUOUS
 62
               0
  5
1C1
 10
240.0
 20
-112.0
 30
0.0
  0
ENDBLK
  8
0
  6
BYBLOCK
 62
               0
  5
1C2
  0
BLOCK
  8
0
  6
BYBLOCK
 62
               0
  5
1C5
  2
*D29
 70
               1
 10
0.0
 20
0.0
 30
0.0
  3
*D29
  0
LINE
  8
0
  6
CONTINUOUS
 62
             110
  5
1C6
 10
130.0
 20
-112.0
 30
0.0
 11
170.0
 21
-112.0
 31
0.0
  0
LINE
  8
0
  6
CONTINUOUS
 62
             110
  5
1C7
 10
130.0
 20
-123.0
 30
0.0
 11
130.0
 21
-109.7140007019043
 31
0.0
  0
LINE
  8
0
  6
CONTINUOUS
 62
             110
  5
1C8
 10
170.0
 20
-123.0
 30
0.0
 11
170.0
 21
-109.7140007019043
 31
0.0
  0
INSERT
  8
0
  6
CONTINUOUS
 62
             110
  5
1C9
  2
_OPEN30
 10
130.0
 20
-112.0
 30
0.0
 41
2.77
 42
2.77
 50
180.0
 43
2.77
  0
INSERT
  8
0
  6
CONTINUOUS
 62
             110
  5
1CA
  2
_OPEN30
 10
170.0
 20
-112.0
 30
0.0
 41
2.77
 42
2.77
 43
2.77
  0
TEXT
  8
0
  6
CONTINUOUS
 62
             110
  5
1CB
 10
147.30666665236154
 20
-111.0
 30
0.0
 40
3.2000000476837158
  1
40
  7
MX_DIMTXSTY_2
 11
147.30666665236154
 21
-109.39999997615814
 31
0.0
 73
               2
  0
POINT
  8
DEFPOINTS
  6
CONTINUOUS
 62
               0
  5
1CC
 10
130.0
 20
-125.0
 30
0.0
  0
POINT
  8
DEFPOINTS
  6
CONTINUOUS
 62
               0
  5
1CD
 10
170.0
 20
-125.0
 30
0.0
  0
POINT
  8
DEFPOINTS
  6
CONTINUOUS
 62
               0
  5
1CE
 10
170.0
 20
-112.0
 30
0.0
  0
ENDBLK
  8
0
  6
BYBLOCK
 62
               0
  5
1CF
  0
BLOCK
  8
0
  6
BYBLOCK
 62
               0
  5
1D2
  2
*D30
 70
               1
 10
0.0
 20
0.0
 30
0.0
  3
*D30
  0
LINE
  8
0
  6
CONTINUOUS
 62
             110
  5
1D3
 10
-10.0
 20
-128.0
 30
0.0
 11
30.0
 21
-128.0
 31
0.0
  0
LINE
  8
0
  6
CONTINUOUS
 62
             110
  5
1D4
 10
-10.0
 20
-143.5
 30
0.0
 11
-10.0
 21
-125.7140007019043
 31
0.0
  0
LINE
  8
0
  6
CONTINUOUS
 62
             110
  5
1D5
 10
30.0
 20
-143.5
 30
0.0
 11
30.0
 21
-125.7140007019043
 31
0.0
  0
INSERT
  8
0
  6
CONTINUOUS
 62
             110
  5
1D6
  2
_OPEN30
 10
-10.0
 20
-128.0
 30
0.0
 41
2.77
 42
2.77
 50
180.0
 43
2.77
  0
INSERT
  8
0
  6
CONTINUOUS
 62
             110
  5
1D7
  2
_OPEN30
 10
30.0
 20
-128.0
 30
0.0
 41
2.77
 42
2.77
 43
2.77
  0
TEXT
  8
0
  6
CONTINUOUS
 62
             110
  5
1D8
 10
7.3066666523615522
 20
-127.0
 30
0.0
 40
3.2000000476837158
  1
40
  7
MX_DIMTXSTY_2
 11
7.3066666523615522
 21
-125.39999997615814
 31
0.0
 73
               2
  0
POINT
  8
DEFPOINTS
  6
CONTINUOUS
 62
               0
  5
1D9
 10
-10.0
 20
-145.5
 30
0.0
  0
POINT
  8
DEFPOINTS
  6
CONTINUOUS
 62
               0
  5
1DA
 10
30.0
 20
-145.5
 30
0.0
  0
POINT
  8
DEFPOINTS
  6
CONTINUOUS
 62
               0
  5
1DB
 10
30.0
 20
-128.0
 30
0.0
  0
ENDBLK
  8
0
  6
BYBLOCK
 62
               0
  5
1DC
  0
BLOCK
  8
0
  6
BYBLOCK
 62
               0
  5
1DF
  2
*D31
 70
               1
 10
0.0
 20
0.0
 30
0.0
  3
*D31
  0
LINE
  8
0
  6
CONTINUOUS
 62
             110
  5
1E0
 10
220.0
 20
-140.0
 30
0.0
 11
220.0
 21
-260.0
 31
0.0
  0
INSERT
  8
0
  6
CONTINUOUS
 62
             110
  5
1E1
  2
_OPEN30
 10
220.0
 20
-140.0
 30
0.0
 41
2.77
 42
2.77
 50
90.0
 43
2.77
  0
INSERT
  8
0
  6
CONTINUOUS
 62
             110
  5
1E2
  2
_OPEN30
 10
220.0
 20
-260.0
 30
0.0
 41
2.77
 42
2.77
 50
270.0
 43
2.77
  0
TEXT
  8
0
  6
CONTINUOUS
 62
             110
  5
1E3
 10
219.0
 20
-205.87809558709463
 30
0.0
 40
3.2000000476837158
  1
%%c120
 50
90.000000000000014
  7
MX_DIMTXSTY_2
 11
217.39999997615814
 21
-205.87809558709463
 31
0.0
 73
               2
  0
POINT
  8
DEFPOINTS
  6
CONTINUOUS
 62
               0
  5
1E4
 10
203.0
 20
-140.0
 30
0.0
  0
POINT
  8
DEFPOINTS
  6
CONTINUOUS
 62
               0
  5
1E5
 10
203.0
 20
-260.0
 30
0.0
  0
POINT
  8
DEFPOINTS
  6
CONTINUOUS
 62
               0
  5
1E6
 10
220.0
 20
-260.0
 30
0.0
  0
ENDBLK
  8
0
  6
BYBLOCK
 62
               0
  5
1E7
  0
BLOCK
  8
0
  6
BYBLOCK
 62
               0
  5
1EA
  2
*D32
 70
               1
 10
0.0
 20
0.0
 30
0.0
  3
*D32
  0
LINE
  8
0
  6
CONTINUOUS
 62
             110
  5
1EB
 10
230.0
 20
-275.0
 30
0.0
 11
230.0
 21
-125.0
 31
0.0
  0
INSERT
  8
0
  6
CONTINUOUS
 62
             110
  5
1EC
  2
_OPEN30
 10
230.0
 20
-275.0
 30
0.0
 41
2.77
 42
2.77
 50
270.0
 43
2.77
  0
INSERT
  8
0
  6
CONTINUOUS
 62
             110
  5
1ED
  2
_OPEN30
 10
230.0
 20
-125.0
 30
0.0
 41
2.77
 42
2.77
 50
90.0
 43
2.77
  0
TEXT
  8
0
  6
CONTINUOUS
 62
             110
  5
1EE
 10
229.0
 20
-205.87809558709463
 30
0.0
 40
3.2000000476837158
  1
%%c150
 50
90.0
  7
MX_DIMTXSTY_2
 11
227.39999997615814
 21
-205.87809558709463
 31
0.0
 73
               2
  0
POINT
  8
DEFPOINTS
  6
CONTINUOUS
 62
               0
  5
1EF
 10
236.0
 20
-275.0
 30
0.0
  0
POINT
  8
DEFPOINTS
  6
CONTINUOUS
 62
               0
  5
1F0
 10
236.0
 20
-125.0
 30
0.0
  0
POINT
  8
DEFPOINTS
  6
CONTINUOUS
 62
               0
  5
1F1
 10
230.0
 20
-125.0
 30
0.0
  0
ENDBLK
  8
0
  6
BYBLOCK
 62
               0
  5
1F2
  0
BLOCK
  8
0
  6
BYBLOCK
 62
               0
  5
1F5
  2
*D33
 70
               1
 10
0.0
 20
0.0
 30
0.0
  3
*D33
  0
LINE
  8
0
  6
CONTINUOUS
 62
             110
  5
1F6
 10
150.0
 20
-150.0
 30
0.0
 11
150.0
 21
-250.0
 31
0.0
  0
INSERT
  8
0
  6
CONTINUOUS
 62
             110
  5
1F7
  2
_OPEN30
 10
150.0
 20
-150.0
 30
0.0
 41
2.77
 42
2.77
 50
90.0
 43
2.77
  0
INSERT
  8
0
  6
CONTINUOUS
 62
             110
  5
1F8
  2
_OPEN30
 10
150.0
 20
-250.0
 30
0.0
 41
2.77
 42
2.77
 50
270.0
 43
2.77
  0
TEXT
  8
0
  6
CONTINUOUS
 62
             110
  5
1FA
 10
149.0
 20
-205.86285730202994
 30
0.0
 40
3.2000000476837158
  1
%%c100
 50
90.000000000000014
  7
MX_DIMTXSTY_4
 11
147.39999997615814
 21
-205.86285730202994
 31
0.0
 73
               2
  0
POINT
  8
DEFPOINTS
  6
CONTINUOUS
 62
               0
  5
1FB
 10
133.0
 20
-150.0
 30
0.0
  0
POINT
  8
DEFPOINTS
  6
CONTINUOUS
 62
               0
  5
1FC
 10
133.0
 20
-250.0
 30
0.0
  0
POINT
  8
DEFPOINTS
  6
CONTINUOUS
 62
               0
  5
1FD
 10
150.0
 20
-250.0
 30
0.0
  0
ENDBLK
  8
0
  6
BYBLOCK
 62
               0
  5
1FE
  0
BLOCK
  8
0
  6
BYBLOCK
 62
               0
  5
201
  2
*D34
 70
               1
 10
0.0
 20
0.0
 30
0.0
  3
*D34
  0
LINE
  8
0
  6
CONTINUOUS
 62
             110
  5
202
 10
160.0
 20
-275.0
 30
0.0
 11
160.0
 21
-125.0
 31
0.0
  0
INSERT
  8
0
  6
CONTINUOUS
 62
             110
  5
203
  2
_OPEN30
 10
160.0
 20
-275.0
 30
0.0
 41
2.77
 42
2.77
 50
270.0
 43
2.77
  0
INSERT
  8
0
  6
CONTINUOUS
 62
             110
  5
204
  2
_OPEN30
 10
160.0
 20
-125.0
 30
0.0
 41
2.77
 42
2.77
 50
90.0
 43
2.77
  0
TEXT
  8
0
  6
CONTINUOUS
 62
             110
  5
205
 10
159.0
 20
-205.87809558709463
 30
0.0
 40
3.2000000476837158
  1
%%c150
 50
90.0
  7
MX_DIMTXSTY_2
 11
157.39999997615814
 21
-205.87809558709463
 31
0.0
 73
               2
  0
POINT
  8
DEFPOINTS
  6
CONTINUOUS
 62
               0
  5
206
 10
166.0
 20
-275.0
 30
0.0
  0
POINT
  8
DEFPOINTS
  6
CONTINUOUS
 62
               0
  5
207
 10
166.0
 20
-125.0
 30
0.0
  0
POINT
  8
DEFPOINTS
  6
CONTINUOUS
 62
               0
  5
208
 10
160.0
 20
-125.0
 30
0.0
  0
ENDBLK
  8
0
  6
BYBLOCK
 62
               0
  5
209
  0
BLOCK
  8
0
  6
BYBLOCK
 62
               0
  5
20C
  2
*D35
 70
               1
 10
0.0
 20
0.0
 30
0.0
  3
*D35
  0
LINE
  8
0
  6
CONTINUOUS
 62
             110
  5
20D
 10
10.0
 20
-160.5
 30
0.0
 11
10.0
 21
-239.5
 31
0.0
  0
INSERT
  8
0
  6
CONTINUOUS
 62
             110
  5
20E
  2
_OPEN30
 10
10.0
 20
-160.5
 30
0.0
 41
2.77
 42
2.77
 50
90.0
 43
2.77
  0
INSERT
  8
0
  6
CONTINUOUS
 62
             110
  5
20F
  2
_OPEN30
 10
10.0
 20
-239.5
 30
0.0
 41
2.77
 42
2.77
 50
270.0
 43
2.77
  0
TEXT
  8
0
  6
CONTINUOUS
 62
             110
  5
210
 10
9.0
 20
-204.49523814519247
 30
0.0
 40
3.2000000476837158
  1
%%c79
 50
90.000000000000014
  7
MX_NOTE_STANDARD
 11
7.3999999761581412
 21
-204.49523814519247
 31
0.0
 73
               2
  0
POINT
  8
DEFPOINTS
  6
CONTINUOUS
 62
               0
  5
211
 10
-7.0
 20
-160.5
 30
0.0
  0
POINT
  8
DEFPOINTS
  6
CONTINUOUS
 62
               0
  5
212
 10
-7.0
 20
-239.5
 30
0.0
  0
POINT
  8
DEFPOINTS
  6
CONTINUOUS
 62
               0
  5
213
 10
10.0
 20
-239.5
 30
0.0
  0
ENDBLK
  8
0
  6
BYBLOCK
 62
               0
  5
214
  0
BLOCK
  8
0
  6
BYBLOCK
 62
               0
  5
217
  2
*D36
 70
               1
 10
0.0
 20
0.0
 30
0.0
  3
*D36
  0
LINE
  8
0
  6
CONTINUOUS
 62
             110
  5
218
 10
20.0
 20
-254.5
 30
0.0
 11
20.0
 21
-145.5
 31
0.0
  0
INSERT
  8
0
  6
CONTINUOUS
 62
             110
  5
219
  2
_OPEN30
 10
20.0
 20
-254.5
 30
0.0
 41
2.77
 42
2.77
 50
270.0
 43
2.77
  0
INSERT
  8
0
  6
CONTINUOUS
 62
             110
  5
21A
  2
_OPEN30
 10
20.0
 20
-145.5
 30
0.0
 41
2.77
 42
2.77
 50
90.0
 43
2.77
  0
TEXT
  8
0
  6
CONTINUOUS
 62
             110
  5
21B
 10
19.0
 20
-205.87809558709463
 30
0.0
 40
3.2000000476837158
  1
%%c109
 50
90.0
  7
MX_DIMTXSTY_2
 11
17.399999976158142
 21
-205.87809558709463
 31
0.0
 73
               2
  0
POINT
  8
DEFPOINTS
  6
CONTINUOUS
 62
               0
  5
21C
 10
26.0
 20
-254.5
 30
0.0
  0
POINT
  8
DEFPOINTS
  6
CONTINUOUS
 62
               0
  5
21D
 10
26.0
 20
-145.5
 30
0.0
  0
POINT
  8
DEFPOINTS
  6
CONTINUOUS
 62
               0
  5
21E
 10
20.0
 20
-145.5
 30
0.0
  0
ENDBLK
  8
0
  6
BYBLOCK
 62
               0
  5
21F
  0
BLOCK
  8
0
  6
BYBLOCK
 62
               0
  5
24E
  2
*D37
 70
               1
 10
0.0
 20
0.0
 30
0.0
  3
*D37
  0
LINE
  8
0
  6
CONTINUOUS
 62
             110
  5
24F
 10
488.0
 20
56.0
 30
0.0
 11
568.00000000000011
 21
56.0
 31
0.0
  0
LINE
  8
0
  6
CONTINUOUS
 62
             110
  5
250
 10
488.0
 20
34.0
 30
0.0
 11
488.0
 21
58.285999298095703
 31
0.0
  0
LINE
  8
0
  6
CONTINUOUS
 62
             110
  5
251
 10
568.00000000000011
 20
34.0
 30
0.0
 11
568.00000000000011
 21
58.285999298095703
 31
0.0
  0
INSERT
  8
0
  6
CONTINUOUS
 62
             110
  5
252
  2
_OPEN30
 10
488.0
 20
56.0
 30
0.0
 41
2.77
 42
2.77
 50
180.0
 43
2.77
  0
INSERT
  8
0
  6
CONTINUOUS
 62
             110
  5
253
  2
_OPEN30
 10
568.00000000000011
 20
56.0
 30
0.0
 41
2.77
 42
2.77
 43
2.77
  0
TEXT
  8
0
  6
CONTINUOUS
 62
             110
  5
254
 10
525.30666665236151
 20
57.0
 30
0.0
 40
3.2000000476837158
  1
80
  7
MX_DIMTXSTY_2
 11
525.30666665236151
 21
58.600000023841858
 31
0.0
 73
               2
  0
POINT
  8
DEFPOINTS
  6
CONTINUOUS
 62
               0
  5
255
 10
488.0
 20
32.0
 30
0.0
  0
POINT
  8
DEFPOINTS
  6
CONTINUOUS
 62
               0
  5
256
 10
568.00000000000011
 20
32.0
 30
0.0
  0
POINT
  8
DEFPOINTS
  6
CONTINUOUS
 62
               0
  5
257
 10
568.00000000000011
 20
56.0
 30
0.0
  0
ENDBLK
  8
0
  6
BYBLOCK
 62
               0
  5
258
  0
BLOCK
  8
0
  6
BYBLOCK
 62
               0
  5
25B
  2
*D38
 70
               1
 10
0.0
 20
0.0
 30
0.0
  3
*D38
  0
LINE
  8
0
  6
CONTINUOUS
 62
             110
  5
25C
 10
368.0
 20
32.000000000000028
 30
0.0
 11
448.0
 21
32.000000000000028
 31
0.0
  0
LINE
  8
0
  6
CONTINUOUS
 62
             110
  5
25D
 10
368.0
 20
9.0000000000000284
 30
0.0
 11
368.0
 21
34.285999298095732
 31
0.0
  0
LINE
  8
0
  6
CONTINUOUS
 62
             110
  5
25E
 10
448.0
 20
9.0000000000000284
 30
0.0
 11
448.0
 21
34.285999298095732
 31
0.0
  0
INSERT
  8
0
  6
CONTINUOUS
 62
             110
  5
25F
  2
_OPEN30
 10
368.0
 20
32.000000000000028
 30
0.0
 41
2.77
 42
2.77
 50
180.0
 43
2.77
  0
INSERT
  8
0
  6
CONTINUOUS
 62
             110
  5
260
  2
_OPEN30
 10
448.0
 20
32.000000000000028
 30
0.0
 41
2.77
 42
2.77
 43
2.77
  0
TEXT
  8
0
  6
CONTINUOUS
 62
             110
  5
261
 10
405.30666665236157
 20
33.000000000000028
 30
0.0
 40
3.2000000476837158
  1
80
  7
MX_DIMTXSTY_2
 11
405.30666665236157
 21
34.600000023841886
 31
0.0
 73
               2
  0
POINT
  8
DEFPOINTS
  6
CONTINUOUS
 62
               0
  5
262
 10
368.0
 20
7.0000000000000284
 30
0.0
  0
POINT
  8
DEFPOINTS
  6
CONTINUOUS
 62
               0
  5
263
 10
448.0
 20
7.0000000000000284
 30
0.0
  0
POINT
  8
DEFPOINTS
  6
CONTINUOUS
 62
               0
  5
264
 10
448.0
 20
32.000000000000028
 30
0.0
  0
ENDBLK
  8
0
  6
BYBLOCK
 62
               0
  5
265
  0
BLOCK
  8
0
  6
BYBLOCK
 62
               0
  5
268
  2
*D39
 70
               1
 10
0.0
 20
0.0
 30
0.0
  3
*D39
  0
LINE
  8
0
  6
CONTINUOUS
 62
             110
  5
269
 10
518.0
 20
2.0000000000000568
 30
0.0
 11
518.0
 21
-258.0
 31
0.0
  0
INSERT
  8
0
  6
CONTINUOUS
 62
             110
  5
26A
  2
_OPEN30
 10
518.0
 20
2.0000000000000568
 30
0.0
 41
2.77
 42
2.77
 50
90.0
 43
2.77
  0
INSERT
  8
0
  6
CONTINUOUS
 62
             110
  5
26B
  2
_OPEN30
 10
518.0
 20
-258.0
 30
0.0
 41
2.77
 42
2.77
 50
270.0
 43
2.77
  0
TEXT
  8
0
  6
CONTINUOUS
 62
             110
  5
26C
 10
517.0
 20
-133.82857175668076
 30
0.0
 40
3.2000000476837158
  1
%%c260
 50
90.000000000000014
  7
MX_NOTE_STANDARD
 11
515.39999997615814
 21
-133.82857175668076
 31
0.0
 73
               2
  0
POINT
  8
DEFPOINTS
  6
CONTINUOUS
 62
               0
  5
26D
 10
491.0
 20
2.0000000000000568
 30
0.0
  0
POINT
  8
DEFPOINTS
  6
CONTINUOUS
 62
               0
  5
26E
 10
491.0
 20
-258.0
 30
0.0
  0
POINT
  8
DEFPOINTS
  6
CONTINUOUS
 62
               0
  5
26F
 10
518.0
 20
-258.0
 30
0.0
  0
ENDBLK
  8
0
  6
BYBLOCK
 62
               0
  5
270
  0
BLOCK
  8
0
  6
BYBLOCK
 62
               0
  5
273
  2
*D40
 70
               1
 10
0.0
 20
0.0
 30
0.0
  3
*D40
  0
LINE
  8
0
  6
CONTINUOUS
 62
             110
  5
274
 10
528.0
 20
-288.0
 30
0.0
 11
528.0
 21
32.0
 31
0.0
  0
INSERT
  8
0
  6
CONTINUOUS
 62
             110
  5
275
  2
_OPEN30
 10
528.0
 20
-288.0
 30
0.0
 41
2.77
 42
2.77
 50
270.0
 43
2.77
  0
INSERT
  8
0
  6
CONTINUOUS
 62
             110
  5
276
  2
_OPEN30
 10
528.0
 20
32.0
 30
0.0
 41
2.77
 42
2.77
 50
90.0
 43
2.77
  0
TEXT
  8
0
  6
CONTINUOUS
 62
             110
  5
277
 10
527.0
 20
-133.82857175668082
 30
0.0
 40
3.2000000476837158
  1
%%c320
 50
90.0
  7
MX_NOTE_STANDARD
 11
525.39999997615814
 21
-133.82857175668082
 31
0.0
 73
               2
  0
POINT
  8
DEFPOINTS
  6
CONTINUOUS
 62
               0
  5
278
 10
564.0
 20
-288.0
 30
0.0
  0
POINT
  8
DEFPOINTS
  6
CONTINUOUS
 62
               0
  5
279
 10
564.0
 20
32.0
 30
0.0
  0
POINT
  8
DEFPOINTS
  6
CONTINUOUS
 62
               0
  5
27A
 10
528.0
 20
32.0
 30
0.0
  0
ENDBLK
  8
0
  6
BYBLOCK
 62
               0
  5
27B
  0
BLOCK
  8
0
  6
BYBLOCK
 62
               0
  5
27E
  2
*D41
 70
               1
 10
0.0
 20
0.0
 30
0.0
  3
*D41
  0
LINE
  8
0
  6
CONTINUOUS
 62
             110
  5
27F
 10
398.0
 20
-25.0
 30
0.0
 11
398.0
 21
-231.00000000000006
 31
0.0
  0
INSERT
  8
0
  6
CONTINUOUS
 62
             110
  5
280
  2
_OPEN30
 10
398.0
 20
-25.0
 30
0.0
 41
2.77
 42
2.77
 50
90.0
 43
2.77
  0
INSERT
  8
0
  6
CONTINUOUS
 62
             110
  5
281
  2
_OPEN30
 10
398.0
 20
-231.00000000000006
 30
0.0
 41
2.77
 42
2.77
 50
270.0
 43
2.77
  0
TEXT
  8
0
  6
CONTINUOUS
 62
             110
  5
282
 10
397.0
 20
-133.82857175668082
 30
0.0
 40
3.2000000476837158
  1
%%c206
 50
90.000000000000014
  7
MX_NOTE_STANDARD
 11
395.39999997615814
 21
-133.82857175668082
 31
0.0
 73
               2
  0
POINT
  8
DEFPOINTS
  6
CONTINUOUS
 62
               0
  5
283
 10
371.0
 20
-25.0
 30
0.0
  0
POINT
  8
DEFPOINTS
  6
CONTINUOUS
 62
               0
  5
284
 10
371.0
 20
-231.00000000000006
 30
0.0
  0
POINT
  8
DEFPOINTS
  6
CONTINUOUS
 62
               0
  5
285
 10
398.0
 20
-231.00000000000006
 30
0.0
  0
ENDBLK
  8
0
  6
BYBLOCK
 62
               0
  5
286
  0
BLOCK
  8
0
  6
BYBLOCK
 62
               0
  5
289
  2
*D42
 70
               1
 10
0.0
 20
0.0
 30
0.0
  3
*D42
  0
LINE
  8
0
  6
CONTINUOUS
 62
             110
  5
28A
 10
408.0
 20
-263.0
 30
0.0
 11
408.0
 21
7.0
 31
0.0
  0
INSERT
  8
0
  6
CONTINUOUS
 62
             110
  5
28B
  2
_OPEN30
 10
408.0
 20
-263.0
 30
0.0
 41
2.77
 42
2.77
 50
270.0
 43
2.77
  0
INSERT
  8
0
  6
CONTINUOUS
 62
             110
  5
28C
  2
_OPEN30
 10
408.0
 20
7.0
 30
0.0
 41
2.77
 42
2.77
 50
90.0
 43
2.77
  0
TEXT
  8
0
  6
CONTINUOUS
 62
             110
  5
28D
 10
407.0
 20
-133.82857175668082
 30
0.0
 40
3.2000000476837158
  1
%%c270
 50
90.0
  7
MX_NOTE_STANDARD
 11
405.39999997615814
 21
-133.82857175668082
 31
0.0
 73
               2
  0
POINT
  8
DEFPOINTS
  6
CONTINUOUS
 62
               0
  5
28E
 10
444.0
 20
-263.0
 30
0.0
  0
POINT
  8
DEFPOINTS
  6
CONTINUOUS
 62
               0
  5
28F
 10
444.0
 20
7.0
 30
0.0
  0
POINT
  8
DEFPOINTS
  6
CONTINUOUS
 62
               0
  5
290
 10
408.0
 20
7.0
 30
0.0
  0
ENDBLK
  8
0
  6
BYBLOCK
 62
               0
  5
291
  0
BLOCK
  8
0
  6
BYBLOCK
 62
               0
  5
355
  2
*D43
 70
               1
 10
0.0
 20
0.0
 30
0.0
  3
*D43
  0
LINE
  8
0
  6
CONTINUOUS
 62
             110
  5
356
 10
-0.0000000000000004
 20
16.0
 30
0.0
 11
3.0
 21
16.0
 31
0.0
  0
LINE
  8
0
  6
CONTINUOUS
 62
             110
  5
357
 10
3.0
 20
13.0
 30
0.0
 11
3.0
 21
17.0
 31
0.0
  0
LINE
  8
0
  6
CONTINUOUS
 62
             110
  5
358
 10
-0.0000000000000004
 20
16.0
 30
0.0
 11
-4.0
 21
16.0
 31
0.0
  0
LINE
  8
0
  6
CONTINUOUS
 62
             110
  5
359
 10
3.0
 20
16.0
 30
0.0
 11
7.0
 21
16.0
 31
0.0
  0
INSERT
  8
0
  6
CONTINUOUS
 62
             110
  5
35A
  2
_OPEN30
 10
-0.0000000000000004
 20
16.0
 30
0.0
 41
2.77
 42
2.77
 43
2.77
  0
INSERT
  8
0
  6
CONTINUOUS
 62
             110
  5
35B
  2
_OPEN30
 10
3.0
 20
16.0
 30
0.0
 41
2.77
 42
2.77
 50
180.0
 43
2.77
  0
TEXT
  8
0
  6
CONTINUOUS
 62
             110
  5
35C
 10
0.4079316198511672
 20
17.0
 30
0.0
 40
3.2000000476837158
  1
3
 41
0.9523718177329771
  7
MX_NOTE_STANDARD
 11
0.4079316198511672
 21
18.600000023841858
 31
0.0
 73
               2
  0
POINT
  8
DEFPOINTS
  6
CONTINUOUS
 62
               0
  5
35D
 10
-0.0000000000000004
 20
11.5
 30
0.0
  0
POINT
  8
DEFPOINTS
  6
CONTINUOUS
 62
               0
  5
35E
 10
3.0
 20
11.0
 30
0.0
  0
POINT
  8
DEFPOINTS
  6
CONTINUOUS
 62
               0
  5
35F
 10
3.0
 20
16.0
 30
0.0
  0
ENDBLK
  8
0
  6
BYBLOCK
 62
               0
  5
360
  0
BLOCK
  8
0
  6
BYBLOCK
 62
               0
  5
363
  2
*D44
 70
               1
 10
0.0
 20
0.0
 30
0.0
  3
*D44
  0
LINE
  8
0
  6
CONTINUOUS
 62
             110
  5
364
 10
50.0
 20
24.0
 30
0.0
 11
53.0
 21
24.0
 31
0.0
  0
LINE
  8
0
  6
CONTINUOUS
 62
             110
  5
365
 10
50.0
 20
17.0
 30
0.0
 11
50.0
 21
25.0
 31
0.0
  0
LINE
  8
0
  6
CONTINUOUS
 62
             110
  5
366
 10
53.0
 20
17.0
 30
0.0
 11
53.0
 21
25.0
 31
0.0
  0
LINE
  8
0
  6
CONTINUOUS
 62
             110
  5
367
 10
50.0
 20
24.0
 30
0.0
 11
46.0
 21
24.0
 31
0.0
  0
LINE
  8
0
  6
CONTINUOUS
 62
             110
  5
368
 10
53.0
 20
24.0
 30
0.0
 11
57.0
 21
24.0
 31
0.0
  0
INSERT
  8
0
  6
CONTINUOUS
 62
             110
  5
369
  2
_OPEN30
 10
50.0
 20
24.0
 30
0.0
 41
2.77
 42
2.77
 43
2.77
  0
INSERT
  8
0
  6
CONTINUOUS
 62
             110
  5
36A
  2
_OPEN30
 10
53.0
 20
24.0
 30
0.0
 41
2.77
 42
2.77
 50
180.0
 43
2.77
  0
TEXT
  8
0
  6
CONTINUOUS
 62
             110
  5
36B
 10
50.407931619851169
 20
25.0
 30
0.0
 40
3.2000000476837158
  1
3
 41
0.9523718177329771
  7
MX_NOTE_STANDARD
 11
50.407931619851169
 21
26.600000023841858
 31
0.0
 73
               2
  0
POINT
  8
DEFPOINTS
  6
CONTINUOUS
 62
               0
  5
36C
 10
50.0
 20
15.0
 30
0.0
  0
POINT
  8
DEFPOINTS
  6
CONTINUOUS
 62
               0
  5
36D
 10
53.0
 20
15.0
 30
0.0
  0
POINT
  8
DEFPOINTS
  6
CONTINUOUS
 62
               0
  5
36E
 10
53.0
 20
24.0
 30
0.0
  0
ENDBLK
  8
0
  6
BYBLOCK
 62
               0
  5
36F
  0
BLOCK
  8
0
  6
BYBLOCK
 62
               0
  5
372
  2
*D45
 70
               1
 10
0.0
 20
0.0
 30
0.0
  3
*D45
  0
LINE
  8
0
  6
CONTINUOUS
 62
             110
  5
373
 10
98.0
 20
24.0
 30
0.0
 11
101.0
 21
24.0
 31
0.0
  0
LINE
  8
0
  6
CONTINUOUS
 62
             110
  5
374
 10
101.0
 20
20.0
 30
0.0
 11
101.0
 21
25.0
 31
0.0
  0
LINE
  8
0
  6
CONTINUOUS
 62
             110
  5
375
 10
98.0
 20
24.0
 30
0.0
 11
94.0
 21
24.0
 31
0.0
  0
LINE
  8
0
  6
CONTINUOUS
 62
             110
  5
376
 10
101.0
 20
24.0
 30
0.0
 11
105.0
 21
24.0
 31
0.0
  0
INSERT
  8
0
  6
CONTINUOUS
 62
             110
  5
377
  2
_OPEN30
 10
98.0
 20
24.0
 30
0.0
 41
2.77
 42
2.77
 43
2.77
  0
INSERT
  8
0
  6
CONTINUOUS
 62
             110
  5
378
  2
_OPEN30
 10
101.0
 20
24.0
 30
0.0
 41
2.77
 42
2.77
 50
180.0
 43
2.77
  0
TEXT
  8
0
  6
CONTINUOUS
 62
             110
  5
379
 10
98.407931619851169
 20
25.0
 30
0.0
 40
3.2000000476837158
  1
3
 41
0.9523718177329771
  7
MX_NOTE_STANDARD
 11
98.407931619851169
 21
26.600000023841858
 31
0.0
 73
               2
  0
POINT
  8
DEFPOINTS
  6
CONTINUOUS
 62
               0
  5
37A
 10
98.0
 20
18.5
 30
0.0
  0
POINT
  8
DEFPOINTS
  6
CONTINUOUS
 62
               0
  5
37B
 10
101.0
 20
18.0
 30
0.0
  0
POINT
  8
DEFPOINTS
  6
CONTINUOUS
 62
               0
  5
37C
 10
101.0
 20
24.0
 30
0.0
  0
ENDBLK
  8
0
  6
BYBLOCK
 62
               0
  5
37D
  0
BLOCK
  8
0
  6
BYBLOCK
 62
               0
  5
380
  2
*D46
 70
               1
 10
0.0
 20
0.0
 30
0.0
  3
*D46
  0
LINE
  8
0
  6
CONTINUOUS
 62
             110
  5
381
 10
148.0
 20
32.0
 30
0.0
 11
151.0
 21
32.0
 31
0.0
  0
LINE
  8
0
  6
CONTINUOUS
 62
             110
  5
382
 10
148.0
 20
27.5
 30
0.0
 11
148.0
 21
33.0
 31
0.0
  0
LINE
  8
0
  6
CONTINUOUS
 62
             110
  5
383
 10
151.0
 20
27.5
 30
0.0
 11
151.0
 21
33.0
 31
0.0
  0
LINE
  8
0
  6
CONTINUOUS
 62
             110
  5
384
 10
148.0
 20
32.0
 30
0.0
 11
144.0
 21
32.0
 31
0.0
  0
LINE
  8
0
  6
CONTINUOUS
 62
             110
  5
385
 10
151.0
 20
32.0
 30
0.0
 11
155.0
 21
32.0
 31
0.0
  0
INSERT
  8
0
  6
CONTINUOUS
 62
             110
  5
386
  2
_OPEN30
 10
148.0
 20
32.0
 30
0.0
 41
2.77
 42
2.77
 43
2.77
  0
INSERT
  8
0
  6
CONTINUOUS
 62
             110
  5
387
  2
_OPEN30
 10
151.0
 20
32.0
 30
0.0
 41
2.77
 42
2.77
 50
180.0
 43
2.77
  0
TEXT
  8
0
  6
CONTINUOUS
 62
             110
  5
388
 10
148.40793161985115
 20
33.0
 30
0.0
 40
3.2000000476837158
  1
3
 41
0.9523718177329771
  7
MX_NOTE_STANDARD
 11
148.40793161985115
 21
34.600000023841858
 31
0.0
 73
               2
  0
POINT
  8
DEFPOINTS
  6
CONTINUOUS
 62
               0
  5
389
 10
148.0
 20
25.5
 30
0.0
  0
POINT
  8
DEFPOINTS
  6
CONTINUOUS
 62
               0
  5
38A
 10
151.0
 20
25.5
 30
0.0
  0
POINT
  8
DEFPOINTS
  6
CONTINUOUS
 62
               0
  5
38B
 10
151.0
 20
32.0
 30
0.0
  0
ENDBLK
  8
0
  6
BYBLOCK
 62
               0
  5
38C
  0
BLOCK
  8
0
  6
BYBLOCK
 62
               0
  5
38F
  2
*D47
 70
               1
 10
0.0
 20
0.0
 30
0.0
  3
*D47
  0
LINE
  8
0
  6
CONTINUOUS
 62
             110
  5
390
 10
198.0
 20
40.0
 30
0.0
 11
201.0
 21
40.0
 31
0.0
  0
LINE
  8
0
  6
CONTINUOUS
 62
             110
  5
391
 10
198.0
 20
37.0
 30
0.0
 11
198.0
 21
41.0
 31
0.0
  0
LINE
  8
0
  6
CONTINUOUS
 62
             110
  5
392
 10
201.0
 20
37.0
 30
0.0
 11
201.0
 21
41.0
 31
0.0
  0
LINE
  8
0
  6
CONTINUOUS
 62
             110
  5
393
 10
198.0
 20
40.0
 30
0.0
 11
194.0
 21
40.0
 31
0.0
  0
LINE
  8
0
  6
CONTINUOUS
 62
             110
  5
394
 10
201.0
 20
40.0
 30
0.0
 11
205.0
 21
40.0
 31
0.0
  0
INSERT
  8
0
  6
CONTINUOUS
 62
             110
  5
395
  2
_OPEN30
 10
198.0
 20
40.0
 30
0.0
 41
2.77
 42
2.77
 43
2.77
  0
INSERT
  8
0
  6
CONTINUOUS
 62
             110
  5
396
  2
_OPEN30
 10
201.0
 20
40.0
 30
0.0
 41
2.77
 42
2.77
 50
180.0
 43
2.77
  0
TEXT
  8
0
  6
CONTINUOUS
 62
             110
  5
397
 10
198.40793161985115
 20
41.0
 30
0.0
 40
3.2000000476837158
  1
3
 41
0.9523718177329771
  7
MX_NOTE_STANDARD
 11
198.40793161985115
 21
42.600000023841858
 31
0.0
 73
               2
  0
POINT
  8
DEFPOINTS
  6
CONTINUOUS
 62
               0
  5
398
 10
198.0
 20
35.0
 30
0.0
  0
POINT
  8
DEFPOINTS
  6
CONTINUOUS
 62
               0
  5
399
 10
201.0
 20
35.0
 30
0.0
  0
POINT
  8
DEFPOINTS
  6
CONTINUOUS
 62
               0
  5
39A
 10
201.0
 20
40.0
 30
0.0
  0
ENDBLK
  8
0
  6
BYBLOCK
 62
               0
  5
39B
  0
BLOCK
  8
0
  6
BYBLOCK
 62
               0
  5
39E
  2
*D48
 70
               1
 10
0.0
 20
0.0
 30
0.0
  3
*D48
  0
LINE
  8
0
  6
CONTINUOUS
 62
             110
  5
39F
 10
248.0
 20
48.0
 30
0.0
 11
252.0
 21
48.0
 31
0.0
  0
LINE
  8
0
  6
CONTINUOUS
 62
             110
  5
3A0
 10
252.0
 20
47.0
 30
0.0
 11
252.0
 21
49.0
 31
0.0
  0
LINE
  8
0
  6
CONTINUOUS
 62
             110
  5
3A1
 10
248.0
 20
48.0
 30
0.0
 11
244.0
 21
48.0
 31
0.0
  0
LINE
  8
0
  6
CONTINUOUS
 62
             110
  5
3A2
 10
252.0
 20
48.0
 30
0.0
 11
256.0
 21
48.0
 31
0.0
  0
INSERT
  8
0
  6
CONTINUOUS
 62
             110
  5
3A3
  2
_OPEN30
 10
248.0
 20
48.0
 30
0.0
 41
2.77
 42
2.77
 43
2.77
  0
INSERT
  8
0
  6
CONTINUOUS
 62
             110
  5
3A4
  2
_OPEN30
 10
252.0
 20
48.0
 30
0.0
 41
2.77
 42
2.77
 50
180.0
 43
2.77
  0
TEXT
  8
0
  6
CONTINUOUS
 62
             110
  5
3A5
 10
248.90793161985115
 20
49.0
 30
0.0
 40
3.2000000476837158
  1
4
 41
0.9523718177329771
  7
MX_NOTE_STANDARD
 11
248.90793161985115
 21
50.600000023841858
 31
0.0
 73
               2
  0
POINT
  8
DEFPOINTS
  6
CONTINUOUS
 62
               0
  5
3A6
 10
248.0
 20
56.0
 30
0.0
  0
POINT
  8
DEFPOINTS
  6
CONTINUOUS
 62
               0
  5
3A7
 10
252.0
 20
45.0
 30
0.0
  0
POINT
  8
DEFPOINTS
  6
CONTINUOUS
 62
               0
  5
3A8
 10
252.0
 20
48.0
 30
0.0
  0
ENDBLK
  8
0
  6
BYBLOCK
 62
               0
  5
3A9
  0
BLOCK
  8
0
  6
BYBLOCK
 62
               0
  5
3AC
  2
*D49
 70
               1
 10
0.0
 20
0.0
 30
0.0
  3
*D49
  0
LINE
  8
0
  6
CONTINUOUS
 62
             110
  5
3AD
 10
298.0
 20
56.0
 30
0.0
 11
302.0
 21
56.0
 31
0.0
  0
LINE
  8
0
  6
CONTINUOUS
 62
             110
  5
3AE
 10
302.0
 20
49.0
 30
0.0
 11
302.0
 21
57.0
 31
0.0
  0
LINE
  8
0
  6
CONTINUOUS
 62
             110
  5
3AF
 10
298.0
 20
56.0
 30
0.0
 11
294.0
 21
56.0
 31
0.0
  0
LINE
  8
0
  6
CONTINUOUS
 62
             110
  5
3B0
 10
302.0
 20
56.0
 30
0.0
 11
306.0
 21
56.0
 31
0.0
  0
INSERT
  8
0
  6
CONTINUOUS
 62
             110
  5
3B1
  2
_OPEN30
 10
298.0
 20
56.0
 30
0.0
 41
2.77
 42
2.77
 43
2.77
  0
INSERT
  8
0
  6
CONTINUOUS
 62
             110
  5
3B2
  2
_OPEN30
 10
302.0
 20
56.0
 30
0.0
 41
2.77
 42
2.77
 50
180.0
 43
2.77
  0
TEXT
  8
0
  6
CONTINUOUS
 62
             110
  5
3B3
 10
298.90793161985118
 20
57.0
 30
0.0
 40
3.2000000476837158
  1
4
 41
0.9523718177329771
  7
MX_NOTE_STANDARD
 11
298.90793161985118
 21
58.600000023841858
 31
0.0
 73
               2
  0
POINT
  8
DEFPOINTS
  6
CONTINUOUS
 62
               0
  5
3B4
 10
298.0
 20
47.5
 30
0.0
  0
POINT
  8
DEFPOINTS
  6
CONTINUOUS
 62
               0
  5
3B5
 10
302.0
 20
47.0
 30
0.0
  0
POINT
  8
DEFPOINTS
  6
CONTINUOUS
 62
               0
  5
3B6
 10
302.0
 20
56.0
 30
0.0
  0
ENDBLK
  8
0
  6
BYBLOCK
 62
               0
  5
3B7
  0
BLOCK
  8
0
  6
BYBLOCK
 62
               0
  5
3BA
  2
*D50
 70
               1
 10
0.0
 20
0.0
 30
0.0
  3
*D50
  0
LINE
  8
0
  6
CONTINUOUS
 62
             110
  5
3BB
 10
-10.0
 20
-136.0
 30
0.0
 11
-6.0
 21
-136.0
 31
0.0
  0
LINE
  8
0
  6
CONTINUOUS
 62
             110
  5
3BC
 10
-6.0
 20
-143.5
 30
0.0
 11
-6.0
 21
-135.0
 31
0.0
  0
LINE
  8
0
  6
CONTINUOUS
 62
             110
  5
3BD
 10
-10.0
 20
-136.0
 30
0.0
 11
-14.0
 21
-136.0
 31
0.0
  0
LINE
  8
0
  6
CONTINUOUS
 62
             110
  5
3BE
 10
-6.0
 20
-136.0
 30
0.0
 11
-2.0
 21
-136.0
 31
0.0
  0
INSERT
  8
0
  6
CONTINUOUS
 62
             110
  5
3BF
  2
_OPEN30
 10
-10.0
 20
-136.0
 30
0.0
 41
2.77
 42
2.77
 43
2.77
  0
INSERT
  8
0
  6
CONTINUOUS
 62
             110
  5
3C0
  2
_OPEN30
 10
-6.0
 20
-136.0
 30
0.0
 41
2.77
 42
2.77
 50
180.0
 43
2.77
  0
TEXT
  8
0
  6
CONTINUOUS
 62
             110
  5
3C1
 10
-9.0920683801488327
 20
-135.0
 30
0.0
 40
3.2000000476837158
  1
4
 41
0.9523718177329771
  7
MX_NOTE_STANDARD
 11
-9.0920683801488327
 21
-133.39999997615814
 31
0.0
 73
               2
  0
POINT
  8
DEFPOINTS
  6
CONTINUOUS
 62
               0
  5
3C2
 10
-10.0
 20
-145.0
 30
0.0
  0
POINT
  8
DEFPOINTS
  6
CONTINUOUS
 62
               0
  5
3C3
 10
-6.0
 20
-145.5
 30
0.0
  0
POINT
  8
DEFPOINTS
  6
CONTINUOUS
 62
               0
  5
3C4
 10
-6.0
 20
-136.0
 30
0.0
  0
ENDBLK
  8
0
  6
BYBLOCK
 62
               0
  5
3C5
  0
BLOCK
  8
0
  6
BYBLOCK
 62
               0
  5
3C8
  2
*D51
 70
               1
 10
0.0
 20
0.0
 30
0.0
  3
*D51
  0
LINE
  8
0
  6
CONTINUOUS
 62
             110
  5
3C9
 10
60.0
 20
-136.0
 30
0.0
 11
64.0
 21
-136.0
 31
0.0
  0
LINE
  8
0
  6
CONTINUOUS
 62
             110
  5
3CA
 10
64.0
 20
-138.0
 30
0.0
 11
64.0
 21
-135.0
 31
0.0
  0
LINE
  8
0
  6
CONTINUOUS
 62
             110
  5
3CB
 10
60.0
 20
-136.0
 30
0.0
 11
56.0
 21
-136.0
 31
0.0
  0
LINE
  8
0
  6
CONTINUOUS
 62
             110
  5
3CC
 10
64.0
 20
-136.0
 30
0.0
 11
68.0
 21
-136.0
 31
0.0
  0
INSERT
  8
0
  6
CONTINUOUS
 62
             110
  5
3CD
  2
_OPEN30
 10
60.0
 20
-136.0
 30
0.0
 41
2.77
 42
2.77
 43
2.77
  0
INSERT
  8
0
  6
CONTINUOUS
 62
             110
  5
3CE
  2
_OPEN30
 10
64.0
 20
-136.0
 30
0.0
 41
2.77
 42
2.77
 50
180.0
 43
2.77
  0
TEXT
  8
0
  6
CONTINUOUS
 62
             110
  5
3CF
 10
60.907931619851169
 20
-135.0
 30
0.0
 40
3.2000000476837158
  1
4
 41
0.9523718177329771
  7
MX_NOTE_STANDARD
 11
60.907931619851169
 21
-133.39999997615814
 31
0.0
 73
               2
  0
POINT
  8
DEFPOINTS
  6
CONTINUOUS
 62
               0
  5
3D0
 10
60.0
 20
-139.5
 30
0.0
  0
POINT
  8
DEFPOINTS
  6
CONTINUOUS
 62
               0
  5
3D1
 10
64.0
 20
-140.0
 30
0.0
  0
POINT
  8
DEFPOINTS
  6
CONTINUOUS
 62
               0
  5
3D2
 10
64.0
 20
-136.0
 30
0.0
  0
ENDBLK
  8
0
  6
BYBLOCK
 62
               0
  5
3D3
  0
BLOCK
  8
0
  6
BYBLOCK
 62
               0
  5
3D6
  2
*D52
 70
               1
 10
0.0
 20
0.0
 30
0.0
  3
*D52
  0
LINE
  8
0
  6
CONTINUOUS
 62
             110
  5
3D7
 10
130.0
 20
-120.0
 30
0.0
 11
134.0
 21
-120.0
 31
0.0
  0
LINE
  8
0
  6
CONTINUOUS
 62
             110
  5
3D8
 10
134.0
 20
-123.0
 30
0.0
 11
134.0
 21
-119.0
 31
0.0
  0
LINE
  8
0
  6
CONTINUOUS
 62
             110
  5
3D9
 10
130.0
 20
-120.0
 30
0.0
 11
126.0
 21
-120.0
 31
0.0
  0
LINE
  8
0
  6
CONTINUOUS
 62
             110
  5
3DA
 10
134.0
 20
-120.0
 30
0.0
 11
138.0
 21
-120.0
 31
0.0
  0
INSERT
  8
0
  6
CONTINUOUS
 62
             110
  5
3DB
  2
_OPEN30
 10
130.0
 20
-120.0
 30
0.0
 41
2.77
 42
2.77
 43
2.77
  0
INSERT
  8
0
  6
CONTINUOUS
 62
             110
  5
3DC
  2
_OPEN30
 10
134.0
 20
-120.0
 30
0.0
 41
2.77
 42
2.77
 50
180.0
 43
2.77
  0
TEXT
  8
0
  6
CONTINUOUS
 62
             110
  5
3DD
 10
130.90793161985115
 20
-119.0
 30
0.0
 40
3.2000000476837158
  1
4
 41
0.9523718177329771
  7
MX_NOTE_STANDARD
 11
130.90793161985115
 21
-117.39999997615814
 31
0.0
 73
               2
  0
POINT
  8
DEFPOINTS
  6
CONTINUOUS
 62
               0
  5
3DE
 10
130.0
 20
-110.0
 30
0.0
  0
POINT
  8
DEFPOINTS
  6
CONTINUOUS
 62
               0
  5
3DF
 10
134.0
 20
-125.0
 30
0.0
  0
POINT
  8
DEFPOINTS
  6
CONTINUOUS
 62
               0
  5
3E0
 10
134.0
 20
-120.0
 30
0.0
  0
ENDBLK
  8
0
  6
BYBLOCK
 62
               0
  5
3E1
  0
BLOCK
  8
0
  6
BYBLOCK
 62
               0
  5
3E4
  2
*D53
 70
               1
 10
0.0
 20
0.0
 30
0.0
  3
*D53
  0
LINE
  8
0
  6
CONTINUOUS
 62
             110
  5
3E5
 10
200.0
 20
-120.0
 30
0.0
 11
204.0
 21
-120.0
 31
0.0
  0
LINE
  8
0
  6
CONTINUOUS
 62
             110
  5
3E6
 10
204.0
 20
-123.0
 30
0.0
 11
204.0
 21
-119.0
 31
0.0
  0
LINE
  8
0
  6
CONTINUOUS
 62
             110
  5
3E7
 10
200.0
 20
-120.0
 30
0.0
 11
196.0
 21
-120.0
 31
0.0
  0
LINE
  8
0
  6
CONTINUOUS
 62
             110
  5
3E8
 10
204.0
 20
-120.0
 30
0.0
 11
208.0
 21
-120.0
 31
0.0
  0
INSERT
  8
0
  6
CONTINUOUS
 62
             110
  5
3E9
  2
_OPEN30
 10
200.0
 20
-120.0
 30
0.0
 41
2.77
 42
2.77
 43
2.77
  0
INSERT
  8
0
  6
CONTINUOUS
 62
             110
  5
3EA
  2
_OPEN30
 10
204.0
 20
-120.0
 30
0.0
 41
2.77
 42
2.77
 50
180.0
 43
2.77
  0
TEXT
  8
0
  6
CONTINUOUS
 62
             110
  5
3EB
 10
200.90793161985115
 20
-119.0
 30
0.0
 40
3.2000000476837158
  1
4
 41
0.9523718177329771
  7
MX_NOTE_STANDARD
 11
200.90793161985115
 21
-117.39999997615814
 31
0.0
 73
               2
  0
POINT
  8
DEFPOINTS
  6
CONTINUOUS
 62
               0
  5
3EC
 10
200.0
 20
-124.5
 30
0.0
  0
POINT
  8
DEFPOINTS
  6
CONTINUOUS
 62
               0
  5
3ED
 10
204.0
 20
-125.0
 30
0.0
  0
POINT
  8
DEFPOINTS
  6
CONTINUOUS
 62
               0
  5
3EE
 10
204.0
 20
-120.0
 30
0.0
  0
ENDBLK
  8
0
  6
BYBLOCK
 62
               0
  5
3EF
  0
BLOCK
  8
0
  6
BYBLOCK
 62
               0
  5
3F2
  2
*D54
 70
               1
 10
0.0
 20
0.0
 30
0.0
  3
*D54
  0
LINE
  8
0
  6
CONTINUOUS
 62
             110
  5
3F3
 10
270.0
 20
-88.0
 30
0.0
 11
275.0
 21
-88.0
 31
0.0
  0
LINE
  8
0
  6
CONTINUOUS
 62
             110
  5
3F4
 10
270.0
 20
-93.0
 30
0.0
 11
270.0
 21
-87.0
 31
0.0
  0
LINE
  8
0
  6
CONTINUOUS
 62
             110
  5
3F5
 10
275.0
 20
-93.0
 30
0.0
 11
275.0
 21
-87.0
 31
0.0
  0
LINE
  8
0
  6
CONTINUOUS
 62
             110
  5
3F6
 10
270.0
 20
-88.0
 30
0.0
 11
266.0
 21
-88.0
 31
0.0
  0
LINE
  8
0
  6
CONTINUOUS
 62
             110
  5
3F7
 10
275.0
 20
-88.0
 30
0.0
 11
279.0
 21
-88.0
 31
0.0
  0
INSERT
  8
0
  6
CONTINUOUS
 62
             110
  5
3F8
  2
_OPEN30
 10
270.0
 20
-88.0
 30
0.0
 41
2.77
 42
2.77
 43
2.77
  0
INSERT
  8
0
  6
CONTINUOUS
 62
             110
  5
3F9
  2
_OPEN30
 10
275.0
 20
-88.0
 30
0.0
 41
2.77
 42
2.77
 50
180.0
 43
2.77
  0
TEXT
  8
0
  6
CONTINUOUS
 62
             110
  5
3FA
 10
271.40793161985118
 20
-87.0
 30
0.0
 40
3.2000000476837158
  1
5
 41
0.9523718177329771
  7
MX_NOTE_STANDARD
 11
271.40793161985118
 21
-85.399999976158142
 31
0.0
 73
               2
  0
POINT
  8
DEFPOINTS
  6
CONTINUOUS
 62
               0
  5
3FB
 10
270.0
 20
-95.0
 30
0.0
  0
POINT
  8
DEFPOINTS
  6
CONTINUOUS
 62
               0
  5
3FC
 10
275.0
 20
-95.0
 30
0.0
  0
POINT
  8
DEFPOINTS
  6
CONTINUOUS
 62
               0
  5
3FD
 10
275.0
 20
-88.0
 30
0.0
  0
ENDBLK
  8
0
  6
BYBLOCK
 62
               0
  5
3FE
  0
BLOCK
  8
0
  6
BYBLOCK
 62
               0
  5
411
  2
*D55
 70
               1
 10
0.0
 20
0.0
 30
0.0
  3
*D55
  0
LINE
  8
0
  6
CONTINUOUS
 62
             110
  5
412
 10
368.0
 20
24.0
 30
0.0
 11
373.0
 21
24.0
 31
0.0
  0
LINE
  8
0
  6
CONTINUOUS
 62
             110
  5
413
 10
373.0
 20
9.0
 30
0.0
 11
373.0
 21
25.0
 31
0.0
  0
LINE
  8
0
  6
CONTINUOUS
 62
             110
  5
414
 10
368.0
 20
24.0
 30
0.0
 11
364.0
 21
24.0
 31
0.0
  0
LINE
  8
0
  6
CONTINUOUS
 62
             110
  5
415
 10
373.0
 20
24.0
 30
0.0
 11
377.0
 21
24.0
 31
0.0
  0
INSERT
  8
0
  6
CONTINUOUS
 62
             110
  5
416
  2
_OPEN30
 10
368.0
 20
24.0
 30
0.0
 41
2.77
 42
2.77
 43
2.77
  0
INSERT
  8
0
  6
CONTINUOUS
 62
             110
  5
417
  2
_OPEN30
 10
373.0
 20
24.0
 30
0.0
 41
2.77
 42
2.77
 50
180.0
 43
2.77
  0
TEXT
  8
0
  6
CONTINUOUS
 62
             110
  5
418
 10
369.40793161985118
 20
25.0
 30
0.0
 40
3.2000000476837158
  1
5
 41
0.9523718177329771
  7
MX_NOTE_STANDARD
 11
369.40793161985118
 21
26.600000023841858
 31
0.0
 73
               2
  0
POINT
  8
DEFPOINTS
  6
CONTINUOUS
 62
               0
  5
419
 10
368.0
 20
7.5
 30
0.0
  0
POINT
  8
DEFPOINTS
  6
CONTINUOUS
 62
               0
  5
41A
 10
373.0
 20
7.0
 30
0.0
  0
POINT
  8
DEFPOINTS
  6
CONTINUOUS
 62
               0
  5
41B
 10
373.0
 20
24.0
 30
0.0
  0
ENDBLK
  8
0
  6
BYBLOCK
 62
               0
  5
41C
  0
BLOCK
  8
0
  6
BYBLOCK
 62
               0
  5
42F
  2
*D56
 70
               1
 10
0.0
 20
0.0
 30
0.0
  3
*D56
  0
LINE
  8
0
  6
CONTINUOUS
 62
             110
  5
430
 10
488.0
 20
48.0
 30
0.0
 11
493.0
 21
48.0
 31
0.0
  0
LINE
  8
0
  6
CONTINUOUS
 62
             110
  5
431
 10
493.0
 20
34.0
 30
0.0
 11
493.0
 21
49.0
 31
0.0
  0
LINE
  8
0
  6
CONTINUOUS
 62
             110
  5
432
 10
488.0
 20
48.0
 30
0.0
 11
484.0
 21
48.0
 31
0.0
  0
LINE
  8
0
  6
CONTINUOUS
 62
             110
  5
433
 10
493.0
 20
48.0
 30
0.0
 11
497.0
 21
48.0
 31
0.0
  0
INSERT
  8
0
  6
CONTINUOUS
 62
             110
  5
434
  2
_OPEN30
 10
488.0
 20
48.0
 30
0.0
 41
2.77
 42
2.77
 43
2.77
  0
INSERT
  8
0
  6
CONTINUOUS
 62
             110
  5
435
  2
_OPEN30
 10
493.0
 20
48.0
 30
0.0
 41
2.77
 42
2.77
 50
180.0
 43
2.77
  0
TEXT
  8
0
  6
CONTINUOUS
 62
             110
  5
436
 10
489.40793161985118
 20
49.0
 30
0.0
 40
3.2000000476837158
  1
5
 41
0.9523718177329771
  7
MX_NOTE_STANDARD
 11
489.40793161985118
 21
50.600000023841858
 31
0.0
 73
               2
  0
POINT
  8
DEFPOINTS
  6
CONTINUOUS
 62
               0
  5
437
 10
488.0
 20
32.5
 30
0.0
  0
POINT
  8
DEFPOINTS
  6
CONTINUOUS
 62
               0
  5
438
 10
493.0
 20
32.0
 30
0.0
  0
POINT
  8
DEFPOINTS
  6
CONTINUOUS
 62
               0
  5
439
 10
493.0
 20
48.0
 30
0.0
  0
ENDBLK
  8
0
  6
BYBLOCK
 62
               0
  5
43A
  0
ENDSEC
  0
SECTION
  2
ENTITIES
  0
LINE
  8
LY_3
  6
CONTINUOUS
 62
               3
  5
25
 10
28.50000367597201
 20
-8.0000051209685807
 30
0.0
 11
27.00000330584632
 21
-9.5000054910942708
 31
0.0
  0
LINE
  8
LY_3
  6
CONTINUOUS
 62
               3
  5
26
 10
26.999999999999972
 20
-9.5
 30
0.0
 11
26.999999999999972
 21
-11.0
 31
0.0
  0
LINE
  8
LY_3
  6
CONTINUOUS
 62
               3
  5
27
 10
28.499999999999972
 20
-8.0
 30
0.0
 11
28.499999999999972
 21
-4.0
 31
0.0
  0
LINE
  8
LY_3
  6
CONTINUOUS
 62
               3
  5
28
 10
30.000000337174782
 20
-9.5000011078217312
 30
0.0
 11
28.499999967049092
 21
-8.0000007376960411
 31
0.0
  0
LINE
  8
LY_3
  6
CONTINUOUS
 62
               3
  5
29
 10
28.500001652923146
 20
8.0000030979197163
 30
0.0
 11
27.000001282797456
 21
9.5000034680454064
 31
0.0
  0
LINE
  8
LY_3
  6
CONTINUOUS
 62
               3
  5
2A
 10
30.000000337174782
 20
9.5000011078217312
 30
0.0
 11
28.499999967049092
 21
8.0000007376960411
 31
0.0
  0
LINE
  8
LY_3
  6
CONTINUOUS
 62
               3
  5
2B
 10
26.999999999999972
 20
9.5
 30
0.0
 11
26.999999999999972
 21
11.000000000000014
 31
0.0
  0
LINE
  8
LY_3
  6
CONTINUOUS
 62
               3
  5
2C
 10
28.499999999999972
 20
8.0
 30
0.0
 11
28.499999999999972
 21
4.0
 31
0.0
  0
LINE
  8
LY_3
  6
CONTINUOUS
 62
               3
  5
2D
 10
1.4999963240279612
 20
-8.0000051209685807
 30
0.0
 11
2.9999966941536513
 21
-9.5000054910942708
 31
0.0
  0
LINE
  8
LY_3
  6
CONTINUOUS
 62
               3
  5
2E
 10
3.0
 20
-9.5
 30
0.0
 11
3.0
 21
-11.0
 31
0.0
  0
LINE
  8
LY_3
  6
CONTINUOUS
 62
               3
  5
2F
 10
1.5
 20
-8.0
 30
0.0
 11
1.5
 21
-4.0
 31
0.0
  0
LINE
  8
LY_3
  6
CONTINUOUS
 62
               3
  5
30
 10
-0.000000337174809
 20
-9.5000011078217312
 30
0.0
 11
1.5000000329508794
 21
-8.0000007376960411
 31
0.0
  0
LINE
  8
LY_3
  6
CONTINUOUS
 62
               3
  5
31
 10
1.4999983470768257
 20
8.0000030979197163
 30
0.0
 11
2.9999987172025158
 21
9.5000034680454064
 31
0.0
  0
LINE
  8
LY_3
  6
CONTINUOUS
 62
               3
  5
32
 10
-0.000000337174809
 20
9.5000011078217312
 30
0.0
 11
1.5000000329508794
 21
8.0000007376960411
 31
0.0
  0
LINE
  8
LY_3
  6
CONTINUOUS
 62
               3
  5
33
 10
3.0
 20
9.5
 30
0.0
 11
3.0
 21
11.000000000000014
 31
0.0
  0
LINE
  8
LY_3
  6
CONTINUOUS
 62
               3
  5
34
 10
1.5
 20
8.0
 30
0.0
 11
1.5
 21
4.0
 31
0.0
  0
DIMENSION
  8
LY_3
  6
CONTINUOUS
 62
             110
  5
42
  2
*D1
 10
328.0
 20
64.0
 30
0.0
 11
313.0
 21
64.0
 31
0.0
 70
             128
  1
<>
 13
298.0
 23
47.0
 33
0.0
 14
328.0
 24
47.0
 34
0.0
  3
MXDIMSTYLE
1001
ACAD
1000
DSTYLE
1002
{
1070
              41
1040
2.77
1070
              44
1040
2.2859992980957031
1070
             140
1040
3.2000000476837158
1070
             271
1070
               0
1070
             284
1070
               8
1070
             340
1005
3C
1002
}
  0
DIMENSION
  8
LY_3
  6
CONTINUOUS
 62
             110
  5
4F
  2
*D2
 10
278.0
 20
56.0
 30
0.0
 11
263.0
 21
56.0
 31
0.0
 70
             128
  1
<>
 13
248.0
 23
45.0
 33
0.0
 14
278.0
 24
45.0
 34
0.0
  3
MXDIMSTYLE
1001
ACAD
1000
DSTYLE
1002
{
1070
              41
1040
2.77
1070
              44
1040
2.2859992980957031
1070
             140
1040
3.2000000476837158
1070
             271
1070
               0
1070
             284
1070
               8
1070
             340
1005
3C
1002
}
  0
DIMENSION
  8
LY_3
  6
CONTINUOUS
 62
             110
  5
5C
  2
*D3
 10
228.0
 20
48.0
 30
0.0
 11
213.0
 21
48.0
 31
0.0
 70
             128
  1
<>
 13
198.0
 23
35.0
 33
0.0
 14
228.0
 24
35.0
 34
0.0
  3
MXDIMSTYLE
1001
ACAD
1000
DSTYLE
1002
{
1070
              41
1040
2.77
1070
              44
1040
2.2859992980957031
1070
             140
1040
3.2000000476837158
1070
             271
1070
               0
1070
             284
1070
               8
1070
             340
1005
3C
1002
}
  0
DIMENSION
  8
LY_3
  6
CONTINUOUS
 62
             110
  5
69
  2
*D4
 10
178.0
 20
40.0
 30
0.0
 11
163.0
 21
40.0
 31
0.0
 70
             128
  1
<>
 13
148.0
 23
25.5
 33
0.0
 14
178.0
 24
25.5
 34
0.0
  3
MXDIMSTYLE
1001
ACAD
1000
DSTYLE
1002
{
1070
              41
1040
2.77
1070
              44
1040
2.2859992980957031
1070
             140
1040
3.2000000476837158
1070
             271
1070
               0
1070
             284
1070
               8
1070
             340
1005
3C
1002
}
  0
DIMENSION
  8
LY_3
  6
CONTINUOUS
 62
             110
  5
76
  2
*D5
 10
128.0
 20
32.0
 30
0.0
 11
113.0
 21
32.0
 31
0.0
 70
             128
  1
<>
 13
98.0
 23
18.0
 33
0.0
 14
128.0
 24
18.0
 34
0.0
  3
MXDIMSTYLE
1001
ACAD
1000
DSTYLE
1002
{
1070
              41
1040
2.77
1070
              44
1040
2.2859992980957031
1070
             140
1040
3.2000000476837158
1070
             271
1070
               0
1070
             284
1070
               8
1070
             340
1005
3C
1002
}
  0
DIMENSION
  8
LY_3
  6
CONTINUOUS
 62
             110
  5
83
  2
*D6
 10
80.0
 20
32.0
 30
0.0
 11
65.0
 21
32.0
 31
0.0
 70
             128
  1
<>
 13
50.0
 23
15.0
 33
0.0
 14
80.0
 24
15.0
 34
0.0
  3
MXDIMSTYLE
1001
ACAD
1000
DSTYLE
1002
{
1070
              41
1040
2.77
1070
              44
1040
2.2859992980957031
1070
             140
1040
3.2000000476837158
1070
             271
1070
               0
1070
             284
1070
               8
1070
             340
1005
3C
1002
}
  0
DIMENSION
  8
LY_3
  6
CONTINUOUS
 62
             110
  5
90
  2
*D7
 10
30.0
 20
24.0
 30
0.0
 11
15.0
 21
24.0
 31
0.0
 70
             128
  1
<>
 13
0.0
 23
11.0
 33
0.0
 14
30.0
 24
11.0
 34
0.0
  3
MXDIMSTYLE
1001
ACAD
1000
DSTYLE
1002
{
1070
              41
1040
2.77
1070
              44
1040
2.2859992980957031
1070
             140
1040
3.2000000476837158
1070
             271
1070
               0
1070
             284
1070
               8
1070
             340
1005
3C
1002
}
  0
DIMENSION
  8
LY_3
  6
CONTINUOUS
 62
             110
  5
9B
  2
*D8
 10
310.0
 20
-35.0
 30
0.0
 11
310.0
 21
0.0
 31
0.0
 70
             128
  1
%%c<>
 13
305.0
 23
35.0
 33
0.0
 14
305.0
 24
-35.0
 34
0.0
 50
90.0
  3
MXDIMSTYLE
1001
ACAD
1000
DSTYLE
1002
{
1070
              41
1040
2.77
1070
              75
1070
               1
1070
              76
1070
               1
1070
             140
1040
3.2000000476837158
1070
             271
1070
               0
1070
             284
1070
               8
1002
}
  0
DIMENSION
  8
LY_3
  6
CONTINUOUS
 62
             110
  5
A6
  2
*D9
 10
318.0
 20
47.0
 30
0.0
 11
318.0
 21
0.0
 31
0.0
 70
             128
  1
%%c<>
 13
328.0
 23
-47.0
 33
0.0
 14
328.0
 24
47.0
 34
0.0
 50
90.0
  3
MXDIMSTYLE
1001
ACAD
1000
DSTYLE
1002
{
1070
              41
1040
2.77
1070
              75
1070
               1
1070
              76
1070
               1
1070
             140
1040
3.2000000476837158
1070
             271
1070
               0
1070
             284
1070
               8
1002
}
  0
DIMENSION
  8
LY_3
  6
CONTINUOUS
 62
             110
  5
B1
  2
*D10
 10
260.0
 20
-30.0
 30
0.0
 11
260.0
 21
0.0
 31
0.0
 70
             128
  1
%%c<>
 13
255.0
 23
30.0
 33
0.0
 14
255.0
 24
-30.0
 34
0.0
 50
90.0
  3
MXDIMSTYLE
1001
ACAD
1000
DSTYLE
1002
{
1070
              41
1040
2.77
1070
              75
1070
               1
1070
              76
1070
               1
1070
             140
1040
3.2000000476837158
1070
             271
1070
               0
1070
             284
1070
               8
1002
}
  0
DIMENSION
  8
LY_3
  6
CONTINUOUS
 62
             110
  5
BC
  2
*D11
 10
268.0
 20
45.0
 30
0.0
 11
268.0
 21
0.0
 31
0.0
 70
             128
  1
%%c<>
 13
278.0
 23
-45.0
 33
0.0
 14
278.0
 24
45.0
 34
0.0
 50
90.0
  3
MXDIMSTYLE
1001
ACAD
1000
DSTYLE
1002
{
1070
              41
1040
2.77
1070
              75
1070
               1
1070
              76
1070
               1
1070
             140
1040
3.2000000476837158
1070
             271
1070
               0
1070
             284
1070
               8
1002
}
  0
DIMENSION
  8
LY_3
  6
CONTINUOUS
 62
             110
  5
C7
  2
*D12
 10
210.0
 20
-25.0
 30
0.0
 11
210.0
 21
0.0
 31
0.0
 70
             128
  1
%%c<>
 13
205.0
 23
25.0
 33
0.0
 14
205.0
 24
-25.0
 34
0.0
 50
90.0
  3
MXDIMSTYLE
1001
ACAD
1000
DSTYLE
1002
{
1070
              41
1040
2.77
1070
              75
1070
               1
1070
              76
1070
               1
1070
             140
1040
3.2000000476837158
1070
             271
1070
               0
1070
             284
1070
               8
1002
}
  0
DIMENSION
  8
LY_3
  6
CONTINUOUS
 62
             110
  5
D2
  2
*D13
 10
218.0
 20
35.0
 30
0.0
 11
218.0
 21
0.0
 31
0.0
 70
             128
  1
%%c<>
 13
228.0
 23
-35.0
 33
0.0
 14
228.0
 24
35.0
 34
0.0
 50
90.0
  3
MXDIMSTYLE
1001
ACAD
1000
DSTYLE
1002
{
1070
              41
1040
2.77
1070
              75
1070
               1
1070
              76
1070
               1
1070
             140
1040
3.2000000476837158
1070
             271
1070
               0
1070
             284
1070
               8
1002
}
  0
DIMENSION
  8
LY_3
  6
CONTINUOUS
 62
             110
  5
DD
  2
*D14
 10
160.0
 20
-18.0
 30
0.0
 11
160.0
 21
0.0
 31
0.0
 70
             128
  1
%%c<>
 13
155.0
 23
18.0
 33
0.0
 14
155.0
 24
-18.0
 34
0.0
 50
90.0
  3
MXDIMSTYLE
1001
ACAD
1000
DSTYLE
1002
{
1070
              41
1040
2.77
1070
              75
1070
               1
1070
              76
1070
               1
1070
             140
1040
3.2000000476837158
1070
             271
1070
               0
1070
             284
1070
               8
1002
}
  0
DIMENSION
  8
LY_3
  6
CONTINUOUS
 62
             110
  5
E9
  2
*D15
 10
168.0
 20
25.5
 30
0.0
 11
168.0
 21
0.0
 31
0.0
 70
             128
  1
%%c<>
 13
178.0
 23
-25.5
 33
0.0
 14
178.0
 24
25.5
 34
0.0
 50
90.0
  3
MXDIMSTYLE
1001
ACAD
1000
DSTYLE
1002
{
1070
              41
1040
2.77
1070
              75
1070
               1
1070
              76
1070
               1
1070
             140
1040
3.2000000476837158
1070
             271
1070
               0
1070
             284
1070
               8
1070
             340
1005
E3
1002
}
  0
DIMENSION
  8
LY_3
  6
CONTINUOUS
 62
             110
  5
F4
  2
*D16
 10
110.0
 20
11.0
 30
0.0
 11
110.0
 21
0.0
 31
0.0
 70
             128
  1
%%c<>
 13
121.0
 23
-11.0
 33
0.0
 14
121.0
 24
11.0
 34
0.0
 50
90.0
  3
MXDIMSTYLE
1001
ACAD
1000
DSTYLE
1002
{
1070
              41
1040
2.77
1070
              75
1070
               1
1070
              76
1070
               1
1070
             140
1040
3.2000000476837158
1070
             271
1070
               0
1070
             284
1070
               8
1002
}
  0
DIMENSION
  8
LY_3
  6
CONTINUOUS
 62
             110
  5
FF
  2
*D17
 10
118.0
 20
18.0
 30
0.0
 11
118.0
 21
0.0
 31
0.0
 70
             128
  1
%%c<>
 13
120.0
 23
-18.0
 33
0.0
 14
120.0
 24
18.0
 34
0.0
 50
90.0
  3
MXDIMSTYLE
1001
ACAD
1000
DSTYLE
1002
{
1070
              41
1040
2.77
1070
              75
1070
               1
1070
              76
1070
               1
1070
             140
1040
3.2000000476837158
1070
             271
1070
               0
1070
             284
1070
               8
1002
}
  0
DIMENSION
  8
LY_3
  6
CONTINUOUS
 62
             110
  5
10A
  2
*D18
 10
63.0
 20
-8.5
 30
0.0
 11
63.0
 21
0.0
 31
0.0
 70
             128
  1
%%c<>
 13
58.0
 23
8.5
 33
0.0
 14
58.0
 24
-8.5
 34
0.0
 50
90.0
  3
MXDIMSTYLE
1001
ACAD
1000
DSTYLE
1002
{
1070
              41
1040
2.77
1070
              75
1070
               1
1070
              76
1070
               1
1070
             140
1040
3.2000000476837158
1070
             271
1070
               0
1070
             284
1070
               8
1070
             340
1005
E3
1002
}
  0
DIMENSION
  8
LY_3
  6
CONTINUOUS
 62
             110
  5
115
  2
*D19
 10
71.0
 20
15.0
 30
0.0
 11
71.0
 21
0.0
 31
0.0
 70
             128
  1
%%c<>
 13
81.0
 23
-15.0
 33
0.0
 14
81.0
 24
15.0
 34
0.0
 50
90.0
  3
MXDIMSTYLE
1001
ACAD
1000
DSTYLE
1002
{
1070
              41
1040
2.77
1070
              75
1070
               1
1070
              76
1070
               1
1070
             140
1040
3.2000000476837158
1070
             271
1070
               0
1070
             284
1070
               8
1002
}
  0
DIMENSION
  8
LY_3
  6
CONTINUOUS
 62
             110
  5
120
  2
*D20
 10
18.0
 20
11.0
 30
0.0
 11
18.0
 21
0.0
 31
0.0
 70
             128
  1
<>
 13
24.0
 23
-11.0
 33
0.0
 14
24.0
 24
11.0
 34
0.0
 50
90.0
  3
MXDIMSTYLE
1001
ACAD
1000
DSTYLE
1002
{
1070
              41
1040
2.77
1070
              75
1070
               1
1070
              76
1070
               1
1070
             140
1040
3.2000000476837158
1070
             271
1070
               0
1070
             284
1070
               8
1002
}
  0
DIMENSION
  8
LY_3
  6
CONTINUOUS
 62
             110
  5
12D
  2
*D21
 10
10.0
 20
-4.0
 30
0.0
 11
10.0
 21
0.0
 31
0.0
 70
             128
  1
<>
 13
1.0
 23
4.0
 33
0.0
 14
1.0
 24
-4.0
 34
0.0
 50
90.0
  3
MXDIMSTYLE
1001
ACAD
1000
DSTYLE
1002
{
1070
              41
1040
2.77
1070
              75
1070
               1
1070
              76
1070
               1
1070
             140
1040
3.2000000476837158
1070
             271
1070
               0
1070
             284
1070
               8
1002
}
  0
TEXT
  8
LY_3
  6
CONTINUOUS
 62
             110
  5
12E
 10
292.65021652617918
 20
-56.927702845753849
 30
0.0
 40
4.2000002861022949
  1
NS(A)xxx94
 41
1.0714285668669918
  7
MX_NOTE_STANDARD
 11
292.65021652617918
 21
-52.727702559651554
 31
0.0
 73
               3
  0
TEXT
  8
LY_3
  6
CONTINUOUS
 62
             110
  5
12F
 10
241.79524601848794
 20
-55.09324338629439
 30
0.0
 40
4.2000002861022949
  1
NS(A)xxx90
 41
1.0909090885446091
  7
MX_NOTE_STANDARD
 11
241.79524601848794
 21
-50.893243100192095
 31
0.0
 73
               3
  0
TEXT
  8
LY_3
  6
CONTINUOUS
 62
             110
  5
130
 10
192.09930007254201
 20
-47.296790683591695
 30
0.0
 40
4.2000002861022949
  1
NS(A)xxx70
 41
1.0909090885446091
  7
MX_NOTE_STANDARD
 11
192.09930007254201
 21
-43.0967903974894
 31
0.0
 73
               3
  0
TEXT
  8
LY_3
  6
CONTINUOUS
 62
             110
  5
131
 10
143.5384139732765
 20
-39.041723116024123
 30
0.0
 40
4.2000002861022949
  1
NS(A)xxx51
 41
1.111111103752513
  7
MX_NOTE_STANDARD
 11
143.5384139732765
 21
-34.841722829921828
 31
0.0
 73
               3
  0
TEXT
  8
LY_3
  6
CONTINUOUS
 62
             110
  5
132
 10
91.266770580233171
 20
-34.45557446737547
 30
0.0
 40
4.2000002861022949
  1
NS(A)xxx36
 41
1.0714285668669918
  7
MX_NOTE_STANDARD
 11
91.266770580233171
 21
-30.255574181273175
 31
0.0
 73
               3
  0
TEXT
  8
LY_3
  6
CONTINUOUS
 62
             110
  5
133
 10
42.666867640109587
 20
-31.245270413321421
 30
0.0
 40
4.2000002861022949
  1
NS(A)xxx30
 41
1.0909090885446091
  7
MX_NOTE_STANDARD
 11
42.666867640109587
 21
-27.045270127219126
 31
0.0
 73
               3
  0
TEXT
  8
LY_3
  6
CONTINUOUS
 62
             110
  5
134
 10
-6.1631280684154479
 20
-26.200506899807905
 30
0.0
 40
4.2000002861022949
  1
NS(A)xxx22
 41
1.0714285668669918
  7
MX_NOTE_STANDARD
 11
-6.1631280684154479
 21
-22.00050661370561
 31
0.0
 73
               3
  0
LINE
  8
LY_3
  6
CENTER
 62
             110
  5
136
 10
292.83722621530927
 20
0.0
 30
0.0
 11
302.29192420188645
 21
0.0
 31
0.0
  0
LINE
  8
LY_3
  6
CENTER
 62
             110
  5
137
 10
242.1090382958462
 20
0.0
 30
0.0
 11
252.64427319517506
 21
0.0
 31
0.0
  0
LINE
  8
LY_3
  6
CENTER
 62
             110
  5
138
 10
270.20299802738981
 20
0.0
 30
0.0
 11
282.62917252403412
 21
0.0
 31
0.0
  0
LINE
  8
LY_3
  6
CENTER
 62
             110
  5
139
 10
219.57883695356432
 20
0.0
 30
0.0
 11
232.54527990658445
 21
0.0
 31
0.0
  0
LINE
  8
LY_3
  6
CENTER
 62
             110
  5
13A
 10
71.77048921299658
 20
0.0
 30
0.0
 11
84.926426032786168
 21
0.0
 31
0.0
  0
LINE
  8
LY_3
  6
CENTER
 62
             110
  5
13B
 10
19.286386297161272
 20
0.0
 30
0.0
 11
32.165540540540547
 21
0.0
 31
0.0
  0
LINE
  8
LY_3
  6
CENTER
 62
             110
  5
13C
 10
46.121144765780883
 20
0.0
 30
0.0
 11
56.437670761155459
 21
0.0
 31
0.0
  0
LINE
  8
LY_3
  6
CENTER
 62
             110
  5
13D
 10
120.14260815193377
 20
0.0
 30
0.0
 11
131.97009480794026
 21
0.0
 31
0.0
  0
LINE
  8
LY_3
  6
CENTER
 62
             110
  5
13E
 10
169.86592157250038
 20
0.0
 30
0.0
 11
181.57147537638309
 21
0.0
 31
0.0
  0
LINE
  8
LY_3
  6
CENTER
 62
             110
  5
13F
 10
193.91608527571196
 20
0.0
 30
0.0
 11
202.29024634953748
 21
0.0
 31
0.0
  0
LINE
  8
LY_3
  6
CENTER
 62
             110
  5
140
 10
319.85064903410125
 20
0.0
 30
0.0
 11
332.81709198712133
 21
0.0
 31
0.0
  0
LINE
  8
LY_3
  6
CENTER
 62
             110
  5
141
 10
143.04069410526921
 20
0.0
 30
0.0
 11
152.91725512729522
 21
0.0
 31
0.0
  0
LINE
  8
LY_3
  6
CENTER
 62
             110
  5
142
 10
94.658642058064132
 20
0.0
 30
0.0
 11
103.19394170672859
 21
0.0
 31
0.0
  0
LINE
  8
LY_3
  6
CONTINUOUS
 62
               3
  5
143
 10
328.0
 20
-47.0
 30
0.0
 11
328.0
 21
47.0
 31
0.0
  0
LINE
  8
LY_3
  6
CONTINUOUS
 62
               3
  5
144
 10
298.0
 20
-47.0
 30
0.0
 11
298.0
 21
47.0
 31
0.0
  0
LINE
  8
LY_3
  6
PHANTOM
 62
             110
  5
146
 10
302.0
 20
-47.0
 30
0.0
 11
324.0
 21
-47.0
 31
0.0
  0
LINE
  8
LY_3
  6
PHANTOM
 62
             110
  5
147
 10
300.0
 20
-35.0
 30
0.0
 11
326.0
 21
-35.0
 31
0.0
  0
LINE
  8
LY_3
  6
PHANTOM
 62
             110
  5
148
 10
302.0
 20
47.0
 30
0.0
 11
324.0
 21
47.0
 31
0.0
  0
LINE
  8
LY_3
  6
PHANTOM
 62
             110
  5
149
 10
300.0
 20
35.0
 30
0.0
 11
326.0
 21
35.0
 31
0.0
  0
LINE
  8
LY_3
  6
CONTINUOUS
 62
               3
  5
14A
 10
278.0
 20
-45.0
 30
0.0
 11
278.0
 21
45.0
 31
0.0
  0
LINE
  8
LY_3
  6
CONTINUOUS
 62
               3
  5
14B
 10
248.0
 20
-45.0
 30
0.0
 11
248.0
 21
45.0
 31
0.0
  0
LINE
  8
LY_3
  6
PHANTOM
 62
             110
  5
14C
 10
252.0
 20
-45.0
 30
0.0
 11
274.0
 21
-45.0
 31
0.0
  0
LINE
  8
LY_3
  6
PHANTOM
 62
             110
  5
14D
 10
250.0
 20
-30.0
 30
0.0
 11
276.0
 21
-30.0
 31
0.0
  0
LINE
  8
LY_3
  6
PHANTOM
 62
             110
  5
14E
 10
252.0
 20
45.0
 30
0.0
 11
274.0
 21
45.0
 31
0.0
  0
LINE
  8
LY_3
  6
PHANTOM
 62
             110
  5
14F
 10
250.0
 20
30.0
 30
0.0
 11
276.0
 21
30.0
 31
0.0
  0
LINE
  8
LY_3
  6
CONTINUOUS
 62
               3
  5
150
 10
228.0
 20
-35.0
 30
0.0
 11
228.0
 21
35.0
 31
0.0
  0
LINE
  8
LY_3
  6
CONTINUOUS
 62
               3
  5
151
 10
198.0
 20
-35.0
 30
0.0
 11
198.0
 21
35.0
 31
0.0
  0
LINE
  8
LY_3
  6
PHANTOM
 62
             110
  5
152
 10
201.0
 20
-35.0
 30
0.0
 11
225.0
 21
-35.0
 31
0.0
  0
LINE
  8
LY_3
  6
PHANTOM
 62
             110
  5
153
 10
199.5
 20
-25.0
 30
0.0
 11
226.5
 21
-25.0
 31
0.0
  0
LINE
  8
LY_3
  6
PHANTOM
 62
             110
  5
154
 10
201.0
 20
35.0
 30
0.0
 11
225.0
 21
35.0
 31
0.0
  0
LINE
  8
LY_3
  6
PHANTOM
 62
             110
  5
155
 10
199.5
 20
25.0
 30
0.0
 11
226.5
 21
25.0
 31
0.0
  0
LINE
  8
LY_3
  6
CONTINUOUS
 62
               3
  5
156
 10
178.0
 20
-25.5
 30
0.0
 11
178.0
 21
25.5
 31
0.0
  0
LINE
  8
LY_3
  6
CONTINUOUS
 62
               3
  5
157
 10
148.0
 20
-25.5
 30
0.0
 11
148.0
 21
25.5
 31
0.0
  0
LINE
  8
LY_3
  6
PHANTOM
 62
             110
  5
158
 10
151.0
 20
-25.5
 30
0.0
 11
175.0
 21
-25.5
 31
0.0
  0
LINE
  8
LY_3
  6
PHANTOM
 62
             110
  5
159
 10
149.5
 20
-18.0
 30
0.0
 11
176.5
 21
-18.0
 31
0.0
  0
LINE
  8
LY_3
  6
PHANTOM
 62
             110
  5
15A
 10
151.0
 20
25.5
 30
0.0
 11
175.0
 21
25.5
 31
0.0
  0
LINE
  8
LY_3
  6
PHANTOM
 62
             110
  5
15B
 10
149.5
 20
18.0
 30
0.0
 11
176.5
 21
18.0
 31
0.0
  0
LINE
  8
LY_3
  6
CONTINUOUS
 62
               3
  5
15C
 10
128.0
 20
-18.0
 30
0.0
 11
128.0
 21
18.0
 31
0.0
  0
LINE
  8
LY_3
  6
CONTINUOUS
 62
               3
  5
15D
 10
98.0
 20
-18.000000000000014
 30
0.0
 11
98.0
 21
18.000000000000014
 31
0.0
  0
LINE
  8
LY_3
  6
PHANTOM
 62
             110
  5
15E
 10
101.0
 20
-18.0
 30
0.0
 11
125.0
 21
-18.0
 31
0.0
  0
LINE
  8
LY_3
  6
PHANTOM
 62
             110
  5
15F
 10
99.5
 20
-11.0
 30
0.0
 11
126.5
 21
-11.0
 31
0.0
  0
LINE
  8
LY_3
  6
PHANTOM
 62
             110
  5
160
 10
101.0
 20
18.0
 30
0.0
 11
125.0
 21
18.0
 31
0.0
  0
LINE
  8
LY_3
  6
PHANTOM
 62
             110
  5
161
 10
99.5
 20
11.0
 30
0.0
 11
126.5
 21
11.0
 31
0.0
  0
LINE
  8
LY_3
  6
CONTINUOUS
 62
               3
  5
162
 10
80.0
 20
-15.0
 30
0.0
 11
80.0
 21
15.0
 31
0.0
  0
LINE
  8
LY_3
  6
CONTINUOUS
 62
               3
  5
163
 10
50.0
 20
-15.0
 30
0.0
 11
50.0
 21
15.0
 31
0.0
  0
LINE
  8
LY_3
  6
PHANTOM
 62
             110
  5
164
 10
53.0
 20
-15.0
 30
0.0
 11
77.0
 21
-15.0
 31
0.0
  0
LINE
  8
LY_3
  6
PHANTOM
 62
             110
  5
165
 10
51.5
 20
-8.5
 30
0.0
 11
78.5
 21
-8.5
 31
0.0
  0
LINE
  8
LY_3
  6
PHANTOM
 62
             110
  5
166
 10
53.0
 20
15.0
 30
0.0
 11
77.0
 21
15.0
 31
0.0
  0
LINE
  8
LY_3
  6
PHANTOM
 62
             110
  5
167
 10
51.5
 20
8.5
 30
0.0
 11
78.5
 21
8.5
 31
0.0
  0
LINE
  8
LY_3
  6
CONTINUOUS
 62
               3
  5
168
 10
30.0
 20
-11.0
 30
0.0
 11
30.0
 21
11.0
 31
0.0
  0
LINE
  8
LY_3
  6
CONTINUOUS
 62
               3
  5
169
 10
0.0
 20
-11.0
 30
0.0
 11
0.0
 21
11.0
 31
0.0
  0
LINE
  8
LY_3
  6
PHANTOM
 62
             110
  5
16A
 10
3.0
 20
-11.0
 30
0.0
 11
26.999999999999972
 21
-11.0
 31
0.0
  0
LINE
  8
LY_3
  6
PHANTOM
 62
             110
  5
16B
 10
1.5
 20
-4.0
 30
0.0
 11
28.499999999999972
 21
-4.0
 31
0.0
  0
LINE
  8
LY_3
  6
PHANTOM
 62
             110
  5
16C
 10
3.0
 20
11.0
 30
0.0
 11
26.999999999999972
 21
11.0
 31
0.0
  0
LINE
  8
LY_3
  6
PHANTOM
 62
             110
  5
16D
 10
1.5
 20
4.0
 30
0.0
 11
28.499999999999972
 21
4.0
 31
0.0
  0
LINE
  8
LY_3
  6
CENTER
 62
             110
  5
16E
 10
-2.8284332203428164
 20
0.0
 30
0.0
 11
4.4268029827226769
 21
0.0
 31
0.0
  0
LINE
  8
LY_3
  6
CENTER
 62
             110
  5
16F
 10
304.23308430074371
 20
-200.0
 30
0.0
 11
318.0
 21
-200.0
 31
0.0
  0
TEXT
  8
LY_3
  6
CONTINUOUS
 62
             110
  5
170
 10
267.17689052248716
 20
-317.25540554845657
 30
0.0
 40
4.2000002861022949
  1
NS(A)xxx210
 41
1.1186440632761776
  7
MX_NOTE_STANDARD
 11
267.17689052248716
 21
-313.05540526235427
 31
0.0
 73
               3
  0
DIMENSION
  8
LY_3
  6
CONTINUOUS
 62
             110
  5
17D
  2
*D22
 10
100.0
 20
-128.0
 30
0.0
 11
80.0
 21
-128.0
 31
0.0
 70
             128
  1
<>
 13
60.0
 23
-140.0
 33
0.0
 14
100.0
 24
-140.0
 34
0.0
  3
MXDIMSTYLE
1001
ACAD
1000
DSTYLE
1002
{
1070
              41
1040
2.77
1070
              44
1040
2.2859992980957031
1070
             140
1040
3.2000000476837158
1070
             271
1070
               0
1070
             284
1070
               8
1070
             340
1005
3C
1002
}
  0
DIMENSION
  8
LY_3
  6
CONTINUOUS
 62
             110
  5
188
  2
*D23
 10
80.0
 20
-245.0
 30
0.0
 11
80.0
 21
-200.0
 31
0.0
 70
             128
  1
%%c<>
 13
63.0
 23
-155.0
 33
0.0
 14
63.0
 24
-245.0
 34
0.0
 50
90.0
  3
MXDIMSTYLE
1001
ACAD
1000
DSTYLE
1002
{
1070
              41
1040
2.77
1070
              75
1070
               1
1070
              76
1070
               1
1070
             140
1040
3.2000000476837158
1070
             271
1070
               0
1070
             284
1070
               8
1002
}
  0
DIMENSION
  8
LY_3
  6
CONTINUOUS
 62
             110
  5
193
  2
*D24
 10
90.0
 20
-140.0
 30
0.0
 11
90.0
 21
-200.0
 31
0.0
 70
             128
  1
%%c<>
 13
96.0
 23
-260.0
 33
0.0
 14
96.0
 24
-140.0
 34
0.0
 50
90.0
  3
MXDIMSTYLE
1001
ACAD
1000
DSTYLE
1002
{
1070
              41
1040
2.77
1070
              75
1070
               1
1070
              76
1070
               1
1070
             140
1040
3.2000000476837158
1070
             271
1070
               0
1070
             284
1070
               8
1070
             340
1005
3C
1002
}
  0
DIMENSION
  8
LY_3
  6
CONTINUOUS
 62
             110
  5
1A0
  2
*D25
 10
310.0
 20
-80.0
 30
0.0
 11
290.0
 21
-80.0
 31
0.0
 70
             128
  1
<>
 13
270.0
 23
-95.0
 33
0.0
 14
310.0
 24
-95.0
 34
0.0
  3
MXDIMSTYLE
1001
ACAD
1000
DSTYLE
1002
{
1070
              41
1040
2.77
1070
              44
1040
2.2859992980957031
1070
             140
1040
3.2000000476837158
1070
             271
1070
               0
1070
             284
1070
               8
1070
             340
1005
3C
1002
}
  0
DIMENSION
  8
LY_3
  6
CONTINUOUS
 62
             110
  5
1AB
  2
*D26
 10
290.0
 20
-280.0
 30
0.0
 11
290.0
 21
-200.0
 31
0.0
 70
             128
  1
%%c<>
 13
273.0
 23
-120.0
 33
0.0
 14
273.0
 24
-280.0
 34
0.0
 50
90.0
  3
MXDIMSTYLE
1001
ACAD
1000
DSTYLE
1002
{
1070
              41
1040
2.77
1070
              75
1070
               1
1070
              76
1070
               1
1070
             140
1040
3.2000000476837158
1070
             271
1070
               0
1070
             284
1070
               8
1070
             340
1005
3C
1002
}
  0
DIMENSION
  8
LY_3
  6
CONTINUOUS
 62
             110
  5
1B6
  2
*D27
 10
300.0
 20
-95.000000000000028
 30
0.0
 11
300.0
 21
-200.0
 31
0.0
 70
             128
  1
%%c<>
 13
306.0
 23
-305.0
 33
0.0
 14
306.0
 24
-95.000000000000028
 34
0.0
 50
90.0
  3
MXDIMSTYLE
1001
ACAD
1000
DSTYLE
1002
{
1070
              41
1040
2.77
1070
              75
1070
               1
1070
              76
1070
               1
1070
             140
1040
3.2000000476837158
1070
             271
1070
               0
1070
             284
1070
               8
1070
             340
1005
3C
1002
}
  0
DIMENSION
  8
LY_3
  6
CONTINUOUS
 62
             110
  5
1C3
  2
*D28
 10
240.0
 20
-112.0
 30
0.0
 11
220.0
 21
-112.0
 31
0.0
 70
             128
  1
<>
 13
200.0
 23
-125.0
 33
0.0
 14
240.0
 24
-125.0
 34
0.0
  3
MXDIMSTYLE
1001
ACAD
1000
DSTYLE
1002
{
1070
              41
1040
2.77
1070
              44
1040
2.2859992980957031
1070
             140
1040
3.2000000476837158
1070
             271
1070
               0
1070
             284
1070
               8
1070
             340
1005
3C
1002
}
  0
DIMENSION
  8
LY_3
  6
CONTINUOUS
 62
             110
  5
1D0
  2
*D29
 10
170.0
 20
-112.0
 30
0.0
 11
150.0
 21
-112.0
 31
0.0
 70
             128
  1
<>
 13
130.0
 23
-125.0
 33
0.0
 14
170.0
 24
-125.0
 34
0.0
  3
MXDIMSTYLE
1001
ACAD
1000
DSTYLE
1002
{
1070
              41
1040
2.77
1070
              44
1040
2.2859992980957031
1070
             140
1040
3.2000000476837158
1070
             271
1070
               0
1070
             284
1070
               8
1070
             340
1005
3C
1002
}
  0
DIMENSION
  8
LY_3
  6
CONTINUOUS
 62
             110
  5
1DD
  2
*D30
 10
30.0
 20
-128.0
 30
0.0
 11
10.0
 21
-128.0
 31
0.0
 70
             128
  1
<>
 13
-10.0
 23
-145.5
 33
0.0
 14
30.0
 24
-145.5
 34
0.0
  3
MXDIMSTYLE
1001
ACAD
1000
DSTYLE
1002
{
1070
              41
1040
2.77
1070
              44
1040
2.2859992980957031
1070
             140
1040
3.2000000476837158
1070
             271
1070
               0
1070
             284
1070
               8
1070
             340
1005
3C
1002
}
  0
DIMENSION
  8
LY_3
  6
CONTINUOUS
 62
             110
  5
1E8
  2
*D31
 10
220.0
 20
-260.0
 30
0.0
 11
220.0
 21
-200.0
 31
0.0
 70
             128
  1
%%c<>
 13
203.0
 23
-140.0
 33
0.0
 14
203.0
 24
-260.0
 34
0.0
 50
90.0
  3
MXDIMSTYLE
1001
ACAD
1000
DSTYLE
1002
{
1070
              41
1040
2.77
1070
              75
1070
               1
1070
              76
1070
               1
1070
             140
1040
3.2000000476837158
1070
             271
1070
               0
1070
             284
1070
               8
1070
             340
1005
3C
1002
}
  0
DIMENSION
  8
LY_3
  6
CONTINUOUS
 62
             110
  5
1F3
  2
*D32
 10
230.0
 20
-125.0
 30
0.0
 11
230.0
 21
-200.0
 31
0.0
 70
             128
  1
%%c<>
 13
236.0
 23
-275.0
 33
0.0
 14
236.0
 24
-125.0
 34
0.0
 50
90.0
  3
MXDIMSTYLE
1001
ACAD
1000
DSTYLE
1002
{
1070
              41
1040
2.77
1070
              75
1070
               1
1070
              76
1070
               1
1070
             140
1040
3.2000000476837158
1070
             271
1070
               0
1070
             284
1070
               8
1070
             340
1005
3C
1002
}
  0
DIMENSION
  8
LY_3
  6
CONTINUOUS
 62
             110
  5
1FF
  2
*D33
 10
150.0
 20
-250.0
 30
0.0
 11
150.0
 21
-200.0
 31
0.0
 70
             128
  1
%%c<>
 13
133.0
 23
-150.0
 33
0.0
 14
133.0
 24
-250.0
 34
0.0
 50
90.0
  3
MXDIMSTYLE
1001
ACAD
1000
DSTYLE
1002
{
1070
              41
1040
2.77
1070
              75
1070
               1
1070
              76
1070
               1
1070
             140
1040
3.2000000476837158
1070
             271
1070
               0
1070
             284
1070
               8
1070
             340
1005
1F9
1002
}
  0
DIMENSION
  8
LY_3
  6
CONTINUOUS
 62
             110
  5
20A
  2
*D34
 10
160.0
 20
-125.0
 30
0.0
 11
160.0
 21
-200.0
 31
0.0
 70
             128
  1
%%c<>
 13
166.0
 23
-275.0
 33
0.0
 14
166.0
 24
-125.0
 34
0.0
 50
90.0
  3
MXDIMSTYLE
1001
ACAD
1000
DSTYLE
1002
{
1070
              41
1040
2.77
1070
              75
1070
               1
1070
              76
1070
               1
1070
             140
1040
3.2000000476837158
1070
             271
1070
               0
1070
             284
1070
               8
1070
             340
1005
3C
1002
}
  0
DIMENSION
  8
LY_3
  6
CONTINUOUS
 62
             110
  5
215
  2
*D35
 10
10.0
 20
-239.5
 30
0.0
 11
10.0
 21
-200.0
 31
0.0
 70
             128
  1
%%c<>
 13
-7.0
 23
-160.5
 33
0.0
 14
-7.0
 24
-239.5
 34
0.0
 50
90.0
  3
MXDIMSTYLE
1001
ACAD
1000
DSTYLE
1002
{
1070
              41
1040
2.77
1070
              75
1070
               1
1070
              76
1070
               1
1070
             140
1040
3.2000000476837158
1070
             271
1070
               0
1070
             284
1070
               8
1002
}
  0
DIMENSION
  8
LY_3
  6
CONTINUOUS
 62
             110
  5
220
  2
*D36
 10
20.0
 20
-145.5
 30
0.0
 11
20.0
 21
-200.0
 31
0.0
 70
             128
  1
%%c<>
 13
26.0
 23
-254.5
 33
0.0
 14
26.0
 24
-145.5
 34
0.0
 50
90.0
  3
MXDIMSTYLE
1001
ACAD
1000
DSTYLE
1002
{
1070
              41
1040
2.77
1070
              75
1070
               1
1070
              76
1070
               1
1070
             140
1040
3.2000000476837158
1070
             271
1070
               0
1070
             284
1070
               8
1070
             340
1005
3C
1002
}
  0
TEXT
  8
LY_3
  6
CONTINUOUS
 62
             110
  5
221
 10
60.544345855336843
 20
-278.37556698506091
 30
0.0
 40
4.2000002861022949
  1
NS(A)xxx120
 41
1.1186440632761776
  7
MX_NOTE_STANDARD
 11
60.544345855336843
 21
-274.17556669895862
 31
0.0
 73
               3
  0
TEXT
  8
LY_3
  6
CONTINUOUS
 62
             110
  5
222
 10
192.24660107096759
 20
-291.57297311602406
 30
0.0
 40
4.2000002861022949
  1
NS(A)xxx150-B
 41
1.098591545606695
  7
MX_NOTE_STANDARD
 11
192.24660107096759
 21
-287.37297282992176
 31
0.0
 73
               3
  0
TEXT
  8
LY_3
  6
CONTINUOUS
 62
             110
  5
223
 10
124.28207404394054
 20
-291.57297311602406
 30
0.0
 40
4.2000002861022949
  1
NS(A)xxx150-A
 41
1.098591545606695
  7
MX_NOTE_STANDARD
 11
124.28207404394054
 21
-287.37297282992176
 31
0.0
 73
               3
  0
TEXT
  8
LY_3
  6
CONTINUOUS
 62
             110
  5
224
 10
-14.971758126161408
 20
-276.89729744034844
 30
0.0
 40
4.2000002861022949
  1
NS(A)xxx109
 41
1.1186440632761776
  7
MX_NOTE_STANDARD
 11
-14.971758126161408
 21
-272.69729715424614
 31
0.0
 73
               3
  0
LINE
  8
LY_3
  6
CENTER
 62
             110
  5
225
 10
94.178992835117015
 20
-200.0
 30
0.0
 11
112.36704153818249
 21
-200.0
 31
0.0
  0
LINE
  8
LY_3
  6
CONTINUOUS
 62
               3
  5
226
 10
100.0
 20
-260.0
 30
0.0
 11
100.0
 21
-140.0
 31
0.0
  0
LINE
  8
LY_3
  6
CONTINUOUS
 62
               3
  5
227
 10
60.0
 20
-260.0
 30
0.0
 11
60.0
 21
-140.0
 31
0.0
  0
LINE
  8
LY_3
  6
PHANTOM
 62
             110
  5
228
 10
64.0
 20
-260.0
 30
0.0
 11
96.0
 21
-260.0
 31
0.0
  0
LINE
  8
LY_3
  6
PHANTOM
 62
             110
  5
229
 10
62.0
 20
-245.0
 30
0.0
 11
98.0
 21
-245.0
 31
0.0
  0
LINE
  8
LY_3
  6
PHANTOM
 62
             110
  5
22A
 10
64.0
 20
-140.0
 30
0.0
 11
96.0
 21
-140.0
 31
0.0
  0
LINE
  8
LY_3
  6
PHANTOM
 62
             110
  5
22B
 10
62.0
 20
-155.0
 30
0.0
 11
98.0
 21
-155.0
 31
0.0
  0
LINE
  8
LY_3
  6
CENTER
 62
             110
  5
22C
 10
48.247143116270649
 20
-200.0
 30
0.0
 11
63.595100217667323
 21
-200.0
 31
0.0
  0
LINE
  8
LY_3
  6
CENTER
 62
             110
  5
22D
 10
233.96798362960271
 20
-200.0
 30
0.0
 11
248.0
 21
-200.0
 31
0.0
  0
LINE
  8
LY_3
  6
CENTER
 62
             110
  5
22E
 10
164.62884350077979
 20
-200.0
 30
0.0
 11
182.1677319517504
 21
-200.0
 31
0.0
  0
LINE
  8
LY_3
  6
CENTER
 62
             110
  5
22F
 10
23.324951784190432
 20
-200.0
 30
0.0
 11
38.0
 21
-200.0
 31
0.0
  0
LINE
  8
LY_3
  6
CENTER
 62
             110
  5
230
 10
122.37922297297303
 20
-200.0
 30
0.0
 11
132.71925159050545
 21
-200.0
 31
0.0
  0
LINE
  8
LY_3
  6
CENTER
 62
             110
  5
231
 10
192.03845342826048
 20
-200.0
 30
0.0
 11
204.61731248866317
 21
-200.0
 31
0.0
  0
LINE
  8
LY_3
  6
CENTER
 62
             110
  5
232
 10
261.70456081081079
 20
-200.0
 30
0.0
 11
272.78593664973698
 21
-200.0
 31
0.0
  0
LINE
  8
LY_3
  6
CONTINUOUS
 62
               3
  5
233
 10
310.0
 20
-305.0
 30
0.0
 11
310.0
 21
-95.0
 31
0.0
  0
LINE
  8
LY_3
  6
CONTINUOUS
 62
               3
  5
234
 10
270.0
 20
-305.0
 30
0.0
 11
270.0
 21
-95.0
 31
0.0
  0
LINE
  8
LY_3
  6
PHANTOM
 62
             110
  5
235
 10
275.0
 20
-305.0
 30
0.0
 11
305.0
 21
-305.0
 31
0.0
  0
LINE
  8
LY_3
  6
PHANTOM
 62
             110
  5
236
 10
272.5
 20
-280.0
 30
0.0
 11
307.5
 21
-280.0
 31
0.0
  0
LINE
  8
LY_3
  6
PHANTOM
 62
             110
  5
237
 10
275.0
 20
-95.0
 30
0.0
 11
305.0
 21
-95.0
 31
0.0
  0
LINE
  8
LY_3
  6
PHANTOM
 62
             110
  5
238
 10
272.5
 20
-120.0
 30
0.0
 11
307.5
 21
-120.0
 31
0.0
  0
LINE
  8
LY_3
  6
CONTINUOUS
 62
               3
  5
239
 10
240.0
 20
-275.0
 30
0.0
 11
240.0
 21
-125.0
 31
0.0
  0
LINE
  8
LY_3
  6
CONTINUOUS
 62
               3
  5
23A
 10
200.0
 20
-275.0
 30
0.0
 11
200.0
 21
-125.0
 31
0.0
  0
LINE
  8
LY_3
  6
PHANTOM
 62
             110
  5
23B
 10
204.0
 20
-275.0
 30
0.0
 11
236.0
 21
-275.0
 31
0.0
  0
LINE
  8
LY_3
  6
PHANTOM
 62
             110
  5
23C
 10
202.0
 20
-260.0
 30
0.0
 11
238.0
 21
-260.0
 31
0.0
  0
LINE
  8
LY_3
  6
PHANTOM
 62
             110
  5
23D
 10
204.0
 20
-125.0
 30
0.0
 11
236.0
 21
-125.0
 31
0.0
  0
LINE
  8
LY_3
  6
PHANTOM
 62
             110
  5
23E
 10
202.0
 20
-140.0
 30
0.0
 11
238.0
 21
-140.0
 31
0.0
  0
LINE
  8
LY_3
  6
CONTINUOUS
 62
               3
  5
23F
 10
170.0
 20
-275.0
 30
0.0
 11
170.0
 21
-125.0
 31
0.0
  0
LINE
  8
LY_3
  6
CONTINUOUS
 62
               3
  5
240
 10
130.0
 20
-275.0
 30
0.0
 11
130.0
 21
-125.0
 31
0.0
  0
LINE
  8
LY_3
  6
PHANTOM
 62
             110
  5
241
 10
134.0
 20
-275.0
 30
0.0
 11
166.0
 21
-275.0
 31
0.0
  0
LINE
  8
LY_3
  6
PHANTOM
 62
             110
  5
242
 10
132.0
 20
-250.0
 30
0.0
 11
168.0
 21
-250.0
 31
0.0
  0
LINE
  8
LY_3
  6
PHANTOM
 62
             110
  5
243
 10
134.0
 20
-125.0
 30
0.0
 11
166.0
 21
-125.0
 31
0.0
  0
LINE
  8
LY_3
  6
PHANTOM
 62
             110
  5
244
 10
132.0
 20
-150.0
 30
0.0
 11
168.0
 21
-150.0
 31
0.0
  0
LINE
  8
LY_3
  6
CONTINUOUS
 62
               3
  5
245
 10
30.0
 20
-254.5
 30
0.0
 11
30.0
 21
-145.5
 31
0.0
  0
LINE
  8
LY_3
  6
CONTINUOUS
 62
               3
  5
246
 10
-10.0
 20
-254.5
 30
0.0
 11
-10.0
 21
-145.5
 31
0.0
  0
LINE
  8
LY_3
  6
PHANTOM
 62
             110
  5
247
 10
-6.0
 20
-254.5
 30
0.0
 11
26.0
 21
-254.5
 31
0.0
  0
LINE
  8
LY_3
  6
PHANTOM
 62
             110
  5
248
 10
-8.0
 20
-239.5
 30
0.0
 11
28.0
 21
-239.5
 31
0.0
  0
LINE
  8
LY_3
  6
PHANTOM
 62
             110
  5
249
 10
-6.0
 20
-145.5
 30
0.0
 11
26.0
 21
-145.5
 31
0.0
  0
LINE
  8
LY_3
  6
PHANTOM
 62
             110
  5
24A
 10
-8.0
 20
-160.5
 30
0.0
 11
28.0
 21
-160.5
 31
0.0
  0
LINE
  8
LY_3
  6
CENTER
 62
             110
  5
24B
 10
-21.776227779793203
 20
-200.0
 30
0.0
 11
-5.74337509297726
 21
-200.0
 31
0.0
  0
TEXT
  8
LY_3
  6
CONTINUOUS
 62
             110
  5
24C
 10
506.27813211349434
 20
-312.85337852142948
 30
0.0
 40
4.2000002861022949
  1
NS(A)xxx320
 41
1.0819672110003191
  7
MX_NOTE_STANDARD
 11
506.27813211349434
 21
-308.65337823532718
 31
0.0
 73
               3
  0
DIMENSION
  8
LY_3
  6
CONTINUOUS
 62
             110
  5
259
  2
*D37
 10
568.00000000000011
 20
56.0
 30
0.0
 11
528.0
 21
56.0
 31
0.0
 70
             128
  1
<>
 13
488.0
 23
32.0
 33
0.0
 14
568.00000000000011
 24
32.0
 34
0.0
  3
MXDIMSTYLE
1001
ACAD
1000
DSTYLE
1002
{
1070
              41
1040
2.77
1070
              44
1040
2.2859992980957031
1070
             140
1040
3.2000000476837158
1070
             271
1070
               0
1070
             284
1070
               8
1070
             340
1005
3C
1002
}
  0
DIMENSION
  8
LY_3
  6
CONTINUOUS
 62
             110
  5
266
  2
*D38
 10
448.0
 20
32.000000000000028
 30
0.0
 11
408.0
 21
32.000000000000028
 31
0.0
 70
             128
  1
<>
 13
368.0
 23
7.0000000000000284
 33
0.0
 14
448.0
 24
7.0000000000000284
 34
0.0
  3
MXDIMSTYLE
1001
ACAD
1000
DSTYLE
1002
{
1070
              41
1040
2.77
1070
              44
1040
2.2859992980957031
1070
             140
1040
3.2000000476837158
1070
             271
1070
               0
1070
             284
1070
               8
1070
             340
1005
3C
1002
}
  0
DIMENSION
  8
LY_3
  6
CONTINUOUS
 62
             110
  5
271
  2
*D39
 10
518.0
 20
-258.0
 30
0.0
 11
518.0
 21
-127.99999999999994
 31
0.0
 70
             128
  1
%%c<>
 13
491.0
 23
2.0000000000000568
 33
0.0
 14
491.0
 24
-258.0
 34
0.0
 50
90.0
  3
MXDIMSTYLE
1001
ACAD
1000
DSTYLE
1002
{
1070
              41
1040
2.77
1070
              75
1070
               1
1070
              76
1070
               1
1070
             140
1040
3.2000000476837158
1070
             271
1070
               0
1070
             284
1070
               8
1002
}
  0
DIMENSION
  8
LY_3
  6
CONTINUOUS
 62
             110
  5
27C
  2
*D40
 10
528.0
 20
32.0
 30
0.0
 11
528.0
 21
-128.0
 31
0.0
 70
             128
  1
%%c<>
 13
564.0
 23
-288.0
 33
0.0
 14
564.0
 24
32.0
 34
0.0
 50
90.0
  3
MXDIMSTYLE
1001
ACAD
1000
DSTYLE
1002
{
1070
              41
1040
2.77
1070
              75
1070
               1
1070
              76
1070
               1
1070
             140
1040
3.2000000476837158
1070
             271
1070
               0
1070
             284
1070
               8
1002
}
  0
DIMENSION
  8
LY_3
  6
CONTINUOUS
 62
             110
  5
287
  2
*D41
 10
398.0
 20
-231.00000000000006
 30
0.0
 11
398.0
 21
-128.0
 31
0.0
 70
             128
  1
%%c<>
 13
371.0
 23
-25.0
 33
0.0
 14
371.0
 24
-231.00000000000006
 34
0.0
 50
90.0
  3
MXDIMSTYLE
1001
ACAD
1000
DSTYLE
1002
{
1070
              41
1040
2.77
1070
              75
1070
               1
1070
              76
1070
               1
1070
             140
1040
3.2000000476837158
1070
             271
1070
               0
1070
             284
1070
               8
1002
}
  0
DIMENSION
  8
LY_3
  6
CONTINUOUS
 62
             110
  5
292
  2
*D42
 10
408.0
 20
7.0
 30
0.0
 11
408.0
 21
-128.0
 31
0.0
 70
             128
  1
%%c<>
 13
444.0
 23
-263.0
 33
0.0
 14
444.0
 24
7.0
 34
0.0
 50
90.0
  3
MXDIMSTYLE
1001
ACAD
1000
DSTYLE
1002
{
1070
              41
1040
2.77
1070
              75
1070
               1
1070
              76
1070
               1
1070
             140
1040
3.2000000476837158
1070
             271
1070
               0
1070
             284
1070
               8
1002
}
  0
TEXT
  8
LY_3
  6
CONTINUOUS
 62
             110
  5
293
 10
385.65735508646736
 20
-290.10000014305115
 30
0.0
 40
4.2000002861022949
  1
NS(A)xxx270
 41
1.0819672110003191
  7
MX_NOTE_STANDARD
 11
385.65735508646736
 21
-285.89999985694885
 31
0.0
 73
               3
  0
LINE
  8
LY_3
  6
CENTER
 62
             110
  5
294
 10
424.92972103815214
 20
-128.0
 30
0.0
 11
458.0
 21
-128.0
 31
0.0
  0
LINE
  8
LY_3
  6
CENTER
 62
             110
  5
295
 10
545.6602604072192
 20
-128.0
 30
0.0
 11
578.0
 21
-128.0
 31
0.0
  0
LINE
  8
LY_3
  6
CENTER
 62
             110
  5
296
 10
478.0
 20
-128.0
 30
0.0
 11
495.88977473698526
 21
-128.0
 31
0.0
  0
LINE
  8
LY_3
  6
CONTINUOUS
 62
               3
  5
297
 10
568.00000000000011
 20
-288.00000000000011
 30
0.0
 11
568.00000000000011
 21
32.000000000000028
 31
0.0
  0
LINE
  8
LY_3
  6
CONTINUOUS
 62
               3
  5
298
 10
488.0
 20
-288.00000000000011
 30
0.0
 11
488.0
 21
32.000000000000028
 31
0.0
  0
LINE
  8
LY_3
  6
PHANTOM
 62
             110
  5
299
 10
493.0
 20
-288.0
 30
0.0
 11
562.99999999999989
 21
-288.0
 31
0.0
  0
LINE
  8
LY_3
  6
PHANTOM
 62
             110
  5
29A
 10
490.5
 20
-258.0
 30
0.0
 11
565.49999999999989
 21
-258.0
 31
0.0
  0
LINE
  8
LY_3
  6
PHANTOM
 62
             110
  5
29B
 10
493.0
 20
32.000000000000014
 30
0.0
 11
562.99999999999989
 21
32.000000000000014
 31
0.0
  0
LINE
  8
LY_3
  6
PHANTOM
 62
             110
  5
29C
 10
490.5
 20
2.0000000000000142
 30
0.0
 11
565.49999999999989
 21
2.0000000000000142
 31
0.0
  0
LINE
  8
LY_3
  6
CONTINUOUS
 62
               3
  5
29D
 10
448.0
 20
-263.00000000000011
 30
0.0
 11
448.0
 21
7.0000000000000426
 31
0.0
  0
LINE
  8
LY_3
  6
CONTINUOUS
 62
               3
  5
29E
 10
368.0
 20
-263.00000000000011
 30
0.0
 11
368.0
 21
7.0000000000000426
 31
0.0
  0
LINE
  8
LY_3
  6
PHANTOM
 62
             110
  5
29F
 10
373.0
 20
-263.0
 30
0.0
 11
442.99999469205238
 21
-263.0
 31
0.0
  0
LINE
  8
LY_3
  6
PHANTOM
 62
             110
  5
2A0
 10
370.5
 20
-231.00000000000003
 30
0.0
 11
445.49999999999989
 21
-231.00000000000003
 31
0.0
  0
LINE
  8
LY_3
  6
PHANTOM
 62
             110
  5
2A1
 10
373.0
 20
6.9999999999999858
 30
0.0
 11
442.99999999999989
 21
6.9999999999999858
 31
0.0
  0
LINE
  8
LY_3
  6
PHANTOM
 62
             110
  5
2A2
 10
370.5
 20
-24.999999999999986
 30
0.0
 11
445.49999999999989
 21
-24.999999999999986
 31
0.0
  0
LINE
  8
LY_3
  6
CENTER
 62
             110
  5
2A3
 10
358.0
 20
-128.0
 30
0.0
 11
373.75298725739157
 21
-128.0
 31
0.0
  0
LINE
  8
LY_3
  6
CONTINUOUS
 62
               3
  5
2A4
 10
53.0
 20
13.5
 30
0.0
 11
53.0
 21
15.0
 31
0.0
  0
LINE
  8
LY_3
  6
CONTINUOUS
 62
               3
  5
2A5
 10
51.499998347076826
 20
12.000003635355142
 30
0.0
 11
52.999998717202516
 21
13.500004005480832
 31
0.0
  0
LINE
  8
LY_3
  6
CONTINUOUS
 62
               3
  5
2A6
 10
50.0
 20
13.500001982431968
 30
0.0
 11
51.499999695776069
 21
12.000002286655899
 31
0.0
  0
LINE
  8
LY_3
  6
CONTINUOUS
 62
               3
  5
2A7
 10
51.5
 20
12.0
 30
0.0
 11
51.5
 21
8.5
 31
0.0
  0
LINE
  8
LY_3
  6
CONTINUOUS
 62
               3
  5
2A8
 10
53.0
 20
-13.5
 30
0.0
 11
53.0
 21
-15.0
 31
0.0
  0
LINE
  8
LY_3
  6
CONTINUOUS
 62
               3
  5
2A9
 10
51.5
 20
-12.0
 30
0.0
 11
51.5
 21
-8.5
 31
0.0
  0
LINE
  8
LY_3
  6
CONTINUOUS
 62
               3
  5
2AA
 10
49.999999325650379
 20
-13.500004005480832
 30
0.0
 11
51.499999358601258
 21
-12.000003972529953
 31
0.0
  0
LINE
  8
LY_3
  6
CONTINUOUS
 62
               3
  5
2AB
 10
51.499997335552393
 20
-12.000004646879574
 30
0.0
 11
52.999997705678084
 21
-13.500005017005265
 31
0.0
  0
LINE
  8
LY_3
  6
CONTINUOUS
 62
               3
  5
2AC
 10
77.0
 20
13.5
 30
0.0
 11
77.0
 21
15.0
 31
0.0
  0
LINE
  8
LY_3
  6
CONTINUOUS
 62
               3
  5
2AD
 10
80.0
 20
13.500001982431968
 30
0.0
 11
78.500000304223931
 21
12.000002286655899
 31
0.0
  0
LINE
  8
LY_3
  6
CONTINUOUS
 62
               3
  5
2AE
 10
78.5
 20
12.0
 30
0.0
 11
78.5
 21
8.5
 31
0.0
  0
LINE
  8
LY_3
  6
CONTINUOUS
 62
               3
  5
2AF
 10
78.500001652923174
 20
12.000003635355142
 30
0.0
 11
77.000001282797484
 21
13.500004005480832
 31
0.0
  0
LINE
  8
LY_3
  6
CONTINUOUS
 62
               3
  5
2B0
 10
77.0
 20
-13.5
 30
0.0
 11
77.0
 21
-15.0
 31
0.0
  0
LINE
  8
LY_3
  6
CONTINUOUS
 62
               3
  5
2B1
 10
78.5
 20
-12.0
 30
0.0
 11
78.5
 21
-8.5
 31
0.0
  0
LINE
  8
LY_3
  6
CONTINUOUS
 62
               3
  5
2B2
 10
80.000000674349621
 20
-13.500004005480832
 30
0.0
 11
78.500000641398742
 21
-12.000003972529953
 31
0.0
  0
LINE
  8
LY_3
  6
CONTINUOUS
 62
               3
  5
2B3
 10
78.500002664447607
 20
-12.000004646879574
 30
0.0
 11
77.000002294321916
 21
-13.500005017005265
 31
0.0
  0
LINE
  8
LY_3
  6
CONTINUOUS
 62
               3
  5
2B4
 10
98.0
 20
16.500002722683348
 30
0.0
 11
99.50000037012569
 21
15.000002352557658
 31
0.0
  0
LINE
  8
LY_3
  6
CONTINUOUS
 62
               3
  5
2B5
 10
101.0
 20
16.5
 30
0.0
 11
101.0
 21
18.0
 31
0.0
  0
LINE
  8
LY_3
  6
CONTINUOUS
 62
               3
  5
2B6
 10
99.5
 20
15.0
 30
0.0
 11
99.5
 21
11.0
 31
0.0
  0
LINE
  8
LY_3
  6
CONTINUOUS
 62
               3
  5
2B7
 10
99.499999695776069
 20
15.000003026907279
 30
0.0
 11
101.00000006590176
 21
16.50000339703297
 31
0.0
  0
LINE
  8
LY_3
  6
CONTINUOUS
 62
               3
  5
2B8
 10
98.0
 20
-16.500002722683348
 30
0.0
 11
99.50000037012569
 21
-15.000002352557658
 31
0.0
  0
LINE
  8
LY_3
  6
CONTINUOUS
 62
               3
  5
2B9
 10
99.5
 20
-15.0
 30
0.0
 11
99.5
 21
-11.0
 31
0.0
  0
LINE
  8
LY_3
  6
CONTINUOUS
 62
               3
  5
2BA
 10
101.0
 20
-16.5
 30
0.0
 11
101.0
 21
-18.0
 31
0.0
  0
LINE
  8
LY_3
  6
CONTINUOUS
 62
               3
  5
2BB
 10
99.499997672727204
 20
-15.000005049956144
 30
0.0
 11
100.99999871720252
 21
-16.500006094431455
 31
0.0
  0
LINE
  8
LY_3
  6
CONTINUOUS
 62
               3
  5
2BC
 10
128.0
 20
16.500002722683348
 30
0.0
 11
126.49999962987431
 21
15.000002352557658
 31
0.0
  0
LINE
  8
LY_3
  6
CONTINUOUS
 62
               3
  5
2BD
 10
125.0
 20
16.5
 30
0.0
 11
125.0
 21
18.0
 31
0.0
  0
LINE
  8
LY_3
  6
CONTINUOUS
 62
               3
  5
2BE
 10
126.5
 20
15.0
 30
0.0
 11
126.5
 21
11.0
 31
0.0
  0
LINE
  8
LY_3
  6
CONTINUOUS
 62
               3
  5
2BF
 10
126.50000030422393
 20
15.000003026907279
 30
0.0
 11
124.99999993409824
 21
16.50000339703297
 31
0.0
  0
LINE
  8
LY_3
  6
CONTINUOUS
 62
               3
  5
2C0
 10
128.0
 20
-16.500002722683348
 30
0.0
 11
126.49999962987431
 21
-15.000002352557658
 31
0.0
  0
LINE
  8
LY_3
  6
CONTINUOUS
 62
               3
  5
2C1
 10
126.5
 20
-15.0
 30
0.0
 11
126.5
 21
-11.0
 31
0.0
  0
LINE
  8
LY_3
  6
CONTINUOUS
 62
               3
  5
2C2
 10
125.0
 20
-16.5
 30
0.0
 11
125.0
 21
-18.0
 31
0.0
  0
LINE
  8
LY_3
  6
CONTINUOUS
 62
               3
  5
2C3
 10
126.5000023272728
 20
-15.000005049956144
 30
0.0
 11
125.00000128279748
 21
-16.500006094431455
 31
0.0
  0
LINE
  8
LY_3
  6
CONTINUOUS
 62
               3
  5
2C4
 10
151.0
 20
24.0
 30
0.0
 11
151.0
 21
25.5
 31
0.0
  0
LINE
  8
LY_3
  6
CONTINUOUS
 62
               3
  5
2C5
 10
148.00000269739849
 20
24.000003224612556
 30
0.0
 11
149.50000239317455
 21
22.500003528836487
 31
0.0
  0
LINE
  8
LY_3
  6
CONTINUOUS
 62
               3
  5
2C6
 10
149.5
 20
22.5
 30
0.0
 11
149.5
 21
18.0
 31
0.0
  0
LINE
  8
LY_3
  6
CONTINUOUS
 62
               3
  5
2C7
 10
149.49999834707683
 20
22.50000487753573
 30
0.0
 11
150.99999871720252
 21
24.00000524766142
 31
0.0
  0
LINE
  8
LY_3
  6
CONTINUOUS
 62
               3
  5
2C8
 10
151.0
 20
-24.0
 30
0.0
 11
151.0
 21
-25.5
 31
0.0
  0
LINE
  8
LY_3
  6
CONTINUOUS
 62
               3
  5
2C9
 10
149.5
 20
-22.5
 30
0.0
 11
149.5
 21
-18.0
 31
0.0
  0
LINE
  8
LY_3
  6
CONTINUOUS
 62
               3
  5
2CA
 10
148.00000269739849
 20
-24.000003224612556
 30
0.0
 11
149.50000239317455
 21
-22.500003528836487
 31
0.0
  0
LINE
  8
LY_3
  6
CONTINUOUS
 62
               3
  5
2CB
 10
149.49999834707683
 20
-22.50000487753573
 30
0.0
 11
150.99999871720252
 21
-24.00000524766142
 31
0.0
  0
LINE
  8
LY_3
  6
CONTINUOUS
 62
               3
  5
2CC
 10
175.0
 20
24.0
 30
0.0
 11
175.0
 21
25.5
 31
0.0
  0
LINE
  8
LY_3
  6
CONTINUOUS
 62
               3
  5
2CD
 10
177.99999730260151
 20
24.000003224612556
 30
0.0
 11
176.49999760682545
 21
22.500003528836487
 31
0.0
  0
LINE
  8
LY_3
  6
CONTINUOUS
 62
               3
  5
2CE
 10
176.5
 20
22.5
 30
0.0
 11
176.5
 21
18.0
 31
0.0
  0
LINE
  8
LY_3
  6
CONTINUOUS
 62
               3
  5
2CF
 10
176.50000165292317
 20
22.50000487753573
 30
0.0
 11
175.00000128279748
 21
24.00000524766142
 31
0.0
  0
LINE
  8
LY_3
  6
CONTINUOUS
 62
               3
  5
2D0
 10
175.0
 20
-24.0
 30
0.0
 11
175.0
 21
-25.5
 31
0.0
  0
LINE
  8
LY_3
  6
CONTINUOUS
 62
               3
  5
2D1
 10
176.5
 20
-22.5
 30
0.0
 11
176.5
 21
-18.0
 31
0.0
  0
LINE
  8
LY_3
  6
CONTINUOUS
 62
               3
  5
2D2
 10
177.99999730260151
 20
-24.000003224612556
 30
0.0
 11
176.49999760682545
 21
-22.500003528836487
 31
0.0
  0
LINE
  8
LY_3
  6
CONTINUOUS
 62
               3
  5
2D3
 10
176.50000165292317
 20
-22.50000487753573
 30
0.0
 11
175.00000128279748
 21
-24.00000524766142
 31
0.0
  0
LINE
  8
LY_3
  6
CONTINUOUS
 62
               3
  5
2D4
 10
199.5
 20
32.0
 30
0.0
 11
199.5
 21
25.0
 31
0.0
  0
LINE
  8
LY_3
  6
CONTINUOUS
 62
               3
  5
2D5
 10
201.0
 20
33.5
 30
0.0
 11
201.0
 21
35.0
 31
0.0
  0
LINE
  8
LY_3
  6
CONTINUOUS
 62
               3
  5
2D6
 10
198.0
 20
33.500006018308341
 30
0.0
 11
199.50000037012569
 21
32.00000564818265
 31
0.0
  0
LINE
  8
LY_3
  6
CONTINUOUS
 62
               3
  5
2D7
 10
199.49999632402796
 20
32.000006996881893
 30
0.0
 11
200.99999669415365
 21
33.500007367007584
 31
0.0
  0
LINE
  8
LY_3
  6
CONTINUOUS
 62
               3
  5
2D8
 10
201.0
 20
-33.5
 30
0.0
 11
201.0
 21
-35.0
 31
0.0
  0
LINE
  8
LY_3
  6
CONTINUOUS
 62
               3
  5
2D9
 10
198.0
 20
-33.500006018308341
 30
0.0
 11
199.50000037012569
 21
-32.00000564818265
 31
0.0
  0
LINE
  8
LY_3
  6
CONTINUOUS
 62
               3
  5
2DA
 10
199.5
 20
-32.0
 30
0.0
 11
199.5
 21
-25.0
 31
0.0
  0
LINE
  8
LY_3
  6
CONTINUOUS
 62
               3
  5
2DB
 10
199.49999632402796
 20
-32.000006996881893
 30
0.0
 11
200.99999669415365
 21
-33.500007367007584
 31
0.0
  0
LINE
  8
LY_3
  6
CONTINUOUS
 62
               3
  5
2DC
 10
226.5
 20
32.0
 30
0.0
 11
226.5
 21
25.0
 31
0.0
  0
LINE
  8
LY_3
  6
CONTINUOUS
 62
               3
  5
2DD
 10
225.0
 20
33.5
 30
0.0
 11
225.0
 21
35.0
 31
0.0
  0
LINE
  8
LY_3
  6
CONTINUOUS
 62
               3
  5
2DE
 10
228.0
 20
33.500006018308341
 30
0.0
 11
226.49999962987431
 21
32.00000564818265
 31
0.0
  0
LINE
  8
LY_3
  6
CONTINUOUS
 62
               3
  5
2DF
 10
226.50000367597204
 20
32.000006996881893
 30
0.0
 11
225.00000330584635
 21
33.500007367007584
 31
0.0
  0
LINE
  8
LY_3
  6
CONTINUOUS
 62
               3
  5
2E0
 10
225.0
 20
-33.5
 30
0.0
 11
225.0
 21
-35.0
 31
0.0
  0
LINE
  8
LY_3
  6
CONTINUOUS
 62
               3
  5
2E1
 10
228.0
 20
-33.500006018308341
 30
0.0
 11
226.49999962987431
 21
-32.00000564818265
 31
0.0
  0
LINE
  8
LY_3
  6
CONTINUOUS
 62
               3
  5
2E2
 10
226.5
 20
-32.0
 30
0.0
 11
226.5
 21
-25.0
 31
0.0
  0
LINE
  8
LY_3
  6
CONTINUOUS
 62
               3
  5
2E3
 10
226.50000367597204
 20
-32.000006996881893
 30
0.0
 11
225.00000330584635
 21
-33.500007367007584
 31
0.0
  0
LINE
  8
LY_3
  6
CONTINUOUS
 62
               3
  5
2E4
 10
300.0
 20
43.0
 30
0.0
 11
300.0
 21
35.0
 31
0.0
  0
LINE
  8
LY_3
  6
CONTINUOUS
 62
               3
  5
2E5
 10
302.0
 20
45.0
 30
0.0
 11
302.0
 21
47.0
 31
0.0
  0
LINE
  8
LY_3
  6
CONTINUOUS
 62
               3
  5
2E6
 10
298.0
 20
44.99999921835888
 30
0.0
 11
299.99999942578074
 21
42.999999792578137
 31
0.0
  0
LINE
  8
LY_3
  6
CONTINUOUS
 62
               3
  5
2E7
 10
300.00000077447987
 20
42.999998443879008
 30
0.0
 11
302.00000020026062
 21
44.999997869659751
 31
0.0
  0
LINE
  8
LY_3
  6
CONTINUOUS
 62
               3
  5
2E8
 10
298.0
 20
-44.99999921835888
 30
0.0
 11
299.99999942578074
 21
-42.999999792578137
 31
0.0
  0
LINE
  8
LY_3
  6
CONTINUOUS
 62
               3
  5
2E9
 10
302.0
 20
-45.0
 30
0.0
 11
302.0
 21
-47.0
 31
0.0
  0
LINE
  8
LY_3
  6
CONTINUOUS
 62
               3
  5
2EA
 10
300.0
 20
-43.0
 30
0.0
 11
300.0
 21
-35.0
 31
0.0
  0
LINE
  8
LY_3
  6
CONTINUOUS
 62
               3
  5
2EB
 10
300.00000077447987
 20
-42.999998443879008
 30
0.0
 11
302.00000020026062
 21
-44.999997869659751
 31
0.0
  0
LINE
  8
LY_3
  6
CONTINUOUS
 62
               3
  5
2EC
 10
326.0
 20
43.0
 30
0.0
 11
326.0
 21
35.0
 31
0.0
  0
LINE
  8
LY_3
  6
CONTINUOUS
 62
               3
  5
2ED
 10
324.0
 20
45.0
 30
0.0
 11
324.0
 21
47.0
 31
0.0
  0
LINE
  8
LY_3
  6
CONTINUOUS
 62
               3
  5
2EE
 10
328.0
 20
44.99999921835888
 30
0.0
 11
326.00000057421926
 21
42.999999792578137
 31
0.0
  0
LINE
  8
LY_3
  6
CONTINUOUS
 62
               3
  5
2EF
 10
325.99999922552013
 20
42.999998443879008
 30
0.0
 11
323.99999979973938
 21
44.999997869659751
 31
0.0
  0
LINE
  8
LY_3
  6
CONTINUOUS
 62
               3
  5
2F0
 10
328.0
 20
-44.99999921835888
 30
0.0
 11
326.00000057421926
 21
-42.999999792578137
 31
0.0
  0
LINE
  8
LY_3
  6
CONTINUOUS
 62
               3
  5
2F1
 10
324.0
 20
-45.0
 30
0.0
 11
324.0
 21
-47.0
 31
0.0
  0
LINE
  8
LY_3
  6
CONTINUOUS
 62
               3
  5
2F2
 10
326.0
 20
-43.0
 30
0.0
 11
326.0
 21
-35.0
 31
0.0
  0
LINE
  8
LY_3
  6
CONTINUOUS
 62
               3
  5
2F3
 10
325.99999922552013
 20
-42.999998443879008
 30
0.0
 11
323.99999979973938
 21
-44.999997869659751
 31
0.0
  0
LINE
  8
LY_3
  6
CONTINUOUS
 62
               3
  5
2F4
 10
250.0
 20
41.0
 30
0.0
 11
250.0
 21
30.0
 31
0.0
  0
LINE
  8
LY_3
  6
CONTINUOUS
 62
               3
  5
2F5
 10
252.0
 20
43.0
 30
0.0
 11
252.0
 21
45.0
 31
0.0
  0
LINE
  8
LY_3
  6
CONTINUOUS
 62
               3
  5
2F6
 10
248.0
 20
42.99999921835888
 30
0.0
 11
249.99999942578074
 21
40.999999792578137
 31
0.0
  0
LINE
  8
LY_3
  6
CONTINUOUS
 62
               3
  5
2F7
 10
250.00000077447987
 20
40.999998443879008
 30
0.0
 11
252.00000020026062
 21
42.999997869659751
 31
0.0
  0
LINE
  8
LY_3
  6
CONTINUOUS
 62
               3
  5
2F8
 10
276.0
 20
41.0
 30
0.0
 11
276.0
 21
30.0
 31
0.0
  0
LINE
  8
LY_3
  6
CONTINUOUS
 62
               3
  5
2F9
 10
274.0
 20
43.0
 30
0.0
 11
274.0
 21
45.0
 31
0.0
  0
LINE
  8
LY_3
  6
CONTINUOUS
 62
               3
  5
2FA
 10
278.0
 20
42.99999921835888
 30
0.0
 11
276.00000057421926
 21
40.999999792578137
 31
0.0
  0
LINE
  8
LY_3
  6
CONTINUOUS
 62
               3
  5
2FB
 10
275.99999922552013
 20
40.999998443879008
 30
0.0
 11
273.99999979973938
 21
42.999997869659751
 31
0.0
  0
LINE
  8
LY_3
  6
CONTINUOUS
 62
               3
  5
2FC
 10
276.0
 20
-41.0
 30
0.0
 11
276.0
 21
-30.0
 31
0.0
  0
LINE
  8
LY_3
  6
CONTINUOUS
 62
               3
  5
2FD
 10
274.0
 20
-43.0
 30
0.0
 11
274.0
 21
-45.0
 31
0.0
  0
LINE
  8
LY_3
  6
CONTINUOUS
 62
               3
  5
2FE
 10
278.0
 20
-42.99999921835888
 30
0.0
 11
276.00000057421926
 21
-40.999999792578137
 31
0.0
  0
LINE
  8
LY_3
  6
CONTINUOUS
 62
               3
  5
2FF
 10
275.99999922552013
 20
-40.999998443879008
 30
0.0
 11
273.99999979973938
 21
-42.999997869659751
 31
0.0
  0
LINE
  8
LY_3
  6
CONTINUOUS
 62
               3
  5
300
 10
250.0
 20
-41.0
 30
0.0
 11
250.0
 21
-30.0
 31
0.0
  0
LINE
  8
LY_3
  6
CONTINUOUS
 62
               3
  5
301
 10
252.0
 20
-43.0
 30
0.0
 11
252.0
 21
-45.0
 31
0.0
  0
LINE
  8
LY_3
  6
CONTINUOUS
 62
               3
  5
302
 10
248.0
 20
-42.99999921835888
 30
0.0
 11
249.99999942578074
 21
-40.999999792578137
 31
0.0
  0
LINE
  8
LY_3
  6
CONTINUOUS
 62
               3
  5
303
 10
250.00000077447987
 20
-40.999998443879008
 30
0.0
 11
252.00000020026062
 21
-42.999997869659751
 31
0.0
  0
LINE
  8
LY_3
  6
CONTINUOUS
 62
               3
  5
304
 10
-8.0
 20
-149.5
 30
0.0
 11
-8.0
 21
-160.5
 31
0.0
  0
LINE
  8
LY_3
  6
CONTINUOUS
 62
               3
  5
305
 10
-6.0
 20
-147.5
 30
0.0
 11
-6.0
 21
-145.5
 31
0.0
  0
LINE
  8
LY_3
  6
CONTINUOUS
 62
               3
  5
306
 10
-10.0
 20
-147.50000078164112
 30
0.0
 11
-8.000000574219257
 21
-149.50000020742186
 31
0.0
  0
LINE
  8
LY_3
  6
CONTINUOUS
 62
               3
  5
307
 10
-7.9999992255201278
 20
-149.50000155612099
 30
0.0
 11
-5.9999997997393848
 21
-147.50000213034025
 31
0.0
  0
LINE
  8
LY_3
  6
CONTINUOUS
 62
               3
  5
308
 10
-8.0
 20
-250.5
 30
0.0
 11
-8.0
 21
-239.5
 31
0.0
  0
LINE
  8
LY_3
  6
CONTINUOUS
 62
               3
  5
309
 10
-6.0
 20
-252.5
 30
0.0
 11
-6.0
 21
-254.5
 31
0.0
  0
LINE
  8
LY_3
  6
CONTINUOUS
 62
               3
  5
30A
 10
-10.0
 20
-252.49999921835888
 30
0.0
 11
-8.000000574219257
 21
-250.49999979257814
 31
0.0
  0
LINE
  8
LY_3
  6
CONTINUOUS
 62
               3
  5
30B
 10
-7.9999992255201278
 20
-250.49999844387901
 30
0.0
 11
-5.9999997997393848
 21
-252.49999786965975
 31
0.0
  0
LINE
  8
LY_3
  6
CONTINUOUS
 62
               3
  5
30C
 10
28.0
 20
-250.5
 30
0.0
 11
28.0
 21
-239.5
 31
0.0
  0
LINE
  8
LY_3
  6
CONTINUOUS
 62
               3
  5
30D
 10
26.0
 20
-252.5
 30
0.0
 11
26.0
 21
-254.5
 31
0.0
  0
LINE
  8
LY_3
  6
CONTINUOUS
 62
               3
  5
30E
 10
30.0
 20
-252.49999921835888
 30
0.0
 11
28.000000574219257
 21
-250.49999979257814
 31
0.0
  0
LINE
  8
LY_3
  6
CONTINUOUS
 62
               3
  5
30F
 10
27.999999225520128
 20
-250.49999844387901
 30
0.0
 11
25.999999799739385
 21
-252.49999786965975
 31
0.0
  0
LINE
  8
LY_3
  6
CONTINUOUS
 62
               3
  5
310
 10
28.0
 20
-149.5
 30
0.0
 11
28.0
 21
-160.5
 31
0.0
  0
LINE
  8
LY_3
  6
CONTINUOUS
 62
               3
  5
311
 10
26.0
 20
-147.5
 30
0.0
 11
26.0
 21
-145.5
 31
0.0
  0
LINE
  8
LY_3
  6
CONTINUOUS
 62
               3
  5
312
 10
30.0
 20
-147.50000078164112
 30
0.0
 11
28.000000574219257
 21
-149.50000020742186
 31
0.0
  0
LINE
  8
LY_3
  6
CONTINUOUS
 62
               3
  5
313
 10
27.999999225520128
 20
-149.50000155612099
 30
0.0
 11
25.999999799739385
 21
-147.50000213034025
 31
0.0
  0
LINE
  8
LY_3
  6
CONTINUOUS
 62
               3
  5
314
 10
62.0
 20
-144.0
 30
0.0
 11
62.0
 21
-155.0
 31
0.0
  0
LINE
  8
LY_3
  6
CONTINUOUS
 62
               3
  5
315
 10
64.0
 20
-142.0
 30
0.0
 11
64.0
 21
-140.0
 31
0.0
  0
LINE
  8
LY_3
  6
CONTINUOUS
 62
               3
  5
316
 10
60.0
 20
-142.00000316536716
 30
0.0
 11
61.999999425780743
 21
-144.0000025911479
 31
0.0
  0
LINE
  8
LY_3
  6
CONTINUOUS
 62
               3
  5
317
 10
62.000002123179002
 20
-144.00000528854616
 30
0.0
 11
64.000001548959744
 21
-142.00000586276542
 31
0.0
  0
LINE
  8
LY_3
  6
CONTINUOUS
 62
               3
  5
318
 10
62.0
 20
-256.0
 30
0.0
 11
62.0
 21
-245.0
 31
0.0
  0
LINE
  8
LY_3
  6
CONTINUOUS
 62
               3
  5
319
 10
64.0
 20
-258.0
 30
0.0
 11
64.0
 21
-260.0
 31
0.0
  0
LINE
  8
LY_3
  6
CONTINUOUS
 62
               3
  5
31A
 10
60.0
 20
-257.99999683463284
 30
0.0
 11
61.999999425780743
 21
-255.9999974088521
 31
0.0
  0
LINE
  8
LY_3
  6
CONTINUOUS
 62
               3
  5
31B
 10
62.000002123179002
 20
-255.99999471145384
 30
0.0
 11
64.000001548959744
 21
-257.99999413723458
 31
0.0
  0
LINE
  8
LY_3
  6
CONTINUOUS
 62
               3
  5
31C
 10
98.0
 20
-256.0
 30
0.0
 11
98.0
 21
-245.0
 31
0.0
  0
LINE
  8
LY_3
  6
CONTINUOUS
 62
               3
  5
31D
 10
96.0
 20
-258.0
 30
0.0
 11
96.0
 21
-260.0
 31
0.0
  0
LINE
  8
LY_3
  6
CONTINUOUS
 62
               3
  5
31E
 10
100.0
 20
-257.99999683463284
 30
0.0
 11
98.000000574219257
 21
-255.9999974088521
 31
0.0
  0
LINE
  8
LY_3
  6
CONTINUOUS
 62
               3
  5
31F
 10
97.999997876820998
 20
-255.99999471145384
 30
0.0
 11
95.999998451040256
 21
-257.99999413723458
 31
0.0
  0
LINE
  8
LY_3
  6
CONTINUOUS
 62
               3
  5
320
 10
98.0
 20
-144.0
 30
0.0
 11
98.0
 21
-155.0
 31
0.0
  0
LINE
  8
LY_3
  6
CONTINUOUS
 62
               3
  5
321
 10
96.0
 20
-142.0
 30
0.0
 11
96.0
 21
-140.0
 31
0.0
  0
LINE
  8
LY_3
  6
CONTINUOUS
 62
               3
  5
322
 10
100.0
 20
-142.00000316536716
 30
0.0
 11
98.000000574219257
 21
-144.0000025911479
 31
0.0
  0
LINE
  8
LY_3
  6
CONTINUOUS
 62
               3
  5
323
 10
97.999997876820998
 20
-144.00000528854616
 30
0.0
 11
95.999998451040256
 21
-142.00000586276542
 31
0.0
  0
LINE
  8
LY_3
  6
CONTINUOUS
 62
               3
  5
324
 10
130.0
 20
-127.00000342591423
 30
0.0
 11
131.99999942578074
 21
-129.00000285169497
 31
0.0
  0
LINE
  8
LY_3
  6
CONTINUOUS
 62
               3
  5
325
 10
134.0
 20
-127.00000000000003
 30
0.0
 11
134.0
 21
-125.00000000000003
 31
0.0
  0
LINE
  8
LY_3
  6
CONTINUOUS
 62
               3
  5
326
 10
132.0
 20
-129.00000000000003
 30
0.0
 11
132.0
 21
-150.00000000000003
 31
0.0
  0
LINE
  8
LY_3
  6
CONTINUOUS
 62
               3
  5
327
 10
131.99999942578074
 20
-129.00000285169497
 30
0.0
 11
133.99999885156149
 21
-127.00000342591423
 31
0.0
  0
LINE
  8
LY_3
  6
CONTINUOUS
 62
               3
  5
328
 10
130.0
 20
-272.9999965740858
 30
0.0
 11
131.99999942578074
 21
-270.99999714830506
 31
0.0
  0
LINE
  8
LY_3
  6
CONTINUOUS
 62
               3
  5
329
 10
134.0
 20
-273.0
 30
0.0
 11
134.0
 21
-275.0
 31
0.0
  0
LINE
  8
LY_3
  6
CONTINUOUS
 62
               3
  5
32A
 10
132.0
 20
-271.0
 30
0.0
 11
132.0
 21
-249.99999999999997
 31
0.0
  0
LINE
  8
LY_3
  6
CONTINUOUS
 62
               3
  5
32B
 10
131.99999942578074
 20
-270.99999714830506
 30
0.0
 11
133.99999885156149
 21
-272.9999965740858
 31
0.0
  0
LINE
  8
LY_3
  6
CONTINUOUS
 62
               3
  5
32C
 10
170.0
 20
-272.9999965740858
 30
0.0
 11
168.00000057421926
 21
-270.99999714830506
 31
0.0
  0
LINE
  8
LY_3
  6
CONTINUOUS
 62
               3
  5
32D
 10
166.0
 20
-273.0
 30
0.0
 11
166.0
 21
-275.0
 31
0.0
  0
LINE
  8
LY_3
  6
CONTINUOUS
 62
               3
  5
32E
 10
168.0
 20
-271.0
 30
0.0
 11
168.0
 21
-249.99999999999997
 31
0.0
  0
LINE
  8
LY_3
  6
CONTINUOUS
 62
               3
  5
32F
 10
168.00000057421926
 20
-270.99999714830506
 30
0.0
 11
166.00000114843851
 21
-272.9999965740858
 31
0.0
  0
LINE
  8
LY_3
  6
CONTINUOUS
 62
               3
  5
330
 10
170.0
 20
-127.0000034259142
 30
0.0
 11
168.00000057421926
 21
-129.00000285169494
 31
0.0
  0
LINE
  8
LY_3
  6
CONTINUOUS
 62
               3
  5
331
 10
166.0
 20
-127.0
 30
0.0
 11
166.0
 21
-125.0
 31
0.0
  0
LINE
  8
LY_3
  6
CONTINUOUS
 62
               3
  5
332
 10
168.0
 20
-129.0
 30
0.0
 11
168.0
 21
-150.00000000000003
 31
0.0
  0
LINE
  8
LY_3
  6
CONTINUOUS
 62
               3
  5
333
 10
168.00000057421926
 20
-129.00000285169494
 30
0.0
 11
166.00000114843851
 21
-127.0000034259142
 31
0.0
  0
LINE
  8
LY_3
  6
CONTINUOUS
 62
               3
  5
334
 10
202.0
 20
-129.0
 30
0.0
 11
202.0
 21
-140.0
 31
0.0
  0
LINE
  8
LY_3
  6
CONTINUOUS
 62
               3
  5
335
 10
204.0
 20
-127.0
 30
0.0
 11
204.0
 21
-125.0
 31
0.0
  0
LINE
  8
LY_3
  6
CONTINUOUS
 62
               3
  5
336
 10
200.0
 20
-127.0000034259142
 30
0.0
 11
201.99999942578074
 21
-129.00000285169494
 31
0.0
  0
LINE
  8
LY_3
  6
CONTINUOUS
 62
               3
  5
337
 10
201.99999942578074
 20
-129.00000285169494
 30
0.0
 11
203.99999885156149
 21
-127.0000034259142
 31
0.0
  0
LINE
  8
LY_3
  6
CONTINUOUS
 62
               3
  5
338
 10
202.0
 20
-271.0
 30
0.0
 11
202.0
 21
-260.0
 31
0.0
  0
LINE
  8
LY_3
  6
CONTINUOUS
 62
               3
  5
339
 10
204.0
 20
-273.0
 30
0.0
 11
204.0
 21
-275.0
 31
0.0
  0
LINE
  8
LY_3
  6
CONTINUOUS
 62
               3
  5
33A
 10
200.0
 20
-272.9999965740858
 30
0.0
 11
201.99999942578074
 21
-270.99999714830506
 31
0.0
  0
LINE
  8
LY_3
  6
CONTINUOUS
 62
               3
  5
33B
 10
201.99999942578074
 20
-270.99999714830506
 30
0.0
 11
203.99999885156149
 21
-272.9999965740858
 31
0.0
  0
LINE
  8
LY_3
  6
CONTINUOUS
 62
               3
  5
33C
 10
238.0
 20
-271.0
 30
0.0
 11
238.0
 21
-260.0
 31
0.0
  0
LINE
  8
LY_3
  6
CONTINUOUS
 62
               3
  5
33D
 10
236.0
 20
-273.0
 30
0.0
 11
236.0
 21
-275.0
 31
0.0
  0
LINE
  8
LY_3
  6
CONTINUOUS
 62
               3
  5
33E
 10
240.0
 20
-272.9999965740858
 30
0.0
 11
238.00000057421926
 21
-270.99999714830506
 31
0.0
  0
LINE
  8
LY_3
  6
CONTINUOUS
 62
               3
  5
33F
 10
238.00000057421926
 20
-270.99999714830506
 30
0.0
 11
236.00000114843851
 21
-272.9999965740858
 31
0.0
  0
LINE
  8
LY_3
  6
CONTINUOUS
 62
               3
  5
340
 10
238.0
 20
-129.0
 30
0.0
 11
238.0
 21
-140.0
 31
0.0
  0
LINE
  8
LY_3
  6
CONTINUOUS
 62
               3
  5
341
 10
236.0
 20
-127.0
 30
0.0
 11
236.0
 21
-125.0
 31
0.0
  0
LINE
  8
LY_3
  6
CONTINUOUS
 62
               3
  5
342
 10
240.0
 20
-127.0000034259142
 30
0.0
 11
238.00000057421926
 21
-129.00000285169494
 31
0.0
  0
LINE
  8
LY_3
  6
CONTINUOUS
 62
               3
  5
343
 10
238.00000057421926
 20
-129.00000285169494
 30
0.0
 11
236.00000114843851
 21
-127.0000034259142
 31
0.0
  0
LINE
  8
LY_3
  6
CONTINUOUS
 62
               3
  5
344
 10
272.5
 20
-100.0
 30
0.0
 11
272.5
 21
-120.0
 31
0.0
  0
LINE
  8
LY_3
  6
CONTINUOUS
 62
               3
  5
345
 10
275.0
 20
-97.5
 30
0.0
 11
275.0
 21
-95.0
 31
0.0
  0
LINE
  8
LY_3
  6
CONTINUOUS
 62
               3
  5
346
 10
270.0
 20
-97.500009872599549
 30
0.0
 11
272.49999186438072
 21
-100.00000173698027
 31
0.0
  0
LINE
  8
LY_3
  6
CONTINUOUS
 62
               3
  5
347
 10
272.49999725917723
 20
-100.00000713177678
 30
0.0
 11
274.99999991315099
 21
-97.500004477803031
 31
0.0
  0
LINE
  8
LY_3
  6
CONTINUOUS
 62
               3
  5
348
 10
272.5
 20
-300.0
 30
0.0
 11
272.5
 21
-280.0
 31
0.0
  0
LINE
  8
LY_3
  6
CONTINUOUS
 62
               3
  5
349
 10
275.0
 20
-302.5
 30
0.0
 11
275.0
 21
-305.0
 31
0.0
  0
LINE
  8
LY_3
  6
CONTINUOUS
 62
               3
  5
34A
 10
270.0
 20
-302.49999012740045
 30
0.0
 11
272.49999186438072
 21
-299.99999826301973
 31
0.0
  0
LINE
  8
LY_3
  6
CONTINUOUS
 62
               3
  5
34B
 10
272.49999725917723
 20
-299.99999286822322
 30
0.0
 11
274.99999991315099
 21
-302.49999552219697
 31
0.0
  0
LINE
  8
LY_3
  6
CONTINUOUS
 62
               3
  5
34C
 10
307.5
 20
-300.0
 30
0.0
 11
307.5
 21
-280.0
 31
0.0
  0
LINE
  8
LY_3
  6
CONTINUOUS
 62
               3
  5
34D
 10
305.0
 20
-302.5
 30
0.0
 11
305.0
 21
-305.0
 31
0.0
  0
LINE
  8
LY_3
  6
CONTINUOUS
 62
               3
  5
34E
 10
310.0
 20
-302.49999012740045
 30
0.0
 11
307.50000813561928
 21
-299.99999826301973
 31
0.0
  0
LINE
  8
LY_3
  6
CONTINUOUS
 62
               3
  5
34F
 10
307.50000274082277
 20
-299.99999286822322
 30
0.0
 11
305.00000008684901
 21
-302.49999552219697
 31
0.0
  0
LINE
  8
LY_3
  6
CONTINUOUS
 62
               3
  5
350
 10
307.5
 20
-100.0
 30
0.0
 11
307.5
 21
-120.0
 31
0.0
  0
LINE
  8
LY_3
  6
CONTINUOUS
 62
               3
  5
351
 10
305.0
 20
-97.5
 30
0.0
 11
305.0
 21
-95.0
 31
0.0
  0
LINE
  8
LY_3
  6
CONTINUOUS
 62
               3
  5
352
 10
310.0
 20
-97.500009872599549
 30
0.0
 11
307.50000813561928
 21
-100.00000173698027
 31
0.0
  0
LINE
  8
LY_3
  6
CONTINUOUS
 62
               3
  5
353
 10
307.50000274082277
 20
-100.00000713177678
 30
0.0
 11
305.00000008684901
 21
-97.500004477803031
 31
0.0
  0
DIMENSION
  8
LY_3
  6
CONTINUOUS
 62
             110
  5
361
  2
*D43
 10
3.0
 20
16.0
 30
0.0
 11
1.4999999999999996
 21
16.0
 31
0.0
 70
             128
  1
<>
 13
-0.0000000000000004
 23
11.5
 33
0.0
 14
3.0
 24
11.0
 34
0.0
  3
MXDIMSTYLE
1001
ACAD
1000
DSTYLE
1002
{
1070
              41
1040
2.77
1070
              75
1070
               1
1070
             140
1040
3.2000000476837158
1070
             284
1070
               8
1002
}
  0
DIMENSION
  8
LY_3
  6
CONTINUOUS
 62
             110
  5
370
  2
*D44
 10
53.0
 20
24.0
 30
0.0
 11
51.5
 21
24.0
 31
0.0
 70
             128
  1
<>
 13
50.0
 23
15.0
 33
0.0
 14
53.0
 24
15.0
 34
0.0
  3
MXDIMSTYLE
1001
ACAD
1000
DSTYLE
1002
{
1070
              41
1040
2.77
1070
             140
1040
3.2000000476837158
1070
             284
1070
               8
1002
}
  0
DIMENSION
  8
LY_3
  6
CONTINUOUS
 62
             110
  5
37E
  2
*D45
 10
101.0
 20
24.0
 30
0.0
 11
99.5
 21
24.0
 31
0.0
 70
             128
  1
<>
 13
98.0
 23
18.5
 33
0.0
 14
101.0
 24
18.0
 34
0.0
  3
MXDIMSTYLE
1001
ACAD
1000
DSTYLE
1002
{
1070
              41
1040
2.77
1070
              75
1070
               1
1070
             140
1040
3.2000000476837158
1070
             284
1070
               8
1002
}
  0
DIMENSION
  8
LY_3
  6
CONTINUOUS
 62
             110
  5
38D
  2
*D46
 10
151.0
 20
32.0
 30
0.0
 11
149.5
 21
32.0
 31
0.0
 70
             128
  1
<>
 13
148.0
 23
25.5
 33
0.0
 14
151.0
 24
25.5
 34
0.0
  3
MXDIMSTYLE
1001
ACAD
1000
DSTYLE
1002
{
1070
              41
1040
2.77
1070
             140
1040
3.2000000476837158
1070
             284
1070
               8
1002
}
  0
DIMENSION
  8
LY_3
  6
CONTINUOUS
 62
             110
  5
39C
  2
*D47
 10
201.0
 20
40.0
 30
0.0
 11
199.5
 21
40.0
 31
0.0
 70
             128
  1
<>
 13
198.0
 23
35.0
 33
0.0
 14
201.0
 24
35.0
 34
0.0
  3
MXDIMSTYLE
1001
ACAD
1000
DSTYLE
1002
{
1070
              41
1040
2.77
1070
             140
1040
3.2000000476837158
1070
             284
1070
               8
1002
}
  0
DIMENSION
  8
LY_3
  6
CONTINUOUS
 62
             110
  5
3AA
  2
*D48
 10
252.0
 20
48.0
 30
0.0
 11
250.0
 21
48.0
 31
0.0
 70
             128
  1
<>
 13
248.0
 23
56.0
 33
0.0
 14
252.0
 24
45.0
 34
0.0
  3
MXDIMSTYLE
1001
ACAD
1000
DSTYLE
1002
{
1070
              41
1040
2.77
1070
              75
1070
               1
1070
             140
1040
3.2000000476837158
1070
             284
1070
               8
1002
}
  0
DIMENSION
  8
LY_3
  6
CONTINUOUS
 62
             110
  5
3B8
  2
*D49
 10
302.0
 20
56.0
 30
0.0
 11
300.0
 21
56.0
 31
0.0
 70
             128
  1
<>
 13
298.0
 23
47.5
 33
0.0
 14
302.0
 24
47.0
 34
0.0
  3
MXDIMSTYLE
1001
ACAD
1000
DSTYLE
1002
{
1070
              41
1040
2.77
1070
              75
1070
               1
1070
             140
1040
3.2000000476837158
1070
             284
1070
               8
1002
}
  0
DIMENSION
  8
LY_3
  6
CONTINUOUS
 62
             110
  5
3C6
  2
*D50
 10
-6.0
 20
-136.0
 30
0.0
 11
-8.0
 21
-136.0
 31
0.0
 70
             128
  1
<>
 13
-10.0
 23
-145.0
 33
0.0
 14
-6.0
 24
-145.5
 34
0.0
  3
MXDIMSTYLE
1001
ACAD
1000
DSTYLE
1002
{
1070
              41
1040
2.77
1070
              75
1070
               1
1070
             140
1040
3.2000000476837158
1070
             284
1070
               8
1002
}
  0
DIMENSION
  8
LY_3
  6
CONTINUOUS
 62
             110
  5
3D4
  2
*D51
 10
64.0
 20
-136.0
 30
0.0
 11
62.0
 21
-136.0
 31
0.0
 70
             128
  1
<>
 13
60.0
 23
-139.5
 33
0.0
 14
64.0
 24
-140.0
 34
0.0
  3
MXDIMSTYLE
1001
ACAD
1000
DSTYLE
1002
{
1070
              41
1040
2.77
1070
              75
1070
               1
1070
             140
1040
3.2000000476837158
1070
             284
1070
               8
1002
}
  0
DIMENSION
  8
LY_3
  6
CONTINUOUS
 62
             110
  5
3E2
  2
*D52
 10
134.0
 20
-120.0
 30
0.0
 11
132.0
 21
-120.0
 31
0.0
 70
             128
  1
<>
 13
130.0
 23
-110.0
 33
0.0
 14
134.0
 24
-125.0
 34
0.0
  3
MXDIMSTYLE
1001
ACAD
1000
DSTYLE
1002
{
1070
              41
1040
2.77
1070
              75
1070
               1
1070
             140
1040
3.2000000476837158
1070
             284
1070
               8
1002
}
  0
DIMENSION
  8
LY_3
  6
CONTINUOUS
 62
             110
  5
3F0
  2
*D53
 10
204.0
 20
-120.0
 30
0.0
 11
202.0
 21
-120.0
 31
0.0
 70
             128
  1
<>
 13
200.0
 23
-124.5
 33
0.0
 14
204.0
 24
-125.0
 34
0.0
  3
MXDIMSTYLE
1001
ACAD
1000
DSTYLE
1002
{
1070
              41
1040
2.77
1070
              75
1070
               1
1070
             140
1040
3.2000000476837158
1070
             284
1070
               8
1002
}
  0
DIMENSION
  8
LY_3
  6
CONTINUOUS
 62
             110
  5
3FF
  2
*D54
 10
275.0
 20
-88.0
 30
0.0
 11
272.5
 21
-88.0
 31
0.0
 70
             128
  1
<>
 13
270.0
 23
-95.0
 33
0.0
 14
275.0
 24
-95.0
 34
0.0
  3
MXDIMSTYLE
1001
ACAD
1000
DSTYLE
1002
{
1070
              41
1040
2.77
1070
             140
1040
3.2000000476837158
1070
             284
1070
               8
1002
}
  0
LINE
  8
LY_3
  6
CONTINUOUS
 62
               3
  5
400
 10
370.5
 20
2.0
 30
0.0
 11
370.5
 21
-25.0
 31
0.0
  0
LINE
  8
LY_3
  6
CONTINUOUS
 62
               3
  5
401
 10
373.0
 20
4.5
 30
0.0
 11
373.0
 21
7.0
 31
0.0
  0
LINE
  8
LY_3
  6
CONTINUOUS
 62
               3
  5
402
 10
368.0
 20
4.4999896063063716
 30
0.0
 11
370.49999725917723
 21
1.9999923471291368
 31
0.0
  0
LINE
  8
LY_3
  6
CONTINUOUS
 62
               3
  5
403
 10
370.50000265397375
 20
1.9999977419256538
 30
0.0
 11
373.0000053079475
 21
4.5000003958994057
 31
0.0
  0
LINE
  8
LY_3
  6
CONTINUOUS
 62
               3
  5
404
 10
370.5
 20
-258.0
 30
0.0
 11
370.5
 21
-231.0
 31
0.0
  0
LINE
  8
LY_3
  6
CONTINUOUS
 62
               3
  5
405
 10
373.0
 20
-260.5
 30
0.0
 11
373.0
 21
-263.0
 31
0.0
  0
LINE
  8
LY_3
  6
CONTINUOUS
 62
               3
  5
406
 10
368.0
 20
-260.49998960630637
 30
0.0
 11
370.49999725917723
 21
-257.99999234712914
 31
0.0
  0
LINE
  8
LY_3
  6
CONTINUOUS
 62
               3
  5
407
 10
370.50000265397375
 20
-257.99999774192565
 30
0.0
 11
373.0000053079475
 21
-260.50000039589941
 31
0.0
  0
LINE
  8
LY_3
  6
CONTINUOUS
 62
               3
  5
408
 10
445.49999999999989
 20
-258.0
 30
0.0
 11
445.49999999999989
 21
-231.0
 31
0.0
  0
LINE
  8
LY_3
  6
CONTINUOUS
 62
               3
  5
409
 10
442.99999999999989
 20
-260.5
 30
0.0
 11
442.99999999999989
 21
-263.0
 31
0.0
  0
LINE
  8
LY_3
  6
CONTINUOUS
 62
               3
  5
40A
 10
447.99999999999989
 20
-260.49998960630637
 30
0.0
 11
445.50000274082265
 21
-257.99999234712914
 31
0.0
  0
LINE
  8
LY_3
  6
CONTINUOUS
 62
               3
  5
40B
 10
445.49999734602613
 20
-257.99999774192565
 30
0.0
 11
442.99999469205238
 21
-260.50000039589941
 31
0.0
  0
LINE
  8
LY_3
  6
CONTINUOUS
 62
               3
  5
40C
 10
445.49999999999989
 20
2.0
 30
0.0
 11
445.49999999999989
 21
-25.0
 31
0.0
  0
LINE
  8
LY_3
  6
CONTINUOUS
 62
               3
  5
40D
 10
442.99999999999989
 20
4.5
 30
0.0
 11
442.99999999999989
 21
7.0
 31
0.0
  0
LINE
  8
LY_3
  6
CONTINUOUS
 62
               3
  5
40E
 10
447.99999999999989
 20
4.4999896063063716
 30
0.0
 11
445.50000274082265
 21
1.9999923471291368
 31
0.0
  0
LINE
  8
LY_3
  6
CONTINUOUS
 62
               3
  5
40F
 10
445.49999734602613
 20
1.9999977419256538
 30
0.0
 11
442.99999469205238
 21
4.5000003958994057
 31
0.0
  0
DIMENSION
  8
LY_3
  6
CONTINUOUS
 62
             110
  5
41D
  2
*D55
 10
373.0
 20
24.0
 30
0.0
 11
370.5
 21
24.0
 31
0.0
 70
             128
  1
<>
 13
368.0
 23
7.5
 33
0.0
 14
373.0
 24
7.0
 34
0.0
  3
MXDIMSTYLE
1001
ACAD
1000
DSTYLE
1002
{
1070
              41
1040
2.77
1070
              75
1070
               1
1070
             140
1040
3.2000000476837158
1070
             284
1070
               8
1002
}
  0
LINE
  8
LY_3
  6
CONTINUOUS
 62
               3
  5
41E
 10
490.5
 20
26.999999999999986
 30
0.0
 11
490.5
 21
2.0000000000000142
 31
0.0
  0
LINE
  8
LY_3
  6
CONTINUOUS
 62
               3
  5
41F
 10
493.0
 20
29.499999999999986
 30
0.0
 11
493.0
 21
31.999999999999986
 31
0.0
  0
LINE
  8
LY_3
  6
CONTINUOUS
 62
               3
  5
420
 10
488.0
 20
29.499989606306357
 30
0.0
 11
490.49999725917723
 21
26.999992347129123
 31
0.0
  0
LINE
  8
LY_3
  6
CONTINUOUS
 62
               3
  5
421
 10
490.50000265397375
 20
26.99999774192564
 30
0.0
 11
493.0000053079475
 21
29.500000395899391
 31
0.0
  0
LINE
  8
LY_3
  6
CONTINUOUS
 62
               3
  5
422
 10
565.49999999999989
 20
26.999999999999986
 30
0.0
 11
565.49999999999989
 21
2.0000000000000142
 31
0.0
  0
LINE
  8
LY_3
  6
CONTINUOUS
 62
               3
  5
423
 10
562.99999999999989
 20
29.499999999999986
 30
0.0
 11
562.99999999999989
 21
31.999999999999986
 31
0.0
  0
LINE
  8
LY_3
  6
CONTINUOUS
 62
               3
  5
424
 10
567.99999999999989
 20
29.499989606306357
 30
0.0
 11
565.50000274082265
 21
26.999992347129123
 31
0.0
  0
LINE
  8
LY_3
  6
CONTINUOUS
 62
               3
  5
425
 10
565.49999734602613
 20
26.99999774192564
 30
0.0
 11
562.99999469205238
 21
29.500000395899391
 31
0.0
  0
LINE
  8
LY_3
  6
CONTINUOUS
 62
               3
  5
426
 10
490.5
 20
-283.0
 30
0.0
 11
490.5
 21
-258.0
 31
0.0
  0
LINE
  8
LY_3
  6
CONTINUOUS
 62
               3
  5
427
 10
493.0
 20
-285.5
 30
0.0
 11
493.0
 21
-288.0
 31
0.0
  0
LINE
  8
LY_3
  6
CONTINUOUS
 62
               3
  5
428
 10
488.0
 20
-285.49998960630637
 30
0.0
 11
490.49999725917723
 21
-282.99999234712914
 31
0.0
  0
LINE
  8
LY_3
  6
CONTINUOUS
 62
               3
  5
429
 10
490.50000265397375
 20
-282.99999774192565
 30
0.0
 11
493.0000053079475
 21
-285.50000039589941
 31
0.0
  0
LINE
  8
LY_3
  6
CONTINUOUS
 62
               3
  5
42A
 10
565.49999999999989
 20
-283.0
 30
0.0
 11
565.49999999999989
 21
-258.0
 31
0.0
  0
LINE
  8
LY_3
  6
CONTINUOUS
 62
               3
  5
42B
 10
562.99999999999989
 20
-285.5
 30
0.0
 11
562.99999999999989
 21
-288.0
 31
0.0
  0
LINE
  8
LY_3
  6
CONTINUOUS
 62
               3
  5
42C
 10
567.99999999999989
 20
-285.49998960630637
 30
0.0
 11
565.50000274082265
 21
-282.99999234712914
 31
0.0
  0
LINE
  8
LY_3
  6
CONTINUOUS
 62
               3
  5
42D
 10
565.49999734602613
 20
-282.99999774192565
 30
0.0
 11
562.99999469205238
 21
-285.50000039589941
 31
0.0
  0
DIMENSION
  8
LY_3
  6
CONTINUOUS
 62
             110
  5
43B
  2
*D56
 10
493.0
 20
48.0
 30
0.0
 11
490.5
 21
48.0
 31
0.0
 70
             128
  1
<>
 13
488.0
 23
32.5
 33
0.0
 14
493.0
 24
32.0
 34
0.0
  3
MXDIMSTYLE
1001
ACAD
1000
DSTYLE
1002
{
1070
              41
1040
2.77
1070
              75
1070
               1
1070
             140
1040
3.2000000476837158
1070
             284
1070
               8
1002
}
  0
ENDSEC
  0
EOF
