  0
SECTION
  2
HEADER
  9
$ACADVER
  1
AC1009
  9
$DWGCODEPAGE
  3
dos932
  9
$INSBASE
 10
0.0
 20
0.0
 30
0.0
  9
$EXTMIN
 10
-21.776227779793203
 20
-318.30540550077285
 30
0.0
  9
$EXTMAX
 10
580.0
 20
61.666666785876004
 30
0.0
  9
$LIMMIN
 10
-21.776227779793203
 20
-318.30540550077285
  9
$LIMMAX
 10
580.0
 20
61.666666785876004
  9
$ORTHOMODE
 70
               0
  9
$REGENMODE
 70
               1
  9
$FILLMODE
 70
               1
  9
$QTEXTMODE
 70
               0
  9
$MIRRTEXT
 70
               1
  9
$DRAGMODE
 70
               2
  9
$LTSCALE
 40
1.0
  9
$OSMODE
 70
               0
  9
$ATTMODE
 70
               1
  9
$TEXTSIZE
 40
3.2000000476837158
  9
$TRACEWID
 40
0.05
  9
$TEXTSTYLE
  7
MX_NOTE_STANDARD
  9
$CLAYER
  8
LY_3
  9
$CELTYPE
  6
CONTINUOUS
  9
$CECOLOR
 62
             256
  9
$DIMSCALE
 40
1.0
  9
$DIMASZ
 40
2.5
  9
$DIMEXO
 40
2.0
  9
$DIMDLI
 40
3.75
  9
$DIMRND
 40
0.0
  9
$DIMDLE
 40
0.0
  9
$DIMEXE
 40
1.0
  9
$DIMTP
 40
0.0
  9
$DIMTM
 40
0.0
  9
$DIMTXT
 40
4.1655998229980469
  9
$DIMCEN
 40
2.5
  9
$DIMTSZ
 40
0.0
  9
$DIMTOL
 70
               0
  9
$DIMLIM
 70
               0
  9
$DIMTIH
 70
               0
  9
$DIMTOH
 70
               0
  9
$DIMSE1
 70
               0
  9
$DIMSE2
 70
               0
  9
$DIMTAD
 70
               1
  9
$DIMZIN
 70
               8
  9
$DIMBLK
  1

  9
$DIMASO
 70
               1
  9
$DIMSHO
 70
               1
  9
$DIMPOST
  1

  9
$DIMAPOST
  1

  9
$DIMALT
 70
               0
  9
$DIMALTD
 70
               4
  9
$DIMALTF
 40
0.03937007874016
  9
$DIMLFAC
 40
1.0
  9
$DIMTOFL
 70
               1
  9
$DIMTVP
 40
0.0
  9
$DIMTIX
 70
               0
  9
$DIMSOXD
 70
               0
  9
$DIMSAH
 70
               1
  9
$DIMBLK1
  1
_OPEN30
  9
$DIMBLK2
  1
_OPEN30
  9
$DIMSTYLE
  2
MXDIMSTYLE
  9
$DIMCLRD
 70
               0
  9
$DIMCLRE
 70
               0
  9
$DIMCLRT
 70
               0
  9
$DIMTFAC
 40
1.0
  9
$DIMGAP
 40
1.0
  9
$LUNITS
 70
               2
  9
$LUPREC
 70
               4
  9
$AXISMODE
 70
               0
  9
$AXISUNIT
 10
0.0
 20
0.0
  9
$SKETCHINC
 40
0.1
  9
$FILLETRAD
 40
0.0
  9
$AUNITS
 70
               0
  9
$AUPREC
 70
               0
  9
$MENU
  1
acad
  9
$ELEVATION
 40
0.0
  9
$PELEVATION
 40
0.0
  9
$THICKNESS
 40
0.0
  9
$LIMCHECK
 70
               0
  9
$BLIPMODE
 70
               1
  9
$CHAMFERA
 40
0.0
  9
$CHAMFERB
 40
0.0
  9
$SKPOLY
 70
               0
  9
$TDCREATE
 40
2455163.519687500
  9
$TDUPDATE
 40
2455163.519687500
  9
$TDINDWG
 40
0.0000000000
  9
$TDUSRTIMER
 40
0.0000000000
  9
$USRTIMER
 70
               1
  9
$ANGBASE
 50
0.0
  9
$ANGDIR
 70
               0
  9
$PDMODE
 70
               0
  9
$PDSIZE
 40
0.0
  9
$PLINEWID
 40
0.0
  9
$COORDS
 70
               1
  9
$SPLFRAME
 70
               0
  9
$SPLINETYPE
 70
               6
  9
$SPLINESEGS
 70
               8
  9
$ATTDIA
 70
               0
  9
$ATTREQ
 70
               1
  9
$HANDLING
 70
               1
  9
$HANDSEED
  5
3AE
  9
$SURFTAB1
 70
               6
  9
$SURFTAB2
 70
               6
  9
$SURFTYPE
 70
               6
  9
$SURFU
 70
               6
  9
$SURFV
 70
               6
  9
$UCSNAME
  2

  9
$UCSORG
 10
0.0
 20
0.0
 30
0.0
  9
$UCSXDIR
 10
1.0
 20
0.0
 30
0.0
  9
$UCSYDIR
 10
0.0
 20
1.0
 30
0.0
  9
$PUCSNAME
  2

  9
$PUCSORG
 10
0.0
 20
0.0
 30
0.0
  9
$PUCSXDIR
 10
1.0
 20
0.0
 30
0.0
  9
$PUCSYDIR
 10
0.0
 20
1.0
 30
0.0
  9
$USERI1
 70
               0
  9
$USERI2
 70
               0
  9
$USERI3
 70
               0
  9
$USERI4
 70
               0
  9
$USERI5
 70
               0
  9
$USERR1
 40
0.0
  9
$USERR2
 40
0.0
  9
$USERR3
 40
0.0
  9
$USERR4
 40
0.0
  9
$USERR5
 40
0.0
  9
$WORLDVIEW
 70
               1
  9
$SHADEDGE
 70
               3
  9
$SHADEDIF
 70
              70
  9
$TILEMODE
 70
               1
  9
$MAXACTVP
 70
              16
  9
$PINSBASE
 10
0.0
 20
0.0
 30
0.0
  9
$PLIMCHECK
 70
               0
  9
$PEXTMIN
 10
1.0000000000000000E+20
 20
1.0000000000000000E+20
 30
1.0000000000000000E+20
  9
$PEXTMAX
 10
-1.0000000000000000E+20
 20
-1.0000000000000000E+20
 30
-1.0000000000000000E+20
  9
$PLIMMIN
 10
0.0
 20
0.0
  9
$PLIMMAX
 10
12.0
 20
9.0
  9
$UNITMODE
 70
               0
  9
$VISRETAIN
 70
               0
  9
$PLINEGEN
 70
               1
  9
$PSLTSCALE
 70
               0
  9
$TREEDEPTH
 70
            3020
  0
ENDSEC
  0
SECTION
  2
TABLES
  0
TABLE
  2
VPORT
 70
               1
  0
VPORT
  2
*ACTIVE
 70
               0
 10
0.0
 20
0.0
 11
1.0
 21
1.0
 12
279.1118861101034
 22
-128.31936935744841
 13
0.0
 23
0.0
 14
1.0
 24
1.0
 15
0.0
 25
0.0
 16
0.0
 26
0.0
 36
1.0
 17
0.0
 27
0.0
 37
0.0
 40
383.77179300951536
 41
1.7320508075688772
 42
50.0
 43
0.0
 44
0.0
 50
0.0
 51
0.0
 71
               0
 72
             100
 73
               1
 74
               1
 75
               0
 76
               0
 77
               0
 78
               0
  0
ENDTAB
  0
TABLE
  2
LTYPE
 70
               3
  0
LTYPE
  2
CONTINUOUS
 70
              64
  3
Solid line
 72
              65
 73
               0
 40
0.0
  0
LTYPE
  2
CENTER
 70
              64
  3
Center ____ _ ____ _ ____ _ ____ _ ____ _ ____
 72
              65
 73
               4
 40
50.800000000000004
 49
31.75
 49
-6.3499999999999996
 49
6.3499999999999996
 49
-6.3499999999999996
  0
LTYPE
  2
PHANTOM
 70
              64
  3
Phantom ______  __  __  ______  __  __  ______
 72
              65
 73
               6
 40
63.500000000000007
 49
31.75
 49
-6.3499999999999996
 49
6.3499999999999996
 49
-6.3499999999999996
 49
6.3499999999999996
 49
-6.3499999999999996
  0
ENDTAB
  0
TABLE
  2
LAYER
 70
               3
  0
LAYER
  2
0
 70
               0
 62
               7
  6
CONTINUOUS
  0
LAYER
  2
DEFPOINTS
 70
               0
 62
               7
  6
CONTINUOUS
  0
LAYER
  2
LY_3
 70
               0
 62
               7
  6
CONTINUOUS
  0
ENDTAB
  0
TABLE
  2
STYLE
 70
               4
  0
STYLE
  2
MX_NOTE_STANDARD
 70
               0
 40
0.0
 41
1.0
 50
0.0
 71
               0
 42
3.2000000476837158
  3
txt.shx
  4
extfont.shx
  0
STYLE
  2
MX_DIMTXSTY_2
 70
               0
 40
0.0
 41
1.1000000000000001
 50
0.0
 71
               0
 42
3.2000000476837158
  3
txt.shx
  4
extfont.shx
  0
STYLE
  2
MX_DIMTXSTY_3
 70
               0
 40
0.0
 41
1.1500000000000001
 50
0.0
 71
               0
 42
3.2000000476837158
  3
txt.shx
  4
extfont.shx
  0
STYLE
  2
MX_DIMTXSTY_4
 70
               0
 40
0.0
 41
1.05
 50
0.0
 71
               0
 42
3.2000000476837158
  3
txt.shx
  4
extfont.shx
  0
ENDTAB
  0
TABLE
  2
VIEW
 70
               0
  0
ENDTAB
  0
TABLE
  2
UCS
 70
               0
  0
ENDTAB
  0
TABLE
  2
APPID
 70
               1
  0
APPID
  2
ACAD
 70
               0
  0
ENDTAB
  0
TABLE
  2
DIMSTYLE
 70
               1
  0
DIMSTYLE
  2
MXDIMSTYLE
 70
               0
  3

  4

  5

  6
_OPEN30
  7
_OPEN30
 40
1.0
 41
2.5
 42
2.0
 43
3.75
 44
1.0
 45
0.0
 46
0.0
 47
0.0
 48
0.0
 71
               0
 72
               0
 73
               0
 74
               0
 75
               0
 76
               0
 77
               1
 78
               8
140
4.1655998229980469
141
2.5
142
0.0
143
0.03937007874016
144
1.0
145
0.0
146
1.0
147
1.0
170
               0
171
               4
172
               1
173
               1
174
               0
175
               0
176
               0
177
               0
178
               0
  0
ENDTAB
  0
ENDSEC
  0
SECTION
  2
BLOCKS
  0
BLOCK
  8
0
  6
BYBLOCK
 62
               0
  5
20
  2
_OPEN30
 70
               2
 10
0.0
 20
0.0
 30
0.0
  3
_OPEN30
  0
LINE
  8
0
  6
BYBLOCK
 62
               0
  5
21
 10
-1.0
 20
0.267949
 30
0.0
 11
0.0
 21
0.0
 31
0.0
  0
LINE
  8
0
  6
BYBLOCK
 62
               0
  5
22
 10
0.0
 20
0.0
 30
0.0
 11
-1.0
 21
-0.267949
 31
0.0
  0
LINE
  8
0
  6
BYBLOCK
 62
               0
  5
23
 10
0.0
 20
0.0
 30
0.0
 11
-1.0
 21
0.0
 31
0.0
  0
ENDBLK
  8
0
  6
BYBLOCK
 62
               0
  5
24
  0
BLOCK
  8
0
  6
BYBLOCK
 62
               0
  5
61
  2
*D1
 70
               1
 10
0.0
 20
0.0
 30
0.0
  3
*D1
  0
LINE
  8
0
  6
CONTINUOUS
 62
             110
  5
62
 10
410.0
 20
-265.0
 30
0.0
 11
410.0
 21
5.0
 31
0.0
  0
INSERT
  8
0
  6
CONTINUOUS
 62
             110
  5
63
  2
_OPEN30
 10
410.0
 20
-265.0
 30
0.0
 41
2.77
 42
2.77
 50
270.0
 43
2.77
  0
INSERT
  8
0
  6
CONTINUOUS
 62
             110
  5
64
  2
_OPEN30
 10
410.0
 20
5.0
 30
0.0
 41
2.77
 42
2.77
 50
90.0
 43
2.77
  0
TEXT
  8
0
  6
CONTINUOUS
 62
             110
  5
65
 10
409.0
 20
-135.82857175668082
 30
0.0
 40
3.2000000476837158
  1
%%c270
 50
90.0
  7
MX_NOTE_STANDARD
 11
407.39999997615814
 21
-135.82857175668082
 31
0.0
 73
               2
  0
POINT
  8
DEFPOINTS
  6
CONTINUOUS
 62
               0
  5
66
 10
446.0
 20
-265.0
 30
0.0
  0
POINT
  8
DEFPOINTS
  6
CONTINUOUS
 62
               0
  5
67
 10
446.0
 20
5.0
 30
0.0
  0
POINT
  8
DEFPOINTS
  6
CONTINUOUS
 62
               0
  5
68
 10
410.0
 20
5.0
 30
0.0
  0
ENDBLK
  8
0
  6
BYBLOCK
 62
               0
  5
69
  0
BLOCK
  8
0
  6
BYBLOCK
 62
               0
  5
6C
  2
*D2
 70
               1
 10
0.0
 20
0.0
 30
0.0
  3
*D2
  0
LINE
  8
0
  6
CONTINUOUS
 62
             110
  5
6D
 10
400.0
 20
-27.0
 30
0.0
 11
400.0
 21
-233.00000000000006
 31
0.0
  0
INSERT
  8
0
  6
CONTINUOUS
 62
             110
  5
6E
  2
_OPEN30
 10
400.0
 20
-27.0
 30
0.0
 41
2.77
 42
2.77
 50
90.0
 43
2.77
  0
INSERT
  8
0
  6
CONTINUOUS
 62
             110
  5
6F
  2
_OPEN30
 10
400.0
 20
-233.00000000000006
 30
0.0
 41
2.77
 42
2.77
 50
270.0
 43
2.77
  0
TEXT
  8
0
  6
CONTINUOUS
 62
             110
  5
70
 10
399.0
 20
-135.82857175668082
 30
0.0
 40
3.2000000476837158
  1
%%c206
 50
90.000000000000014
  7
MX_NOTE_STANDARD
 11
397.39999997615814
 21
-135.82857175668082
 31
0.0
 73
               2
  0
POINT
  8
DEFPOINTS
  6
CONTINUOUS
 62
               0
  5
71
 10
373.0
 20
-27.0
 30
0.0
  0
POINT
  8
DEFPOINTS
  6
CONTINUOUS
 62
               0
  5
72
 10
373.0
 20
-233.00000000000006
 30
0.0
  0
POINT
  8
DEFPOINTS
  6
CONTINUOUS
 62
               0
  5
73
 10
400.0
 20
-233.00000000000006
 30
0.0
  0
ENDBLK
  8
0
  6
BYBLOCK
 62
               0
  5
74
  0
BLOCK
  8
0
  6
BYBLOCK
 62
               0
  5
77
  2
*D3
 70
               1
 10
0.0
 20
0.0
 30
0.0
  3
*D3
  0
LINE
  8
0
  6
CONTINUOUS
 62
             110
  5
78
 10
530.0
 20
-290.0
 30
0.0
 11
530.0
 21
30.0
 31
0.0
  0
INSERT
  8
0
  6
CONTINUOUS
 62
             110
  5
79
  2
_OPEN30
 10
530.0
 20
-290.0
 30
0.0
 41
2.77
 42
2.77
 50
270.0
 43
2.77
  0
INSERT
  8
0
  6
CONTINUOUS
 62
             110
  5
7A
  2
_OPEN30
 10
530.0
 20
30.0
 30
0.0
 41
2.77
 42
2.77
 50
90.0
 43
2.77
  0
TEXT
  8
0
  6
CONTINUOUS
 62
             110
  5
7B
 10
529.0
 20
-135.82857175668082
 30
0.0
 40
3.2000000476837158
  1
%%c320
 50
90.0
  7
MX_NOTE_STANDARD
 11
527.39999997615814
 21
-135.82857175668082
 31
0.0
 73
               2
  0
POINT
  8
DEFPOINTS
  6
CONTINUOUS
 62
               0
  5
7C
 10
566.0
 20
-290.0
 30
0.0
  0
POINT
  8
DEFPOINTS
  6
CONTINUOUS
 62
               0
  5
7D
 10
566.0
 20
30.0
 30
0.0
  0
POINT
  8
DEFPOINTS
  6
CONTINUOUS
 62
               0
  5
7E
 10
530.0
 20
30.0
 30
0.0
  0
ENDBLK
  8
0
  6
BYBLOCK
 62
               0
  5
7F
  0
BLOCK
  8
0
  6
BYBLOCK
 62
               0
  5
82
  2
*D4
 70
               1
 10
0.0
 20
0.0
 30
0.0
  3
*D4
  0
LINE
  8
0
  6
CONTINUOUS
 62
             110
  5
83
 10
520.0
 20
0.0000000000000568
 30
0.0
 11
520.0
 21
-260.0
 31
0.0
  0
INSERT
  8
0
  6
CONTINUOUS
 62
             110
  5
84
  2
_OPEN30
 10
520.0
 20
0.0000000000000568
 30
0.0
 41
2.77
 42
2.77
 50
90.0
 43
2.77
  0
INSERT
  8
0
  6
CONTINUOUS
 62
             110
  5
85
  2
_OPEN30
 10
520.0
 20
-260.0
 30
0.0
 41
2.77
 42
2.77
 50
270.0
 43
2.77
  0
TEXT
  8
0
  6
CONTINUOUS
 62
             110
  5
86
 10
519.0
 20
-135.82857175668076
 30
0.0
 40
3.2000000476837158
  1
%%c260
 50
90.000000000000014
  7
MX_NOTE_STANDARD
 11
517.39999997615814
 21
-135.82857175668076
 31
0.0
 73
               2
  0
POINT
  8
DEFPOINTS
  6
CONTINUOUS
 62
               0
  5
87
 10
493.0
 20
0.0000000000000568
 30
0.0
  0
POINT
  8
DEFPOINTS
  6
CONTINUOUS
 62
               0
  5
88
 10
493.0
 20
-260.0
 30
0.0
  0
POINT
  8
DEFPOINTS
  6
CONTINUOUS
 62
               0
  5
89
 10
520.0
 20
-260.0
 30
0.0
  0
ENDBLK
  8
0
  6
BYBLOCK
 62
               0
  5
8A
  0
BLOCK
  8
0
  6
BYBLOCK
 62
               0
  5
8D
  2
*D5
 70
               1
 10
0.0
 20
0.0
 30
0.0
  3
*D5
  0
LINE
  8
0
  6
CONTINUOUS
 62
             110
  5
8E
 10
370.0
 20
30.000000000000028
 30
0.0
 11
450.0
 21
30.000000000000028
 31
0.0
  0
LINE
  8
0
  6
CONTINUOUS
 62
             110
  5
8F
 10
370.0
 20
5.5000000000000284
 30
0.0
 11
370.0
 21
32.285999298095732
 31
0.0
  0
LINE
  8
0
  6
CONTINUOUS
 62
             110
  5
90
 10
450.0
 20
5.5000000000000284
 30
0.0
 11
450.0
 21
32.285999298095732
 31
0.0
  0
INSERT
  8
0
  6
CONTINUOUS
 62
             110
  5
91
  2
_OPEN30
 10
370.0
 20
30.000000000000028
 30
0.0
 41
2.77
 42
2.77
 50
180.0
 43
2.77
  0
INSERT
  8
0
  6
CONTINUOUS
 62
             110
  5
92
  2
_OPEN30
 10
450.0
 20
30.000000000000028
 30
0.0
 41
2.77
 42
2.77
 43
2.77
  0
TEXT
  8
0
  6
CONTINUOUS
 62
             110
  5
94
 10
407.30666665236157
 20
31.000000000000028
 30
0.0
 40
3.2000000476837158
  1
80
  7
MX_DIMTXSTY_2
 11
407.30666665236157
 21
32.600000023841886
 31
0.0
 73
               2
  0
POINT
  8
DEFPOINTS
  6
CONTINUOUS
 62
               0
  5
95
 10
370.0
 20
5.0000000000000284
 30
0.0
  0
POINT
  8
DEFPOINTS
  6
CONTINUOUS
 62
               0
  5
96
 10
450.0
 20
5.0000000000000284
 30
0.0
  0
POINT
  8
DEFPOINTS
  6
CONTINUOUS
 62
               0
  5
97
 10
450.0
 20
30.000000000000028
 30
0.0
  0
ENDBLK
  8
0
  6
BYBLOCK
 62
               0
  5
98
  0
BLOCK
  8
0
  6
BYBLOCK
 62
               0
  5
9B
  2
*D6
 70
               1
 10
0.0
 20
0.0
 30
0.0
  3
*D6
  0
LINE
  8
0
  6
CONTINUOUS
 62
             110
  5
9C
 10
490.0
 20
56.666666666666714
 30
0.0
 11
570.00000000000011
 21
56.666666666666714
 31
0.0
  0
LINE
  8
0
  6
CONTINUOUS
 62
             110
  5
9D
 10
490.0
 20
30.500000635782925
 30
0.0
 11
490.0
 21
58.952665964762417
 31
0.0
  0
LINE
  8
0
  6
CONTINUOUS
 62
             110
  5
9E
 10
570.00000000000011
 20
30.500000635782925
 30
0.0
 11
570.00000000000011
 21
58.952665964762417
 31
0.0
  0
INSERT
  8
0
  6
CONTINUOUS
 62
             110
  5
9F
  2
_OPEN30
 10
490.0
 20
56.666666666666714
 30
0.0
 41
2.77
 42
2.77
 50
180.0
 43
2.77
  0
INSERT
  8
0
  6
CONTINUOUS
 62
             110
  5
A0
  2
_OPEN30
 10
570.00000000000011
 20
56.666666666666714
 30
0.0
 41
2.77
 42
2.77
 43
2.77
  0
TEXT
  8
0
  6
CONTINUOUS
 62
             110
  5
A1
 10
527.30666665236151
 20
57.666666666666714
 30
0.0
 40
3.2000000476837158
  1
80
  7
MX_DIMTXSTY_2
 11
527.30666665236151
 21
59.266666690508572
 31
0.0
 73
               2
  0
POINT
  8
DEFPOINTS
  6
CONTINUOUS
 62
               0
  5
A2
 10
490.0
 20
30.000000635782925
 30
0.0
  0
POINT
  8
DEFPOINTS
  6
CONTINUOUS
 62
               0
  5
A3
 10
570.00000000000011
 20
30.000000635782925
 30
0.0
  0
POINT
  8
DEFPOINTS
  6
CONTINUOUS
 62
               0
  5
A4
 10
570.00000000000011
 20
56.666666666666714
 30
0.0
  0
ENDBLK
  8
0
  6
BYBLOCK
 62
               0
  5
A5
  0
BLOCK
  8
0
  6
BYBLOCK
 62
               0
  5
138
  2
*D7
 70
               1
 10
0.0
 20
0.0
 30
0.0
  3
*D7
  0
LINE
  8
0
  6
CONTINUOUS
 62
             110
  5
139
 10
20.0
 20
-254.5
 30
0.0
 11
20.0
 21
-145.5
 31
0.0
  0
INSERT
  8
0
  6
CONTINUOUS
 62
             110
  5
13A
  2
_OPEN30
 10
20.0
 20
-254.5
 30
0.0
 41
2.77
 42
2.77
 50
270.0
 43
2.77
  0
INSERT
  8
0
  6
CONTINUOUS
 62
             110
  5
13B
  2
_OPEN30
 10
20.0
 20
-145.5
 30
0.0
 41
2.77
 42
2.77
 50
90.0
 43
2.77
  0
TEXT
  8
0
  6
CONTINUOUS
 62
             110
  5
13C
 10
19.0
 20
-205.87809558709463
 30
0.0
 40
3.2000000476837158
  1
%%c109
 50
90.0
  7
MX_DIMTXSTY_2
 11
17.399999976158142
 21
-205.87809558709463
 31
0.0
 73
               2
  0
POINT
  8
DEFPOINTS
  6
CONTINUOUS
 62
               0
  5
13D
 10
26.0
 20
-254.5
 30
0.0
  0
POINT
  8
DEFPOINTS
  6
CONTINUOUS
 62
               0
  5
13E
 10
26.0
 20
-145.5
 30
0.0
  0
POINT
  8
DEFPOINTS
  6
CONTINUOUS
 62
               0
  5
13F
 10
20.0
 20
-145.5
 30
0.0
  0
ENDBLK
  8
0
  6
BYBLOCK
 62
               0
  5
140
  0
BLOCK
  8
0
  6
BYBLOCK
 62
               0
  5
143
  2
*D8
 70
               1
 10
0.0
 20
0.0
 30
0.0
  3
*D8
  0
LINE
  8
0
  6
CONTINUOUS
 62
             110
  5
144
 10
10.0
 20
-160.5
 30
0.0
 11
10.0
 21
-239.5
 31
0.0
  0
INSERT
  8
0
  6
CONTINUOUS
 62
             110
  5
145
  2
_OPEN30
 10
10.0
 20
-160.5
 30
0.0
 41
2.77
 42
2.77
 50
90.0
 43
2.77
  0
INSERT
  8
0
  6
CONTINUOUS
 62
             110
  5
146
  2
_OPEN30
 10
10.0
 20
-239.5
 30
0.0
 41
2.77
 42
2.77
 50
270.0
 43
2.77
  0
TEXT
  8
0
  6
CONTINUOUS
 62
             110
  5
147
 10
9.0
 20
-204.49523814519247
 30
0.0
 40
3.2000000476837158
  1
%%c79
 50
90.000000000000014
  7
MX_NOTE_STANDARD
 11
7.3999999761581412
 21
-204.49523814519247
 31
0.0
 73
               2
  0
POINT
  8
DEFPOINTS
  6
CONTINUOUS
 62
               0
  5
148
 10
-7.0
 20
-160.5
 30
0.0
  0
POINT
  8
DEFPOINTS
  6
CONTINUOUS
 62
               0
  5
149
 10
-7.0
 20
-239.5
 30
0.0
  0
POINT
  8
DEFPOINTS
  6
CONTINUOUS
 62
               0
  5
14A
 10
10.0
 20
-239.5
 30
0.0
  0
ENDBLK
  8
0
  6
BYBLOCK
 62
               0
  5
14B
  0
BLOCK
  8
0
  6
BYBLOCK
 62
               0
  5
14E
  2
*D9
 70
               1
 10
0.0
 20
0.0
 30
0.0
  3
*D9
  0
LINE
  8
0
  6
CONTINUOUS
 62
             110
  5
14F
 10
160.0
 20
-275.0
 30
0.0
 11
160.0
 21
-125.0
 31
0.0
  0
INSERT
  8
0
  6
CONTINUOUS
 62
             110
  5
150
  2
_OPEN30
 10
160.0
 20
-275.0
 30
0.0
 41
2.77
 42
2.77
 50
270.0
 43
2.77
  0
INSERT
  8
0
  6
CONTINUOUS
 62
             110
  5
151
  2
_OPEN30
 10
160.0
 20
-125.0
 30
0.0
 41
2.77
 42
2.77
 50
90.0
 43
2.77
  0
TEXT
  8
0
  6
CONTINUOUS
 62
             110
  5
152
 10
159.0
 20
-205.87809558709463
 30
0.0
 40
3.2000000476837158
  1
%%c150
 50
90.0
  7
MX_DIMTXSTY_2
 11
157.39999997615814
 21
-205.87809558709463
 31
0.0
 73
               2
  0
POINT
  8
DEFPOINTS
  6
CONTINUOUS
 62
               0
  5
153
 10
166.0
 20
-275.0
 30
0.0
  0
POINT
  8
DEFPOINTS
  6
CONTINUOUS
 62
               0
  5
154
 10
166.0
 20
-125.0
 30
0.0
  0
POINT
  8
DEFPOINTS
  6
CONTINUOUS
 62
               0
  5
155
 10
160.0
 20
-125.0
 30
0.0
  0
ENDBLK
  8
0
  6
BYBLOCK
 62
               0
  5
156
  0
BLOCK
  8
0
  6
BYBLOCK
 62
               0
  5
159
  2
*D10
 70
               1
 10
0.0
 20
0.0
 30
0.0
  3
*D10
  0
LINE
  8
0
  6
CONTINUOUS
 62
             110
  5
15A
 10
150.0
 20
-150.0
 30
0.0
 11
150.0
 21
-250.0
 31
0.0
  0
INSERT
  8
0
  6
CONTINUOUS
 62
             110
  5
15B
  2
_OPEN30
 10
150.0
 20
-150.0
 30
0.0
 41
2.77
 42
2.77
 50
90.0
 43
2.77
  0
INSERT
  8
0
  6
CONTINUOUS
 62
             110
  5
15C
  2
_OPEN30
 10
150.0
 20
-250.0
 30
0.0
 41
2.77
 42
2.77
 50
270.0
 43
2.77
  0
TEXT
  8
0
  6
CONTINUOUS
 62
             110
  5
15E
 10
149.0
 20
-205.86285730202994
 30
0.0
 40
3.2000000476837158
  1
%%c100
 50
90.000000000000014
  7
MX_DIMTXSTY_3
 11
147.39999997615814
 21
-205.86285730202994
 31
0.0
 73
               2
  0
POINT
  8
DEFPOINTS
  6
CONTINUOUS
 62
               0
  5
15F
 10
133.0
 20
-150.0
 30
0.0
  0
POINT
  8
DEFPOINTS
  6
CONTINUOUS
 62
               0
  5
160
 10
133.0
 20
-250.0
 30
0.0
  0
POINT
  8
DEFPOINTS
  6
CONTINUOUS
 62
               0
  5
161
 10
150.0
 20
-250.0
 30
0.0
  0
ENDBLK
  8
0
  6
BYBLOCK
 62
               0
  5
162
  0
BLOCK
  8
0
  6
BYBLOCK
 62
               0
  5
165
  2
*D11
 70
               1
 10
0.0
 20
0.0
 30
0.0
  3
*D11
  0
LINE
  8
0
  6
CONTINUOUS
 62
             110
  5
166
 10
230.0
 20
-275.0
 30
0.0
 11
230.0
 21
-125.0
 31
0.0
  0
INSERT
  8
0
  6
CONTINUOUS
 62
             110
  5
167
  2
_OPEN30
 10
230.0
 20
-275.0
 30
0.0
 41
2.77
 42
2.77
 50
270.0
 43
2.77
  0
INSERT
  8
0
  6
CONTINUOUS
 62
             110
  5
168
  2
_OPEN30
 10
230.0
 20
-125.0
 30
0.0
 41
2.77
 42
2.77
 50
90.0
 43
2.77
  0
TEXT
  8
0
  6
CONTINUOUS
 62
             110
  5
169
 10
229.0
 20
-205.87809558709463
 30
0.0
 40
3.2000000476837158
  1
%%c150
 50
90.0
  7
MX_DIMTXSTY_2
 11
227.39999997615814
 21
-205.87809558709463
 31
0.0
 73
               2
  0
POINT
  8
DEFPOINTS
  6
CONTINUOUS
 62
               0
  5
16A
 10
236.0
 20
-275.0
 30
0.0
  0
POINT
  8
DEFPOINTS
  6
CONTINUOUS
 62
               0
  5
16B
 10
236.0
 20
-125.0
 30
0.0
  0
POINT
  8
DEFPOINTS
  6
CONTINUOUS
 62
               0
  5
16C
 10
230.0
 20
-125.0
 30
0.0
  0
ENDBLK
  8
0
  6
BYBLOCK
 62
               0
  5
16D
  0
BLOCK
  8
0
  6
BYBLOCK
 62
               0
  5
170
  2
*D12
 70
               1
 10
0.0
 20
0.0
 30
0.0
  3
*D12
  0
LINE
  8
0
  6
CONTINUOUS
 62
             110
  5
171
 10
220.0
 20
-140.0
 30
0.0
 11
220.0
 21
-260.0
 31
0.0
  0
INSERT
  8
0
  6
CONTINUOUS
 62
             110
  5
172
  2
_OPEN30
 10
220.0
 20
-140.0
 30
0.0
 41
2.77
 42
2.77
 50
90.0
 43
2.77
  0
INSERT
  8
0
  6
CONTINUOUS
 62
             110
  5
173
  2
_OPEN30
 10
220.0
 20
-260.0
 30
0.0
 41
2.77
 42
2.77
 50
270.0
 43
2.77
  0
TEXT
  8
0
  6
CONTINUOUS
 62
             110
  5
174
 10
219.0
 20
-205.87809558709463
 30
0.0
 40
3.2000000476837158
  1
%%c120
 50
90.000000000000014
  7
MX_DIMTXSTY_2
 11
217.39999997615814
 21
-205.87809558709463
 31
0.0
 73
               2
  0
POINT
  8
DEFPOINTS
  6
CONTINUOUS
 62
               0
  5
175
 10
203.0
 20
-140.0
 30
0.0
  0
POINT
  8
DEFPOINTS
  6
CONTINUOUS
 62
               0
  5
176
 10
203.0
 20
-260.0
 30
0.0
  0
POINT
  8
DEFPOINTS
  6
CONTINUOUS
 62
               0
  5
177
 10
220.0
 20
-260.0
 30
0.0
  0
ENDBLK
  8
0
  6
BYBLOCK
 62
               0
  5
178
  0
BLOCK
  8
0
  6
BYBLOCK
 62
               0
  5
17B
  2
*D13
 70
               1
 10
0.0
 20
0.0
 30
0.0
  3
*D13
  0
LINE
  8
0
  6
CONTINUOUS
 62
             110
  5
17C
 10
-10.0
 20
-126.0
 30
0.0
 11
30.0
 21
-126.0
 31
0.0
  0
LINE
  8
0
  6
CONTINUOUS
 62
             110
  5
17D
 10
-10.0
 20
-145.0
 30
0.0
 11
-10.0
 21
-123.7140007019043
 31
0.0
  0
LINE
  8
0
  6
CONTINUOUS
 62
             110
  5
17E
 10
30.0
 20
-145.0
 30
0.0
 11
30.0
 21
-123.7140007019043
 31
0.0
  0
INSERT
  8
0
  6
CONTINUOUS
 62
             110
  5
17F
  2
_OPEN30
 10
-10.0
 20
-126.0
 30
0.0
 41
2.77
 42
2.77
 50
180.0
 43
2.77
  0
INSERT
  8
0
  6
CONTINUOUS
 62
             110
  5
180
  2
_OPEN30
 10
30.0
 20
-126.0
 30
0.0
 41
2.77
 42
2.77
 43
2.77
  0
TEXT
  8
0
  6
CONTINUOUS
 62
             110
  5
181
 10
7.3066666523615522
 20
-125.0
 30
0.0
 40
3.2000000476837158
  1
40
  7
MX_DIMTXSTY_2
 11
7.3066666523615522
 21
-123.39999997615814
 31
0.0
 73
               2
  0
POINT
  8
DEFPOINTS
  6
CONTINUOUS
 62
               0
  5
182
 10
-10.0
 20
-145.5
 30
0.0
  0
POINT
  8
DEFPOINTS
  6
CONTINUOUS
 62
               0
  5
183
 10
30.0
 20
-145.5
 30
0.0
  0
POINT
  8
DEFPOINTS
  6
CONTINUOUS
 62
               0
  5
184
 10
30.0
 20
-126.0
 30
0.0
  0
ENDBLK
  8
0
  6
BYBLOCK
 62
               0
  5
185
  0
BLOCK
  8
0
  6
BYBLOCK
 62
               0
  5
188
  2
*D14
 70
               1
 10
0.0
 20
0.0
 30
0.0
  3
*D14
  0
LINE
  8
0
  6
CONTINUOUS
 62
             110
  5
189
 10
130.0
 20
-110.0
 30
0.0
 11
170.0
 21
-110.0
 31
0.0
  0
LINE
  8
0
  6
CONTINUOUS
 62
             110
  5
18A
 10
130.0
 20
-124.5
 30
0.0
 11
130.0
 21
-107.7140007019043
 31
0.0
  0
LINE
  8
0
  6
CONTINUOUS
 62
             110
  5
18B
 10
170.0
 20
-124.5
 30
0.0
 11
170.0
 21
-107.7140007019043
 31
0.0
  0
INSERT
  8
0
  6
CONTINUOUS
 62
             110
  5
18C
  2
_OPEN30
 10
130.0
 20
-110.0
 30
0.0
 41
2.77
 42
2.77
 50
180.0
 43
2.77
  0
INSERT
  8
0
  6
CONTINUOUS
 62
             110
  5
18D
  2
_OPEN30
 10
170.0
 20
-110.0
 30
0.0
 41
2.77
 42
2.77
 43
2.77
  0
TEXT
  8
0
  6
CONTINUOUS
 62
             110
  5
18E
 10
147.30666665236154
 20
-109.0
 30
0.0
 40
3.2000000476837158
  1
40
  7
MX_DIMTXSTY_2
 11
147.30666665236154
 21
-107.39999997615814
 31
0.0
 73
               2
  0
POINT
  8
DEFPOINTS
  6
CONTINUOUS
 62
               0
  5
18F
 10
130.0
 20
-125.0
 30
0.0
  0
POINT
  8
DEFPOINTS
  6
CONTINUOUS
 62
               0
  5
190
 10
170.0
 20
-125.0
 30
0.0
  0
POINT
  8
DEFPOINTS
  6
CONTINUOUS
 62
               0
  5
191
 10
170.0
 20
-110.0
 30
0.0
  0
ENDBLK
  8
0
  6
BYBLOCK
 62
               0
  5
192
  0
BLOCK
  8
0
  6
BYBLOCK
 62
               0
  5
195
  2
*D15
 70
               1
 10
0.0
 20
0.0
 30
0.0
  3
*D15
  0
LINE
  8
0
  6
CONTINUOUS
 62
             110
  5
196
 10
200.0
 20
-110.0
 30
0.0
 11
240.0
 21
-110.0
 31
0.0
  0
LINE
  8
0
  6
CONTINUOUS
 62
             110
  5
197
 10
200.0
 20
-124.5
 30
0.0
 11
200.0
 21
-107.7140007019043
 31
0.0
  0
LINE
  8
0
  6
CONTINUOUS
 62
             110
  5
198
 10
240.0
 20
-124.5
 30
0.0
 11
240.0
 21
-107.7140007019043
 31
0.0
  0
INSERT
  8
0
  6
CONTINUOUS
 62
             110
  5
199
  2
_OPEN30
 10
200.0
 20
-110.0
 30
0.0
 41
2.77
 42
2.77
 50
180.0
 43
2.77
  0
INSERT
  8
0
  6
CONTINUOUS
 62
             110
  5
19A
  2
_OPEN30
 10
240.0
 20
-110.0
 30
0.0
 41
2.77
 42
2.77
 43
2.77
  0
TEXT
  8
0
  6
CONTINUOUS
 62
             110
  5
19B
 10
217.30666665236154
 20
-109.0
 30
0.0
 40
3.2000000476837158
  1
40
  7
MX_DIMTXSTY_2
 11
217.30666665236154
 21
-107.39999997615814
 31
0.0
 73
               2
  0
POINT
  8
DEFPOINTS
  6
CONTINUOUS
 62
               0
  5
19C
 10
200.0
 20
-125.0
 30
0.0
  0
POINT
  8
DEFPOINTS
  6
CONTINUOUS
 62
               0
  5
19D
 10
240.0
 20
-125.0
 30
0.0
  0
POINT
  8
DEFPOINTS
  6
CONTINUOUS
 62
               0
  5
19E
 10
240.0
 20
-110.0
 30
0.0
  0
ENDBLK
  8
0
  6
BYBLOCK
 62
               0
  5
19F
  0
BLOCK
  8
0
  6
BYBLOCK
 62
               0
  5
1A2
  2
*D16
 70
               1
 10
0.0
 20
0.0
 30
0.0
  3
*D16
  0
LINE
  8
0
  6
CONTINUOUS
 62
             110
  5
1A3
 10
300.0
 20
-305.0
 30
0.0
 11
300.0
 21
-95.000000000000028
 31
0.0
  0
INSERT
  8
0
  6
CONTINUOUS
 62
             110
  5
1A4
  2
_OPEN30
 10
300.0
 20
-305.0
 30
0.0
 41
2.77
 42
2.77
 50
270.0
 43
2.77
  0
INSERT
  8
0
  6
CONTINUOUS
 62
             110
  5
1A5
  2
_OPEN30
 10
300.0
 20
-95.000000000000028
 30
0.0
 41
2.77
 42
2.77
 50
90.0
 43
2.77
  0
TEXT
  8
0
  6
CONTINUOUS
 62
             110
  5
1A6
 10
299.0
 20
-205.87809558709463
 30
0.0
 40
3.2000000476837158
  1
%%c210
 50
90.0
  7
MX_DIMTXSTY_2
 11
297.39999997615814
 21
-205.87809558709463
 31
0.0
 73
               2
  0
POINT
  8
DEFPOINTS
  6
CONTINUOUS
 62
               0
  5
1A7
 10
306.0
 20
-305.0
 30
0.0
  0
POINT
  8
DEFPOINTS
  6
CONTINUOUS
 62
               0
  5
1A8
 10
306.0
 20
-95.000000000000028
 30
0.0
  0
POINT
  8
DEFPOINTS
  6
CONTINUOUS
 62
               0
  5
1A9
 10
300.0
 20
-95.000000000000028
 30
0.0
  0
ENDBLK
  8
0
  6
BYBLOCK
 62
               0
  5
1AA
  0
BLOCK
  8
0
  6
BYBLOCK
 62
               0
  5
1AD
  2
*D17
 70
               1
 10
0.0
 20
0.0
 30
0.0
  3
*D17
  0
LINE
  8
0
  6
CONTINUOUS
 62
             110
  5
1AE
 10
290.0
 20
-120.0
 30
0.0
 11
290.0
 21
-280.0
 31
0.0
  0
INSERT
  8
0
  6
CONTINUOUS
 62
             110
  5
1AF
  2
_OPEN30
 10
290.0
 20
-120.0
 30
0.0
 41
2.77
 42
2.77
 50
90.0
 43
2.77
  0
INSERT
  8
0
  6
CONTINUOUS
 62
             110
  5
1B0
  2
_OPEN30
 10
290.0
 20
-280.0
 30
0.0
 41
2.77
 42
2.77
 50
270.0
 43
2.77
  0
TEXT
  8
0
  6
CONTINUOUS
 62
             110
  5
1B1
 10
289.0
 20
-205.87809558709463
 30
0.0
 40
3.2000000476837158
  1
%%c160
 50
90.000000000000014
  7
MX_DIMTXSTY_2
 11
287.39999997615814
 21
-205.87809558709463
 31
0.0
 73
               2
  0
POINT
  8
DEFPOINTS
  6
CONTINUOUS
 62
               0
  5
1B2
 10
273.0
 20
-120.0
 30
0.0
  0
POINT
  8
DEFPOINTS
  6
CONTINUOUS
 62
               0
  5
1B3
 10
273.0
 20
-280.0
 30
0.0
  0
POINT
  8
DEFPOINTS
  6
CONTINUOUS
 62
               0
  5
1B4
 10
290.0
 20
-280.0
 30
0.0
  0
ENDBLK
  8
0
  6
BYBLOCK
 62
               0
  5
1B5
  0
BLOCK
  8
0
  6
BYBLOCK
 62
               0
  5
1B8
  2
*D18
 70
               1
 10
0.0
 20
0.0
 30
0.0
  3
*D18
  0
LINE
  8
0
  6
CONTINUOUS
 62
             110
  5
1B9
 10
270.0
 20
-78.0
 30
0.0
 11
310.0
 21
-78.0
 31
0.0
  0
LINE
  8
0
  6
CONTINUOUS
 62
             110
  5
1BA
 10
270.0
 20
-94.5
 30
0.0
 11
270.0
 21
-75.714000701904297
 31
0.0
  0
LINE
  8
0
  6
CONTINUOUS
 62
             110
  5
1BB
 10
310.0
 20
-94.5
 30
0.0
 11
310.0
 21
-75.714000701904297
 31
0.0
  0
INSERT
  8
0
  6
CONTINUOUS
 62
             110
  5
1BC
  2
_OPEN30
 10
270.0
 20
-78.0
 30
0.0
 41
2.77
 42
2.77
 50
180.0
 43
2.77
  0
INSERT
  8
0
  6
CONTINUOUS
 62
             110
  5
1BD
  2
_OPEN30
 10
310.0
 20
-78.0
 30
0.0
 41
2.77
 42
2.77
 43
2.77
  0
TEXT
  8
0
  6
CONTINUOUS
 62
             110
  5
1BE
 10
287.30666665236157
 20
-77.0
 30
0.0
 40
3.2000000476837158
  1
40
  7
MX_DIMTXSTY_2
 11
287.30666665236157
 21
-75.399999976158142
 31
0.0
 73
               2
  0
POINT
  8
DEFPOINTS
  6
CONTINUOUS
 62
               0
  5
1BF
 10
270.0
 20
-95.0
 30
0.0
  0
POINT
  8
DEFPOINTS
  6
CONTINUOUS
 62
               0
  5
1C0
 10
310.0
 20
-95.0
 30
0.0
  0
POINT
  8
DEFPOINTS
  6
CONTINUOUS
 62
               0
  5
1C1
 10
310.0
 20
-78.0
 30
0.0
  0
ENDBLK
  8
0
  6
BYBLOCK
 62
               0
  5
1C2
  0
BLOCK
  8
0
  6
BYBLOCK
 62
               0
  5
1C5
  2
*D19
 70
               1
 10
0.0
 20
0.0
 30
0.0
  3
*D19
  0
LINE
  8
0
  6
CONTINUOUS
 62
             110
  5
1C6
 10
90.0
 20
-260.0
 30
0.0
 11
90.0
 21
-140.0
 31
0.0
  0
INSERT
  8
0
  6
CONTINUOUS
 62
             110
  5
1C7
  2
_OPEN30
 10
90.0
 20
-260.0
 30
0.0
 41
2.77
 42
2.77
 50
270.0
 43
2.77
  0
INSERT
  8
0
  6
CONTINUOUS
 62
             110
  5
1C8
  2
_OPEN30
 10
90.0
 20
-140.0
 30
0.0
 41
2.77
 42
2.77
 50
90.0
 43
2.77
  0
TEXT
  8
0
  6
CONTINUOUS
 62
             110
  5
1C9
 10
89.0
 20
-205.87809558709463
 30
0.0
 40
3.2000000476837158
  1
%%c120
 50
90.0
  7
MX_DIMTXSTY_2
 11
87.399999976158142
 21
-205.87809558709463
 31
0.0
 73
               2
  0
POINT
  8
DEFPOINTS
  6
CONTINUOUS
 62
               0
  5
1CA
 10
96.0
 20
-260.0
 30
0.0
  0
POINT
  8
DEFPOINTS
  6
CONTINUOUS
 62
               0
  5
1CB
 10
96.0
 20
-140.0
 30
0.0
  0
POINT
  8
DEFPOINTS
  6
CONTINUOUS
 62
               0
  5
1CC
 10
90.0
 20
-140.0
 30
0.0
  0
ENDBLK
  8
0
  6
BYBLOCK
 62
               0
  5
1CD
  0
BLOCK
  8
0
  6
BYBLOCK
 62
               0
  5
1D0
  2
*D20
 70
               1
 10
0.0
 20
0.0
 30
0.0
  3
*D20
  0
LINE
  8
0
  6
CONTINUOUS
 62
             110
  5
1D1
 10
80.0
 20
-155.0
 30
0.0
 11
80.0
 21
-245.0
 31
0.0
  0
INSERT
  8
0
  6
CONTINUOUS
 62
             110
  5
1D2
  2
_OPEN30
 10
80.0
 20
-155.0
 30
0.0
 41
2.77
 42
2.77
 50
90.0
 43
2.77
  0
INSERT
  8
0
  6
CONTINUOUS
 62
             110
  5
1D3
  2
_OPEN30
 10
80.0
 20
-245.0
 30
0.0
 41
2.77
 42
2.77
 50
270.0
 43
2.77
  0
TEXT
  8
0
  6
CONTINUOUS
 62
             110
  5
1D4
 10
79.0
 20
-204.22857149442038
 30
0.0
 40
3.2000000476837158
  1
%%c90
 50
90.000000000000014
  7
MX_NOTE_STANDARD
 11
77.399999976158142
 21
-204.22857149442038
 31
0.0
 73
               2
  0
POINT
  8
DEFPOINTS
  6
CONTINUOUS
 62
               0
  5
1D5
 10
63.0
 20
-155.0
 30
0.0
  0
POINT
  8
DEFPOINTS
  6
CONTINUOUS
 62
               0
  5
1D6
 10
63.0
 20
-245.0
 30
0.0
  0
POINT
  8
DEFPOINTS
  6
CONTINUOUS
 62
               0
  5
1D7
 10
80.0
 20
-245.0
 30
0.0
  0
ENDBLK
  8
0
  6
BYBLOCK
 62
               0
  5
1D8
  0
BLOCK
  8
0
  6
BYBLOCK
 62
               0
  5
1DB
  2
*D21
 70
               1
 10
0.0
 20
0.0
 30
0.0
  3
*D21
  0
LINE
  8
0
  6
CONTINUOUS
 62
             110
  5
1DC
 10
60.0
 20
-126.0
 30
0.0
 11
100.0
 21
-126.0
 31
0.0
  0
LINE
  8
0
  6
CONTINUOUS
 62
             110
  5
1DD
 10
60.0
 20
-139.5
 30
0.0
 11
60.0
 21
-123.7140007019043
 31
0.0
  0
LINE
  8
0
  6
CONTINUOUS
 62
             110
  5
1DE
 10
100.0
 20
-139.5
 30
0.0
 11
100.0
 21
-123.7140007019043
 31
0.0
  0
INSERT
  8
0
  6
CONTINUOUS
 62
             110
  5
1DF
  2
_OPEN30
 10
60.0
 20
-126.0
 30
0.0
 41
2.77
 42
2.77
 50
180.0
 43
2.77
  0
INSERT
  8
0
  6
CONTINUOUS
 62
             110
  5
1E0
  2
_OPEN30
 10
100.0
 20
-126.0
 30
0.0
 41
2.77
 42
2.77
 43
2.77
  0
TEXT
  8
0
  6
CONTINUOUS
 62
             110
  5
1E1
 10
77.306666652361557
 20
-125.0
 30
0.0
 40
3.2000000476837158
  1
40
  7
MX_DIMTXSTY_2
 11
77.306666652361557
 21
-123.39999997615814
 31
0.0
 73
               2
  0
POINT
  8
DEFPOINTS
  6
CONTINUOUS
 62
               0
  5
1E2
 10
60.0
 20
-140.0
 30
0.0
  0
POINT
  8
DEFPOINTS
  6
CONTINUOUS
 62
               0
  5
1E3
 10
100.0
 20
-140.0
 30
0.0
  0
POINT
  8
DEFPOINTS
  6
CONTINUOUS
 62
               0
  5
1E4
 10
100.0
 20
-126.0
 30
0.0
  0
ENDBLK
  8
0
  6
BYBLOCK
 62
               0
  5
1E5
  0
BLOCK
  8
0
  6
BYBLOCK
 62
               0
  5
2B5
  2
*D22
 70
               1
 10
0.0
 20
0.0
 30
0.0
  3
*D22
  0
LINE
  8
0
  6
CONTINUOUS
 62
             110
  5
2B6
 10
10.0
 20
4.0
 30
0.0
 11
10.0
 21
-4.0
 31
0.0
  0
LINE
  8
0
  6
CONTINUOUS
 62
             110
  5
2B7
 10
10.0
 20
4.0
 30
0.0
 11
10.0
 21
8.0
 31
0.0
  0
LINE
  8
0
  6
CONTINUOUS
 62
             110
  5
2B8
 10
10.0
 20
-4.0
 30
0.0
 11
10.0
 21
-8.0
 31
0.0
  0
INSERT
  8
0
  6
CONTINUOUS
 62
             110
  5
2B9
  2
_OPEN30
 10
10.0
 20
4.0
 30
0.0
 41
2.77
 42
2.77
 50
270.0
 43
2.77
  0
INSERT
  8
0
  6
CONTINUOUS
 62
             110
  5
2BA
  2
_OPEN30
 10
10.0
 20
-4.0
 30
0.0
 41
2.77
 42
2.77
 50
90.0
 43
2.77
  0
TEXT
  8
0
  6
CONTINUOUS
 62
             110
  5
2BB
 10
9.0
 20
-1.0920683801488325
 30
0.0
 40
3.2000000476837158
  1
8
 50
90.000000000000014
 41
0.9523718177329771
  7
MX_NOTE_STANDARD
 11
7.3999999761581421
 21
-1.0920683801488327
 31
0.0
 73
               2
  0
POINT
  8
DEFPOINTS
  6
CONTINUOUS
 62
               0
  5
2BC
 10
1.0
 20
4.0
 30
0.0
  0
POINT
  8
DEFPOINTS
  6
CONTINUOUS
 62
               0
  5
2BD
 10
1.0
 20
-4.0
 30
0.0
  0
POINT
  8
DEFPOINTS
  6
CONTINUOUS
 62
               0
  5
2BE
 10
10.0
 20
-4.0
 30
0.0
  0
ENDBLK
  8
0
  6
BYBLOCK
 62
               0
  5
2BF
  0
BLOCK
  8
0
  6
BYBLOCK
 62
               0
  5
2C2
  2
*D23
 70
               1
 10
0.0
 20
0.0
 30
0.0
  3
*D23
  0
LINE
  8
0
  6
CONTINUOUS
 62
             110
  5
2C3
 10
18.0
 20
-11.0
 30
0.0
 11
18.0
 21
11.0
 31
0.0
  0
INSERT
  8
0
  6
CONTINUOUS
 62
             110
  5
2C4
  2
_OPEN30
 10
18.0
 20
-11.0
 30
0.0
 41
2.77
 42
2.77
 50
270.0
 43
2.77
  0
INSERT
  8
0
  6
CONTINUOUS
 62
             110
  5
2C5
  2
_OPEN30
 10
18.0
 20
11.0
 30
0.0
 41
2.77
 42
2.77
 50
90.0
 43
2.77
  0
TEXT
  8
0
  6
CONTINUOUS
 62
             110
  5
2C6
 10
17.0
 20
-2.6666667064030962
 30
0.0
 40
3.2000000476837158
  1
22
 50
90.0
  7
MX_NOTE_STANDARD
 11
15.399999976158142
 21
-2.6666667064030962
 31
0.0
 73
               2
  0
POINT
  8
DEFPOINTS
  6
CONTINUOUS
 62
               0
  5
2C7
 10
24.0
 20
-11.0
 30
0.0
  0
POINT
  8
DEFPOINTS
  6
CONTINUOUS
 62
               0
  5
2C8
 10
24.0
 20
11.0
 30
0.0
  0
POINT
  8
DEFPOINTS
  6
CONTINUOUS
 62
               0
  5
2C9
 10
18.0
 20
11.0
 30
0.0
  0
ENDBLK
  8
0
  6
BYBLOCK
 62
               0
  5
2CA
  0
BLOCK
  8
0
  6
BYBLOCK
 62
               0
  5
2CD
  2
*D24
 70
               1
 10
0.0
 20
0.0
 30
0.0
  3
*D24
  0
LINE
  8
0
  6
CONTINUOUS
 62
             110
  5
2CE
 10
71.0
 20
-15.0
 30
0.0
 11
71.0
 21
15.0
 31
0.0
  0
INSERT
  8
0
  6
CONTINUOUS
 62
             110
  5
2CF
  2
_OPEN30
 10
71.0
 20
-15.0
 30
0.0
 41
2.77
 42
2.77
 50
270.0
 43
2.77
  0
INSERT
  8
0
  6
CONTINUOUS
 62
             110
  5
2D0
  2
_OPEN30
 10
71.0
 20
15.0
 30
0.0
 41
2.77
 42
2.77
 50
90.0
 43
2.77
  0
TEXT
  8
0
  6
CONTINUOUS
 62
             110
  5
2D1
 10
70.0
 20
-4.2285714944203692
 30
0.0
 40
3.2000000476837158
  1
%%c30
 50
90.0
  7
MX_NOTE_STANDARD
 11
68.399999976158142
 21
-4.2285714944203692
 31
0.0
 73
               2
  0
POINT
  8
DEFPOINTS
  6
CONTINUOUS
 62
               0
  5
2D2
 10
81.0
 20
-15.0
 30
0.0
  0
POINT
  8
DEFPOINTS
  6
CONTINUOUS
 62
               0
  5
2D3
 10
81.0
 20
15.0
 30
0.0
  0
POINT
  8
DEFPOINTS
  6
CONTINUOUS
 62
               0
  5
2D4
 10
71.0
 20
15.0
 30
0.0
  0
ENDBLK
  8
0
  6
BYBLOCK
 62
               0
  5
2D5
  0
BLOCK
  8
0
  6
BYBLOCK
 62
               0
  5
2D8
  2
*D25
 70
               1
 10
0.0
 20
0.0
 30
0.0
  3
*D25
  0
LINE
  8
0
  6
CONTINUOUS
 62
             110
  5
2D9
 10
63.0
 20
8.5
 30
0.0
 11
63.0
 21
-8.5
 31
0.0
  0
INSERT
  8
0
  6
CONTINUOUS
 62
             110
  5
2DA
  2
_OPEN30
 10
63.0
 20
8.5
 30
0.0
 41
2.77
 42
2.77
 50
90.0
 43
2.77
  0
INSERT
  8
0
  6
CONTINUOUS
 62
             110
  5
2DB
  2
_OPEN30
 10
63.0
 20
-8.5
 30
0.0
 41
2.77
 42
2.77
 50
270.0
 43
2.77
  0
TEXT
  8
0
  6
CONTINUOUS
 62
             110
  5
2DD
 10
62.0
 20
-4.1866668065388994
 30
0.0
 40
3.2000000476837158
  1
%%c17
 50
90.000000000000014
  7
MX_DIMTXSTY_4
 11
60.399999976158142
 21
-4.1866668065388994
 31
0.0
 73
               2
  0
POINT
  8
DEFPOINTS
  6
CONTINUOUS
 62
               0
  5
2DE
 10
58.0
 20
8.5
 30
0.0
  0
POINT
  8
DEFPOINTS
  6
CONTINUOUS
 62
               0
  5
2DF
 10
58.0
 20
-8.5
 30
0.0
  0
POINT
  8
DEFPOINTS
  6
CONTINUOUS
 62
               0
  5
2E0
 10
63.0
 20
-8.5
 30
0.0
  0
ENDBLK
  8
0
  6
BYBLOCK
 62
               0
  5
2E1
  0
BLOCK
  8
0
  6
BYBLOCK
 62
               0
  5
2E4
  2
*D26
 70
               1
 10
0.0
 20
0.0
 30
0.0
  3
*D26
  0
LINE
  8
0
  6
CONTINUOUS
 62
             110
  5
2E5
 10
118.0
 20
-18.0
 30
0.0
 11
118.0
 21
18.0
 31
0.0
  0
INSERT
  8
0
  6
CONTINUOUS
 62
             110
  5
2E6
  2
_OPEN30
 10
118.0
 20
-18.0
 30
0.0
 41
2.77
 42
2.77
 50
270.0
 43
2.77
  0
INSERT
  8
0
  6
CONTINUOUS
 62
             110
  5
2E7
  2
_OPEN30
 10
118.0
 20
18.0
 30
0.0
 41
2.77
 42
2.77
 50
90.0
 43
2.77
  0
TEXT
  8
0
  6
CONTINUOUS
 62
             110
  5
2E8
 10
117.0
 20
-4.4952381451924639
 30
0.0
 40
3.2000000476837158
  1
%%c36
 50
90.0
  7
MX_NOTE_STANDARD
 11
115.39999997615814
 21
-4.4952381451924639
 31
0.0
 73
               2
  0
POINT
  8
DEFPOINTS
  6
CONTINUOUS
 62
               0
  5
2E9
 10
120.0
 20
-18.0
 30
0.0
  0
POINT
  8
DEFPOINTS
  6
CONTINUOUS
 62
               0
  5
2EA
 10
120.0
 20
18.0
 30
0.0
  0
POINT
  8
DEFPOINTS
  6
CONTINUOUS
 62
               0
  5
2EB
 10
118.0
 20
18.0
 30
0.0
  0
ENDBLK
  8
0
  6
BYBLOCK
 62
               0
  5
2EC
  0
BLOCK
  8
0
  6
BYBLOCK
 62
               0
  5
2EF
  2
*D27
 70
               1
 10
0.0
 20
0.0
 30
0.0
  3
*D27
  0
LINE
  8
0
  6
CONTINUOUS
 62
             110
  5
2F0
 10
110.0
 20
-11.0
 30
0.0
 11
110.0
 21
11.0
 31
0.0
  0
INSERT
  8
0
  6
CONTINUOUS
 62
             110
  5
2F1
  2
_OPEN30
 10
110.0
 20
-11.0
 30
0.0
 41
2.77
 42
2.77
 50
270.0
 43
2.77
  0
INSERT
  8
0
  6
CONTINUOUS
 62
             110
  5
2F2
  2
_OPEN30
 10
110.0
 20
11.0
 30
0.0
 41
2.77
 42
2.77
 50
90.0
 43
2.77
  0
TEXT
  8
0
  6
CONTINUOUS
 62
             110
  5
2F3
 10
109.0
 20
-4.4952381451924639
 30
0.0
 40
3.2000000476837158
  1
%%c22
 50
90.0
  7
MX_NOTE_STANDARD
 11
107.39999997615814
 21
-4.4952381451924639
 31
0.0
 73
               2
  0
POINT
  8
DEFPOINTS
  6
CONTINUOUS
 62
               0
  5
2F4
 10
121.0
 20
-11.0
 30
0.0
  0
POINT
  8
DEFPOINTS
  6
CONTINUOUS
 62
               0
  5
2F5
 10
121.0
 20
11.0
 30
0.0
  0
POINT
  8
DEFPOINTS
  6
CONTINUOUS
 62
               0
  5
2F6
 10
110.0
 20
11.0
 30
0.0
  0
ENDBLK
  8
0
  6
BYBLOCK
 62
               0
  5
2F7
  0
BLOCK
  8
0
  6
BYBLOCK
 62
               0
  5
2FA
  2
*D28
 70
               1
 10
0.0
 20
0.0
 30
0.0
  3
*D28
  0
LINE
  8
0
  6
CONTINUOUS
 62
             110
  5
2FB
 10
168.0
 20
-25.5
 30
0.0
 11
168.0
 21
25.5
 31
0.0
  0
INSERT
  8
0
  6
CONTINUOUS
 62
             110
  5
2FC
  2
_OPEN30
 10
168.0
 20
-25.5
 30
0.0
 41
2.77
 42
2.77
 50
270.0
 43
2.77
  0
INSERT
  8
0
  6
CONTINUOUS
 62
             110
  5
2FD
  2
_OPEN30
 10
168.0
 20
25.5
 30
0.0
 41
2.77
 42
2.77
 50
90.0
 43
2.77
  0
TEXT
  8
0
  6
CONTINUOUS
 62
             110
  5
2FE
 10
167.0
 20
-4.1866668065388994
 30
0.0
 40
3.2000000476837158
  1
%%c51
 50
90.0
  7
MX_DIMTXSTY_4
 11
165.39999997615814
 21
-4.1866668065388994
 31
0.0
 73
               2
  0
POINT
  8
DEFPOINTS
  6
CONTINUOUS
 62
               0
  5
2FF
 10
178.0
 20
-25.5
 30
0.0
  0
POINT
  8
DEFPOINTS
  6
CONTINUOUS
 62
               0
  5
300
 10
178.0
 20
25.5
 30
0.0
  0
POINT
  8
DEFPOINTS
  6
CONTINUOUS
 62
               0
  5
301
 10
168.0
 20
25.5
 30
0.0
  0
ENDBLK
  8
0
  6
BYBLOCK
 62
               0
  5
302
  0
BLOCK
  8
0
  6
BYBLOCK
 62
               0
  5
305
  2
*D29
 70
               1
 10
0.0
 20
0.0
 30
0.0
  3
*D29
  0
LINE
  8
0
  6
CONTINUOUS
 62
             110
  5
306
 10
160.0
 20
18.0
 30
0.0
 11
160.0
 21
-18.0
 31
0.0
  0
INSERT
  8
0
  6
CONTINUOUS
 62
             110
  5
307
  2
_OPEN30
 10
160.0
 20
18.0
 30
0.0
 41
2.77
 42
2.77
 50
90.0
 43
2.77
  0
INSERT
  8
0
  6
CONTINUOUS
 62
             110
  5
308
  2
_OPEN30
 10
160.0
 20
-18.0
 30
0.0
 41
2.77
 42
2.77
 50
270.0
 43
2.77
  0
TEXT
  8
0
  6
CONTINUOUS
 62
             110
  5
309
 10
159.0
 20
-4.4952381451924639
 30
0.0
 40
3.2000000476837158
  1
%%c36
 50
90.000000000000014
  7
MX_NOTE_STANDARD
 11
157.39999997615814
 21
-4.4952381451924639
 31
0.0
 73
               2
  0
POINT
  8
DEFPOINTS
  6
CONTINUOUS
 62
               0
  5
30A
 10
155.0
 20
18.0
 30
0.0
  0
POINT
  8
DEFPOINTS
  6
CONTINUOUS
 62
               0
  5
30B
 10
155.0
 20
-18.0
 30
0.0
  0
POINT
  8
DEFPOINTS
  6
CONTINUOUS
 62
               0
  5
30C
 10
160.0
 20
-18.0
 30
0.0
  0
ENDBLK
  8
0
  6
BYBLOCK
 62
               0
  5
30D
  0
BLOCK
  8
0
  6
BYBLOCK
 62
               0
  5
310
  2
*D30
 70
               1
 10
0.0
 20
0.0
 30
0.0
  3
*D30
  0
LINE
  8
0
  6
CONTINUOUS
 62
             110
  5
311
 10
218.0
 20
-35.0
 30
0.0
 11
218.0
 21
35.0
 31
0.0
  0
INSERT
  8
0
  6
CONTINUOUS
 62
             110
  5
312
  2
_OPEN30
 10
218.0
 20
-35.0
 30
0.0
 41
2.77
 42
2.77
 50
270.0
 43
2.77
  0
INSERT
  8
0
  6
CONTINUOUS
 62
             110
  5
313
  2
_OPEN30
 10
218.0
 20
35.0
 30
0.0
 41
2.77
 42
2.77
 50
90.0
 43
2.77
  0
TEXT
  8
0
  6
CONTINUOUS
 62
             110
  5
314
 10
217.0
 20
-4.2285714944203692
 30
0.0
 40
3.2000000476837158
  1
%%c70
 50
90.0
  7
MX_NOTE_STANDARD
 11
215.39999997615814
 21
-4.2285714944203692
 31
0.0
 73
               2
  0
POINT
  8
DEFPOINTS
  6
CONTINUOUS
 62
               0
  5
315
 10
228.0
 20
-35.0
 30
0.0
  0
POINT
  8
DEFPOINTS
  6
CONTINUOUS
 62
               0
  5
316
 10
228.0
 20
35.0
 30
0.0
  0
POINT
  8
DEFPOINTS
  6
CONTINUOUS
 62
               0
  5
317
 10
218.0
 20
35.0
 30
0.0
  0
ENDBLK
  8
0
  6
BYBLOCK
 62
               0
  5
318
  0
BLOCK
  8
0
  6
BYBLOCK
 62
               0
  5
31B
  2
*D31
 70
               1
 10
0.0
 20
0.0
 30
0.0
  3
*D31
  0
LINE
  8
0
  6
CONTINUOUS
 62
             110
  5
31C
 10
210.0
 20
25.0
 30
0.0
 11
210.0
 21
-25.0
 31
0.0
  0
INSERT
  8
0
  6
CONTINUOUS
 62
             110
  5
31D
  2
_OPEN30
 10
210.0
 20
25.0
 30
0.0
 41
2.77
 42
2.77
 50
90.0
 43
2.77
  0
INSERT
  8
0
  6
CONTINUOUS
 62
             110
  5
31E
  2
_OPEN30
 10
210.0
 20
-25.0
 30
0.0
 41
2.77
 42
2.77
 50
270.0
 43
2.77
  0
TEXT
  8
0
  6
CONTINUOUS
 62
             110
  5
31F
 10
209.0
 20
-4.2285714944203692
 30
0.0
 40
3.2000000476837158
  1
%%c50
 50
90.000000000000014
  7
MX_NOTE_STANDARD
 11
207.39999997615814
 21
-4.2285714944203692
 31
0.0
 73
               2
  0
POINT
  8
DEFPOINTS
  6
CONTINUOUS
 62
               0
  5
320
 10
205.0
 20
25.0
 30
0.0
  0
POINT
  8
DEFPOINTS
  6
CONTINUOUS
 62
               0
  5
321
 10
205.0
 20
-25.0
 30
0.0
  0
POINT
  8
DEFPOINTS
  6
CONTINUOUS
 62
               0
  5
322
 10
210.0
 20
-25.0
 30
0.0
  0
ENDBLK
  8
0
  6
BYBLOCK
 62
               0
  5
323
  0
BLOCK
  8
0
  6
BYBLOCK
 62
               0
  5
326
  2
*D32
 70
               1
 10
0.0
 20
0.0
 30
0.0
  3
*D32
  0
LINE
  8
0
  6
CONTINUOUS
 62
             110
  5
327
 10
268.0
 20
-45.0
 30
0.0
 11
268.0
 21
45.0
 31
0.0
  0
INSERT
  8
0
  6
CONTINUOUS
 62
             110
  5
328
  2
_OPEN30
 10
268.0
 20
-45.0
 30
0.0
 41
2.77
 42
2.77
 50
270.0
 43
2.77
  0
INSERT
  8
0
  6
CONTINUOUS
 62
             110
  5
329
  2
_OPEN30
 10
268.0
 20
45.0
 30
0.0
 41
2.77
 42
2.77
 50
90.0
 43
2.77
  0
TEXT
  8
0
  6
CONTINUOUS
 62
             110
  5
32A
 10
267.0
 20
-4.2285714944203692
 30
0.0
 40
3.2000000476837158
  1
%%c90
 50
90.0
  7
MX_NOTE_STANDARD
 11
265.39999997615814
 21
-4.2285714944203692
 31
0.0
 73
               2
  0
POINT
  8
DEFPOINTS
  6
CONTINUOUS
 62
               0
  5
32B
 10
278.0
 20
-45.0
 30
0.0
  0
POINT
  8
DEFPOINTS
  6
CONTINUOUS
 62
               0
  5
32C
 10
278.0
 20
45.0
 30
0.0
  0
POINT
  8
DEFPOINTS
  6
CONTINUOUS
 62
               0
  5
32D
 10
268.0
 20
45.0
 30
0.0
  0
ENDBLK
  8
0
  6
BYBLOCK
 62
               0
  5
32E
  0
BLOCK
  8
0
  6
BYBLOCK
 62
               0
  5
331
  2
*D33
 70
               1
 10
0.0
 20
0.0
 30
0.0
  3
*D33
  0
LINE
  8
0
  6
CONTINUOUS
 62
             110
  5
332
 10
260.0
 20
30.0
 30
0.0
 11
260.0
 21
-30.0
 31
0.0
  0
INSERT
  8
0
  6
CONTINUOUS
 62
             110
  5
333
  2
_OPEN30
 10
260.0
 20
30.0
 30
0.0
 41
2.77
 42
2.77
 50
90.0
 43
2.77
  0
INSERT
  8
0
  6
CONTINUOUS
 62
             110
  5
334
  2
_OPEN30
 10
260.0
 20
-30.0
 30
0.0
 41
2.77
 42
2.77
 50
270.0
 43
2.77
  0
TEXT
  8
0
  6
CONTINUOUS
 62
             110
  5
335
 10
259.0
 20
-4.2285714944203692
 30
0.0
 40
3.2000000476837158
  1
%%c60
 50
90.000000000000014
  7
MX_NOTE_STANDARD
 11
257.39999997615814
 21
-4.2285714944203692
 31
0.0
 73
               2
  0
POINT
  8
DEFPOINTS
  6
CONTINUOUS
 62
               0
  5
336
 10
255.0
 20
30.0
 30
0.0
  0
POINT
  8
DEFPOINTS
  6
CONTINUOUS
 62
               0
  5
337
 10
255.0
 20
-30.0
 30
0.0
  0
POINT
  8
DEFPOINTS
  6
CONTINUOUS
 62
               0
  5
338
 10
260.0
 20
-30.0
 30
0.0
  0
ENDBLK
  8
0
  6
BYBLOCK
 62
               0
  5
339
  0
BLOCK
  8
0
  6
BYBLOCK
 62
               0
  5
33C
  2
*D34
 70
               1
 10
0.0
 20
0.0
 30
0.0
  3
*D34
  0
LINE
  8
0
  6
CONTINUOUS
 62
             110
  5
33D
 10
318.0
 20
-47.0
 30
0.0
 11
318.0
 21
47.0
 31
0.0
  0
INSERT
  8
0
  6
CONTINUOUS
 62
             110
  5
33E
  2
_OPEN30
 10
318.0
 20
-47.0
 30
0.0
 41
2.77
 42
2.77
 50
270.0
 43
2.77
  0
INSERT
  8
0
  6
CONTINUOUS
 62
             110
  5
33F
  2
_OPEN30
 10
318.0
 20
47.0
 30
0.0
 41
2.77
 42
2.77
 50
90.0
 43
2.77
  0
TEXT
  8
0
  6
CONTINUOUS
 62
             110
  5
340
 10
317.0
 20
-4.4952381451924639
 30
0.0
 40
3.2000000476837158
  1
%%c94
 50
90.0
  7
MX_NOTE_STANDARD
 11
315.39999997615814
 21
-4.4952381451924639
 31
0.0
 73
               2
  0
POINT
  8
DEFPOINTS
  6
CONTINUOUS
 62
               0
  5
341
 10
328.0
 20
-47.0
 30
0.0
  0
POINT
  8
DEFPOINTS
  6
CONTINUOUS
 62
               0
  5
342
 10
328.0
 20
47.0
 30
0.0
  0
POINT
  8
DEFPOINTS
  6
CONTINUOUS
 62
               0
  5
343
 10
318.0
 20
47.0
 30
0.0
  0
ENDBLK
  8
0
  6
BYBLOCK
 62
               0
  5
344
  0
BLOCK
  8
0
  6
BYBLOCK
 62
               0
  5
347
  2
*D35
 70
               1
 10
0.0
 20
0.0
 30
0.0
  3
*D35
  0
LINE
  8
0
  6
CONTINUOUS
 62
             110
  5
348
 10
310.0
 20
35.0
 30
0.0
 11
310.0
 21
-35.0
 31
0.0
  0
INSERT
  8
0
  6
CONTINUOUS
 62
             110
  5
349
  2
_OPEN30
 10
310.0
 20
35.0
 30
0.0
 41
2.77
 42
2.77
 50
90.0
 43
2.77
  0
INSERT
  8
0
  6
CONTINUOUS
 62
             110
  5
34A
  2
_OPEN30
 10
310.0
 20
-35.0
 30
0.0
 41
2.77
 42
2.77
 50
270.0
 43
2.77
  0
TEXT
  8
0
  6
CONTINUOUS
 62
             110
  5
34B
 10
309.0
 20
-4.2285714944203692
 30
0.0
 40
3.2000000476837158
  1
%%c70
 50
90.000000000000014
  7
MX_NOTE_STANDARD
 11
307.39999997615814
 21
-4.2285714944203692
 31
0.0
 73
               2
  0
POINT
  8
DEFPOINTS
  6
CONTINUOUS
 62
               0
  5
34C
 10
305.0
 20
35.0
 30
0.0
  0
POINT
  8
DEFPOINTS
  6
CONTINUOUS
 62
               0
  5
34D
 10
305.0
 20
-35.0
 30
0.0
  0
POINT
  8
DEFPOINTS
  6
CONTINUOUS
 62
               0
  5
34E
 10
310.0
 20
-35.0
 30
0.0
  0
ENDBLK
  8
0
  6
BYBLOCK
 62
               0
  5
34F
  0
BLOCK
  8
0
  6
BYBLOCK
 62
               0
  5
352
  2
*D36
 70
               1
 10
0.0
 20
0.0
 30
0.0
  3
*D36
  0
LINE
  8
0
  6
CONTINUOUS
 62
             110
  5
353
 10
0.0
 20
24.0
 30
0.0
 11
30.0
 21
24.0
 31
0.0
  0
LINE
  8
0
  6
CONTINUOUS
 62
             110
  5
354
 10
0.0
 20
11.5
 30
0.0
 11
0.0
 21
26.285999298095703
 31
0.0
  0
LINE
  8
0
  6
CONTINUOUS
 62
             110
  5
355
 10
30.0
 20
11.5
 30
0.0
 11
30.0
 21
26.285999298095703
 31
0.0
  0
INSERT
  8
0
  6
CONTINUOUS
 62
             110
  5
356
  2
_OPEN30
 10
0.0
 20
24.0
 30
0.0
 41
2.77
 42
2.77
 50
180.0
 43
2.77
  0
INSERT
  8
0
  6
CONTINUOUS
 62
             110
  5
357
  2
_OPEN30
 10
30.0
 20
24.0
 30
0.0
 41
2.77
 42
2.77
 43
2.77
  0
TEXT
  8
0
  6
CONTINUOUS
 62
             110
  5
358
 10
12.306666652361551
 20
25.0
 30
0.0
 40
3.2000000476837158
  1
30
  7
MX_DIMTXSTY_2
 11
12.306666652361551
 21
26.600000023841858
 31
0.0
 73
               2
  0
POINT
  8
DEFPOINTS
  6
CONTINUOUS
 62
               0
  5
359
 10
0.0
 20
11.0
 30
0.0
  0
POINT
  8
DEFPOINTS
  6
CONTINUOUS
 62
               0
  5
35A
 10
30.0
 20
11.0
 30
0.0
  0
POINT
  8
DEFPOINTS
  6
CONTINUOUS
 62
               0
  5
35B
 10
30.0
 20
24.0
 30
0.0
  0
ENDBLK
  8
0
  6
BYBLOCK
 62
               0
  5
35C
  0
BLOCK
  8
0
  6
BYBLOCK
 62
               0
  5
35F
  2
*D37
 70
               1
 10
0.0
 20
0.0
 30
0.0
  3
*D37
  0
LINE
  8
0
  6
CONTINUOUS
 62
             110
  5
360
 10
50.0
 20
24.0
 30
0.0
 11
80.0
 21
24.0
 31
0.0
  0
LINE
  8
0
  6
CONTINUOUS
 62
             110
  5
361
 10
50.0
 20
15.5
 30
0.0
 11
50.0
 21
26.285999298095703
 31
0.0
  0
LINE
  8
0
  6
CONTINUOUS
 62
             110
  5
362
 10
80.0
 20
15.5
 30
0.0
 11
80.0
 21
26.285999298095703
 31
0.0
  0
INSERT
  8
0
  6
CONTINUOUS
 62
             110
  5
363
  2
_OPEN30
 10
50.0
 20
24.0
 30
0.0
 41
2.77
 42
2.77
 50
180.0
 43
2.77
  0
INSERT
  8
0
  6
CONTINUOUS
 62
             110
  5
364
  2
_OPEN30
 10
80.0
 20
24.0
 30
0.0
 41
2.77
 42
2.77
 43
2.77
  0
TEXT
  8
0
  6
CONTINUOUS
 62
             110
  5
365
 10
62.30666665236155
 20
25.0
 30
0.0
 40
3.2000000476837158
  1
30
  7
MX_DIMTXSTY_2
 11
62.30666665236155
 21
26.600000023841858
 31
0.0
 73
               2
  0
POINT
  8
DEFPOINTS
  6
CONTINUOUS
 62
               0
  5
366
 10
50.0
 20
15.0
 30
0.0
  0
POINT
  8
DEFPOINTS
  6
CONTINUOUS
 62
               0
  5
367
 10
80.0
 20
15.0
 30
0.0
  0
POINT
  8
DEFPOINTS
  6
CONTINUOUS
 62
               0
  5
368
 10
80.0
 20
24.0
 30
0.0
  0
ENDBLK
  8
0
  6
BYBLOCK
 62
               0
  5
369
  0
BLOCK
  8
0
  6
BYBLOCK
 62
               0
  5
36C
  2
*D38
 70
               1
 10
0.0
 20
0.0
 30
0.0
  3
*D38
  0
LINE
  8
0
  6
CONTINUOUS
 62
             110
  5
36D
 10
98.0
 20
32.0
 30
0.0
 11
128.0
 21
32.0
 31
0.0
  0
LINE
  8
0
  6
CONTINUOUS
 62
             110
  5
36E
 10
98.0
 20
18.5
 30
0.0
 11
98.0
 21
34.285999298095703
 31
0.0
  0
LINE
  8
0
  6
CONTINUOUS
 62
             110
  5
36F
 10
128.0
 20
18.5
 30
0.0
 11
128.0
 21
34.285999298095703
 31
0.0
  0
INSERT
  8
0
  6
CONTINUOUS
 62
             110
  5
370
  2
_OPEN30
 10
98.0
 20
32.0
 30
0.0
 41
2.77
 42
2.77
 50
180.0
 43
2.77
  0
INSERT
  8
0
  6
CONTINUOUS
 62
             110
  5
371
  2
_OPEN30
 10
128.0
 20
32.0
 30
0.0
 41
2.77
 42
2.77
 43
2.77
  0
TEXT
  8
0
  6
CONTINUOUS
 62
             110
  5
372
 10
110.30666665236156
 20
33.0
 30
0.0
 40
3.2000000476837158
  1
30
  7
MX_DIMTXSTY_2
 11
110.30666665236156
 21
34.600000023841858
 31
0.0
 73
               2
  0
POINT
  8
DEFPOINTS
  6
CONTINUOUS
 62
               0
  5
373
 10
98.0
 20
18.0
 30
0.0
  0
POINT
  8
DEFPOINTS
  6
CONTINUOUS
 62
               0
  5
374
 10
128.0
 20
18.0
 30
0.0
  0
POINT
  8
DEFPOINTS
  6
CONTINUOUS
 62
               0
  5
375
 10
128.0
 20
32.0
 30
0.0
  0
ENDBLK
  8
0
  6
BYBLOCK
 62
               0
  5
376
  0
BLOCK
  8
0
  6
BYBLOCK
 62
               0
  5
379
  2
*D39
 70
               1
 10
0.0
 20
0.0
 30
0.0
  3
*D39
  0
LINE
  8
0
  6
CONTINUOUS
 62
             110
  5
37A
 10
148.0
 20
40.0
 30
0.0
 11
178.0
 21
40.0
 31
0.0
  0
LINE
  8
0
  6
CONTINUOUS
 62
             110
  5
37B
 10
148.0
 20
26.0
 30
0.0
 11
148.0
 21
42.285999298095703
 31
0.0
  0
LINE
  8
0
  6
CONTINUOUS
 62
             110
  5
37C
 10
178.0
 20
26.0
 30
0.0
 11
178.0
 21
42.285999298095703
 31
0.0
  0
INSERT
  8
0
  6
CONTINUOUS
 62
             110
  5
37D
  2
_OPEN30
 10
148.0
 20
40.0
 30
0.0
 41
2.77
 42
2.77
 50
180.0
 43
2.77
  0
INSERT
  8
0
  6
CONTINUOUS
 62
             110
  5
37E
  2
_OPEN30
 10
178.0
 20
40.0
 30
0.0
 41
2.77
 42
2.77
 43
2.77
  0
TEXT
  8
0
  6
CONTINUOUS
 62
             110
  5
37F
 10
160.30666665236154
 20
41.0
 30
0.0
 40
3.2000000476837158
  1
30
  7
MX_DIMTXSTY_2
 11
160.30666665236154
 21
42.600000023841858
 31
0.0
 73
               2
  0
POINT
  8
DEFPOINTS
  6
CONTINUOUS
 62
               0
  5
380
 10
148.0
 20
25.5
 30
0.0
  0
POINT
  8
DEFPOINTS
  6
CONTINUOUS
 62
               0
  5
381
 10
178.0
 20
25.5
 30
0.0
  0
POINT
  8
DEFPOINTS
  6
CONTINUOUS
 62
               0
  5
382
 10
178.0
 20
40.0
 30
0.0
  0
ENDBLK
  8
0
  6
BYBLOCK
 62
               0
  5
383
  0
BLOCK
  8
0
  6
BYBLOCK
 62
               0
  5
386
  2
*D40
 70
               1
 10
0.0
 20
0.0
 30
0.0
  3
*D40
  0
LINE
  8
0
  6
CONTINUOUS
 62
             110
  5
387
 10
198.0
 20
48.0
 30
0.0
 11
228.0
 21
48.0
 31
0.0
  0
LINE
  8
0
  6
CONTINUOUS
 62
             110
  5
388
 10
198.0
 20
35.5
 30
0.0
 11
198.0
 21
50.285999298095703
 31
0.0
  0
LINE
  8
0
  6
CONTINUOUS
 62
             110
  5
389
 10
228.0
 20
35.5
 30
0.0
 11
228.0
 21
50.285999298095703
 31
0.0
  0
INSERT
  8
0
  6
CONTINUOUS
 62
             110
  5
38A
  2
_OPEN30
 10
198.0
 20
48.0
 30
0.0
 41
2.77
 42
2.77
 50
180.0
 43
2.77
  0
INSERT
  8
0
  6
CONTINUOUS
 62
             110
  5
38B
  2
_OPEN30
 10
228.0
 20
48.0
 30
0.0
 41
2.77
 42
2.77
 43
2.77
  0
TEXT
  8
0
  6
CONTINUOUS
 62
             110
  5
38C
 10
210.30666665236154
 20
49.0
 30
0.0
 40
3.2000000476837158
  1
30
  7
MX_DIMTXSTY_2
 11
210.30666665236154
 21
50.600000023841858
 31
0.0
 73
               2
  0
POINT
  8
DEFPOINTS
  6
CONTINUOUS
 62
               0
  5
38D
 10
198.0
 20
35.0
 30
0.0
  0
POINT
  8
DEFPOINTS
  6
CONTINUOUS
 62
               0
  5
38E
 10
228.0
 20
35.0
 30
0.0
  0
POINT
  8
DEFPOINTS
  6
CONTINUOUS
 62
               0
  5
38F
 10
228.0
 20
48.0
 30
0.0
  0
ENDBLK
  8
0
  6
BYBLOCK
 62
               0
  5
390
  0
BLOCK
  8
0
  6
BYBLOCK
 62
               0
  5
393
  2
*D41
 70
               1
 10
0.0
 20
0.0
 30
0.0
  3
*D41
  0
LINE
  8
0
  6
CONTINUOUS
 62
             110
  5
394
 10
248.0
 20
56.0
 30
0.0
 11
278.0
 21
56.0
 31
0.0
  0
LINE
  8
0
  6
CONTINUOUS
 62
             110
  5
395
 10
248.0
 20
45.5
 30
0.0
 11
248.0
 21
58.285999298095703
 31
0.0
  0
LINE
  8
0
  6
CONTINUOUS
 62
             110
  5
396
 10
278.0
 20
45.5
 30
0.0
 11
278.0
 21
58.285999298095703
 31
0.0
  0
INSERT
  8
0
  6
CONTINUOUS
 62
             110
  5
397
  2
_OPEN30
 10
248.0
 20
56.0
 30
0.0
 41
2.77
 42
2.77
 50
180.0
 43
2.77
  0
INSERT
  8
0
  6
CONTINUOUS
 62
             110
  5
398
  2
_OPEN30
 10
278.0
 20
56.0
 30
0.0
 41
2.77
 42
2.77
 43
2.77
  0
TEXT
  8
0
  6
CONTINUOUS
 62
             110
  5
399
 10
260.30666665236157
 20
57.0
 30
0.0
 40
3.2000000476837158
  1
30
  7
MX_DIMTXSTY_2
 11
260.30666665236157
 21
58.600000023841858
 31
0.0
 73
               2
  0
POINT
  8
DEFPOINTS
  6
CONTINUOUS
 62
               0
  5
39A
 10
248.0
 20
45.0
 30
0.0
  0
POINT
  8
DEFPOINTS
  6
CONTINUOUS
 62
               0
  5
39B
 10
278.0
 20
45.0
 30
0.0
  0
POINT
  8
DEFPOINTS
  6
CONTINUOUS
 62
               0
  5
39C
 10
278.0
 20
56.0
 30
0.0
  0
ENDBLK
  8
0
  6
BYBLOCK
 62
               0
  5
39D
  0
BLOCK
  8
0
  6
BYBLOCK
 62
               0
  5
3A0
  2
*D42
 70
               1
 10
0.0
 20
0.0
 30
0.0
  3
*D42
  0
LINE
  8
0
  6
CONTINUOUS
 62
             110
  5
3A1
 10
298.0
 20
56.0
 30
0.0
 11
328.0
 21
56.0
 31
0.0
  0
LINE
  8
0
  6
CONTINUOUS
 62
             110
  5
3A2
 10
298.0
 20
47.5
 30
0.0
 11
298.0
 21
58.285999298095703
 31
0.0
  0
LINE
  8
0
  6
CONTINUOUS
 62
             110
  5
3A3
 10
328.0
 20
47.5
 30
0.0
 11
328.0
 21
58.285999298095703
 31
0.0
  0
INSERT
  8
0
  6
CONTINUOUS
 62
             110
  5
3A4
  2
_OPEN30
 10
298.0
 20
56.0
 30
0.0
 41
2.77
 42
2.77
 50
180.0
 43
2.77
  0
INSERT
  8
0
  6
CONTINUOUS
 62
             110
  5
3A5
  2
_OPEN30
 10
328.0
 20
56.0
 30
0.0
 41
2.77
 42
2.77
 43
2.77
  0
TEXT
  8
0
  6
CONTINUOUS
 62
             110
  5
3A6
 10
310.30666665236157
 20
57.0
 30
0.0
 40
3.2000000476837158
  1
30
  7
MX_DIMTXSTY_2
 11
310.30666665236157
 21
58.600000023841858
 31
0.0
 73
               2
  0
POINT
  8
DEFPOINTS
  6
CONTINUOUS
 62
               0
  5
3A7
 10
298.0
 20
47.0
 30
0.0
  0
POINT
  8
DEFPOINTS
  6
CONTINUOUS
 62
               0
  5
3A8
 10
328.0
 20
47.0
 30
0.0
  0
POINT
  8
DEFPOINTS
  6
CONTINUOUS
 62
               0
  5
3A9
 10
328.0
 20
56.0
 30
0.0
  0
ENDBLK
  8
0
  6
BYBLOCK
 62
               0
  5
3AA
  0
ENDSEC
  0
SECTION
  2
ENTITIES
  0
LINE
  8
LY_3
  6
CENTER
 62
             110
  5
26
 10
360.0
 20
-130.0
 30
0.0
 11
375.75298725739157
 21
-130.0
 31
0.0
  0
LINE
  8
LY_3
  6
PHANTOM
 62
             110
  5
28
 10
374.5
 20
-26.999999999999986
 30
0.0
 11
445.5
 21
-26.999999999999986
 31
0.0
  0
LINE
  8
LY_3
  6
PHANTOM
 62
             110
  5
29
 10
376.0
 20
4.9999999999999858
 30
0.0
 11
444.0
 21
4.9999999999999858
 31
0.0
  0
LINE
  8
LY_3
  6
PHANTOM
 62
             110
  5
2A
 10
374.5
 20
-233.00000000000003
 30
0.0
 11
445.49999999999989
 21
-233.00000000000003
 31
0.0
  0
LINE
  8
LY_3
  6
PHANTOM
 62
             110
  5
2B
 10
376.0
 20
-265.0
 30
0.0
 11
443.99999999999994
 21
-265.0
 31
0.0
  0
LINE
  8
LY_3
  6
CONTINUOUS
 62
               3
  5
2C
 10
370.0
 20
-265.00000000000011
 30
0.0
 11
370.0
 21
5.0000000000000426
 31
0.0
  0
LINE
  8
LY_3
  6
CONTINUOUS
 62
               3
  5
2D
 10
450.0
 20
-265.00000000000011
 30
0.0
 11
450.0
 21
5.0000000000000426
 31
0.0
  0
LINE
  8
LY_3
  6
PHANTOM
 62
             110
  5
2E
 10
494.5
 20
0.0000000000000142
 30
0.0
 11
565.50000000000023
 21
0.0000000000000142
 31
0.0
  0
LINE
  8
LY_3
  6
PHANTOM
 62
             110
  5
2F
 10
496.00000000000011
 20
30.000000000000014
 30
0.0
 11
564.00000000000011
 21
30.000000000000014
 31
0.0
  0
LINE
  8
LY_3
  6
PHANTOM
 62
             110
  5
30
 10
494.5
 20
-260.0
 30
0.0
 11
565.50000000000023
 21
-260.0
 31
0.0
  0
LINE
  8
LY_3
  6
PHANTOM
 62
             110
  5
31
 10
496.00000000000011
 20
-290.0
 30
0.0
 11
564.00000000000011
 21
-290.0
 31
0.0
  0
LINE
  8
LY_3
  6
CONTINUOUS
 62
               3
  5
32
 10
490.0
 20
-290.00000000000011
 30
0.0
 11
490.0
 21
30.000000000000028
 31
0.0
  0
LINE
  8
LY_3
  6
CONTINUOUS
 62
               3
  5
33
 10
570.00000000000011
 20
-290.00000000000011
 30
0.0
 11
570.00000000000011
 21
30.000000000000028
 31
0.0
  0
LINE
  8
LY_3
  6
CENTER
 62
             110
  5
34
 10
480.0
 20
-130.0
 30
0.0
 11
497.88977473698526
 21
-130.0
 31
0.0
  0
LINE
  8
LY_3
  6
CENTER
 62
             110
  5
35
 10
547.6602604072192
 20
-130.0
 30
0.0
 11
580.0
 21
-130.0
 31
0.0
  0
LINE
  8
LY_3
  6
CENTER
 62
             110
  5
36
 10
426.92972103815214
 20
-130.0
 30
0.0
 11
460.0
 21
-130.0
 31
0.0
  0
LINE
  8
LY_3
  6
CONTINUOUS
 62
               3
  5
37
 10
370.0
 20
4.9999999999999858
 30
0.0
 11
371.5
 21
-26.999999999999986
 31
0.0
  0
LINE
  8
LY_3
  6
CONTINUOUS
 62
               3
  5
38
 10
371.5
 20
-26.999999999999986
 30
0.0
 11
373.0
 21
5.0
 31
0.0
  0
LINE
  8
LY_3
  6
CONTINUOUS
 62
               3
  5
39
 10
373.0
 20
5.0
 30
0.0
 11
374.5
 21
-26.999999999999972
 31
0.0
  0
LINE
  8
LY_3
  6
CONTINUOUS
 62
               3
  5
3A
 10
374.5
 20
-26.999999999999972
 30
0.0
 11
376.0
 21
4.9999999999999858
 31
0.0
  0
LINE
  8
LY_3
  6
CONTINUOUS
 62
               3
  5
3B
 10
376.0
 20
4.9999999999999858
 30
0.0
 11
376.75
 21
-11.0
 31
0.0
  0
LINE
  8
LY_3
  6
CONTINUOUS
 62
               3
  5
3C
 10
450.0
 20
5.0
 30
0.0
 11
448.5
 21
-26.999999999999986
 31
0.0
  0
LINE
  8
LY_3
  6
CONTINUOUS
 62
               3
  5
3D
 10
448.5
 20
-26.999999999999986
 30
0.0
 11
447.0
 21
5.0
 31
0.0
  0
LINE
  8
LY_3
  6
CONTINUOUS
 62
               3
  5
3E
 10
447.0
 20
5.0000000000000142
 30
0.0
 11
445.5
 21
-26.999999999999972
 31
0.0
  0
LINE
  8
LY_3
  6
CONTINUOUS
 62
               3
  5
3F
 10
445.49999999999989
 20
-26.999999999999986
 30
0.0
 11
443.99999999999989
 21
5.0000000000000142
 31
0.0
  0
LINE
  8
LY_3
  6
CONTINUOUS
 62
               3
  5
40
 10
443.99999999999994
 20
5.0
 30
0.0
 11
443.25
 21
-11.0
 31
0.0
  0
LINE
  8
LY_3
  6
CONTINUOUS
 62
               3
  5
41
 10
369.99999999999994
 20
-265.0
 30
0.0
 11
371.5
 21
-232.99999999999997
 31
0.0
  0
LINE
  8
LY_3
  6
CONTINUOUS
 62
               3
  5
42
 10
371.5
 20
-232.99999999999997
 30
0.0
 11
373.0
 21
-265.0
 31
0.0
  0
LINE
  8
LY_3
  6
CONTINUOUS
 62
               3
  5
43
 10
373.0
 20
-264.99999999999989
 30
0.0
 11
374.5
 21
-233.00000000000003
 31
0.0
  0
LINE
  8
LY_3
  6
CONTINUOUS
 62
               3
  5
44
 10
374.5
 20
-233.00000000000003
 30
0.0
 11
376.0
 21
-264.99999999999989
 31
0.0
  0
LINE
  8
LY_3
  6
CONTINUOUS
 62
               3
  5
45
 10
376.0
 20
-264.99999999999989
 30
0.0
 11
376.75
 21
-248.99999999999997
 31
0.0
  0
LINE
  8
LY_3
  6
CONTINUOUS
 62
               3
  5
46
 10
450.0
 20
-264.99999999999989
 30
0.0
 11
448.5
 21
-233.00000000000003
 31
0.0
  0
LINE
  8
LY_3
  6
CONTINUOUS
 62
               3
  5
47
 10
448.49999999999994
 20
-233.00000000000003
 30
0.0
 11
446.99999999999989
 21
-265.0
 31
0.0
  0
LINE
  8
LY_3
  6
CONTINUOUS
 62
               3
  5
48
 10
447.0
 20
-265.0
 30
0.0
 11
445.5
 21
-233.00000000000003
 31
0.0
  0
LINE
  8
LY_3
  6
CONTINUOUS
 62
               3
  5
49
 10
445.49999999999989
 20
-233.00000000000003
 30
0.0
 11
443.99999999999989
 21
-265.0
 31
0.0
  0
LINE
  8
LY_3
  6
CONTINUOUS
 62
               3
  5
4A
 10
443.99999999999994
 20
-265.0
 30
0.0
 11
443.25
 21
-248.99999999999997
 31
0.0
  0
LINE
  8
LY_3
  6
CONTINUOUS
 62
               3
  5
4B
 10
490.0
 20
30.000000000000014
 30
0.0
 11
491.5
 21
0.0000000000000142
 31
0.0
  0
LINE
  8
LY_3
  6
CONTINUOUS
 62
               3
  5
4C
 10
491.5
 20
0.0000000000000142
 30
0.0
 11
493.0
 21
30.000000000000014
 31
0.0
  0
LINE
  8
LY_3
  6
CONTINUOUS
 62
               3
  5
4D
 10
493.0
 20
30.000000000000014
 30
0.0
 11
494.5
 21
0.0000000000000142
 31
0.0
  0
LINE
  8
LY_3
  6
CONTINUOUS
 62
               3
  5
4E
 10
494.5
 20
0.0000000000000142
 30
0.0
 11
496.00000000000011
 21
30.000000000000014
 31
0.0
  0
LINE
  8
LY_3
  6
CONTINUOUS
 62
               3
  5
4F
 10
496.0
 20
30.000000000000014
 30
0.0
 11
496.75
 21
15.000000000000014
 31
0.0
  0
LINE
  8
LY_3
  6
CONTINUOUS
 62
               3
  5
50
 10
570.00000000000011
 20
30.000000000000014
 30
0.0
 11
568.50000000000011
 21
0.0000000000000142
 31
0.0
  0
LINE
  8
LY_3
  6
CONTINUOUS
 62
               3
  5
51
 10
568.50000000000023
 20
0.0000000000000426
 30
0.0
 11
567.00000000000011
 21
30.000000000000028
 31
0.0
  0
LINE
  8
LY_3
  6
CONTINUOUS
 62
               3
  5
52
 10
567.00000000000011
 20
30.000000000000014
 30
0.0
 11
565.50000000000011
 21
0.0
 31
0.0
  0
LINE
  8
LY_3
  6
CONTINUOUS
 62
               3
  5
53
 10
565.50000000000023
 20
0.0000000000000142
 30
0.0
 11
564.00000000000011
 21
30.000000000000014
 31
0.0
  0
LINE
  8
LY_3
  6
CONTINUOUS
 62
               3
  5
54
 10
564.00000000000011
 20
30.000000000000014
 30
0.0
 11
563.25000000000011
 21
15.000000000000014
 31
0.0
  0
LINE
  8
LY_3
  6
CONTINUOUS
 62
               3
  5
55
 10
490.0
 20
-290.0
 30
0.0
 11
491.5
 21
-260.0
 31
0.0
  0
LINE
  8
LY_3
  6
CONTINUOUS
 62
               3
  5
56
 10
491.50000000000011
 20
-260.0
 30
0.0
 11
493.00000000000011
 21
-290.0
 31
0.0
  0
LINE
  8
LY_3
  6
CONTINUOUS
 62
               3
  5
57
 10
493.0
 20
-290.0
 30
0.0
 11
494.5
 21
-260.0
 31
0.0
  0
LINE
  8
LY_3
  6
CONTINUOUS
 62
               3
  5
58
 10
494.5
 20
-260.0
 30
0.0
 11
496.00000000000011
 21
-290.0
 31
0.0
  0
LINE
  8
LY_3
  6
CONTINUOUS
 62
               3
  5
59
 10
496.0
 20
-290.0
 30
0.0
 11
496.75
 21
-275.0
 31
0.0
  0
LINE
  8
LY_3
  6
CONTINUOUS
 62
               3
  5
5A
 10
570.00000000000011
 20
-290.0
 30
0.0
 11
568.50000000000011
 21
-260.0
 31
0.0
  0
LINE
  8
LY_3
  6
CONTINUOUS
 62
               3
  5
5B
 10
568.50000000000023
 20
-260.0
 30
0.0
 11
567.00000000000011
 21
-290.0
 31
0.0
  0
LINE
  8
LY_3
  6
CONTINUOUS
 62
               3
  5
5C
 10
567.0
 20
-290.0
 30
0.0
 11
565.50000000000011
 21
-260.0
 31
0.0
  0
LINE
  8
LY_3
  6
CONTINUOUS
 62
               3
  5
5D
 10
565.50000000000023
 20
-260.0
 30
0.0
 11
564.00000000000011
 21
-290.0
 31
0.0
  0
LINE
  8
LY_3
  6
CONTINUOUS
 62
               3
  5
5E
 10
564.00000000000011
 20
-290.0
 30
0.0
 11
563.25000000000011
 21
-275.0
 31
0.0
  0
TEXT
  8
LY_3
  6
CONTINUOUS
 62
             110
  5
5F
 10
387.65735509224845
 20
-292.10000014305115
 30
0.0
 40
4.2000002861022949
  1
NS(A)xxx270
 41
1.0819672110003191
  7
MX_NOTE_STANDARD
 11
387.65735509224845
 21
-287.89999985694885
 31
0.0
 73
               3
  0
DIMENSION
  8
LY_3
  6
CONTINUOUS
 62
             110
  5
6A
  2
*D1
 10
410.0
 20
5.0
 30
0.0
 11
410.0
 21
-130.0
 31
0.0
 70
             128
  1
%%c<>
 13
446.0
 23
-265.0
 33
0.0
 14
446.0
 24
5.0
 34
0.0
 50
90.0
  3
MXDIMSTYLE
1001
ACAD
1000
DSTYLE
1002
{
1070
              41
1040
2.77
1070
              75
1070
               1
1070
              76
1070
               1
1070
             140
1040
3.2000000476837158
1070
             271
1070
               0
1070
             284
1070
               8
1002
}
  0
DIMENSION
  8
LY_3
  6
CONTINUOUS
 62
             110
  5
75
  2
*D2
 10
400.0
 20
-233.00000000000006
 30
0.0
 11
400.0
 21
-130.0
 31
0.0
 70
             128
  1
%%c<>
 13
373.0
 23
-27.0
 33
0.0
 14
373.0
 24
-233.00000000000006
 34
0.0
 50
90.0
  3
MXDIMSTYLE
1001
ACAD
1000
DSTYLE
1002
{
1070
              41
1040
2.77
1070
              75
1070
               1
1070
              76
1070
               1
1070
             140
1040
3.2000000476837158
1070
             271
1070
               0
1070
             284
1070
               8
1002
}
  0
DIMENSION
  8
LY_3
  6
CONTINUOUS
 62
             110
  5
80
  2
*D3
 10
530.0
 20
30.0
 30
0.0
 11
530.0
 21
-130.0
 31
0.0
 70
             128
  1
%%c<>
 13
566.0
 23
-290.0
 33
0.0
 14
566.0
 24
30.0
 34
0.0
 50
90.0
  3
MXDIMSTYLE
1001
ACAD
1000
DSTYLE
1002
{
1070
              41
1040
2.77
1070
              75
1070
               1
1070
              76
1070
               1
1070
             140
1040
3.2000000476837158
1070
             271
1070
               0
1070
             284
1070
               8
1002
}
  0
DIMENSION
  8
LY_3
  6
CONTINUOUS
 62
             110
  5
8B
  2
*D4
 10
520.0
 20
-260.0
 30
0.0
 11
520.0
 21
-129.99999999999994
 31
0.0
 70
             128
  1
%%c<>
 13
493.0
 23
0.0000000000000568
 33
0.0
 14
493.0
 24
-260.0
 34
0.0
 50
90.0
  3
MXDIMSTYLE
1001
ACAD
1000
DSTYLE
1002
{
1070
              41
1040
2.77
1070
              75
1070
               1
1070
              76
1070
               1
1070
             140
1040
3.2000000476837158
1070
             271
1070
               0
1070
             284
1070
               8
1002
}
  0
DIMENSION
  8
LY_3
  6
CONTINUOUS
 62
             110
  5
99
  2
*D5
 10
450.0
 20
30.000000000000028
 30
0.0
 11
410.0
 21
30.000000000000028
 31
0.0
 70
             128
  1
<>
 13
370.0
 23
5.0000000000000284
 33
0.0
 14
450.0
 24
5.0000000000000284
 34
0.0
  3
MXDIMSTYLE
1001
ACAD
1000
DSTYLE
1002
{
1070
              41
1040
2.77
1070
              42
1040
0.5
1070
              44
1040
2.2859992980957031
1070
             140
1040
3.2000000476837158
1070
             271
1070
               0
1070
             284
1070
               8
1070
             340
1005
93
1002
}
  0
DIMENSION
  8
LY_3
  6
CONTINUOUS
 62
             110
  5
A6
  2
*D6
 10
570.00000000000011
 20
56.666666666666714
 30
0.0
 11
530.0
 21
56.666666666666714
 31
0.0
 70
             128
  1
<>
 13
490.0
 23
30.000000635782925
 33
0.0
 14
570.00000000000011
 24
30.000000635782925
 34
0.0
  3
MXDIMSTYLE
1001
ACAD
1000
DSTYLE
1002
{
1070
              41
1040
2.77
1070
              42
1040
0.5
1070
              44
1040
2.2859992980957031
1070
             140
1040
3.2000000476837158
1070
             271
1070
               0
1070
             284
1070
               8
1070
             340
1005
93
1002
}
  0
TEXT
  8
LY_3
  6
CONTINUOUS
 62
             110
  5
A7
 10
508.27813211927543
 20
-314.85337852142948
 30
0.0
 40
4.2000002861022949
  1
NS(A)xxx320
 41
1.0819672110003191
  7
MX_NOTE_STANDARD
 11
508.27813211927543
 21
-310.65337823532718
 31
0.0
 73
               3
  0
LINE
  8
LY_3
  6
CENTER
 62
             110
  5
A8
 10
-21.776227779793203
 20
-200.0
 30
0.0
 11
-5.74337509297726
 21
-200.0
 31
0.0
  0
LINE
  8
LY_3
  6
PHANTOM
 62
             110
  5
A9
 10
-7.0
 20
-160.5
 30
0.0
 11
27.0
 21
-160.5
 31
0.0
  0
LINE
  8
LY_3
  6
PHANTOM
 62
             110
  5
AA
 10
-6.0
 20
-145.5
 30
0.0
 11
26.0
 21
-145.5
 31
0.0
  0
LINE
  8
LY_3
  6
CONTINUOUS
 62
               3
  5
AB
 10
-9.9999999999998863
 20
-145.49999999999997
 30
0.0
 11
-8.9999999999998863
 21
-160.49999999999997
 31
0.0
  0
LINE
  8
LY_3
  6
CONTINUOUS
 62
               3
  5
AC
 10
-8.9999999999997158
 20
-160.5
 30
0.0
 11
-7.9999999999997158
 21
-145.5
 31
0.0
  0
LINE
  8
LY_3
  6
CONTINUOUS
 62
               3
  5
AD
 10
-7.9999999999998863
 20
-145.49999999999997
 30
0.0
 11
-6.9999999999998863
 21
-160.49999999999997
 31
0.0
  0
LINE
  8
LY_3
  6
CONTINUOUS
 62
               3
  5
AE
 10
-6.9999999999996589
 20
-160.5
 30
0.0
 11
-5.9999999999996589
 21
-145.5
 31
0.0
  0
LINE
  8
LY_3
  6
CONTINUOUS
 62
               3
  5
AF
 10
-5.9999999999997726
 20
-145.5
 30
0.0
 11
-5.4999999999997726
 21
-152.99999999999994
 31
0.0
  0
LINE
  8
LY_3
  6
CONTINUOUS
 62
               3
  5
B0
 10
30.0
 20
-145.5
 30
0.0
 11
29.0
 21
-160.49999999999997
 31
0.0
  0
LINE
  8
LY_3
  6
CONTINUOUS
 62
               3
  5
B1
 10
29.000000000000114
 20
-160.49999999999994
 30
0.0
 11
28.000000000000114
 21
-145.49999999999997
 31
0.0
  0
LINE
  8
LY_3
  6
CONTINUOUS
 62
               3
  5
B2
 10
27.999999999999943
 20
-145.49999999999997
 30
0.0
 11
26.999999999999943
 21
-160.49999999999994
 31
0.0
  0
LINE
  8
LY_3
  6
CONTINUOUS
 62
               3
  5
B3
 10
27.000000000000057
 20
-160.49999999999997
 30
0.0
 11
26.000000000000057
 21
-145.49999999999994
 31
0.0
  0
LINE
  8
LY_3
  6
CONTINUOUS
 62
               3
  5
B4
 10
26.000000000000057
 20
-145.49999999999997
 30
0.0
 11
25.500000000000057
 21
-152.99999999999997
 31
0.0
  0
LINE
  8
LY_3
  6
PHANTOM
 62
             110
  5
B5
 10
-7.0
 20
-239.5
 30
0.0
 11
27.0
 21
-239.5
 31
0.0
  0
LINE
  8
LY_3
  6
PHANTOM
 62
             110
  5
B6
 10
-6.0
 20
-254.5
 30
0.0
 11
26.0
 21
-254.5
 31
0.0
  0
LINE
  8
LY_3
  6
CONTINUOUS
 62
               3
  5
B7
 10
-10.0
 20
-254.5
 30
0.0
 11
-10.0
 21
-145.5
 31
0.0
  0
LINE
  8
LY_3
  6
CONTINUOUS
 62
               3
  5
B8
 10
30.0
 20
-254.5
 30
0.0
 11
30.0
 21
-145.5
 31
0.0
  0
LINE
  8
LY_3
  6
CONTINUOUS
 62
               3
  5
B9
 10
-9.9999999999997158
 20
-254.5
 30
0.0
 11
-8.9999999999997158
 21
-239.5
 31
0.0
  0
LINE
  8
LY_3
  6
CONTINUOUS
 62
               3
  5
BA
 10
-8.9999999999998295
 20
-239.49999999999997
 30
0.0
 11
-7.9999999999998295
 21
-254.49999999999997
 31
0.0
  0
LINE
  8
LY_3
  6
CONTINUOUS
 62
               3
  5
BB
 10
-7.9999999999996589
 20
-254.5
 30
0.0
 11
-6.9999999999996589
 21
-239.5
 31
0.0
  0
LINE
  8
LY_3
  6
CONTINUOUS
 62
               3
  5
BC
 10
-6.9999999999998295
 20
-239.49999999999997
 30
0.0
 11
-5.9999999999998295
 21
-254.49999999999997
 31
0.0
  0
LINE
  8
LY_3
  6
CONTINUOUS
 62
               3
  5
BD
 10
-5.9999999999998863
 20
-254.49999999999997
 30
0.0
 11
-5.4999999999998863
 21
-246.99999999999997
 31
0.0
  0
LINE
  8
LY_3
  6
CONTINUOUS
 62
               3
  5
BE
 10
30.000000000000171
 20
-254.49999999999997
 30
0.0
 11
29.000000000000171
 21
-239.49999999999997
 31
0.0
  0
LINE
  8
LY_3
  6
CONTINUOUS
 62
               3
  5
BF
 10
29.0
 20
-239.49999999999997
 30
0.0
 11
28.0
 21
-254.49999999999997
 31
0.0
  0
LINE
  8
LY_3
  6
CONTINUOUS
 62
               3
  5
C0
 10
28.000000000000114
 20
-254.49999999999997
 30
0.0
 11
27.000000000000114
 21
-239.49999999999997
 31
0.0
  0
LINE
  8
LY_3
  6
CONTINUOUS
 62
               3
  5
C1
 10
26.999999999999886
 20
-239.49999999999997
 30
0.0
 11
25.999999999999886
 21
-254.49999999999997
 31
0.0
  0
LINE
  8
LY_3
  6
CONTINUOUS
 62
               3
  5
C2
 10
26.000000000000171
 20
-254.49999999999997
 30
0.0
 11
25.500000000000171
 21
-246.99999999999997
 31
0.0
  0
LINE
  8
LY_3
  6
PHANTOM
 62
             110
  5
C3
 10
133.0
 20
-150.0
 30
0.0
 11
167.0
 21
-150.0
 31
0.0
  0
LINE
  8
LY_3
  6
PHANTOM
 62
             110
  5
C4
 10
134.0
 20
-125.0
 30
0.0
 11
166.0
 21
-125.0
 31
0.0
  0
LINE
  8
LY_3
  6
CONTINUOUS
 62
               3
  5
C5
 10
130.00000000000034
 20
-125.0
 30
0.0
 11
131.00000000000034
 21
-150.0
 31
0.0
  0
LINE
  8
LY_3
  6
CONTINUOUS
 62
               3
  5
C6
 10
131.00000000000023
 20
-150.00000000000003
 30
0.0
 11
132.00000000000023
 21
-125.00000000000003
 31
0.0
  0
LINE
  8
LY_3
  6
CONTINUOUS
 62
               3
  5
C7
 10
132.00000000000028
 20
-125.0
 30
0.0
 11
133.00000000000028
 21
-150.0
 31
0.0
  0
LINE
  8
LY_3
  6
CONTINUOUS
 62
               3
  5
C8
 10
133.00000000000023
 20
-150.00000000000003
 30
0.0
 11
134.00000000000023
 21
-125.00000000000003
 31
0.0
  0
LINE
  8
LY_3
  6
CONTINUOUS
 62
               3
  5
C9
 10
134.00000000000023
 20
-125.0
 30
0.0
 11
134.50000000000023
 21
-137.5
 31
0.0
  0
LINE
  8
LY_3
  6
CONTINUOUS
 62
               3
  5
CA
 10
170.00000000000011
 20
-125.0
 30
0.0
 11
169.00000000000011
 21
-150.0
 31
0.0
  0
LINE
  8
LY_3
  6
CONTINUOUS
 62
               3
  5
CB
 10
169.00000000000023
 20
-150.0
 30
0.0
 11
168.00000000000023
 21
-124.99999999999997
 31
0.0
  0
LINE
  8
LY_3
  6
CONTINUOUS
 62
               3
  5
CC
 10
168.00000000000023
 20
-125.00000000000001
 30
0.0
 11
167.00000000000023
 21
-150.0
 31
0.0
  0
LINE
  8
LY_3
  6
CONTINUOUS
 62
               3
  5
CD
 10
167.00000000000023
 20
-150.0
 30
0.0
 11
166.00000000000011
 21
-125.0
 31
0.0
  0
LINE
  8
LY_3
  6
CONTINUOUS
 62
               3
  5
CE
 10
166.00000000000011
 20
-125.00000000000001
 30
0.0
 11
165.50000000000011
 21
-137.5
 31
0.0
  0
LINE
  8
LY_3
  6
PHANTOM
 62
             110
  5
CF
 10
133.0
 20
-250.0
 30
0.0
 11
167.0
 21
-250.0
 31
0.0
  0
LINE
  8
LY_3
  6
PHANTOM
 62
             110
  5
D0
 10
134.0
 20
-275.0
 30
0.0
 11
166.0
 21
-275.0
 31
0.0
  0
LINE
  8
LY_3
  6
CONTINUOUS
 62
               3
  5
D1
 10
130.0
 20
-275.0
 30
0.0
 11
130.0
 21
-125.0
 31
0.0
  0
LINE
  8
LY_3
  6
CONTINUOUS
 62
               3
  5
D2
 10
170.0
 20
-275.0
 30
0.0
 11
170.0
 21
-125.0
 31
0.0
  0
LINE
  8
LY_3
  6
CONTINUOUS
 62
               3
  5
D3
 10
130.00000000000034
 20
-275.0
 30
0.0
 11
131.00000000000034
 21
-250.00000000000003
 31
0.0
  0
LINE
  8
LY_3
  6
CONTINUOUS
 62
               3
  5
D4
 10
131.00000000000028
 20
-250.0
 30
0.0
 11
132.00000000000028
 21
-275.0
 31
0.0
  0
LINE
  8
LY_3
  6
CONTINUOUS
 62
               3
  5
D5
 10
132.00000000000023
 20
-275.0
 30
0.0
 11
133.00000000000023
 21
-250.00000000000003
 31
0.0
  0
LINE
  8
LY_3
  6
CONTINUOUS
 62
               3
  5
D6
 10
133.00000000000034
 20
-250.0
 30
0.0
 11
134.00000000000034
 21
-275.0
 31
0.0
  0
LINE
  8
LY_3
  6
CONTINUOUS
 62
               3
  5
D7
 10
134.00000000000028
 20
-275.0
 30
0.0
 11
134.50000000000028
 21
-262.5
 31
0.0
  0
LINE
  8
LY_3
  6
CONTINUOUS
 62
               3
  5
D8
 10
170.00000000000023
 20
-275.0
 30
0.0
 11
169.00000000000023
 21
-249.99999999999997
 31
0.0
  0
LINE
  8
LY_3
  6
CONTINUOUS
 62
               3
  5
D9
 10
169.00000000000023
 20
-250.0
 30
0.0
 11
168.00000000000023
 21
-275.0
 31
0.0
  0
LINE
  8
LY_3
  6
CONTINUOUS
 62
               3
  5
DA
 10
168.00000000000011
 20
-275.0
 30
0.0
 11
167.00000000000011
 21
-249.99999999999997
 31
0.0
  0
LINE
  8
LY_3
  6
CONTINUOUS
 62
               3
  5
DB
 10
167.00000000000011
 20
-250.0
 30
0.0
 11
166.00000000000011
 21
-275.0
 31
0.0
  0
LINE
  8
LY_3
  6
CONTINUOUS
 62
               3
  5
DC
 10
166.00000000000023
 20
-275.0
 30
0.0
 11
165.50000000000023
 21
-262.5
 31
0.0
  0
LINE
  8
LY_3
  6
PHANTOM
 62
             110
  5
DD
 10
203.0
 20
-140.0
 30
0.0
 11
237.0
 21
-140.0
 31
0.0
  0
LINE
  8
LY_3
  6
PHANTOM
 62
             110
  5
DE
 10
204.0
 20
-125.0
 30
0.0
 11
236.0
 21
-125.0
 31
0.0
  0
LINE
  8
LY_3
  6
CONTINUOUS
 62
               3
  5
DF
 10
200.00000000000011
 20
-124.99999999999999
 30
0.0
 11
201.00000000000011
 21
-139.99999999999997
 31
0.0
  0
LINE
  8
LY_3
  6
CONTINUOUS
 62
               3
  5
E0
 10
201.00000000000011
 20
-139.99999999999997
 30
0.0
 11
202.00000000000011
 21
-124.99999999999997
 31
0.0
  0
LINE
  8
LY_3
  6
CONTINUOUS
 62
               3
  5
E1
 10
202.00000000000011
 20
-125.0
 30
0.0
 11
203.00000000000011
 21
-139.99999999999997
 31
0.0
  0
LINE
  8
LY_3
  6
CONTINUOUS
 62
               3
  5
E2
 10
203.00000000000011
 20
-140.0
 30
0.0
 11
204.00000000000011
 21
-124.99999999999997
 31
0.0
  0
LINE
  8
LY_3
  6
CONTINUOUS
 62
               3
  5
E3
 10
204.0
 20
-124.99999999999999
 30
0.0
 11
204.5
 21
-132.5
 31
0.0
  0
LINE
  8
LY_3
  6
CONTINUOUS
 62
               3
  5
E4
 10
239.00000000000011
 20
-139.99999999999997
 30
0.0
 11
238.00000000000011
 21
-124.99999999999999
 31
0.0
  0
LINE
  8
LY_3
  6
CONTINUOUS
 62
               3
  5
E5
 10
238.00000000000011
 20
-124.99999999999997
 30
0.0
 11
237.00000000000011
 21
-139.99999999999994
 31
0.0
  0
LINE
  8
LY_3
  6
CONTINUOUS
 62
               3
  5
E6
 10
237.00000000000011
 20
-140.0
 30
0.0
 11
236.00000000000011
 21
-125.00000000000001
 31
0.0
  0
LINE
  8
LY_3
  6
CONTINUOUS
 62
               3
  5
E7
 10
236.0
 20
-124.99999999999997
 30
0.0
 11
235.5
 21
-132.5
 31
0.0
  0
LINE
  8
LY_3
  6
CONTINUOUS
 62
               3
  5
E8
 10
240.0
 20
-124.99999999999997
 30
0.0
 11
239.0
 21
-140.0
 31
0.0
  0
LINE
  8
LY_3
  6
PHANTOM
 62
             110
  5
E9
 10
203.0
 20
-260.0
 30
0.0
 11
237.0
 21
-260.0
 31
0.0
  0
LINE
  8
LY_3
  6
PHANTOM
 62
             110
  5
EA
 10
204.0
 20
-275.0
 30
0.0
 11
236.0
 21
-275.0
 31
0.0
  0
LINE
  8
LY_3
  6
CONTINUOUS
 62
               3
  5
EB
 10
200.0
 20
-275.0
 30
0.0
 11
200.0
 21
-125.0
 31
0.0
  0
LINE
  8
LY_3
  6
CONTINUOUS
 62
               3
  5
EC
 10
240.0
 20
-275.0
 30
0.0
 11
240.0
 21
-125.0
 31
0.0
  0
LINE
  8
LY_3
  6
CONTINUOUS
 62
               3
  5
ED
 10
200.00000000000011
 20
-275.0
 30
0.0
 11
201.00000000000011
 21
-260.0
 31
0.0
  0
LINE
  8
LY_3
  6
CONTINUOUS
 62
               3
  5
EE
 10
201.00000000000011
 20
-260.0
 30
0.0
 11
202.00000000000011
 21
-275.0
 31
0.0
  0
LINE
  8
LY_3
  6
CONTINUOUS
 62
               3
  5
EF
 10
202.00000000000011
 20
-275.0
 30
0.0
 11
203.00000000000011
 21
-260.0
 31
0.0
  0
LINE
  8
LY_3
  6
CONTINUOUS
 62
               3
  5
F0
 10
203.00000000000011
 20
-260.0
 30
0.0
 11
204.00000000000011
 21
-275.0
 31
0.0
  0
LINE
  8
LY_3
  6
CONTINUOUS
 62
               3
  5
F1
 10
204.00000000000011
 20
-275.0
 30
0.0
 11
204.50000000000011
 21
-267.5
 31
0.0
  0
LINE
  8
LY_3
  6
CONTINUOUS
 62
               3
  5
F2
 10
239.00000000000011
 20
-260.0
 30
0.0
 11
238.00000000000011
 21
-275.0
 31
0.0
  0
LINE
  8
LY_3
  6
CONTINUOUS
 62
               3
  5
F3
 10
238.0
 20
-275.0
 30
0.0
 11
237.0
 21
-259.99999999999994
 31
0.0
  0
LINE
  8
LY_3
  6
CONTINUOUS
 62
               3
  5
F4
 10
237.0
 20
-260.0
 30
0.0
 11
236.0
 21
-275.0
 31
0.0
  0
LINE
  8
LY_3
  6
CONTINUOUS
 62
               3
  5
F5
 10
236.0
 20
-275.0
 30
0.0
 11
235.5
 21
-267.5
 31
0.0
  0
LINE
  8
LY_3
  6
CONTINUOUS
 62
               3
  5
F6
 10
240.00000000000011
 20
-275.0
 30
0.0
 11
239.00000000000011
 21
-260.0
 31
0.0
  0
LINE
  8
LY_3
  6
PHANTOM
 62
             110
  5
F7
 10
273.0
 20
-120.0
 30
0.0
 11
307.0
 21
-120.0
 31
0.0
  0
LINE
  8
LY_3
  6
PHANTOM
 62
             110
  5
F8
 10
274.0
 20
-95.0
 30
0.0
 11
306.0
 21
-95.0
 31
0.0
  0
LINE
  8
LY_3
  6
CONTINUOUS
 62
               3
  5
F9
 10
270.00000000000011
 20
-95.0
 30
0.0
 11
271.00000000000011
 21
-120.0
 31
0.0
  0
LINE
  8
LY_3
  6
CONTINUOUS
 62
               3
  5
FA
 10
271.00000000000011
 20
-120.00000000000003
 30
0.0
 11
272.00000000000011
 21
-95.000000000000028
 31
0.0
  0
LINE
  8
LY_3
  6
CONTINUOUS
 62
               3
  5
FB
 10
272.00000000000011
 20
-95.0
 30
0.0
 11
273.00000000000011
 21
-120.0
 31
0.0
  0
LINE
  8
LY_3
  6
CONTINUOUS
 62
               3
  5
FC
 10
273.00000000000011
 20
-120.00000000000001
 30
0.0
 11
274.00000000000011
 21
-95.000000000000028
 31
0.0
  0
LINE
  8
LY_3
  6
CONTINUOUS
 62
               3
  5
FD
 10
274.00000000000011
 20
-95.0
 30
0.0
 11
274.50000000000011
 21
-107.5
 31
0.0
  0
LINE
  8
LY_3
  6
CONTINUOUS
 62
               3
  5
FE
 10
310.0
 20
-95.000000000000014
 30
0.0
 11
309.0
 21
-120.00000000000001
 31
0.0
  0
LINE
  8
LY_3
  6
CONTINUOUS
 62
               3
  5
FF
 10
309.0
 20
-120.0
 30
0.0
 11
308.0
 21
-95.0
 31
0.0
  0
LINE
  8
LY_3
  6
CONTINUOUS
 62
               3
  5
100
 10
308.0
 20
-95.000000000000028
 30
0.0
 11
307.0
 21
-120.00000000000003
 31
0.0
  0
LINE
  8
LY_3
  6
CONTINUOUS
 62
               3
  5
101
 10
307.0
 20
-120.0
 30
0.0
 11
306.0
 21
-95.0
 31
0.0
  0
LINE
  8
LY_3
  6
CONTINUOUS
 62
               3
  5
102
 10
306.0
 20
-95.000000000000014
 30
0.0
 11
305.5
 21
-107.50000000000001
 31
0.0
  0
LINE
  8
LY_3
  6
PHANTOM
 62
             110
  5
103
 10
273.0
 20
-280.0
 30
0.0
 11
307.0
 21
-280.0
 31
0.0
  0
LINE
  8
LY_3
  6
PHANTOM
 62
             110
  5
104
 10
274.0
 20
-305.0
 30
0.0
 11
306.0
 21
-305.0
 31
0.0
  0
LINE
  8
LY_3
  6
CONTINUOUS
 62
               3
  5
105
 10
270.0
 20
-305.0
 30
0.0
 11
270.0
 21
-95.0
 31
0.0
  0
LINE
  8
LY_3
  6
CONTINUOUS
 62
               3
  5
106
 10
310.0
 20
-305.0
 30
0.0
 11
310.0
 21
-95.0
 31
0.0
  0
LINE
  8
LY_3
  6
CONTINUOUS
 62
               3
  5
107
 10
270.00000000000011
 20
-305.0
 30
0.0
 11
271.00000000000011
 21
-280.0
 31
0.0
  0
LINE
  8
LY_3
  6
CONTINUOUS
 62
               3
  5
108
 10
271.00000000000011
 20
-280.0
 30
0.0
 11
272.00000000000011
 21
-305.0
 31
0.0
  0
LINE
  8
LY_3
  6
CONTINUOUS
 62
               3
  5
109
 10
272.00000000000011
 20
-305.0
 30
0.0
 11
273.00000000000011
 21
-280.0
 31
0.0
  0
LINE
  8
LY_3
  6
CONTINUOUS
 62
               3
  5
10A
 10
273.00000000000011
 20
-280.0
 30
0.0
 11
274.00000000000011
 21
-305.0
 31
0.0
  0
LINE
  8
LY_3
  6
CONTINUOUS
 62
               3
  5
10B
 10
274.0
 20
-305.0
 30
0.0
 11
274.5
 21
-292.5
 31
0.0
  0
LINE
  8
LY_3
  6
CONTINUOUS
 62
               3
  5
10C
 10
310.0
 20
-305.0
 30
0.0
 11
309.0
 21
-280.0
 31
0.0
  0
LINE
  8
LY_3
  6
CONTINUOUS
 62
               3
  5
10D
 10
309.0
 20
-280.0
 30
0.0
 11
308.0
 21
-305.0
 31
0.0
  0
LINE
  8
LY_3
  6
CONTINUOUS
 62
               3
  5
10E
 10
308.0
 20
-305.0
 30
0.0
 11
307.0
 21
-280.0
 31
0.0
  0
LINE
  8
LY_3
  6
CONTINUOUS
 62
               3
  5
10F
 10
307.0
 20
-280.0
 30
0.0
 11
306.0
 21
-305.0
 31
0.0
  0
LINE
  8
LY_3
  6
CONTINUOUS
 62
               3
  5
110
 10
306.0
 20
-305.0
 30
0.0
 11
305.5
 21
-292.5
 31
0.0
  0
LINE
  8
LY_3
  6
CENTER
 62
             110
  5
111
 10
261.70456081081079
 20
-200.0
 30
0.0
 11
272.78593664973698
 21
-200.0
 31
0.0
  0
LINE
  8
LY_3
  6
CENTER
 62
             110
  5
112
 10
192.03845342826048
 20
-200.0
 30
0.0
 11
204.61731248866317
 21
-200.0
 31
0.0
  0
LINE
  8
LY_3
  6
CENTER
 62
             110
  5
113
 10
122.37922297297303
 20
-200.0
 30
0.0
 11
132.71925159050545
 21
-200.0
 31
0.0
  0
LINE
  8
LY_3
  6
CENTER
 62
             110
  5
114
 10
23.324951784190432
 20
-200.0
 30
0.0
 11
38.0
 21
-200.0
 31
0.0
  0
LINE
  8
LY_3
  6
CENTER
 62
             110
  5
115
 10
164.62884350077979
 20
-200.0
 30
0.0
 11
182.1677319517504
 21
-200.0
 31
0.0
  0
LINE
  8
LY_3
  6
CENTER
 62
             110
  5
116
 10
233.96798362960271
 20
-200.0
 30
0.0
 11
248.0
 21
-200.0
 31
0.0
  0
LINE
  8
LY_3
  6
CENTER
 62
             110
  5
117
 10
48.247143116270649
 20
-200.0
 30
0.0
 11
63.595100217667323
 21
-200.0
 31
0.0
  0
LINE
  8
LY_3
  6
PHANTOM
 62
             110
  5
118
 10
63.0
 20
-155.0
 30
0.0
 11
97.0
 21
-155.0
 31
0.0
  0
LINE
  8
LY_3
  6
PHANTOM
 62
             110
  5
119
 10
64.0
 20
-140.0
 30
0.0
 11
96.0
 21
-140.0
 31
0.0
  0
LINE
  8
LY_3
  6
CONTINUOUS
 62
               3
  5
11A
 10
60.0
 20
-140.0
 30
0.0
 11
61.0
 21
-155.0
 31
0.0
  0
LINE
  8
LY_3
  6
CONTINUOUS
 62
               3
  5
11B
 10
61.0
 20
-155.0
 30
0.0
 11
62.0
 21
-140.0
 31
0.0
  0
LINE
  8
LY_3
  6
CONTINUOUS
 62
               3
  5
11C
 10
62.0
 20
-140.0
 30
0.0
 11
63.0
 21
-155.0
 31
0.0
  0
LINE
  8
LY_3
  6
CONTINUOUS
 62
               3
  5
11D
 10
63.0
 20
-155.0
 30
0.0
 11
64.0
 21
-140.0
 31
0.0
  0
LINE
  8
LY_3
  6
CONTINUOUS
 62
               3
  5
11E
 10
64.0
 20
-140.0
 30
0.0
 11
64.5
 21
-147.5
 31
0.0
  0
LINE
  8
LY_3
  6
CONTINUOUS
 62
               3
  5
11F
 10
100.0
 20
-140.0
 30
0.0
 11
99.0
 21
-155.0
 31
0.0
  0
LINE
  8
LY_3
  6
CONTINUOUS
 62
               3
  5
120
 10
99.0
 20
-155.0
 30
0.0
 11
98.0
 21
-140.0
 31
0.0
  0
LINE
  8
LY_3
  6
CONTINUOUS
 62
               3
  5
121
 10
98.0
 20
-140.0
 30
0.0
 11
97.0
 21
-155.0
 31
0.0
  0
LINE
  8
LY_3
  6
CONTINUOUS
 62
               3
  5
122
 10
97.0
 20
-155.0
 30
0.0
 11
96.0
 21
-140.0
 31
0.0
  0
LINE
  8
LY_3
  6
CONTINUOUS
 62
               3
  5
123
 10
96.0
 20
-139.99999999999997
 30
0.0
 11
95.5
 21
-147.5
 31
0.0
  0
LINE
  8
LY_3
  6
PHANTOM
 62
             110
  5
124
 10
63.0
 20
-245.0
 30
0.0
 11
97.0
 21
-245.0
 31
0.0
  0
LINE
  8
LY_3
  6
PHANTOM
 62
             110
  5
125
 10
64.0
 20
-260.0
 30
0.0
 11
96.0
 21
-260.0
 31
0.0
  0
LINE
  8
LY_3
  6
CONTINUOUS
 62
               3
  5
126
 10
60.0
 20
-260.0
 30
0.0
 11
60.0
 21
-140.0
 31
0.0
  0
LINE
  8
LY_3
  6
CONTINUOUS
 62
               3
  5
127
 10
100.0
 20
-260.0
 30
0.0
 11
100.0
 21
-140.0
 31
0.0
  0
LINE
  8
LY_3
  6
CONTINUOUS
 62
               3
  5
128
 10
60.000000000000057
 20
-260.0
 30
0.0
 11
61.000000000000057
 21
-245.0
 31
0.0
  0
LINE
  8
LY_3
  6
CONTINUOUS
 62
               3
  5
129
 10
61.0
 20
-244.99999999999997
 30
0.0
 11
62.0
 21
-260.0
 31
0.0
  0
LINE
  8
LY_3
  6
CONTINUOUS
 62
               3
  5
12A
 10
62.000000000000057
 20
-260.0
 30
0.0
 11
63.000000000000057
 21
-244.99999999999997
 31
0.0
  0
LINE
  8
LY_3
  6
CONTINUOUS
 62
               3
  5
12B
 10
63.0
 20
-245.0
 30
0.0
 11
64.0
 21
-260.0
 31
0.0
  0
LINE
  8
LY_3
  6
CONTINUOUS
 62
               3
  5
12C
 10
64.000000000000057
 20
-260.0
 30
0.0
 11
64.500000000000057
 21
-252.5
 31
0.0
  0
LINE
  8
LY_3
  6
CONTINUOUS
 62
               3
  5
12D
 10
100.0
 20
-260.0
 30
0.0
 11
99.0
 21
-244.99999999999997
 31
0.0
  0
LINE
  8
LY_3
  6
CONTINUOUS
 62
               3
  5
12E
 10
99.0
 20
-245.0
 30
0.0
 11
98.0
 21
-260.0
 31
0.0
  0
LINE
  8
LY_3
  6
CONTINUOUS
 62
               3
  5
12F
 10
98.0
 20
-260.0
 30
0.0
 11
97.0
 21
-244.99999999999997
 31
0.0
  0
LINE
  8
LY_3
  6
CONTINUOUS
 62
               3
  5
130
 10
97.000000000000057
 20
-245.00000000000003
 30
0.0
 11
96.000000000000057
 21
-260.0
 31
0.0
  0
LINE
  8
LY_3
  6
CONTINUOUS
 62
               3
  5
131
 10
96.000000000000057
 20
-260.0
 30
0.0
 11
95.500000000000057
 21
-252.49999999999997
 31
0.0
  0
LINE
  8
LY_3
  6
CENTER
 62
             110
  5
132
 10
94.178992835117015
 20
-200.0
 30
0.0
 11
112.36704153818249
 21
-200.0
 31
0.0
  0
TEXT
  8
LY_3
  6
CONTINUOUS
 62
             110
  5
133
 10
-14.971758102774164
 20
-276.89729744034844
 30
0.0
 40
4.2000002861022949
  1
NS(A)xxx109
 41
1.1186440632761776
  7
MX_NOTE_STANDARD
 11
-14.971758102774164
 21
-272.69729715424614
 31
0.0
 73
               3
  0
TEXT
  8
LY_3
  6
CONTINUOUS
 62
             110
  5
134
 10
124.28207401162004
 20
-291.57297311602406
 30
0.0
 40
4.2000002861022949
  1
NS(A)xxx150-A
 41
1.098591545606695
  7
MX_NOTE_STANDARD
 11
124.28207401162004
 21
-287.37297282992176
 31
0.0
 73
               3
  0
TEXT
  8
LY_3
  6
CONTINUOUS
 62
             110
  5
135
 10
192.2466010386471
 20
-291.57297311602406
 30
0.0
 40
4.2000002861022949
  1
NS(A)xxx150-B
 41
1.098591545606695
  7
MX_NOTE_STANDARD
 11
192.2466010386471
 21
-287.37297282992176
 31
0.0
 73
               3
  0
TEXT
  8
LY_3
  6
CONTINUOUS
 62
             110
  5
136
 10
60.544345878724087
 20
-278.37556698506091
 30
0.0
 40
4.2000002861022949
  1
NS(A)xxx120
 41
1.1186440632761776
  7
MX_NOTE_STANDARD
 11
60.544345878724087
 21
-274.17556669895862
 31
0.0
 73
               3
  0
DIMENSION
  8
LY_3
  6
CONTINUOUS
 62
             110
  5
141
  2
*D7
 10
20.0
 20
-145.5
 30
0.0
 11
20.0
 21
-200.0
 31
0.0
 70
             128
  1
%%c<>
 13
26.0
 23
-254.5
 33
0.0
 14
26.0
 24
-145.5
 34
0.0
 50
90.0
  3
MXDIMSTYLE
1001
ACAD
1000
DSTYLE
1002
{
1070
              41
1040
2.77
1070
              75
1070
               1
1070
              76
1070
               1
1070
             140
1040
3.2000000476837158
1070
             271
1070
               0
1070
             284
1070
               8
1070
             340
1005
93
1002
}
  0
DIMENSION
  8
LY_3
  6
CONTINUOUS
 62
             110
  5
14C
  2
*D8
 10
10.0
 20
-239.5
 30
0.0
 11
10.0
 21
-200.0
 31
0.0
 70
             128
  1
%%c<>
 13
-7.0
 23
-160.5
 33
0.0
 14
-7.0
 24
-239.5
 34
0.0
 50
90.0
  3
MXDIMSTYLE
1001
ACAD
1000
DSTYLE
1002
{
1070
              41
1040
2.77
1070
              75
1070
               1
1070
              76
1070
               1
1070
             140
1040
3.2000000476837158
1070
             271
1070
               0
1070
             284
1070
               8
1002
}
  0
DIMENSION
  8
LY_3
  6
CONTINUOUS
 62
             110
  5
157
  2
*D9
 10
160.0
 20
-125.0
 30
0.0
 11
160.0
 21
-200.0
 31
0.0
 70
             128
  1
%%c<>
 13
166.0
 23
-275.0
 33
0.0
 14
166.0
 24
-125.0
 34
0.0
 50
90.0
  3
MXDIMSTYLE
1001
ACAD
1000
DSTYLE
1002
{
1070
              41
1040
2.77
1070
              75
1070
               1
1070
              76
1070
               1
1070
             140
1040
3.2000000476837158
1070
             271
1070
               0
1070
             284
1070
               8
1070
             340
1005
93
1002
}
  0
DIMENSION
  8
LY_3
  6
CONTINUOUS
 62
             110
  5
163
  2
*D10
 10
150.0
 20
-250.0
 30
0.0
 11
150.0
 21
-200.0
 31
0.0
 70
             128
  1
%%c<>
 13
133.0
 23
-150.0
 33
0.0
 14
133.0
 24
-250.0
 34
0.0
 50
90.0
  3
MXDIMSTYLE
1001
ACAD
1000
DSTYLE
1002
{
1070
              41
1040
2.77
1070
              75
1070
               1
1070
              76
1070
               1
1070
             140
1040
3.2000000476837158
1070
             271
1070
               0
1070
             284
1070
               8
1070
             340
1005
15D
1002
}
  0
DIMENSION
  8
LY_3
  6
CONTINUOUS
 62
             110
  5
16E
  2
*D11
 10
230.0
 20
-125.0
 30
0.0
 11
230.0
 21
-200.0
 31
0.0
 70
             128
  1
%%c<>
 13
236.0
 23
-275.0
 33
0.0
 14
236.0
 24
-125.0
 34
0.0
 50
90.0
  3
MXDIMSTYLE
1001
ACAD
1000
DSTYLE
1002
{
1070
              41
1040
2.77
1070
              75
1070
               1
1070
              76
1070
               1
1070
             140
1040
3.2000000476837158
1070
             271
1070
               0
1070
             284
1070
               8
1070
             340
1005
93
1002
}
  0
DIMENSION
  8
LY_3
  6
CONTINUOUS
 62
             110
  5
179
  2
*D12
 10
220.0
 20
-260.0
 30
0.0
 11
220.0
 21
-200.0
 31
0.0
 70
             128
  1
%%c<>
 13
203.0
 23
-140.0
 33
0.0
 14
203.0
 24
-260.0
 34
0.0
 50
90.0
  3
MXDIMSTYLE
1001
ACAD
1000
DSTYLE
1002
{
1070
              41
1040
2.77
1070
              75
1070
               1
1070
              76
1070
               1
1070
             140
1040
3.2000000476837158
1070
             271
1070
               0
1070
             284
1070
               8
1070
             340
1005
93
1002
}
  0
DIMENSION
  8
LY_3
  6
CONTINUOUS
 62
             110
  5
186
  2
*D13
 10
30.0
 20
-126.0
 30
0.0
 11
10.0
 21
-126.0
 31
0.0
 70
             128
  1
<>
 13
-10.0
 23
-145.5
 33
0.0
 14
30.0
 24
-145.5
 34
0.0
  3
MXDIMSTYLE
1001
ACAD
1000
DSTYLE
1002
{
1070
              41
1040
2.77
1070
              42
1040
0.5
1070
              44
1040
2.2859992980957031
1070
             140
1040
3.2000000476837158
1070
             271
1070
               0
1070
             284
1070
               8
1070
             340
1005
93
1002
}
  0
DIMENSION
  8
LY_3
  6
CONTINUOUS
 62
             110
  5
193
  2
*D14
 10
170.0
 20
-110.0
 30
0.0
 11
150.0
 21
-110.0
 31
0.0
 70
             128
  1
<>
 13
130.0
 23
-125.0
 33
0.0
 14
170.0
 24
-125.0
 34
0.0
  3
MXDIMSTYLE
1001
ACAD
1000
DSTYLE
1002
{
1070
              41
1040
2.77
1070
              42
1040
0.5
1070
              44
1040
2.2859992980957031
1070
             140
1040
3.2000000476837158
1070
             271
1070
               0
1070
             284
1070
               8
1070
             340
1005
93
1002
}
  0
DIMENSION
  8
LY_3
  6
CONTINUOUS
 62
             110
  5
1A0
  2
*D15
 10
240.0
 20
-110.0
 30
0.0
 11
220.0
 21
-110.0
 31
0.0
 70
             128
  1
<>
 13
200.0
 23
-125.0
 33
0.0
 14
240.0
 24
-125.0
 34
0.0
  3
MXDIMSTYLE
1001
ACAD
1000
DSTYLE
1002
{
1070
              41
1040
2.77
1070
              42
1040
0.5
1070
              44
1040
2.2859992980957031
1070
             140
1040
3.2000000476837158
1070
             271
1070
               0
1070
             284
1070
               8
1070
             340
1005
93
1002
}
  0
DIMENSION
  8
LY_3
  6
CONTINUOUS
 62
             110
  5
1AB
  2
*D16
 10
300.0
 20
-95.000000000000028
 30
0.0
 11
300.0
 21
-200.0
 31
0.0
 70
             128
  1
%%c<>
 13
306.0
 23
-305.0
 33
0.0
 14
306.0
 24
-95.000000000000028
 34
0.0
 50
90.0
  3
MXDIMSTYLE
1001
ACAD
1000
DSTYLE
1002
{
1070
              41
1040
2.77
1070
              75
1070
               1
1070
              76
1070
               1
1070
             140
1040
3.2000000476837158
1070
             271
1070
               0
1070
             284
1070
               8
1070
             340
1005
93
1002
}
  0
DIMENSION
  8
LY_3
  6
CONTINUOUS
 62
             110
  5
1B6
  2
*D17
 10
290.0
 20
-280.0
 30
0.0
 11
290.0
 21
-200.0
 31
0.0
 70
             128
  1
%%c<>
 13
273.0
 23
-120.0
 33
0.0
 14
273.0
 24
-280.0
 34
0.0
 50
90.0
  3
MXDIMSTYLE
1001
ACAD
1000
DSTYLE
1002
{
1070
              41
1040
2.77
1070
              75
1070
               1
1070
              76
1070
               1
1070
             140
1040
3.2000000476837158
1070
             271
1070
               0
1070
             284
1070
               8
1070
             340
1005
93
1002
}
  0
DIMENSION
  8
LY_3
  6
CONTINUOUS
 62
             110
  5
1C3
  2
*D18
 10
310.0
 20
-78.0
 30
0.0
 11
290.0
 21
-78.0
 31
0.0
 70
             128
  1
<>
 13
270.0
 23
-95.0
 33
0.0
 14
310.0
 24
-95.0
 34
0.0
  3
MXDIMSTYLE
1001
ACAD
1000
DSTYLE
1002
{
1070
              41
1040
2.77
1070
              42
1040
0.5
1070
              44
1040
2.2859992980957031
1070
             140
1040
3.2000000476837158
1070
             271
1070
               0
1070
             284
1070
               8
1070
             340
1005
93
1002
}
  0
DIMENSION
  8
LY_3
  6
CONTINUOUS
 62
             110
  5
1CE
  2
*D19
 10
90.0
 20
-140.0
 30
0.0
 11
90.0
 21
-200.0
 31
0.0
 70
             128
  1
%%c<>
 13
96.0
 23
-260.0
 33
0.0
 14
96.0
 24
-140.0
 34
0.0
 50
90.0
  3
MXDIMSTYLE
1001
ACAD
1000
DSTYLE
1002
{
1070
              41
1040
2.77
1070
              75
1070
               1
1070
              76
1070
               1
1070
             140
1040
3.2000000476837158
1070
             271
1070
               0
1070
             284
1070
               8
1070
             340
1005
93
1002
}
  0
DIMENSION
  8
LY_3
  6
CONTINUOUS
 62
             110
  5
1D9
  2
*D20
 10
80.0
 20
-245.0
 30
0.0
 11
80.0
 21
-200.0
 31
0.0
 70
             128
  1
%%c<>
 13
63.0
 23
-155.0
 33
0.0
 14
63.0
 24
-245.0
 34
0.0
 50
90.0
  3
MXDIMSTYLE
1001
ACAD
1000
DSTYLE
1002
{
1070
              41
1040
2.77
1070
              75
1070
               1
1070
              76
1070
               1
1070
             140
1040
3.2000000476837158
1070
             271
1070
               0
1070
             284
1070
               8
1002
}
  0
DIMENSION
  8
LY_3
  6
CONTINUOUS
 62
             110
  5
1E6
  2
*D21
 10
100.0
 20
-126.0
 30
0.0
 11
80.0
 21
-126.0
 31
0.0
 70
             128
  1
<>
 13
60.0
 23
-140.0
 33
0.0
 14
100.0
 24
-140.0
 34
0.0
  3
MXDIMSTYLE
1001
ACAD
1000
DSTYLE
1002
{
1070
              41
1040
2.77
1070
              42
1040
0.5
1070
              44
1040
2.2859992980957031
1070
             140
1040
3.2000000476837158
1070
             271
1070
               0
1070
             284
1070
               8
1070
             340
1005
93
1002
}
  0
TEXT
  8
LY_3
  6
CONTINUOUS
 62
             110
  5
1E7
 10
267.17689054587441
 20
-317.25540554845657
 30
0.0
 40
4.2000002861022949
  1
NS(A)xxx210
 41
1.1186440632761776
  7
MX_NOTE_STANDARD
 11
267.17689054587441
 21
-313.05540526235427
 31
0.0
 73
               3
  0
LINE
  8
LY_3
  6
CENTER
 62
             110
  5
1E8
 10
304.23308430074371
 20
-200.0
 30
0.0
 11
318.0
 21
-200.0
 31
0.0
  0
LINE
  8
LY_3
  6
CENTER
 62
             110
  5
1E9
 10
-2.8284332203428164
 20
0.0
 30
0.0
 11
4.4268029827226769
 21
0.0
 31
0.0
  0
LINE
  8
LY_3
  6
PHANTOM
 62
             110
  5
1EA
 10
3.0
 20
4.0
 30
0.0
 11
26.999999999999972
 21
4.0
 31
0.0
  0
LINE
  8
LY_3
  6
PHANTOM
 62
             110
  5
1EB
 10
4.0
 20
11.0
 30
0.0
 11
25.999999999999972
 21
11.0
 31
0.0
  0
LINE
  8
LY_3
  6
CONTINUOUS
 62
               3
  5
1EC
 10
0.0000000000004832
 20
11.000000000000043
 30
0.0
 11
1.0000000000004832
 21
4.0000000000000711
 31
0.0
  0
LINE
  8
LY_3
  6
CONTINUOUS
 62
               3
  5
1ED
 10
1.00000000000054
 20
3.9999999999999432
 30
0.0
 11
2.00000000000054
 21
10.999999999999915
 31
0.0
  0
LINE
  8
LY_3
  6
CONTINUOUS
 62
               3
  5
1EE
 10
2.0000000000005116
 20
11.000000000000114
 30
0.0
 11
3.0000000000005116
 21
4.0000000000001137
 31
0.0
  0
LINE
  8
LY_3
  6
CONTINUOUS
 62
               3
  5
1EF
 10
3.0000000000005684
 20
3.9999999999999147
 30
0.0
 11
4.0000000000005684
 21
10.999999999999915
 31
0.0
  0
LINE
  8
LY_3
  6
CONTINUOUS
 62
               3
  5
1F0
 10
4.0000000000005684
 20
11.000000000000057
 30
0.0
 11
4.5000000000005684
 21
7.5000000000000568
 31
0.0
  0
LINE
  8
LY_3
  6
CONTINUOUS
 62
               3
  5
1F1
 10
30.000000000000455
 20
10.999999999999943
 30
0.0
 11
29.000000000000455
 21
3.9999999999999432
 31
0.0
  0
LINE
  8
LY_3
  6
CONTINUOUS
 62
               3
  5
1F2
 10
29.000000000000426
 20
4.0000000000000568
 30
0.0
 11
28.000000000000426
 21
11.000000000000028
 31
0.0
  0
LINE
  8
LY_3
  6
CONTINUOUS
 62
               3
  5
1F3
 10
28.000000000000483
 20
10.999999999999929
 30
0.0
 11
27.000000000000483
 21
3.9999999999999289
 31
0.0
  0
LINE
  8
LY_3
  6
CONTINUOUS
 62
               3
  5
1F4
 10
27.000000000000426
 20
4.0000000000000711
 30
0.0
 11
26.000000000000426
 21
11.000000000000071
 31
0.0
  0
LINE
  8
LY_3
  6
CONTINUOUS
 62
               3
  5
1F5
 10
26.000000000000455
 20
10.999999999999929
 30
0.0
 11
25.500000000000455
 21
7.4999999999999289
 31
0.0
  0
LINE
  8
LY_3
  6
PHANTOM
 62
             110
  5
1F6
 10
3.0
 20
-4.0
 30
0.0
 11
26.999999999999972
 21
-4.0
 31
0.0
  0
LINE
  8
LY_3
  6
PHANTOM
 62
             110
  5
1F7
 10
4.0
 20
-11.0
 30
0.0
 11
25.999999999999972
 21
-11.0
 31
0.0
  0
LINE
  8
LY_3
  6
CONTINUOUS
 62
               3
  5
1F8
 10
0.0
 20
-11.0
 30
0.0
 11
0.0
 21
11.0
 31
0.0
  0
LINE
  8
LY_3
  6
CONTINUOUS
 62
               3
  5
1F9
 10
30.0
 20
-11.0
 30
0.0
 11
30.0
 21
11.0
 31
0.0
  0
LINE
  8
LY_3
  6
CONTINUOUS
 62
               3
  5
1FA
 10
0.0000000000005684
 20
-11.000000000000092
 30
0.0
 11
1.0000000000005684
 21
-4.0000000000000995
 31
0.0
  0
LINE
  8
LY_3
  6
CONTINUOUS
 62
               3
  5
1FB
 10
1.0000000000005969
 20
-3.9999999999999147
 30
0.0
 11
2.0000000000005969
 21
-10.999999999999886
 31
0.0
  0
LINE
  8
LY_3
  6
CONTINUOUS
 62
               3
  5
1FC
 10
2.0000000000005116
 20
-11.000000000000099
 30
0.0
 11
3.0000000000005116
 21
-4.0000000000000995
 31
0.0
  0
LINE
  8
LY_3
  6
CONTINUOUS
 62
               3
  5
1FD
 10
3.0000000000005684
 20
-3.9999999999999361
 30
0.0
 11
4.0000000000005684
 21
-10.999999999999908
 31
0.0
  0
LINE
  8
LY_3
  6
CONTINUOUS
 62
               3
  5
1FE
 10
4.0000000000005684
 20
-11.000000000000099
 30
0.0
 11
4.5000000000005684
 21
-7.5000000000001137
 31
0.0
  0
LINE
  8
LY_3
  6
CONTINUOUS
 62
               3
  5
1FF
 10
30.000000000000455
 20
-10.999999999999957
 30
0.0
 11
29.000000000000455
 21
-3.9999999999999574
 31
0.0
  0
LINE
  8
LY_3
  6
CONTINUOUS
 62
               3
  5
200
 10
29.000000000000483
 20
-4.0000000000001066
 30
0.0
 11
28.000000000000483
 21
-11.000000000000078
 31
0.0
  0
LINE
  8
LY_3
  6
CONTINUOUS
 62
               3
  5
201
 10
28.000000000000398
 20
-10.999999999999929
 30
0.0
 11
27.000000000000398
 21
-3.9999999999999289
 31
0.0
  0
LINE
  8
LY_3
  6
CONTINUOUS
 62
               3
  5
202
 10
27.000000000000483
 20
-4.0000000000001066
 30
0.0
 11
26.000000000000483
 21
-11.000000000000085
 31
0.0
  0
LINE
  8
LY_3
  6
CONTINUOUS
 62
               3
  5
203
 10
26.000000000000455
 20
-10.999999999999936
 30
0.0
 11
25.500000000000455
 21
-7.4999999999999361
 31
0.0
  0
LINE
  8
LY_3
  6
PHANTOM
 62
             110
  5
204
 10
53.0
 20
8.5
 30
0.0
 11
77.000000000000014
 21
8.5
 31
0.0
  0
LINE
  8
LY_3
  6
PHANTOM
 62
             110
  5
205
 10
54.0
 20
15.0
 30
0.0
 11
76.000000000000014
 21
15.0
 31
0.0
  0
LINE
  8
LY_3
  6
CONTINUOUS
 62
               3
  5
206
 10
50.000000000000028
 20
15.000000000000028
 30
0.0
 11
51.000000000000028
 21
8.5000000000000284
 31
0.0
  0
LINE
  8
LY_3
  6
CONTINUOUS
 62
               3
  5
207
 10
51.000000000000057
 20
8.5
 30
0.0
 11
52.000000000000057
 21
15.0
 31
0.0
  0
LINE
  8
LY_3
  6
CONTINUOUS
 62
               3
  5
208
 10
52.0
 20
15.000000000000014
 30
0.0
 11
53.0
 21
8.5000000000000142
 31
0.0
  0
LINE
  8
LY_3
  6
CONTINUOUS
 62
               3
  5
209
 10
53.000000000000028
 20
8.5
 30
0.0
 11
54.000000000000028
 21
15.0
 31
0.0
  0
LINE
  8
LY_3
  6
CONTINUOUS
 62
               3
  5
20A
 10
54.000000000000028
 20
15.0
 30
0.0
 11
54.500000000000028
 21
11.75
 31
0.0
  0
LINE
  8
LY_3
  6
CONTINUOUS
 62
               3
  5
20B
 10
80.000000000000043
 20
14.999999999999957
 30
0.0
 11
79.000000000000028
 21
8.4999999999999432
 31
0.0
  0
LINE
  8
LY_3
  6
CONTINUOUS
 62
               3
  5
20C
 10
79.000000000000028
 20
8.4999999999999716
 30
0.0
 11
78.000000000000028
 21
14.999999999999957
 31
0.0
  0
LINE
  8
LY_3
  6
CONTINUOUS
 62
               3
  5
20D
 10
78.000000000000043
 20
15.0
 30
0.0
 11
77.000000000000043
 21
8.5
 31
0.0
  0
LINE
  8
LY_3
  6
CONTINUOUS
 62
               3
  5
20E
 10
77.000000000000057
 20
8.4999999999999574
 30
0.0
 11
76.000000000000057
 21
14.999999999999943
 31
0.0
  0
LINE
  8
LY_3
  6
CONTINUOUS
 62
               3
  5
20F
 10
76.000000000000014
 20
15.0
 30
0.0
 11
75.500000000000014
 21
11.75
 31
0.0
  0
LINE
  8
LY_3
  6
PHANTOM
 62
             110
  5
210
 10
53.0
 20
-8.5
 30
0.0
 11
77.000000000000014
 21
-8.5
 31
0.0
  0
LINE
  8
LY_3
  6
PHANTOM
 62
             110
  5
211
 10
54.0
 20
-15.0
 30
0.0
 11
76.000000000000014
 21
-15.0
 31
0.0
  0
LINE
  8
LY_3
  6
CONTINUOUS
 62
               3
  5
212
 10
50.0
 20
-15.0
 30
0.0
 11
50.0
 21
15.0
 31
0.0
  0
LINE
  8
LY_3
  6
CONTINUOUS
 62
               3
  5
213
 10
80.0
 20
-15.0
 30
0.0
 11
80.0
 21
15.0
 31
0.0
  0
LINE
  8
LY_3
  6
CONTINUOUS
 62
               3
  5
214
 10
50.000000000000057
 20
-15.0
 30
0.0
 11
51.000000000000057
 21
-8.4999999999999858
 31
0.0
  0
LINE
  8
LY_3
  6
CONTINUOUS
 62
               3
  5
215
 10
51.000000000000028
 20
-8.5000000000000355
 30
0.0
 11
52.000000000000028
 21
-15.000000000000036
 31
0.0
  0
LINE
  8
LY_3
  6
CONTINUOUS
 62
               3
  5
216
 10
52.000000000000085
 20
-15.000000000000014
 30
0.0
 11
53.000000000000085
 21
-8.5000000000000142
 31
0.0
  0
LINE
  8
LY_3
  6
CONTINUOUS
 62
               3
  5
217
 10
53.000000000000057
 20
-8.5000000000000142
 30
0.0
 11
54.000000000000057
 21
-15.000000000000014
 31
0.0
  0
LINE
  8
LY_3
  6
CONTINUOUS
 62
               3
  5
218
 10
54.000000000000057
 20
-14.999999999999993
 30
0.0
 11
54.500000000000057
 21
-11.749999999999993
 31
0.0
  0
LINE
  8
LY_3
  6
CONTINUOUS
 62
               3
  5
219
 10
80.000000000000057
 20
-14.99999999999995
 30
0.0
 11
79.000000000000057
 21
-8.4999999999999147
 31
0.0
  0
LINE
  8
LY_3
  6
CONTINUOUS
 62
               3
  5
21A
 10
79.000000000000043
 20
-8.5000000000000142
 30
0.0
 11
78.000000000000043
 21
-15.000000000000014
 31
0.0
  0
LINE
  8
LY_3
  6
CONTINUOUS
 62
               3
  5
21B
 10
78.000000000000028
 20
-15.000000000000036
 30
0.0
 11
77.000000000000028
 21
-8.5000000000000355
 31
0.0
  0
LINE
  8
LY_3
  6
CONTINUOUS
 62
               3
  5
21C
 10
77.000000000000043
 20
-8.5
 30
0.0
 11
76.000000000000043
 21
-15.0
 31
0.0
  0
LINE
  8
LY_3
  6
CONTINUOUS
 62
               3
  5
21D
 10
76.000000000000028
 20
-14.999999999999972
 30
0.0
 11
75.500000000000028
 21
-11.749999999999972
 31
0.0
  0
LINE
  8
LY_3
  6
PHANTOM
 62
             110
  5
21E
 10
101.0
 20
11.0
 30
0.0
 11
125.0
 21
11.0
 31
0.0
  0
LINE
  8
LY_3
  6
PHANTOM
 62
             110
  5
21F
 10
102.0
 20
18.0
 30
0.0
 11
123.99999999999999
 21
18.0
 31
0.0
  0
LINE
  8
LY_3
  6
CONTINUOUS
 62
               3
  5
220
 10
98.000000000000242
 20
18.000000000000028
 30
0.0
 11
99.000000000000242
 21
11.000000000000028
 31
0.0
  0
LINE
  8
LY_3
  6
CONTINUOUS
 62
               3
  5
221
 10
99.000000000000298
 20
10.999999999999972
 30
0.0
 11
100.00000000000028
 21
17.999999999999957
 31
0.0
  0
LINE
  8
LY_3
  6
CONTINUOUS
 62
               3
  5
222
 10
100.00000000000024
 20
18.000000000000014
 30
0.0
 11
101.00000000000024
 21
11.000000000000014
 31
0.0
  0
LINE
  8
LY_3
  6
CONTINUOUS
 62
               3
  5
223
 10
101.00000000000028
 20
10.999999999999957
 30
0.0
 11
102.00000000000028
 21
17.999999999999943
 31
0.0
  0
LINE
  8
LY_3
  6
CONTINUOUS
 62
               3
  5
224
 10
102.00000000000021
 20
18.000000000000028
 30
0.0
 11
102.50000000000021
 21
14.500000000000028
 31
0.0
  0
LINE
  8
LY_3
  6
CONTINUOUS
 62
               3
  5
225
 10
128.00000000000023
 20
17.999999999999957
 30
0.0
 11
127.00000000000023
 21
10.999999999999957
 31
0.0
  0
LINE
  8
LY_3
  6
CONTINUOUS
 62
               3
  5
226
 10
127.00000000000017
 20
11.0
 30
0.0
 11
126.00000000000017
 21
18.0
 31
0.0
  0
LINE
  8
LY_3
  6
CONTINUOUS
 62
               3
  5
227
 10
126.00000000000021
 20
17.999999999999943
 30
0.0
 11
125.00000000000021
 21
10.999999999999943
 31
0.0
  0
LINE
  8
LY_3
  6
CONTINUOUS
 62
               3
  5
228
 10
125.00000000000014
 20
11.000000000000014
 30
0.0
 11
124.00000000000016
 21
17.999999999999986
 31
0.0
  0
LINE
  8
LY_3
  6
CONTINUOUS
 62
               3
  5
229
 10
124.00000000000023
 20
17.999999999999972
 30
0.0
 11
123.50000000000023
 21
14.499999999999957
 31
0.0
  0
LINE
  8
LY_3
  6
PHANTOM
 62
             110
  5
22A
 10
101.0
 20
-11.0
 30
0.0
 11
125.0
 21
-11.0
 31
0.0
  0
LINE
  8
LY_3
  6
PHANTOM
 62
             110
  5
22B
 10
102.0
 20
-18.0
 30
0.0
 11
123.99999999999999
 21
-18.0
 31
0.0
  0
LINE
  8
LY_3
  6
CONTINUOUS
 62
               3
  5
22C
 10
98.0
 20
-18.000000000000014
 30
0.0
 11
98.0
 21
18.000000000000014
 31
0.0
  0
LINE
  8
LY_3
  6
CONTINUOUS
 62
               3
  5
22D
 10
128.0
 20
-18.0
 30
0.0
 11
128.0
 21
18.0
 31
0.0
  0
LINE
  8
LY_3
  6
CONTINUOUS
 62
               3
  5
22E
 10
98.000000000000313
 20
-18.000000000000043
 30
0.0
 11
99.000000000000313
 21
-11.000000000000043
 31
0.0
  0
LINE
  8
LY_3
  6
CONTINUOUS
 62
               3
  5
22F
 10
99.00000000000027
 20
-10.999999999999972
 30
0.0
 11
100.00000000000027
 21
-17.99999999999995
 31
0.0
  0
LINE
  8
LY_3
  6
CONTINUOUS
 62
               3
  5
230
 10
100.0000000000003
 20
-18.000000000000028
 30
0.0
 11
101.0000000000003
 21
-11.000000000000036
 31
0.0
  0
LINE
  8
LY_3
  6
CONTINUOUS
 62
               3
  5
231
 10
101.00000000000026
 20
-10.999999999999979
 30
0.0
 11
102.00000000000026
 21
-17.999999999999957
 31
0.0
  0
LINE
  8
LY_3
  6
CONTINUOUS
 62
               3
  5
232
 10
102.0000000000003
 20
-18.00000000000005
 30
0.0
 11
102.5000000000003
 21
-14.50000000000005
 31
0.0
  0
LINE
  8
LY_3
  6
CONTINUOUS
 62
               3
  5
233
 10
128.00000000000017
 20
-17.999999999999986
 30
0.0
 11
127.00000000000017
 21
-11.0
 31
0.0
  0
LINE
  8
LY_3
  6
CONTINUOUS
 62
               3
  5
234
 10
127.00000000000023
 20
-11.000000000000014
 30
0.0
 11
126.00000000000024
 21
-18.0
 31
0.0
  0
LINE
  8
LY_3
  6
CONTINUOUS
 62
               3
  5
235
 10
126.00000000000018
 20
-17.999999999999979
 30
0.0
 11
125.0000000000002
 21
-11.000000000000007
 31
0.0
  0
LINE
  8
LY_3
  6
CONTINUOUS
 62
               3
  5
236
 10
125.00000000000021
 20
-11.0
 30
0.0
 11
124.00000000000021
 21
-17.999999999999986
 31
0.0
  0
LINE
  8
LY_3
  6
CONTINUOUS
 62
               3
  5
237
 10
124.0000000000002
 20
-17.99999999999995
 30
0.0
 11
123.5000000000002
 21
-14.49999999999995
 31
0.0
  0
LINE
  8
LY_3
  6
PHANTOM
 62
             110
  5
238
 10
151.0
 20
18.0
 30
0.0
 11
175.0
 21
18.0
 31
0.0
  0
LINE
  8
LY_3
  6
PHANTOM
 62
             110
  5
239
 10
152.0
 20
25.5
 30
0.0
 11
174.0
 21
25.5
 31
0.0
  0
LINE
  8
LY_3
  6
CONTINUOUS
 62
               3
  5
23A
 10
148.0
 20
25.5
 30
0.0
 11
149.0
 21
18.0
 31
0.0
  0
LINE
  8
LY_3
  6
CONTINUOUS
 62
               3
  5
23B
 10
149.0
 20
17.999999999999986
 30
0.0
 11
150.0
 21
25.5
 31
0.0
  0
LINE
  8
LY_3
  6
CONTINUOUS
 62
               3
  5
23C
 10
150.0
 20
25.499999999999986
 30
0.0
 11
151.0
 21
17.999999999999986
 31
0.0
  0
LINE
  8
LY_3
  6
CONTINUOUS
 62
               3
  5
23D
 10
151.0
 20
17.999999999999986
 30
0.0
 11
152.0
 21
25.500000000000014
 31
0.0
  0
LINE
  8
LY_3
  6
CONTINUOUS
 62
               3
  5
23E
 10
152.0
 20
25.5
 30
0.0
 11
152.5
 21
21.749999999999986
 31
0.0
  0
LINE
  8
LY_3
  6
CONTINUOUS
 62
               3
  5
23F
 10
178.0
 20
25.5
 30
0.0
 11
177.0
 21
18.0
 31
0.0
  0
LINE
  8
LY_3
  6
CONTINUOUS
 62
               3
  5
240
 10
177.0
 20
17.999999999999986
 30
0.0
 11
176.0
 21
25.5
 31
0.0
  0
LINE
  8
LY_3
  6
CONTINUOUS
 62
               3
  5
241
 10
176.0
 20
25.5
 30
0.0
 11
175.0
 21
17.999999999999986
 31
0.0
  0
LINE
  8
LY_3
  6
CONTINUOUS
 62
               3
  5
242
 10
175.0
 20
17.999999999999972
 30
0.0
 11
174.0
 21
25.5
 31
0.0
  0
LINE
  8
LY_3
  6
CONTINUOUS
 62
               3
  5
243
 10
174.0
 20
25.499999999999986
 30
0.0
 11
173.5
 21
21.75
 31
0.0
  0
LINE
  8
LY_3
  6
PHANTOM
 62
             110
  5
244
 10
151.0
 20
-18.0
 30
0.0
 11
175.0
 21
-18.0
 31
0.0
  0
LINE
  8
LY_3
  6
PHANTOM
 62
             110
  5
245
 10
152.0
 20
-25.5
 30
0.0
 11
174.0
 21
-25.5
 31
0.0
  0
LINE
  8
LY_3
  6
CONTINUOUS
 62
               3
  5
246
 10
148.0
 20
-25.5
 30
0.0
 11
148.0
 21
25.5
 31
0.0
  0
LINE
  8
LY_3
  6
CONTINUOUS
 62
               3
  5
247
 10
178.0
 20
-25.5
 30
0.0
 11
178.0
 21
25.5
 31
0.0
  0
LINE
  8
LY_3
  6
CONTINUOUS
 62
               3
  5
248
 10
148.0
 20
-25.499999999999993
 30
0.0
 11
148.99999999999997
 21
-18.000000000000007
 31
0.0
  0
LINE
  8
LY_3
  6
CONTINUOUS
 62
               3
  5
249
 10
149.0
 20
-17.999999999999993
 30
0.0
 11
150.0
 21
-25.499999999999986
 31
0.0
  0
LINE
  8
LY_3
  6
CONTINUOUS
 62
               3
  5
24A
 10
150.0
 20
-25.5
 30
0.0
 11
151.0
 21
-18.0
 31
0.0
  0
LINE
  8
LY_3
  6
CONTINUOUS
 62
               3
  5
24B
 10
151.0
 20
-18.0
 30
0.0
 11
152.0
 21
-25.499999999999993
 31
0.0
  0
LINE
  8
LY_3
  6
CONTINUOUS
 62
               3
  5
24C
 10
152.0
 20
-25.499999999999979
 30
0.0
 11
152.5
 21
-21.749999999999986
 31
0.0
  0
LINE
  8
LY_3
  6
CONTINUOUS
 62
               3
  5
24D
 10
178.0
 20
-25.499999999999993
 30
0.0
 11
177.0
 21
-18.0
 31
0.0
  0
LINE
  8
LY_3
  6
CONTINUOUS
 62
               3
  5
24E
 10
177.0
 20
-17.999999999999993
 30
0.0
 11
176.0
 21
-25.499999999999993
 31
0.0
  0
LINE
  8
LY_3
  6
CONTINUOUS
 62
               3
  5
24F
 10
176.0
 20
-25.499999999999986
 30
0.0
 11
175.0
 21
-17.999999999999993
 31
0.0
  0
LINE
  8
LY_3
  6
CONTINUOUS
 62
               3
  5
250
 10
175.0
 20
-18.0
 30
0.0
 11
174.0
 21
-25.499999999999986
 31
0.0
  0
LINE
  8
LY_3
  6
CONTINUOUS
 62
               3
  5
251
 10
174.0
 20
-25.499999999999993
 30
0.0
 11
173.5
 21
-21.749999999999986
 31
0.0
  0
LINE
  8
LY_3
  6
PHANTOM
 62
             110
  5
252
 10
201.0
 20
25.0
 30
0.0
 11
225.0
 21
25.0
 31
0.0
  0
LINE
  8
LY_3
  6
PHANTOM
 62
             110
  5
253
 10
202.0
 20
35.0
 30
0.0
 11
224.0
 21
35.0
 31
0.0
  0
LINE
  8
LY_3
  6
CONTINUOUS
 62
               3
  5
254
 10
198.00000000000003
 20
34.999999999999986
 30
0.0
 11
199.00000000000003
 21
24.999999999999986
 31
0.0
  0
LINE
  8
LY_3
  6
CONTINUOUS
 62
               3
  5
255
 10
199.0
 20
24.999999999999972
 30
0.0
 11
200.0
 21
34.999999999999972
 31
0.0
  0
LINE
  8
LY_3
  6
CONTINUOUS
 62
               3
  5
256
 10
200.0
 20
35.000000000000014
 30
0.0
 11
201.0
 21
25.000000000000014
 31
0.0
  0
LINE
  8
LY_3
  6
CONTINUOUS
 62
               3
  5
257
 10
201.0
 20
24.999999999999986
 30
0.0
 11
202.0
 21
34.999999999999986
 31
0.0
  0
LINE
  8
LY_3
  6
CONTINUOUS
 62
               3
  5
258
 10
202.00000000000003
 20
34.999999999999986
 30
0.0
 11
202.50000000000003
 21
30.0
 31
0.0
  0
LINE
  8
LY_3
  6
CONTINUOUS
 62
               3
  5
259
 10
227.00000000000003
 20
25.0
 30
0.0
 11
226.00000000000003
 21
34.999999999999986
 31
0.0
  0
LINE
  8
LY_3
  6
CONTINUOUS
 62
               3
  5
25A
 10
226.0
 20
34.999999999999972
 30
0.0
 11
225.0
 21
24.999999999999972
 31
0.0
  0
LINE
  8
LY_3
  6
CONTINUOUS
 62
               3
  5
25B
 10
225.00000000000003
 20
24.999999999999986
 30
0.0
 11
224.00000000000003
 21
35.0
 31
0.0
  0
LINE
  8
LY_3
  6
CONTINUOUS
 62
               3
  5
25C
 10
224.0
 20
34.999999999999986
 30
0.0
 11
223.5
 21
29.999999999999986
 31
0.0
  0
LINE
  8
LY_3
  6
CONTINUOUS
 62
               3
  5
25D
 10
228.0
 20
35.0
 30
0.0
 11
227.0
 21
25.0
 31
0.0
  0
LINE
  8
LY_3
  6
PHANTOM
 62
             110
  5
25E
 10
201.0
 20
-25.0
 30
0.0
 11
225.0
 21
-25.0
 31
0.0
  0
LINE
  8
LY_3
  6
PHANTOM
 62
             110
  5
25F
 10
202.0
 20
-35.0
 30
0.0
 11
224.0
 21
-35.0
 31
0.0
  0
LINE
  8
LY_3
  6
CONTINUOUS
 62
               3
  5
260
 10
198.0
 20
-35.0
 30
0.0
 11
198.0
 21
35.0
 31
0.0
  0
LINE
  8
LY_3
  6
CONTINUOUS
 62
               3
  5
261
 10
228.0
 20
-35.0
 30
0.0
 11
228.0
 21
35.0
 31
0.0
  0
LINE
  8
LY_3
  6
CONTINUOUS
 62
               3
  5
262
 10
198.0
 20
-34.999999999999993
 30
0.0
 11
199.0
 21
-24.999999999999993
 31
0.0
  0
LINE
  8
LY_3
  6
CONTINUOUS
 62
               3
  5
263
 10
199.0
 20
-24.999999999999986
 30
0.0
 11
200.0
 21
-34.999999999999993
 31
0.0
  0
LINE
  8
LY_3
  6
CONTINUOUS
 62
               3
  5
264
 10
200.0
 20
-34.999999999999993
 30
0.0
 11
201.0
 21
-25.0
 31
0.0
  0
LINE
  8
LY_3
  6
CONTINUOUS
 62
               3
  5
265
 10
201.0
 20
-25.000000000000007
 30
0.0
 11
202.0
 21
-35.0
 31
0.0
  0
LINE
  8
LY_3
  6
CONTINUOUS
 62
               3
  5
266
 10
202.0
 20
-35.000000000000014
 30
0.0
 11
202.5
 21
-30.000000000000007
 31
0.0
  0
LINE
  8
LY_3
  6
CONTINUOUS
 62
               3
  5
267
 10
227.00000000000006
 20
-25.000000000000028
 30
0.0
 11
226.00000000000006
 21
-35.000000000000014
 31
0.0
  0
LINE
  8
LY_3
  6
CONTINUOUS
 62
               3
  5
268
 10
226.0
 20
-35.0
 30
0.0
 11
225.0
 21
-24.999999999999993
 31
0.0
  0
LINE
  8
LY_3
  6
CONTINUOUS
 62
               3
  5
269
 10
225.0
 20
-24.999999999999986
 30
0.0
 11
224.0
 21
-35.0
 31
0.0
  0
LINE
  8
LY_3
  6
CONTINUOUS
 62
               3
  5
26A
 10
224.00000000000003
 20
-34.999999999999986
 30
0.0
 11
223.50000000000003
 21
-29.999999999999993
 31
0.0
  0
LINE
  8
LY_3
  6
CONTINUOUS
 62
               3
  5
26B
 10
228.00000000000006
 20
-35.000000000000014
 30
0.0
 11
227.00000000000006
 21
-25.000000000000014
 31
0.0
  0
LINE
  8
LY_3
  6
PHANTOM
 62
             110
  5
26C
 10
251.0
 20
30.0
 30
0.0
 11
275.0
 21
30.0
 31
0.0
  0
LINE
  8
LY_3
  6
PHANTOM
 62
             110
  5
26D
 10
252.0
 20
45.0
 30
0.0
 11
274.0
 21
45.0
 31
0.0
  0
LINE
  8
LY_3
  6
CONTINUOUS
 62
               3
  5
26E
 10
247.99999999999994
 20
45.0
 30
0.0
 11
248.99999999999994
 21
30.0
 31
0.0
  0
LINE
  8
LY_3
  6
CONTINUOUS
 62
               3
  5
26F
 10
248.99999999999989
 20
30.0
 30
0.0
 11
249.99999999999989
 21
44.999999999999986
 31
0.0
  0
LINE
  8
LY_3
  6
CONTINUOUS
 62
               3
  5
270
 10
249.99999999999991
 20
44.999999999999972
 30
0.0
 11
250.99999999999991
 21
29.999999999999972
 31
0.0
  0
LINE
  8
LY_3
  6
CONTINUOUS
 62
               3
  5
271
 10
250.99999999999994
 20
29.999999999999986
 30
0.0
 11
251.99999999999994
 21
44.999999999999986
 31
0.0
  0
LINE
  8
LY_3
  6
CONTINUOUS
 62
               3
  5
272
 10
251.99999999999991
 20
44.999999999999986
 30
0.0
 11
252.49999999999991
 21
37.499999999999986
 31
0.0
  0
LINE
  8
LY_3
  6
CONTINUOUS
 62
               3
  5
273
 10
277.99999999999989
 20
44.999999999999986
 30
0.0
 11
276.99999999999989
 21
30.0
 31
0.0
  0
LINE
  8
LY_3
  6
CONTINUOUS
 62
               3
  5
274
 10
276.99999999999994
 20
29.999999999999986
 30
0.0
 11
275.99999999999994
 21
44.999999999999972
 31
0.0
  0
LINE
  8
LY_3
  6
CONTINUOUS
 62
               3
  5
275
 10
275.99999999999989
 20
45.000000000000014
 30
0.0
 11
274.99999999999989
 21
30.000000000000014
 31
0.0
  0
LINE
  8
LY_3
  6
CONTINUOUS
 62
               3
  5
276
 10
274.99999999999994
 20
30.0
 30
0.0
 11
273.99999999999994
 21
44.999999999999986
 31
0.0
  0
LINE
  8
LY_3
  6
CONTINUOUS
 62
               3
  5
277
 10
273.99999999999989
 20
45.0
 30
0.0
 11
273.49999999999989
 21
37.499999999999986
 31
0.0
  0
LINE
  8
LY_3
  6
PHANTOM
 62
             110
  5
278
 10
251.0
 20
-30.0
 30
0.0
 11
275.0
 21
-30.0
 31
0.0
  0
LINE
  8
LY_3
  6
PHANTOM
 62
             110
  5
279
 10
252.0
 20
-45.0
 30
0.0
 11
274.0
 21
-45.0
 31
0.0
  0
LINE
  8
LY_3
  6
CONTINUOUS
 62
               3
  5
27A
 10
248.0
 20
-45.0
 30
0.0
 11
248.0
 21
45.0
 31
0.0
  0
LINE
  8
LY_3
  6
CONTINUOUS
 62
               3
  5
27B
 10
278.0
 20
-45.0
 30
0.0
 11
278.0
 21
45.0
 31
0.0
  0
LINE
  8
LY_3
  6
CONTINUOUS
 62
               3
  5
27C
 10
248.0
 20
-45.000000000000007
 30
0.0
 11
249.0
 21
-30.000000000000007
 31
0.0
  0
LINE
  8
LY_3
  6
CONTINUOUS
 62
               3
  5
27D
 10
248.99999999999994
 20
-30.000000000000014
 30
0.0
 11
249.99999999999994
 21
-45.000000000000007
 31
0.0
  0
LINE
  8
LY_3
  6
CONTINUOUS
 62
               3
  5
27E
 10
250.0
 20
-44.999999999999986
 30
0.0
 11
251.0
 21
-30.0
 31
0.0
  0
LINE
  8
LY_3
  6
CONTINUOUS
 62
               3
  5
27F
 10
250.99999999999994
 20
-30.000000000000014
 30
0.0
 11
251.99999999999994
 21
-45.000000000000014
 31
0.0
  0
LINE
  8
LY_3
  6
CONTINUOUS
 62
               3
  5
280
 10
251.99999999999997
 20
-44.999999999999986
 30
0.0
 11
252.49999999999997
 21
-37.499999999999993
 31
0.0
  0
LINE
  8
LY_3
  6
CONTINUOUS
 62
               3
  5
281
 10
277.99999999999994
 20
-45.0
 30
0.0
 11
276.99999999999994
 21
-30.0
 31
0.0
  0
LINE
  8
LY_3
  6
CONTINUOUS
 62
               3
  5
282
 10
276.99999999999989
 20
-30.0
 30
0.0
 11
275.99999999999989
 21
-44.999999999999986
 31
0.0
  0
LINE
  8
LY_3
  6
CONTINUOUS
 62
               3
  5
283
 10
275.99999999999994
 20
-44.999999999999986
 30
0.0
 11
274.99999999999994
 21
-30.0
 31
0.0
  0
LINE
  8
LY_3
  6
CONTINUOUS
 62
               3
  5
284
 10
274.99999999999989
 20
-29.999999999999993
 30
0.0
 11
273.99999999999989
 21
-44.999999999999986
 31
0.0
  0
LINE
  8
LY_3
  6
CONTINUOUS
 62
               3
  5
285
 10
273.99999999999989
 20
-44.999999999999986
 30
0.0
 11
273.49999999999989
 21
-37.499999999999972
 31
0.0
  0
LINE
  8
LY_3
  6
PHANTOM
 62
             110
  5
286
 10
301.0
 20
35.0
 30
0.0
 11
325.0
 21
35.0
 31
0.0
  0
LINE
  8
LY_3
  6
PHANTOM
 62
             110
  5
287
 10
302.0
 20
47.0
 30
0.0
 11
324.0
 21
47.0
 31
0.0
  0
LINE
  8
LY_3
  6
CONTINUOUS
 62
               3
  5
288
 10
297.99999999999983
 20
46.999999999999957
 30
0.0
 11
298.99999999999977
 21
34.999999999999957
 31
0.0
  0
LINE
  8
LY_3
  6
CONTINUOUS
 62
               3
  5
289
 10
298.99999999999989
 20
35.0
 30
0.0
 11
299.99999999999989
 21
47.0
 31
0.0
  0
LINE
  8
LY_3
  6
CONTINUOUS
 62
               3
  5
28A
 10
299.99999999999977
 20
46.999999999999972
 30
0.0
 11
300.99999999999977
 21
34.999999999999972
 31
0.0
  0
LINE
  8
LY_3
  6
CONTINUOUS
 62
               3
  5
28B
 10
300.99999999999989
 20
35.000000000000014
 30
0.0
 11
301.99999999999989
 21
47.000000000000014
 31
0.0
  0
LINE
  8
LY_3
  6
CONTINUOUS
 62
               3
  5
28C
 10
301.99999999999977
 20
46.999999999999957
 30
0.0
 11
302.49999999999977
 21
40.999999999999957
 31
0.0
  0
LINE
  8
LY_3
  6
CONTINUOUS
 62
               3
  5
28D
 10
327.99999999999977
 20
47.000000000000071
 30
0.0
 11
326.99999999999977
 21
35.000000000000071
 31
0.0
  0
LINE
  8
LY_3
  6
CONTINUOUS
 62
               3
  5
28E
 10
326.99999999999966
 20
34.999999999999943
 30
0.0
 11
325.99999999999966
 21
46.999999999999943
 31
0.0
  0
LINE
  8
LY_3
  6
CONTINUOUS
 62
               3
  5
28F
 10
325.99999999999977
 20
47.0
 30
0.0
 11
324.99999999999977
 21
35.0
 31
0.0
  0
LINE
  8
LY_3
  6
CONTINUOUS
 62
               3
  5
290
 10
324.99999999999966
 20
34.999999999999957
 30
0.0
 11
323.99999999999966
 21
46.999999999999957
 31
0.0
  0
LINE
  8
LY_3
  6
CONTINUOUS
 62
               3
  5
291
 10
323.99999999999977
 20
46.999999999999943
 30
0.0
 11
323.49999999999977
 21
40.999999999999986
 31
0.0
  0
LINE
  8
LY_3
  6
PHANTOM
 62
             110
  5
292
 10
301.0
 20
-35.0
 30
0.0
 11
325.0
 21
-35.0
 31
0.0
  0
LINE
  8
LY_3
  6
PHANTOM
 62
             110
  5
293
 10
302.0
 20
-47.0
 30
0.0
 11
324.0
 21
-47.0
 31
0.0
  0
LINE
  8
LY_3
  6
CONTINUOUS
 62
               3
  5
294
 10
298.0
 20
-47.0
 30
0.0
 11
298.0
 21
47.0
 31
0.0
  0
LINE
  8
LY_3
  6
CONTINUOUS
 62
               3
  5
295
 10
328.0
 20
-47.0
 30
0.0
 11
328.0
 21
47.0
 31
0.0
  0
LINE
  8
LY_3
  6
CONTINUOUS
 62
               3
  5
296
 10
297.99999999999983
 20
-46.999999999999979
 30
0.0
 11
298.99999999999989
 21
-34.999999999999972
 31
0.0
  0
LINE
  8
LY_3
  6
CONTINUOUS
 62
               3
  5
297
 10
298.99999999999977
 20
-35.000000000000028
 30
0.0
 11
299.99999999999977
 21
-47.000000000000014
 31
0.0
  0
LINE
  8
LY_3
  6
CONTINUOUS
 62
               3
  5
298
 10
299.99999999999977
 20
-46.999999999999957
 30
0.0
 11
300.99999999999977
 21
-34.99999999999995
 31
0.0
  0
LINE
  8
LY_3
  6
CONTINUOUS
 62
               3
  5
299
 10
300.99999999999977
 20
-35.0
 30
0.0
 11
301.99999999999977
 21
-47.000000000000007
 31
0.0
  0
LINE
  8
LY_3
  6
CONTINUOUS
 62
               3
  5
29A
 10
301.99999999999977
 20
-46.999999999999986
 30
0.0
 11
302.49999999999977
 21
-41.0
 31
0.0
  0
LINE
  8
LY_3
  6
CONTINUOUS
 62
               3
  5
29B
 10
327.99999999999966
 20
-47.000000000000028
 30
0.0
 11
326.99999999999966
 21
-35.000000000000036
 31
0.0
  0
LINE
  8
LY_3
  6
CONTINUOUS
 62
               3
  5
29C
 10
326.99999999999966
 20
-34.999999999999957
 30
0.0
 11
325.99999999999966
 21
-46.999999999999943
 31
0.0
  0
LINE
  8
LY_3
  6
CONTINUOUS
 62
               3
  5
29D
 10
325.99999999999966
 20
-47.000000000000021
 30
0.0
 11
324.99999999999966
 21
-35.000000000000014
 31
0.0
  0
LINE
  8
LY_3
  6
CONTINUOUS
 62
               3
  5
29E
 10
324.99999999999966
 20
-34.999999999999979
 30
0.0
 11
323.99999999999966
 21
-46.999999999999986
 31
0.0
  0
LINE
  8
LY_3
  6
CONTINUOUS
 62
               3
  5
29F
 10
323.99999999999966
 20
-47.000000000000014
 30
0.0
 11
323.49999999999966
 21
-41.0
 31
0.0
  0
LINE
  8
LY_3
  6
CENTER
 62
             110
  5
2A0
 10
94.658642058064132
 20
0.0
 30
0.0
 11
103.19394170672859
 21
0.0
 31
0.0
  0
LINE
  8
LY_3
  6
CENTER
 62
             110
  5
2A1
 10
143.04069410526921
 20
0.0
 30
0.0
 11
152.91725512729522
 21
0.0
 31
0.0
  0
LINE
  8
LY_3
  6
CENTER
 62
             110
  5
2A2
 10
319.85064903410125
 20
0.0
 30
0.0
 11
332.81709198712133
 21
0.0
 31
0.0
  0
LINE
  8
LY_3
  6
CENTER
 62
             110
  5
2A3
 10
193.91608527571196
 20
0.0
 30
0.0
 11
202.29024634953748
 21
0.0
 31
0.0
  0
LINE
  8
LY_3
  6
CENTER
 62
             110
  5
2A4
 10
169.86592157250038
 20
0.0
 30
0.0
 11
181.57147537638309
 21
0.0
 31
0.0
  0
LINE
  8
LY_3
  6
CENTER
 62
             110
  5
2A5
 10
120.14260815193377
 20
0.0
 30
0.0
 11
131.97009480794026
 21
0.0
 31
0.0
  0
LINE
  8
LY_3
  6
CENTER
 62
             110
  5
2A6
 10
46.121144765780883
 20
0.0
 30
0.0
 11
56.437670761155459
 21
0.0
 31
0.0
  0
LINE
  8
LY_3
  6
CENTER
 62
             110
  5
2A7
 10
19.286386297161272
 20
0.0
 30
0.0
 11
32.165540540540547
 21
0.0
 31
0.0
  0
LINE
  8
LY_3
  6
CENTER
 62
             110
  5
2A8
 10
71.77048921299658
 20
0.0
 30
0.0
 11
84.926426032786168
 21
0.0
 31
0.0
  0
LINE
  8
LY_3
  6
CENTER
 62
             110
  5
2A9
 10
219.57883695356432
 20
0.0
 30
0.0
 11
232.54527990658445
 21
0.0
 31
0.0
  0
LINE
  8
LY_3
  6
CENTER
 62
             110
  5
2AA
 10
270.20299802738981
 20
0.0
 30
0.0
 11
282.62917252403412
 21
0.0
 31
0.0
  0
LINE
  8
LY_3
  6
CENTER
 62
             110
  5
2AB
 10
242.1090382958462
 20
0.0
 30
0.0
 11
252.64427319517506
 21
0.0
 31
0.0
  0
LINE
  8
LY_3
  6
CENTER
 62
             110
  5
2AC
 10
292.83722621530927
 20
0.0
 30
0.0
 11
302.29192420188645
 21
0.0
 31
0.0
  0
TEXT
  8
LY_3
  6
CONTINUOUS
 62
             110
  5
2AD
 10
-6.1631280976008629
 20
-26.200506899807905
 30
0.0
 40
4.2000002861022949
  1
NS(A)xxx22
 41
1.0714285668669918
  7
MX_NOTE_STANDARD
 11
-6.1631280976008629
 21
-22.00050661370561
 31
0.0
 73
               3
  0
TEXT
  8
LY_3
  6
CONTINUOUS
 62
             110
  5
2AE
 10
42.666867614676171
 20
-31.245270413321421
 30
0.0
 40
4.2000002861022949
  1
NS(A)xxx30
 41
1.0909090885446091
  7
MX_NOTE_STANDARD
 11
42.666867614676171
 21
-27.045270127219126
 31
0.0
 73
               3
  0
TEXT
  8
LY_3
  6
CONTINUOUS
 62
             110
  5
2AF
 10
91.266770551047756
 20
-34.45557446737547
 30
0.0
 40
4.2000002861022949
  1
NS(A)xxx36
 41
1.0714285668669918
  7
MX_NOTE_STANDARD
 11
91.266770551047756
 21
-30.255574181273175
 31
0.0
 73
               3
  0
TEXT
  8
LY_3
  6
CONTINUOUS
 62
             110
  5
2B0
 10
143.53841395502135
 20
-39.041723116024123
 30
0.0
 40
4.2000002861022949
  1
NS(A)xxx51
 41
1.111111103752513
  7
MX_NOTE_STANDARD
 11
143.53841395502135
 21
-34.841722829921828
 31
0.0
 73
               3
  0
TEXT
  8
LY_3
  6
CONTINUOUS
 62
             110
  5
2B1
 10
192.09930004710858
 20
-47.296790683591695
 30
0.0
 40
4.2000002861022949
  1
NS(A)xxx70
 41
1.0909090885446091
  7
MX_NOTE_STANDARD
 11
192.09930004710858
 21
-43.0967903974894
 31
0.0
 73
               3
  0
TEXT
  8
LY_3
  6
CONTINUOUS
 62
             110
  5
2B2
 10
241.79524599305452
 20
-55.09324338629439
 30
0.0
 40
4.2000002861022949
  1
NS(A)xxx90
 41
1.0909090885446091
  7
MX_NOTE_STANDARD
 11
241.79524599305452
 21
-50.893243100192095
 31
0.0
 73
               3
  0
TEXT
  8
LY_3
  6
CONTINUOUS
 62
             110
  5
2B3
 10
292.65021649699372
 20
-56.927702845753849
 30
0.0
 40
4.2000002861022949
  1
NS(A)xxx94
 41
1.0714285668669918
  7
MX_NOTE_STANDARD
 11
292.65021649699372
 21
-52.727702559651554
 31
0.0
 73
               3
  0
DIMENSION
  8
LY_3
  6
CONTINUOUS
 62
             110
  5
2C0
  2
*D22
 10
10.0
 20
-4.0
 30
0.0
 11
10.0
 21
0.0
 31
0.0
 70
             128
  1
<>
 13
1.0
 23
4.0
 33
0.0
 14
1.0
 24
-4.0
 34
0.0
 50
90.0
  3
MXDIMSTYLE
1001
ACAD
1000
DSTYLE
1002
{
1070
              41
1040
2.77
1070
              75
1070
               1
1070
              76
1070
               1
1070
             140
1040
3.2000000476837158
1070
             271
1070
               0
1070
             284
1070
               8
1002
}
  0
DIMENSION
  8
LY_3
  6
CONTINUOUS
 62
             110
  5
2CB
  2
*D23
 10
18.0
 20
11.0
 30
0.0
 11
18.0
 21
0.0
 31
0.0
 70
             128
  1
<>
 13
24.0
 23
-11.0
 33
0.0
 14
24.0
 24
11.0
 34
0.0
 50
90.0
  3
MXDIMSTYLE
1001
ACAD
1000
DSTYLE
1002
{
1070
              41
1040
2.77
1070
              75
1070
               1
1070
              76
1070
               1
1070
             140
1040
3.2000000476837158
1070
             271
1070
               0
1070
             284
1070
               8
1002
}
  0
DIMENSION
  8
LY_3
  6
CONTINUOUS
 62
             110
  5
2D6
  2
*D24
 10
71.0
 20
15.0
 30
0.0
 11
71.0
 21
0.0
 31
0.0
 70
             128
  1
%%c<>
 13
81.0
 23
-15.0
 33
0.0
 14
81.0
 24
15.0
 34
0.0
 50
90.0
  3
MXDIMSTYLE
1001
ACAD
1000
DSTYLE
1002
{
1070
              41
1040
2.77
1070
              75
1070
               1
1070
              76
1070
               1
1070
             140
1040
3.2000000476837158
1070
             271
1070
               0
1070
             284
1070
               8
1002
}
  0
DIMENSION
  8
LY_3
  6
CONTINUOUS
 62
             110
  5
2E2
  2
*D25
 10
63.0
 20
-8.5
 30
0.0
 11
63.0
 21
0.0
 31
0.0
 70
             128
  1
%%c<>
 13
58.0
 23
8.5
 33
0.0
 14
58.0
 24
-8.5
 34
0.0
 50
90.0
  3
MXDIMSTYLE
1001
ACAD
1000
DSTYLE
1002
{
1070
              41
1040
2.77
1070
              75
1070
               1
1070
              76
1070
               1
1070
             140
1040
3.2000000476837158
1070
             271
1070
               0
1070
             284
1070
               8
1070
             340
1005
2DC
1002
}
  0
DIMENSION
  8
LY_3
  6
CONTINUOUS
 62
             110
  5
2ED
  2
*D26
 10
118.0
 20
18.0
 30
0.0
 11
118.0
 21
0.0
 31
0.0
 70
             128
  1
%%c<>
 13
120.0
 23
-18.0
 33
0.0
 14
120.0
 24
18.0
 34
0.0
 50
90.0
  3
MXDIMSTYLE
1001
ACAD
1000
DSTYLE
1002
{
1070
              41
1040
2.77
1070
              75
1070
               1
1070
              76
1070
               1
1070
             140
1040
3.2000000476837158
1070
             271
1070
               0
1070
             284
1070
               8
1002
}
  0
DIMENSION
  8
LY_3
  6
CONTINUOUS
 62
             110
  5
2F8
  2
*D27
 10
110.0
 20
11.0
 30
0.0
 11
110.0
 21
0.0
 31
0.0
 70
             128
  1
%%c<>
 13
121.0
 23
-11.0
 33
0.0
 14
121.0
 24
11.0
 34
0.0
 50
90.0
  3
MXDIMSTYLE
1001
ACAD
1000
DSTYLE
1002
{
1070
              41
1040
2.77
1070
              75
1070
               1
1070
              76
1070
               1
1070
             140
1040
3.2000000476837158
1070
             271
1070
               0
1070
             284
1070
               8
1002
}
  0
DIMENSION
  8
LY_3
  6
CONTINUOUS
 62
             110
  5
303
  2
*D28
 10
168.0
 20
25.5
 30
0.0
 11
168.0
 21
0.0
 31
0.0
 70
             128
  1
%%c<>
 13
178.0
 23
-25.5
 33
0.0
 14
178.0
 24
25.5
 34
0.0
 50
90.0
  3
MXDIMSTYLE
1001
ACAD
1000
DSTYLE
1002
{
1070
              41
1040
2.77
1070
              75
1070
               1
1070
              76
1070
               1
1070
             140
1040
3.2000000476837158
1070
             271
1070
               0
1070
             284
1070
               8
1070
             340
1005
2DC
1002
}
  0
DIMENSION
  8
LY_3
  6
CONTINUOUS
 62
             110
  5
30E
  2
*D29
 10
160.0
 20
-18.0
 30
0.0
 11
160.0
 21
0.0
 31
0.0
 70
             128
  1
%%c<>
 13
155.0
 23
18.0
 33
0.0
 14
155.0
 24
-18.0
 34
0.0
 50
90.0
  3
MXDIMSTYLE
1001
ACAD
1000
DSTYLE
1002
{
1070
              41
1040
2.77
1070
              75
1070
               1
1070
              76
1070
               1
1070
             140
1040
3.2000000476837158
1070
             271
1070
               0
1070
             284
1070
               8
1002
}
  0
DIMENSION
  8
LY_3
  6
CONTINUOUS
 62
             110
  5
319
  2
*D30
 10
218.0
 20
35.0
 30
0.0
 11
218.0
 21
0.0
 31
0.0
 70
             128
  1
%%c<>
 13
228.0
 23
-35.0
 33
0.0
 14
228.0
 24
35.0
 34
0.0
 50
90.0
  3
MXDIMSTYLE
1001
ACAD
1000
DSTYLE
1002
{
1070
              41
1040
2.77
1070
              75
1070
               1
1070
              76
1070
               1
1070
             140
1040
3.2000000476837158
1070
             271
1070
               0
1070
             284
1070
               8
1002
}
  0
DIMENSION
  8
LY_3
  6
CONTINUOUS
 62
             110
  5
324
  2
*D31
 10
210.0
 20
-25.0
 30
0.0
 11
210.0
 21
0.0
 31
0.0
 70
             128
  1
%%c<>
 13
205.0
 23
25.0
 33
0.0
 14
205.0
 24
-25.0
 34
0.0
 50
90.0
  3
MXDIMSTYLE
1001
ACAD
1000
DSTYLE
1002
{
1070
              41
1040
2.77
1070
              75
1070
               1
1070
              76
1070
               1
1070
             140
1040
3.2000000476837158
1070
             271
1070
               0
1070
             284
1070
               8
1002
}
  0
DIMENSION
  8
LY_3
  6
CONTINUOUS
 62
             110
  5
32F
  2
*D32
 10
268.0
 20
45.0
 30
0.0
 11
268.0
 21
0.0
 31
0.0
 70
             128
  1
%%c<>
 13
278.0
 23
-45.0
 33
0.0
 14
278.0
 24
45.0
 34
0.0
 50
90.0
  3
MXDIMSTYLE
1001
ACAD
1000
DSTYLE
1002
{
1070
              41
1040
2.77
1070
              75
1070
               1
1070
              76
1070
               1
1070
             140
1040
3.2000000476837158
1070
             271
1070
               0
1070
             284
1070
               8
1002
}
  0
DIMENSION
  8
LY_3
  6
CONTINUOUS
 62
             110
  5
33A
  2
*D33
 10
260.0
 20
-30.0
 30
0.0
 11
260.0
 21
0.0
 31
0.0
 70
             128
  1
%%c<>
 13
255.0
 23
30.0
 33
0.0
 14
255.0
 24
-30.0
 34
0.0
 50
90.0
  3
MXDIMSTYLE
1001
ACAD
1000
DSTYLE
1002
{
1070
              41
1040
2.77
1070
              75
1070
               1
1070
              76
1070
               1
1070
             140
1040
3.2000000476837158
1070
             271
1070
               0
1070
             284
1070
               8
1002
}
  0
DIMENSION
  8
LY_3
  6
CONTINUOUS
 62
             110
  5
345
  2
*D34
 10
318.0
 20
47.0
 30
0.0
 11
318.0
 21
0.0
 31
0.0
 70
             128
  1
%%c<>
 13
328.0
 23
-47.0
 33
0.0
 14
328.0
 24
47.0
 34
0.0
 50
90.0
  3
MXDIMSTYLE
1001
ACAD
1000
DSTYLE
1002
{
1070
              41
1040
2.77
1070
              75
1070
               1
1070
              76
1070
               1
1070
             140
1040
3.2000000476837158
1070
             271
1070
               0
1070
             284
1070
               8
1002
}
  0
DIMENSION
  8
LY_3
  6
CONTINUOUS
 62
             110
  5
350
  2
*D35
 10
310.0
 20
-35.0
 30
0.0
 11
310.0
 21
0.0
 31
0.0
 70
             128
  1
%%c<>
 13
305.0
 23
35.0
 33
0.0
 14
305.0
 24
-35.0
 34
0.0
 50
90.0
  3
MXDIMSTYLE
1001
ACAD
1000
DSTYLE
1002
{
1070
              41
1040
2.77
1070
              75
1070
               1
1070
              76
1070
               1
1070
             140
1040
3.2000000476837158
1070
             271
1070
               0
1070
             284
1070
               8
1002
}
  0
DIMENSION
  8
LY_3
  6
CONTINUOUS
 62
             110
  5
35D
  2
*D36
 10
30.0
 20
24.0
 30
0.0
 11
15.0
 21
24.0
 31
0.0
 70
             128
  1
<>
 13
0.0
 23
11.0
 33
0.0
 14
30.0
 24
11.0
 34
0.0
  3
MXDIMSTYLE
1001
ACAD
1000
DSTYLE
1002
{
1070
              41
1040
2.77
1070
              42
1040
0.5
1070
              44
1040
2.2859992980957031
1070
             140
1040
3.2000000476837158
1070
             271
1070
               0
1070
             284
1070
               8
1070
             340
1005
93
1002
}
  0
DIMENSION
  8
LY_3
  6
CONTINUOUS
 62
             110
  5
36A
  2
*D37
 10
80.0
 20
24.0
 30
0.0
 11
65.0
 21
24.0
 31
0.0
 70
             128
  1
<>
 13
50.0
 23
15.0
 33
0.0
 14
80.0
 24
15.0
 34
0.0
  3
MXDIMSTYLE
1001
ACAD
1000
DSTYLE
1002
{
1070
              41
1040
2.77
1070
              42
1040
0.5
1070
              44
1040
2.2859992980957031
1070
             140
1040
3.2000000476837158
1070
             271
1070
               0
1070
             284
1070
               8
1070
             340
1005
93
1002
}
  0
DIMENSION
  8
LY_3
  6
CONTINUOUS
 62
             110
  5
377
  2
*D38
 10
128.0
 20
32.0
 30
0.0
 11
113.0
 21
32.0
 31
0.0
 70
             128
  1
<>
 13
98.0
 23
18.0
 33
0.0
 14
128.0
 24
18.0
 34
0.0
  3
MXDIMSTYLE
1001
ACAD
1000
DSTYLE
1002
{
1070
              41
1040
2.77
1070
              42
1040
0.5
1070
              44
1040
2.2859992980957031
1070
             140
1040
3.2000000476837158
1070
             271
1070
               0
1070
             284
1070
               8
1070
             340
1005
93
1002
}
  0
DIMENSION
  8
LY_3
  6
CONTINUOUS
 62
             110
  5
384
  2
*D39
 10
178.0
 20
40.0
 30
0.0
 11
163.0
 21
40.0
 31
0.0
 70
             128
  1
<>
 13
148.0
 23
25.5
 33
0.0
 14
178.0
 24
25.5
 34
0.0
  3
MXDIMSTYLE
1001
ACAD
1000
DSTYLE
1002
{
1070
              41
1040
2.77
1070
              42
1040
0.5
1070
              44
1040
2.2859992980957031
1070
             140
1040
3.2000000476837158
1070
             271
1070
               0
1070
             284
1070
               8
1070
             340
1005
93
1002
}
  0
DIMENSION
  8
LY_3
  6
CONTINUOUS
 62
             110
  5
391
  2
*D40
 10
228.0
 20
48.0
 30
0.0
 11
213.0
 21
48.0
 31
0.0
 70
             128
  1
<>
 13
198.0
 23
35.0
 33
0.0
 14
228.0
 24
35.0
 34
0.0
  3
MXDIMSTYLE
1001
ACAD
1000
DSTYLE
1002
{
1070
              41
1040
2.77
1070
              42
1040
0.5
1070
              44
1040
2.2859992980957031
1070
             140
1040
3.2000000476837158
1070
             271
1070
               0
1070
             284
1070
               8
1070
             340
1005
93
1002
}
  0
DIMENSION
  8
LY_3
  6
CONTINUOUS
 62
             110
  5
39E
  2
*D41
 10
278.0
 20
56.0
 30
0.0
 11
263.0
 21
56.0
 31
0.0
 70
             128
  1
<>
 13
248.0
 23
45.0
 33
0.0
 14
278.0
 24
45.0
 34
0.0
  3
MXDIMSTYLE
1001
ACAD
1000
DSTYLE
1002
{
1070
              41
1040
2.77
1070
              42
1040
0.5
1070
              44
1040
2.2859992980957031
1070
             140
1040
3.2000000476837158
1070
             271
1070
               0
1070
             284
1070
               8
1070
             340
1005
93
1002
}
  0
DIMENSION
  8
LY_3
  6
CONTINUOUS
 62
             110
  5
3AB
  2
*D42
 10
328.0
 20
56.0
 30
0.0
 11
313.0
 21
56.0
 31
0.0
 70
             128
  1
<>
 13
298.0
 23
47.0
 33
0.0
 14
328.0
 24
47.0
 34
0.0
  3
MXDIMSTYLE
1001
ACAD
1000
DSTYLE
1002
{
1070
              41
1040
2.77
1070
              42
1040
0.5
1070
              44
1040
2.2859992980957031
1070
             140
1040
3.2000000476837158
1070
             271
1070
               0
1070
             284
1070
               8
1070
             340
1005
93
1002
}
  0
ENDSEC
  0
EOF
