  0
SECTION
  2
HEADER
  9
$ACADVER
  1
AC1015
  9
$ACADMAINTVER
 70
     6
  9
$DWGCODEPAGE
  3
ANSI_932
  9
$INSBASE
 10
0.0
 20
0.0
 30
0.0
  9
$EXTMIN
 10
-110.0
 20
-45.75
 30
0.0
  9
$EXTMAX
 10
110.0
 20
45.75
 30
0.0
  9
$LIMMIN
 10
-194.0
 20
-135.75
  9
$LIMMAX
 10
195.0
 20
135.75
  9
$ORTHOMODE
 70
     0
  9
$REGENMODE
 70
     1
  9
$FILLMODE
 70
     1
  9
$QTEXTMODE
 70
     0
  9
$MIRRTEXT
 70
     1
  9
$LTSCALE
 40
1.0
  9
$ATTMODE
 70
     1
  9
$TEXTSIZE
 40
3.2
  9
$TRACEWID
 40
0.05
  9
$TEXTSTYLE
  7
MX_NOTE_STANDARD
  9
$CLAYER
  8
DEFPOINTS
  9
$CELTYPE
  6
CONTINUOUS
  9
$CECOLOR
 62
   256
  9
$CELTSCALE
 40
1.0
  9
$DISPSILH
 70
     0
  9
$DIMSCALE
 40
1.0
  9
$DIMASZ
 40
2.5
  9
$DIMEXO
 40
2.0
  9
$DIMDLI
 40
3.75
  9
$DIMRND
 40
0.0
  9
$DIMDLE
 40
0.0
  9
$DIMEXE
 40
1.0
  9
$DIMTP
 40
0.0
  9
$DIMTM
 40
0.0
  9
$DIMTXT
 40
4.1656
  9
$DIMCEN
 40
2.5
  9
$DIMTSZ
 40
0.0
  9
$DIMTOL
 70
     0
  9
$DIMLIM
 70
     0
  9
$DIMTIH
 70
     0
  9
$DIMTOH
 70
     0
  9
$DIMSE1
 70
     0
  9
$DIMSE2
 70
     0
  9
$DIMTAD
 70
     1
  9
$DIMZIN
 70
     8
  9
$DIMBLK
  1

  9
$DIMASO
 70
     1
  9
$DIMSHO
 70
     1
  9
$DIMPOST
  1

  9
$DIMAPOST
  1

  9
$DIMALT
 70
     0
  9
$DIMALTD
 70
     4
  9
$DIMALTF
 40
0.03937
  9
$DIMLFAC
 40
1.0
  9
$DIMTOFL
 70
     1
  9
$DIMTVP
 40
0.0
  9
$DIMTIX
 70
     0
  9
$DIMSOXD
 70
     0
  9
$DIMSAH
 70
     1
  9
$DIMBLK1
  1
_OPEN30
  9
$DIMBLK2
  1
_OPEN30
  9
$DIMSTYLE
  2
MXDIMSTYLE
  9
$DIMCLRD
 70
     0
  9
$DIMCLRE
 70
     0
  9
$DIMCLRT
 70
     0
  9
$DIMTFAC
 40
1.0
  9
$DIMGAP
 40
1.0
  9
$DIMJUST
 70
     0
  9
$DIMSD1
 70
     0
  9
$DIMSD2
 70
     0
  9
$DIMTOLJ
 70
     0
  9
$DIMTZIN
 70
     0
  9
$DIMALTZ
 70
     0
  9
$DIMALTTZ
 70
     0
  9
$DIMUPT
 70
     0
  9
$DIMDEC
 70
     2
  9
$DIMTDEC
 70
     2
  9
$DIMALTU
 70
     2
  9
$DIMALTTD
 70
     4
  9
$DIMTXSTY
  7
MX_NOTE_STANDARD
  9
$DIMAUNIT
 70
     0
  9
$DIMADEC
 70
     0
  9
$DIMALTRND
 40
0.0
  9
$DIMAZIN
 70
     0
  9
$DIMDSEP
 70
    46
  9
$DIMATFIT
 70
     3
  9
$DIMFRAC
 70
     0
  9
$DIMLDRBLK
  1
_OPEN30
  9
$DIMLUNIT
 70
     2
  9
$DIMLWD
 70
    -2
  9
$DIMLWE
 70
    -2
  9
$DIMTMOVE
 70
     0
  9
$LUNITS
 70
     2
  9
$LUPREC
 70
     4
  9
$SKETCHINC
 40
0.1
  9
$FILLETRAD
 40
0.0
  9
$AUNITS
 70
     0
  9
$AUPREC
 70
     0
  9
$MENU
  1
acad
  9
$ELEVATION
 40
0.0
  9
$PELEVATION
 40
0.0
  9
$THICKNESS
 40
0.0
  9
$LIMCHECK
 70
     0
  9
$CHAMFERA
 40
0.0
  9
$CHAMFERB
 40
0.0
  9
$CHAMFERC
 40
0.0
  9
$CHAMFERD
 40
0.0
  9
$SKPOLY
 70
     0
  9
$TDCREATE
 40
2456709.693206018
  9
$TDUCREATE
 40
0.000000000
  9
$TDUPDATE
 40
2456709.693206018
  9
$TDUUPDATE
 40
0.000000000
  9
$TDINDWG
 40
0.0000000000
  9
$TDUSRTIMER
 40
0.0000000000
  9
$USRTIMER
 70
     1
  9
$ANGBASE
 50
0.0
  9
$ANGDIR
 70
     0
  9
$PDMODE
 70
     0
  9
$PDSIZE
 40
0.0
  9
$PLINEWID
 40
0.0
  9
$SPLFRAME
 70
     0
  9
$SPLINETYPE
 70
     6
  9
$SPLINESEGS
 70
     8
  9
$HANDSEED
  5
684
  9
$SURFTAB1
 70
     6
  9
$SURFTAB2
 70
     6
  9
$SURFTYPE
 70
     6
  9
$SURFU
 70
     6
  9
$SURFV
 70
     6
  9
$UCSBASE
  2

  9
$UCSNAME
  2

  9
$UCSORG
 10
0.0
 20
0.0
 30
0.0
  9
$UCSXDIR
 10
1.0
 20
0.0
 30
0.0
  9
$UCSYDIR
 10
0.0
 20
1.0
 30
0.0
  9
$UCSORTHOREF
  2

  9
$UCSORTHOVIEW
 70
     0
  9
$UCSORGTOP
 10
0.0
 20
0.0
 30
0.0
  9
$UCSORGBOTTOM
 10
0.0
 20
0.0
 30
0.0
  9
$UCSORGLEFT
 10
0.0
 20
0.0
 30
0.0
  9
$UCSORGRIGHT
 10
0.0
 20
0.0
 30
0.0
  9
$UCSORGFRONT
 10
0.0
 20
0.0
 30
0.0
  9
$UCSORGBACK
 10
0.0
 20
0.0
 30
0.0
  9
$PUCSBASE
  2

  9
$PUCSNAME
  2

  9
$PUCSORG
 10
0.0
 20
0.0
 30
0.0
  9
$PUCSXDIR
 10
1.0
 20
0.0
 30
0.0
  9
$PUCSYDIR
 10
0.0
 20
1.0
 30
0.0
  9
$PUCSORTHOREF
  2

  9
$PUCSORTHOVIEW
 70
     0
  9
$PUCSORGTOP
 10
0.0
 20
0.0
 30
0.0
  9
$PUCSORGBOTTOM
 10
0.0
 20
0.0
 30
0.0
  9
$PUCSORGLEFT
 10
0.0
 20
0.0
 30
0.0
  9
$PUCSORGRIGHT
 10
0.0
 20
0.0
 30
0.0
  9
$PUCSORGFRONT
 10
0.0
 20
0.0
 30
0.0
  9
$PUCSORGBACK
 10
0.0
 20
0.0
 30
0.0
  9
$USERI1
 70
     0
  9
$USERI2
 70
     0
  9
$USERI3
 70
     0
  9
$USERI4
 70
     0
  9
$USERI5
 70
     0
  9
$USERR1
 40
0.0
  9
$USERR2
 40
0.0
  9
$USERR3
 40
0.0
  9
$USERR4
 40
0.0
  9
$USERR5
 40
0.0
  9
$WORLDVIEW
 70
     1
  9
$SHADEDGE
 70
     3
  9
$SHADEDIF
 70
    70
  9
$TILEMODE
 70
     1
  9
$MAXACTVP
 70
    16
  9
$PINSBASE
 10
0.0
 20
0.0
 30
0.0
  9
$PLIMCHECK
 70
     0
  9
$PEXTMIN
 10
1.000000E+20
 20
1.000000E+20
 30
1.000000E+20
  9
$PEXTMAX
 10
-1.000000E+20
 20
-1.000000E+20
 30
-1.000000E+20
  9
$PLIMMIN
 10
0.0
 20
0.0
  9
$PLIMMAX
 10
12.0
 20
9.0
  9
$UNITMODE
 70
     0
  9
$VISRETAIN
 70
     0
  9
$PLINEGEN
 70
     1
  9
$PSLTSCALE
 70
     0
  9
$TREEDEPTH
 70
  3020
  9
$CMLSTYLE
  2
Standard
  9
$CMLJUST
 70
     0
  9
$CMLSCALE
 40
1.0
  9
$PROXYGRAPHICS
 70
     0
  9
$MEASUREMENT
 70
     1
  9
$CELWEIGHT
370
     0
  9
$ENDCAPS
280
     0
  9
$JOINSTYLE
280
     0
  9
$LWDISPLAY
290
     0
  9
$INSUNITS
 70
     0
  9
$HYPERLINKBASE
  1

  9
$STYLESHEET
  1

  9
$XEDIT
290
     1
  9
$CEPSNTYPE
380
     0
  9
$PSTYLEMODE
290
     1
  9
$FINGERPRINTGUID
  2

  9
$VERSIONGUID
  2

  9
$EXTNAMES
290
     1
  9
$PSVPSCALE
 40
0.0
  0
ENDSEC
  0
SECTION
  2
CLASSES
  0
CLASS
  1
LWPOLYLINE
  2
AcDbPolyline
  3
AutoCAD 2000
 90
        0
280
     0
281
     1
  0
CLASS
  1
IMAGE
  2
AcDbRasterImage
  3
ISM
 90
      127
280
     0
281
     1
  0
CLASS
  1
OLE2FRAME
  2
AcDbOle2Frame
  3
AutoCAD 2000
 90
        0
280
     0
281
     1
  0
CLASS
  1
HATCH
  2
AcDbHatch
  3
AutoCAD 2000
 90
        0
280
     0
281
     1
  0
CLASS
  1
DICTIONARYVAR
  2
AcDbDictionaryVar
  3
AutoCAD 2000
 90
        0
280
     0
281
     0
  0
CLASS
  1
RASTERVARIABLES
  2
AcDbRasterVariables
  3
ISM
 90
        0
280
     0
281
     0
  0
CLASS
  1
IMAGEDEF
  2
AcDbRasterImageDef
  3
ISM
 90
        0
280
     0
281
     0
  0
CLASS
  1
IMAGEDEF_REACTOR
  2
AcDbRasterImageDefReactor
  3
ISM
 90
        1
280
     0
281
     0
  0
CLASS
  1
IDBUFFER
  2
AcDbIdBuffer
  3
AutoCAD 2000
 90
        0
280
     0
281
     0
  0
CLASS
  1
SPATIAL_FILTER
  2
AcDbSpatialFilter
  3
AutoCAD 2000
 90
        0
280
     0
281
     0
  0
CLASS
  1
XRECORD
  2
AcDbXrecord
  3
AutoCAD 2000
 90
        0
280
     0
281
     0
  0
CLASS
  1
SORTENTSTABLE
  2
AcDbSortentsTable
  3
AutoCAD 2000
 90
        0
280
     0
281
     0
  0
CLASS
  1
LAYER_INDEX
  2
AcDbLayerIndex
  3
AutoCAD 2000
 90
        0
280
     0
281
     0
  0
CLASS
  1
SPATIAL_INDEX
  2
AcDbSpatialIndex
  3
AutoCAD 2000
 90
        0
280
     0
281
     0
  0
CLASS
  1
OBJECT_PTR
  2
CAseDLPNTableRecord
  3
"ASE-LPNTableRecord"
 90
        1
280
     0
281
     0
  0
CLASS
  1
LAYOUT
  2
AcDbLayout
  3
AutoCAD 2000
 90
        0
280
     0
281
     0
  0
CLASS
  1
PLOTSETTINGS
  2
AcDbPlotSettings
  3
AutoCAD 2000
 90
        0
280
     0
281
     0
  0
CLASS
  1
ACDBDICTIONARYWDFLT
  2
AcDbDictionaryWithDefault
  3
AutoCAD 2000
 90
        0
280
     0
281
     0
  0
CLASS
  1
ACDBPLACEHOLDER
  2
AcDbPlaceHolder
  3
AutoCAD 2000
 90
        0
280
     0
281
     0
  0
ENDSEC
  0
SECTION
  2
TABLES
  0
TABLE
  2
VPORT
  5
7
100
AcDbSymbolTable
 70
     1
  0
VPORT
  5
15
100
AcDbSymbolTableRecord
100
AcDbViewportTableRecord
  2
*ACTIVE
 70
     0
 10
0.0
 20
0.0
 11
1.0
 21
1.0
 12
0.5
 22
0.0
 13
0.0
 23
0.0
 14
1.0
 24
1.0
 15
0.0
 25
0.0
 16
0.0
 26
0.0
 36
1.0
 17
0.0
 27
0.0
 37
0.0
 40
274.215
 41
1.732051
 42
50.0
 43
0.0
 44
0.0
 50
0.0
 51
0.0
 71
     0
 72
   100
 73
     1
 74
     1
 75
     0
 76
     0
 77
     0
 78
     0
281
     0
 65
     0
110
0.0
120
0.0
130
0.0
111
1.0
121
0.0
131
0.0
112
0.0
122
1.0
132
0.0
345
0
346
0
 79
     0
146
0.0
  0
ENDTAB
  0
TABLE
  2
LTYPE
  5
4
100
AcDbSymbolTable
 70
     6
  0
LTYPE
  5
11
100
AcDbSymbolTableRecord
100
AcDbLinetypeTableRecord
  2
BYBLOCK
 70
    64
  3

 72
    65
 73
     0
 40
0.0
  0
LTYPE
  5
12
100
AcDbSymbolTableRecord
100
AcDbLinetypeTableRecord
  2
BYLAYER
 70
    64
  3

 72
    65
 73
     0
 40
0.0
  0
LTYPE
  5
13
100
AcDbSymbolTableRecord
100
AcDbLinetypeTableRecord
  2
CONTINUOUS
 70
    64
  3
Solid line
 72
    65
 73
     0
 40
0.0
  0
LTYPE
  5
49
100
AcDbSymbolTableRecord
100
AcDbLinetypeTableRecord
  2
NON_PLOTING
 70
     0
  3
Solid line
 72
    65
 73
     0
 40
0.0
  0
LTYPE
  5
138
100
AcDbSymbolTableRecord
100
AcDbLinetypeTableRecord
  2
PHANTOM
 70
    64
  3
Phantom ______  __  __  ______  __  __  ______
 72
    65
 73
     6
 40
63.5
 49
31.75
 74
     0
 49
-6.35
 74
     0
 49
6.35
 74
     0
 49
-6.35
 74
     0
 49
6.35
 74
     0
 49
-6.35
 74
     0
  0
LTYPE
  5
17A
100
AcDbSymbolTableRecord
100
AcDbLinetypeTableRecord
  2
CENTER
 70
    64
  3
Center ____ _ ____ _ ____ _ ____ _ ____ _ ____
 72
    65
 73
     4
 40
50.8
 49
31.75
 74
     0
 49
-6.35
 74
     0
 49
6.35
 74
     0
 49
-6.35
 74
     0
  0
ENDTAB
  0
TABLE
  2
LAYER
  5
2
100
AcDbSymbolTable
 70
     4
  0
LAYER
  5
14
100
AcDbSymbolTableRecord
100
AcDbLayerTableRecord
  2
0
 70
     0
 62
     7
  6
CONTINUOUS
290
     1
370
    -3
390
1D
  0
LAYER
  5
23
100
AcDbSymbolTableRecord
100
AcDbLayerTableRecord
  2
DEFPOINTS
 70
     0
 62
     7
  6
CONTINUOUS
290
     0
370
    -3
390
1D
  0
LAYER
  5
24
100
AcDbSymbolTableRecord
100
AcDbLayerTableRecord
  2
PV
 70
     0
 62
     7
  6
CONTINUOUS
290
     1
370
    -3
390
1D
  0
LAYER
  5
25
100
AcDbSymbolTableRecord
100
AcDbLayerTableRecord
  2
WV
 70
     0
 62
     7
  6
CONTINUOUS
290
     1
370
    -3
390
1D
  0
ENDTAB
  0
TABLE
  2
STYLE
  5
3
100
AcDbSymbolTable
 70
     8
  0
STYLE
  5
17
100
AcDbSymbolTableRecord
100
AcDbTextStyleTableRecord
  2
MX_NOTE_STANDARD
 70
     0
 40
0.0
 41
1.0
 50
0.0
 71
     0
 42
3.2
  3
txt.shx
  4
extfont.shx
  0
STYLE
  5
C9
100
AcDbSymbolTableRecord
100
AcDbTextStyleTableRecord
  2
MX_DIMTXSTY_2
 70
     0
 40
0.0
 41
1.1
 50
0.0
 71
     0
 42
3.2
  3
txt.shx
  4
extfont.shx
  0
STYLE
  5
D6
100
AcDbSymbolTableRecord
100
AcDbTextStyleTableRecord
  2
MX_DIMTXSTY_3
 70
     0
 40
0.0
 41
1.3
 50
0.0
 71
     0
 42
3.2
  3
txt.shx
  4
extfont.shx
  0
STYLE
  5
108
100
AcDbSymbolTableRecord
100
AcDbTextStyleTableRecord
  2
MX_DIMTXSTY_4
 70
     0
 40
0.0
 41
1.05
 50
0.0
 71
     0
 42
3.2
  3
txt.shx
  4
extfont.shx
  0
STYLE
  5
115
100
AcDbSymbolTableRecord
100
AcDbTextStyleTableRecord
  2
MX_DIMTXSTY_5
 70
     0
 40
0.0
 41
1.25
 50
0.0
 71
     0
 42
3.2
  3
txt.shx
  4
extfont.shx
  0
STYLE
  5
1C4
100
AcDbSymbolTableRecord
100
AcDbTextStyleTableRecord
  2
MX_DIMTXSTY_6
 70
     0
 40
0.0
 41
1.2
 50
0.0
 71
     0
 42
3.2
  3
txt.shx
  4
extfont.shx
  0
STYLE
  5
28D
100
AcDbSymbolTableRecord
100
AcDbTextStyleTableRecord
  2
MX_DIMTXSTY_7
 70
     0
 40
0.0
 41
0.95
 50
0.0
 71
     0
 42
3.2
  3
txt.shx
  4
extfont.shx
  0
STYLE
  5
523
100
AcDbSymbolTableRecord
100
AcDbTextStyleTableRecord
  2
MX_DIMTXSTY_8
 70
     0
 40
0.0
 41
1.15
 50
0.0
 71
     0
 42
3.2
  3
txt.shx
  4
extfont.shx
  0
ENDTAB
  0
TABLE
  2
VIEW
  5
5
100
AcDbSymbolTable
 70
     0
  0
ENDTAB
  0
TABLE
  2
UCS
  5
6
100
AcDbSymbolTable
 70
     0
  0
ENDTAB
  0
TABLE
  2
APPID
  5
8
100
AcDbSymbolTable
 70
     1
  0
APPID
  5
16
100
AcDbSymbolTableRecord
100
AcDbRegAppTableRecord
  2
ACAD
 70
     0
  0
ENDTAB
  0
TABLE
  2
DIMSTYLE
  5
9
100
AcDbSymbolTable
 70
     1
100
AcDbDimStyleTable
 71
     0
  0
DIMSTYLE
105
18
100
AcDbSymbolTableRecord
100
AcDbDimStyleTableRecord
  2
MXDIMSTYLE
 70
     0
  3

  4

 40
1.0
 41
2.5
 42
2.0
 43
3.75
 44
1.0
 45
0.0
 46
0.0
 47
0.0
 48
0.0
 71
     0
 72
     0
 73
     0
 74
     0
 75
     0
 76
     0
 77
     1
 78
     8
 79
     0
140
4.1656
141
2.5
142
0.0
143
0.03937
144
1.0
145
0.0
146
1.0
147
1.0
148
0.0
170
     0
171
     4
172
     1
173
     1
174
     0
175
     0
176
     0
177
     0
178
     0
179
     0
271
     2
272
     2
273
     2
274
     4
275
     0
276
     0
277
     2
278
    46
279
     0
280
     0
281
     0
282
     0
283
     0
284
     0
285
     0
286
     0
288
     0
289
     3
340
17
341
30
342
0
343
30
344
30
371
    -2
372
    -2
  0
ENDTAB
  0
TABLE
  2
BLOCK_RECORD
  5
1
100
AcDbSymbolTable
 70
    67
  0
BLOCK_RECORD
  5
A
100
AcDbSymbolTableRecord
100
AcDbBlockTableRecord
  2
*MODEL_SPACE
340
20
  0
BLOCK_RECORD
  5
B
100
AcDbSymbolTableRecord
100
AcDbBlockTableRecord
  2
*PAPER_SPACE
340
21
  0
BLOCK_RECORD
  5
26
100
AcDbSymbolTableRecord
100
AcDbBlockTableRecord
  2
MS_1
340
0
  0
BLOCK_RECORD
  5
27
100
AcDbSymbolTableRecord
100
AcDbBlockTableRecord
  2
MS_2
340
0
  0
BLOCK_RECORD
  5
28
100
AcDbSymbolTableRecord
100
AcDbBlockTableRecord
  2
VF1010
340
0
  0
BLOCK_RECORD
  5
29
100
AcDbSymbolTableRecord
100
AcDbBlockTableRecord
  2
VF1016
340
0
  0
BLOCK_RECORD
  5
2A
100
AcDbSymbolTableRecord
100
AcDbBlockTableRecord
  2
VF1025
340
0
  0
BLOCK_RECORD
  5
2B
100
AcDbSymbolTableRecord
100
AcDbBlockTableRecord
  2
VF1040
340
0
  0
BLOCK_RECORD
  5
2C
100
AcDbSymbolTableRecord
100
AcDbBlockTableRecord
  2
VF1050
340
0
  0
BLOCK_RECORD
  5
2D
100
AcDbSymbolTableRecord
100
AcDbBlockTableRecord
  2
VF1063
340
0
  0
BLOCK_RECORD
  5
2E
100
AcDbSymbolTableRecord
100
AcDbBlockTableRecord
  2
VF1080
340
0
  0
BLOCK_RECORD
  5
2F
100
AcDbSymbolTableRecord
100
AcDbBlockTableRecord
  2
VF1100
340
0
  0
BLOCK_RECORD
  5
30
100
AcDbSymbolTableRecord
100
AcDbBlockTableRecord
  2
_OPEN30
340
0
102
{BLKREFS
331
C7
331
C8
331
D4
331
D5
331
E2
331
E3
331
EF
331
F0
331
FA
331
FB
331
106
331
107
331
113
331
114
331
185
331
186
331
191
331
192
331
19E
331
19F
331
1AB
331
1AC
331
1B6
331
1B7
331
1C2
331
1C3
331
1CF
331
1D0
331
242
331
243
331
24E
331
24F
331
25B
331
25C
331
268
331
269
331
273
331
274
331
27F
331
280
331
28B
331
28C
331
2FC
331
2FD
331
308
331
309
331
314
331
315
331
321
331
322
331
32C
331
32D
331
337
331
338
331
342
331
343
331
3B2
331
3B3
331
3BE
331
3BF
331
3CA
331
3CB
331
3D7
331
3D8
331
3E2
331
3E3
331
3ED
331
3EE
331
3F8
331
3F9
331
463
331
464
331
470
331
471
331
47C
331
47D
331
488
331
489
331
493
331
494
331
49E
331
49F
331
4A9
331
4AA
331
4FB
331
4FC
331
507
331
508
331
514
331
515
331
521
331
522
331
52D
331
52E
331
538
331
539
331
543
331
544
331
595
331
596
331
5A1
331
5A2
331
5AD
331
5AE
331
5BA
331
5BB
331
5C5
331
5C6
331
5D0
331
5D1
331
5DB
331
5DC
102
}
  0
BLOCK_RECORD
  5
C3
100
AcDbSymbolTableRecord
100
AcDbBlockTableRecord
  2
*D11
340
0
  0
BLOCK_RECORD
  5
D0
100
AcDbSymbolTableRecord
100
AcDbBlockTableRecord
  2
*D12
340
0
  0
BLOCK_RECORD
  5
DD
100
AcDbSymbolTableRecord
100
AcDbBlockTableRecord
  2
*D13
340
0
  0
BLOCK_RECORD
  5
EA
100
AcDbSymbolTableRecord
100
AcDbBlockTableRecord
  2
*D14
340
0
  0
BLOCK_RECORD
  5
F7
100
AcDbSymbolTableRecord
100
AcDbBlockTableRecord
  2
*D15
340
0
  0
BLOCK_RECORD
  5
102
100
AcDbSymbolTableRecord
100
AcDbBlockTableRecord
  2
*D16
340
0
  0
BLOCK_RECORD
  5
10F
100
AcDbSymbolTableRecord
100
AcDbBlockTableRecord
  2
*D17
340
0
  0
BLOCK_RECORD
  5
181
100
AcDbSymbolTableRecord
100
AcDbBlockTableRecord
  2
*D18
340
0
  0
BLOCK_RECORD
  5
18D
100
AcDbSymbolTableRecord
100
AcDbBlockTableRecord
  2
*D19
340
0
  0
BLOCK_RECORD
  5
199
100
AcDbSymbolTableRecord
100
AcDbBlockTableRecord
  2
*D20
340
0
  0
BLOCK_RECORD
  5
1A6
100
AcDbSymbolTableRecord
100
AcDbBlockTableRecord
  2
*D21
340
0
  0
BLOCK_RECORD
  5
1B3
100
AcDbSymbolTableRecord
100
AcDbBlockTableRecord
  2
*D22
340
0
  0
BLOCK_RECORD
  5
1BE
100
AcDbSymbolTableRecord
100
AcDbBlockTableRecord
  2
*D23
340
0
  0
BLOCK_RECORD
  5
1CB
100
AcDbSymbolTableRecord
100
AcDbBlockTableRecord
  2
*D24
340
0
  0
BLOCK_RECORD
  5
23E
100
AcDbSymbolTableRecord
100
AcDbBlockTableRecord
  2
*D25
340
0
  0
BLOCK_RECORD
  5
24A
100
AcDbSymbolTableRecord
100
AcDbBlockTableRecord
  2
*D26
340
0
  0
BLOCK_RECORD
  5
256
100
AcDbSymbolTableRecord
100
AcDbBlockTableRecord
  2
*D27
340
0
  0
BLOCK_RECORD
  5
263
100
AcDbSymbolTableRecord
100
AcDbBlockTableRecord
  2
*D28
340
0
  0
BLOCK_RECORD
  5
270
100
AcDbSymbolTableRecord
100
AcDbBlockTableRecord
  2
*D29
340
0
  0
BLOCK_RECORD
  5
27B
100
AcDbSymbolTableRecord
100
AcDbBlockTableRecord
  2
*D30
340
0
  0
BLOCK_RECORD
  5
287
100
AcDbSymbolTableRecord
100
AcDbBlockTableRecord
  2
*D31
340
0
  0
BLOCK_RECORD
  5
2F7
100
AcDbSymbolTableRecord
100
AcDbBlockTableRecord
  2
*D32
340
0
  0
BLOCK_RECORD
  5
304
100
AcDbSymbolTableRecord
100
AcDbBlockTableRecord
  2
*D33
340
0
  0
BLOCK_RECORD
  5
310
100
AcDbSymbolTableRecord
100
AcDbBlockTableRecord
  2
*D34
340
0
  0
BLOCK_RECORD
  5
31C
100
AcDbSymbolTableRecord
100
AcDbBlockTableRecord
  2
*D35
340
0
  0
BLOCK_RECORD
  5
329
100
AcDbSymbolTableRecord
100
AcDbBlockTableRecord
  2
*D36
340
0
  0
BLOCK_RECORD
  5
334
100
AcDbSymbolTableRecord
100
AcDbBlockTableRecord
  2
*D37
340
0
  0
BLOCK_RECORD
  5
33F
100
AcDbSymbolTableRecord
100
AcDbBlockTableRecord
  2
*D38
340
0
  0
BLOCK_RECORD
  5
3AD
100
AcDbSymbolTableRecord
100
AcDbBlockTableRecord
  2
*D39
340
0
  0
BLOCK_RECORD
  5
3BA
100
AcDbSymbolTableRecord
100
AcDbBlockTableRecord
  2
*D40
340
0
  0
BLOCK_RECORD
  5
3C6
100
AcDbSymbolTableRecord
100
AcDbBlockTableRecord
  2
*D41
340
0
  0
BLOCK_RECORD
  5
3D2
100
AcDbSymbolTableRecord
100
AcDbBlockTableRecord
  2
*D42
340
0
  0
BLOCK_RECORD
  5
3DF
100
AcDbSymbolTableRecord
100
AcDbBlockTableRecord
  2
*D43
340
0
  0
BLOCK_RECORD
  5
3EA
100
AcDbSymbolTableRecord
100
AcDbBlockTableRecord
  2
*D44
340
0
  0
BLOCK_RECORD
  5
3F5
100
AcDbSymbolTableRecord
100
AcDbBlockTableRecord
  2
*D45
340
0
  0
BLOCK_RECORD
  5
45E
100
AcDbSymbolTableRecord
100
AcDbBlockTableRecord
  2
*D46
340
0
  0
BLOCK_RECORD
  5
46B
100
AcDbSymbolTableRecord
100
AcDbBlockTableRecord
  2
*D47
340
0
  0
BLOCK_RECORD
  5
478
100
AcDbSymbolTableRecord
100
AcDbBlockTableRecord
  2
*D48
340
0
  0
BLOCK_RECORD
  5
484
100
AcDbSymbolTableRecord
100
AcDbBlockTableRecord
  2
*D49
340
0
  0
BLOCK_RECORD
  5
490
100
AcDbSymbolTableRecord
100
AcDbBlockTableRecord
  2
*D50
340
0
  0
BLOCK_RECORD
  5
49B
100
AcDbSymbolTableRecord
100
AcDbBlockTableRecord
  2
*D51
340
0
  0
BLOCK_RECORD
  5
4A6
100
AcDbSymbolTableRecord
100
AcDbBlockTableRecord
  2
*D52
340
0
  0
BLOCK_RECORD
  5
4F7
100
AcDbSymbolTableRecord
100
AcDbBlockTableRecord
  2
*D53
340
0
  0
BLOCK_RECORD
  5
503
100
AcDbSymbolTableRecord
100
AcDbBlockTableRecord
  2
*D54
340
0
  0
BLOCK_RECORD
  5
50F
100
AcDbSymbolTableRecord
100
AcDbBlockTableRecord
  2
*D55
340
0
  0
BLOCK_RECORD
  5
51C
100
AcDbSymbolTableRecord
100
AcDbBlockTableRecord
  2
*D56
340
0
  0
BLOCK_RECORD
  5
52A
100
AcDbSymbolTableRecord
100
AcDbBlockTableRecord
  2
*D57
340
0
  0
BLOCK_RECORD
  5
535
100
AcDbSymbolTableRecord
100
AcDbBlockTableRecord
  2
*D58
340
0
  0
BLOCK_RECORD
  5
540
100
AcDbSymbolTableRecord
100
AcDbBlockTableRecord
  2
*D59
340
0
  0
BLOCK_RECORD
  5
590
100
AcDbSymbolTableRecord
100
AcDbBlockTableRecord
  2
*D60
340
0
  0
BLOCK_RECORD
  5
59D
100
AcDbSymbolTableRecord
100
AcDbBlockTableRecord
  2
*D61
340
0
  0
BLOCK_RECORD
  5
5A9
100
AcDbSymbolTableRecord
100
AcDbBlockTableRecord
  2
*D62
340
0
  0
BLOCK_RECORD
  5
5B5
100
AcDbSymbolTableRecord
100
AcDbBlockTableRecord
  2
*D63
340
0
  0
BLOCK_RECORD
  5
5C2
100
AcDbSymbolTableRecord
100
AcDbBlockTableRecord
  2
*D64
340
0
  0
BLOCK_RECORD
  5
5CD
100
AcDbSymbolTableRecord
100
AcDbBlockTableRecord
  2
*D65
340
0
  0
BLOCK_RECORD
  5
5D8
100
AcDbSymbolTableRecord
100
AcDbBlockTableRecord
  2
*D66
340
0
  0
ENDTAB
  0
ENDSEC
  0
SECTION
  2
BLOCKS
  0
BLOCK
  5
D
100
AcDbEntity
  8
0
390
0
100
AcDbBlockBegin
  2
*MODEL_SPACE
 70
     0
 10
0.0
 20
0.0
 30
0.0
  3
*MODEL_SPACE
  1

  0
ENDBLK
  5
E
100
AcDbEntity
  8
0
390
0
100
AcDbBlockEnd
  0
BLOCK
  5
F
100
AcDbEntity
 67
     1
  8
0
390
0
100
AcDbBlockBegin
  2
*PAPER_SPACE
 70
     0
 10
0.0
 20
0.0
 30
0.0
  3
*PAPER_SPACE
  1

  0
ENDBLK
  5
10
100
AcDbEntity
 67
     1
  8
0
390
0
100
AcDbBlockEnd
  0
BLOCK
  5
36
100
AcDbEntity
  8
0
370
    -2
390
0
100
AcDbBlockBegin
  2
MS_1
 70
     0
 10
0.0
 20
0.0
 30
0.0
  3
MS_1
  1

  0
MTEXT
  5
37
100
AcDbEntity
  8
0
390
0
  6
CONTINUOUS
 62
   110
100
AcDbMText
 10
64.094444
 20
54.35
 30
0.0
 40
3.2
 41
0.0
 71
     1
 72
     1
  1
\W0.833;\A1;かきくけこ
 73
     1
 44
0.9
  0
MTEXT
  5
38
100
AcDbEntity
  8
0
390
0
  6
CONTINUOUS
 62
   110
100
AcDbMText
 10
-5.905556
 20
54.35
 30
0.0
 40
3.2
 41
0.0
 71
     1
 72
     1
  1
\W0.833;\A1;あいうえお
 73
     1
 44
0.9
  0
MTEXT
  5
39
100
AcDbEntity
  8
0
390
0
  6
CONTINUOUS
 62
   110
100
AcDbMText
 10
92.544444
 20
66.6
 30
0.0
 40
3.2
 41
0.0
 71
     1
 72
     1
  1
\W0.833;\A1;変更理由
 73
     1
 44
0.9
  0
MTEXT
  5
3A
100
AcDbEntity
  8
0
390
0
  6
CONTINUOUS
 62
   110
100
AcDbMText
 10
19.294444
 20
66.6
 30
0.0
 40
3.2
 41
0.0
 71
     1
 72
     1
  1
\W0.833;\A1;変更内容
 73
     1
 44
0.9
  0
MTEXT
  5
3B
100
AcDbEntity
  8
0
390
0
  6
CONTINUOUS
 62
   110
100
AcDbMText
 10
-27.105556
 20
66.6
 30
0.0
 40
3.2
 41
0.0
 71
     1
 72
     1
  1
\W0.833;\A1;変更日
 73
     1
 44
0.9
  0
MTEXT
  5
3C
100
AcDbEntity
  8
0
390
0
  6
CONTINUOUS
 62
   110
100
AcDbMText
 10
-56.705556
 20
66.6
 30
0.0
 40
3.2
 41
0.0
 71
     1
 72
     1
  1
\W0.833;\A1;品　　名
 73
     1
 44
0.9
  0
MTEXT
  5
3D
100
AcDbEntity
  8
0
390
0
  6
CONTINUOUS
 62
   110
100
AcDbMText
 10
-77.605556
 20
66.6
 30
0.0
 40
3.2
 41
0.0
 71
     1
 72
     1
  1
\W0.833;\A1;品　番
 73
     1
 44
0.9
  0
MTEXT
  5
3E
100
AcDbEntity
  8
0
390
0
  6
CONTINUOUS
 62
   110
100
AcDbMText
 10
-106.705556
 20
66.6
 30
0.0
 40
3.2
 41
0.0
 71
     1
 72
     1
  1
\W0.833;\A1;図　　番
 73
     1
 44
0.9
  0
MTEXT
  5
3F
100
AcDbEntity
  8
0
390
0
  6
CONTINUOUS
 62
   110
100
AcDbMText
 10
-128.416667
 20
66.6
 30
0.0
 40
3.2
 41
0.0
 71
     1
 72
     1
  1
\A1;NO
 73
     1
 44
0.9
  0
MTEXT
  5
40
100
AcDbEntity
  8
0
390
0
  6
CONTINUOUS
 62
   110
100
AcDbMText
 10
-9.916666
 20
79.6
 30
0.0
 40
4.2
 41
0.0
 71
     1
 72
     1
  1
\W0.833;\A1;図面改訂表
 73
     1
 44
0.9
  0
LINE
  5
41
100
AcDbEntity
  8
0
390
0
  6
CONTINUOUS
 62
   254
100
AcDbLine
 10
60.25
 20
-85.0
 30
0.0
 11
60.25
 21
70.0
 31
0.0
  0
LINE
  5
42
100
AcDbEntity
  8
0
390
0
  6
CONTINUOUS
 62
   254
100
AcDbLine
 10
-9.75
 20
-85.0
 30
0.0
 11
-9.75
 21
70.0
 31
0.0
  0
LINE
  5
43
100
AcDbEntity
  8
0
390
0
  6
CONTINUOUS
 62
   254
100
AcDbLine
 10
-35.75
 20
-85.0
 30
0.0
 11
-35.75
 21
70.0
 31
0.0
  0
LINE
  5
44
100
AcDbEntity
  8
0
390
0
  6
CONTINUOUS
 62
   254
100
AcDbLine
 10
-65.75
 20
-85.0
 30
0.0
 11
-65.75
 21
70.0
 31
0.0
  0
LINE
  5
45
100
AcDbEntity
  8
0
390
0
  6
CONTINUOUS
 62
   254
100
AcDbLine
 10
-80.75
 20
-85.0
 30
0.0
 11
-80.75
 21
70.0
 31
0.0
  0
LINE
  5
46
100
AcDbEntity
  8
0
390
0
  6
CONTINUOUS
 62
   254
100
AcDbLine
 10
-120.75
 20
-85.0
 30
0.0
 11
-120.75
 21
70.0
 31
0.0
  0
LINE
  5
47
100
AcDbEntity
  8
0
390
0
  6
CONTINUOUS
 62
   254
100
AcDbLine
 10
-130.75
 20
60.0
 30
0.0
 11
130.75
 21
60.0
 31
0.0
  0
LINE
  5
48
100
AcDbEntity
  8
0
390
0
  6
CONTINUOUS
 62
   254
100
AcDbLine
 10
-130.75
 20
70.0
 30
0.0
 11
130.75
 21
70.0
 31
0.0
  0
LINE
  5
4A
100
AcDbEntity
  8
DEFPOINTS
390
0
  6
NON_PLOTING
 62
    41
100
AcDbLine
 10
135.75
 20
-90.0
 30
0.0
 11
135.75
 21
90.0
 31
0.0
  0
LINE
  5
4B
100
AcDbEntity
  8
DEFPOINTS
390
0
  6
NON_PLOTING
 62
    41
100
AcDbLine
 10
-135.75
 20
-90.0
 30
0.0
 11
135.75
 21
-90.0
 31
0.0
  0
LINE
  5
4C
100
AcDbEntity
  8
DEFPOINTS
390
0
  6
NON_PLOTING
 62
    41
100
AcDbLine
 10
-135.75
 20
-90.0
 30
0.0
 11
-135.75
 21
90.0
 31
0.0
  0
LINE
  5
4D
100
AcDbEntity
  8
DEFPOINTS
390
0
  6
NON_PLOTING
 62
    41
100
AcDbLine
 10
-135.75
 20
90.0
 30
0.0
 11
135.75
 21
90.0
 31
0.0
  0
LINE
  5
4E
100
AcDbEntity
  8
0
390
0
  6
CONTINUOUS
 62
   253
100
AcDbLine
 10
-130.75
 20
-85.0
 30
0.0
 11
-130.75
 21
85.0
 31
0.0
  0
LINE
  5
4F
100
AcDbEntity
  8
0
390
0
  6
CONTINUOUS
 62
   253
100
AcDbLine
 10
-130.75
 20
85.0
 30
0.0
 11
130.75
 21
85.0
 31
0.0
  0
LINE
  5
50
100
AcDbEntity
  8
0
390
0
  6
CONTINUOUS
 62
   253
100
AcDbLine
 10
-130.75
 20
-85.0
 30
0.0
 11
130.75
 21
-85.0
 31
0.0
  0
LINE
  5
51
100
AcDbEntity
  8
0
390
0
  6
CONTINUOUS
 62
   253
100
AcDbLine
 10
130.75
 20
-85.0
 30
0.0
 11
130.75
 21
85.0
 31
0.0
  0
POINT
  5
52
100
AcDbEntity
  8
0
390
0
  6
CONTINUOUS
 62
   170
100
AcDbPoint
 10
65.25
 20
-77.75
 30
0.0
  0
POINT
  5
53
100
AcDbEntity
  8
0
390
0
  6
CONTINUOUS
 62
   170
100
AcDbPoint
 10
65.25
 20
-63.25
 30
0.0
  0
POINT
  5
54
100
AcDbEntity
  8
0
390
0
  6
CONTINUOUS
 62
   170
100
AcDbPoint
 10
65.25
 20
-48.75
 30
0.0
  0
POINT
  5
55
100
AcDbEntity
  8
0
390
0
  6
CONTINUOUS
 62
   170
100
AcDbPoint
 10
65.25
 20
-34.25
 30
0.0
  0
POINT
  5
56
100
AcDbEntity
  8
0
390
0
  6
CONTINUOUS
 62
   170
100
AcDbPoint
 10
65.25
 20
-19.75
 30
0.0
  0
POINT
  5
57
100
AcDbEntity
  8
0
390
0
  6
CONTINUOUS
 62
   170
100
AcDbPoint
 10
65.25
 20
-5.25
 30
0.0
  0
POINT
  5
58
100
AcDbEntity
  8
0
390
0
  6
CONTINUOUS
 62
   170
100
AcDbPoint
 10
65.25
 20
9.25
 30
0.0
  0
POINT
  5
59
100
AcDbEntity
  8
0
390
0
  6
CONTINUOUS
 62
   170
100
AcDbPoint
 10
65.25
 20
23.75
 30
0.0
  0
POINT
  5
5A
100
AcDbEntity
  8
0
390
0
  6
CONTINUOUS
 62
   170
100
AcDbPoint
 10
65.25
 20
38.25
 30
0.0
  0
POINT
  5
5B
100
AcDbEntity
  8
0
390
0
  6
CONTINUOUS
 62
   170
100
AcDbPoint
 10
65.25
 20
52.75
 30
0.0
  0
POINT
  5
5C
100
AcDbEntity
  8
0
390
0
  6
CONTINUOUS
 62
   170
100
AcDbPoint
 10
-4.75
 20
-77.75
 30
0.0
  0
POINT
  5
5D
100
AcDbEntity
  8
0
390
0
  6
CONTINUOUS
 62
   170
100
AcDbPoint
 10
-4.75
 20
-63.25
 30
0.0
  0
POINT
  5
5E
100
AcDbEntity
  8
0
390
0
  6
CONTINUOUS
 62
   170
100
AcDbPoint
 10
-4.75
 20
-48.75
 30
0.0
  0
POINT
  5
5F
100
AcDbEntity
  8
0
390
0
  6
CONTINUOUS
 62
   170
100
AcDbPoint
 10
-4.75
 20
-34.25
 30
0.0
  0
POINT
  5
60
100
AcDbEntity
  8
0
390
0
  6
CONTINUOUS
 62
   170
100
AcDbPoint
 10
-4.75
 20
-19.75
 30
0.0
  0
POINT
  5
61
100
AcDbEntity
  8
0
390
0
  6
CONTINUOUS
 62
   170
100
AcDbPoint
 10
-4.75
 20
-5.25
 30
0.0
  0
POINT
  5
62
100
AcDbEntity
  8
0
390
0
  6
CONTINUOUS
 62
   170
100
AcDbPoint
 10
-4.75
 20
9.25
 30
0.0
  0
POINT
  5
63
100
AcDbEntity
  8
0
390
0
  6
CONTINUOUS
 62
   170
100
AcDbPoint
 10
-4.75
 20
23.75
 30
0.0
  0
POINT
  5
64
100
AcDbEntity
  8
0
390
0
  6
CONTINUOUS
 62
   170
100
AcDbPoint
 10
-4.75
 20
38.25
 30
0.0
  0
POINT
  5
65
100
AcDbEntity
  8
0
390
0
  6
CONTINUOUS
 62
   170
100
AcDbPoint
 10
-4.75
 20
52.75
 30
0.0
  0
POINT
  5
66
100
AcDbEntity
  8
0
390
0
  6
CONTINUOUS
 62
   170
100
AcDbPoint
 10
130.75
 20
-70.5
 30
0.0
  0
POINT
  5
67
100
AcDbEntity
  8
0
390
0
  6
CONTINUOUS
 62
   170
100
AcDbPoint
 10
130.75
 20
-56.0
 30
0.0
  0
POINT
  5
68
100
AcDbEntity
  8
0
390
0
  6
CONTINUOUS
 62
   170
100
AcDbPoint
 10
130.75
 20
-41.5
 30
0.0
  0
POINT
  5
69
100
AcDbEntity
  8
0
390
0
  6
CONTINUOUS
 62
   170
100
AcDbPoint
 10
130.75
 20
-27.0
 30
0.0
  0
POINT
  5
6A
100
AcDbEntity
  8
0
390
0
  6
CONTINUOUS
 62
   170
100
AcDbPoint
 10
130.75
 20
-12.5
 30
0.0
  0
POINT
  5
6B
100
AcDbEntity
  8
0
390
0
  6
CONTINUOUS
 62
   170
100
AcDbPoint
 10
130.75
 20
2.0
 30
0.0
  0
POINT
  5
6C
100
AcDbEntity
  8
0
390
0
  6
CONTINUOUS
 62
   170
100
AcDbPoint
 10
130.75
 20
16.5
 30
0.0
  0
POINT
  5
6D
100
AcDbEntity
  8
0
390
0
  6
CONTINUOUS
 62
   170
100
AcDbPoint
 10
130.75
 20
31.0
 30
0.0
  0
POINT
  5
6E
100
AcDbEntity
  8
0
390
0
  6
CONTINUOUS
 62
   170
100
AcDbPoint
 10
130.75
 20
45.5
 30
0.0
  0
POINT
  5
6F
100
AcDbEntity
  8
0
390
0
  6
CONTINUOUS
 62
   170
100
AcDbPoint
 10
-130.75
 20
-70.5
 30
0.0
  0
POINT
  5
70
100
AcDbEntity
  8
0
390
0
  6
CONTINUOUS
 62
   170
100
AcDbPoint
 10
-130.75
 20
-56.0
 30
0.0
  0
POINT
  5
71
100
AcDbEntity
  8
0
390
0
  6
CONTINUOUS
 62
   170
100
AcDbPoint
 10
-130.75
 20
-41.5
 30
0.0
  0
POINT
  5
72
100
AcDbEntity
  8
0
390
0
  6
CONTINUOUS
 62
   170
100
AcDbPoint
 10
-130.75
 20
-27.0
 30
0.0
  0
POINT
  5
73
100
AcDbEntity
  8
0
390
0
  6
CONTINUOUS
 62
   170
100
AcDbPoint
 10
-130.75
 20
-12.5
 30
0.0
  0
POINT
  5
74
100
AcDbEntity
  8
0
390
0
  6
CONTINUOUS
 62
   170
100
AcDbPoint
 10
-130.75
 20
2.0
 30
0.0
  0
POINT
  5
75
100
AcDbEntity
  8
0
390
0
  6
CONTINUOUS
 62
   170
100
AcDbPoint
 10
-130.75
 20
16.5
 30
0.0
  0
POINT
  5
76
100
AcDbEntity
  8
0
390
0
  6
CONTINUOUS
 62
   170
100
AcDbPoint
 10
-130.75
 20
31.0
 30
0.0
  0
POINT
  5
77
100
AcDbEntity
  8
0
390
0
  6
CONTINUOUS
 62
   170
100
AcDbPoint
 10
-130.75
 20
45.5
 30
0.0
  0
POINT
  5
78
100
AcDbEntity
  8
0
390
0
  6
CONTINUOUS
 62
   170
100
AcDbPoint
 10
-73.25
 20
-77.75
 30
0.0
  0
POINT
  5
79
100
AcDbEntity
  8
0
390
0
  6
CONTINUOUS
 62
   170
100
AcDbPoint
 10
-100.75
 20
-63.25
 30
0.0
  0
POINT
  5
7A
100
AcDbEntity
  8
0
390
0
  6
CONTINUOUS
 62
   170
100
AcDbPoint
 10
-125.75
 20
-34.25
 30
0.0
  0
POINT
  5
7B
100
AcDbEntity
  8
0
390
0
  6
CONTINUOUS
 62
   170
100
AcDbPoint
 10
-125.75
 20
9.25
 30
0.0
  0
POINT
  5
7C
100
AcDbEntity
  8
0
390
0
  6
CONTINUOUS
 62
   170
100
AcDbPoint
 10
0.0
 20
77.5
 30
0.0
  0
POINT
  5
7D
100
AcDbEntity
  8
0
390
0
  6
CONTINUOUS
 62
   170
100
AcDbPoint
 10
-125.75
 20
65.0
 30
0.0
  0
POINT
  5
7E
100
AcDbEntity
  8
0
390
0
  6
CONTINUOUS
 62
   170
100
AcDbPoint
 10
-100.75
 20
65.0
 30
0.0
  0
POINT
  5
7F
100
AcDbEntity
  8
0
390
0
  6
CONTINUOUS
 62
   170
100
AcDbPoint
 10
-73.25
 20
65.0
 30
0.0
  0
POINT
  5
80
100
AcDbEntity
  8
0
390
0
  6
CONTINUOUS
 62
   170
100
AcDbPoint
 10
-50.75
 20
65.0
 30
0.0
  0
POINT
  5
81
100
AcDbEntity
  8
0
390
0
  6
CONTINUOUS
 62
   170
100
AcDbPoint
 10
-22.75
 20
65.0
 30
0.0
  0
POINT
  5
82
100
AcDbEntity
  8
0
390
0
  6
CONTINUOUS
 62
   170
100
AcDbPoint
 10
25.25
 20
65.0
 30
0.0
  0
POINT
  5
83
100
AcDbEntity
  8
0
390
0
  6
CONTINUOUS
 62
   170
100
AcDbPoint
 10
98.5
 20
65.0
 30
0.0
  0
POINT
  5
84
100
AcDbEntity
  8
0
390
0
  6
CONTINUOUS
 62
   170
100
AcDbPoint
 10
-125.75
 20
52.75
 30
0.0
  0
POINT
  5
85
100
AcDbEntity
  8
0
390
0
  6
CONTINUOUS
 62
   170
100
AcDbPoint
 10
-125.75
 20
38.25
 30
0.0
  0
POINT
  5
86
100
AcDbEntity
  8
0
390
0
  6
CONTINUOUS
 62
   170
100
AcDbPoint
 10
-125.75
 20
23.75
 30
0.0
  0
POINT
  5
87
100
AcDbEntity
  8
0
390
0
  6
CONTINUOUS
 62
   170
100
AcDbPoint
 10
-125.75
 20
-5.25
 30
0.0
  0
POINT
  5
88
100
AcDbEntity
  8
0
390
0
  6
CONTINUOUS
 62
   170
100
AcDbPoint
 10
-125.75
 20
-19.75
 30
0.0
  0
POINT
  5
89
100
AcDbEntity
  8
0
390
0
  6
CONTINUOUS
 62
   170
100
AcDbPoint
 10
-125.75
 20
-48.75
 30
0.0
  0
POINT
  5
8A
100
AcDbEntity
  8
0
390
0
  6
CONTINUOUS
 62
   170
100
AcDbPoint
 10
-125.75
 20
-63.25
 30
0.0
  0
POINT
  5
8B
100
AcDbEntity
  8
0
390
0
  6
CONTINUOUS
 62
   170
100
AcDbPoint
 10
-125.75
 20
-77.75
 30
0.0
  0
POINT
  5
8C
100
AcDbEntity
  8
0
390
0
  6
CONTINUOUS
 62
   170
100
AcDbPoint
 10
-100.75
 20
52.75
 30
0.0
  0
POINT
  5
8D
100
AcDbEntity
  8
0
390
0
  6
CONTINUOUS
 62
   170
100
AcDbPoint
 10
-100.75
 20
38.25
 30
0.0
  0
POINT
  5
8E
100
AcDbEntity
  8
0
390
0
  6
CONTINUOUS
 62
   170
100
AcDbPoint
 10
-100.75
 20
23.75
 30
0.0
  0
POINT
  5
8F
100
AcDbEntity
  8
0
390
0
  6
CONTINUOUS
 62
   170
100
AcDbPoint
 10
-100.75
 20
9.25
 30
0.0
  0
POINT
  5
90
100
AcDbEntity
  8
0
390
0
  6
CONTINUOUS
 62
   170
100
AcDbPoint
 10
-100.75
 20
-5.25
 30
0.0
  0
POINT
  5
91
100
AcDbEntity
  8
0
390
0
  6
CONTINUOUS
 62
   170
100
AcDbPoint
 10
-100.75
 20
-19.75
 30
0.0
  0
POINT
  5
92
100
AcDbEntity
  8
0
390
0
  6
CONTINUOUS
 62
   170
100
AcDbPoint
 10
-100.75
 20
-34.25
 30
0.0
  0
POINT
  5
93
100
AcDbEntity
  8
0
390
0
  6
CONTINUOUS
 62
   170
100
AcDbPoint
 10
-100.75
 20
-48.75
 30
0.0
  0
POINT
  5
94
100
AcDbEntity
  8
0
390
0
  6
CONTINUOUS
 62
   170
100
AcDbPoint
 10
-100.75
 20
-63.25
 30
0.0
  0
POINT
  5
95
100
AcDbEntity
  8
0
390
0
  6
CONTINUOUS
 62
   170
100
AcDbPoint
 10
-100.75
 20
-77.75
 30
0.0
  0
POINT
  5
96
100
AcDbEntity
  8
0
390
0
  6
CONTINUOUS
 62
   170
100
AcDbPoint
 10
-73.25
 20
52.75
 30
0.0
  0
POINT
  5
97
100
AcDbEntity
  8
0
390
0
  6
CONTINUOUS
 62
   170
100
AcDbPoint
 10
-73.25
 20
23.75
 30
0.0
  0
POINT
  5
98
100
AcDbEntity
  8
0
390
0
  6
CONTINUOUS
 62
   170
100
AcDbPoint
 10
-73.25
 20
38.25
 30
0.0
  0
POINT
  5
99
100
AcDbEntity
  8
0
390
0
  6
CONTINUOUS
 62
   170
100
AcDbPoint
 10
-73.25
 20
9.25
 30
0.0
  0
POINT
  5
9A
100
AcDbEntity
  8
0
390
0
  6
CONTINUOUS
 62
   170
100
AcDbPoint
 10
-73.25
 20
-5.25
 30
0.0
  0
POINT
  5
9B
100
AcDbEntity
  8
0
390
0
  6
CONTINUOUS
 62
   170
100
AcDbPoint
 10
-73.25
 20
-19.75
 30
0.0
  0
POINT
  5
9C
100
AcDbEntity
  8
0
390
0
  6
CONTINUOUS
 62
   170
100
AcDbPoint
 10
-73.25
 20
-34.25
 30
0.0
  0
POINT
  5
9D
100
AcDbEntity
  8
0
390
0
  6
CONTINUOUS
 62
   170
100
AcDbPoint
 10
-73.25
 20
-48.75
 30
0.0
  0
POINT
  5
9E
100
AcDbEntity
  8
0
390
0
  6
CONTINUOUS
 62
   170
100
AcDbPoint
 10
-73.25
 20
-63.25
 30
0.0
  0
POINT
  5
9F
100
AcDbEntity
  8
0
390
0
  6
CONTINUOUS
 62
   170
100
AcDbPoint
 10
-73.25
 20
-77.75
 30
0.0
  0
POINT
  5
A0
100
AcDbEntity
  8
0
390
0
  6
CONTINUOUS
 62
   170
100
AcDbPoint
 10
-50.75
 20
52.75
 30
0.0
  0
POINT
  5
A1
100
AcDbEntity
  8
0
390
0
  6
CONTINUOUS
 62
   170
100
AcDbPoint
 10
-50.75
 20
38.25
 30
0.0
  0
POINT
  5
A2
100
AcDbEntity
  8
0
390
0
  6
CONTINUOUS
 62
   170
100
AcDbPoint
 10
-50.75
 20
23.75
 30
0.0
  0
POINT
  5
A3
100
AcDbEntity
  8
0
390
0
  6
CONTINUOUS
 62
   170
100
AcDbPoint
 10
-50.75
 20
9.25
 30
0.0
  0
POINT
  5
A4
100
AcDbEntity
  8
0
390
0
  6
CONTINUOUS
 62
   170
100
AcDbPoint
 10
-50.75
 20
-5.25
 30
0.0
  0
POINT
  5
A5
100
AcDbEntity
  8
0
390
0
  6
CONTINUOUS
 62
   170
100
AcDbPoint
 10
-50.75
 20
-19.75
 30
0.0
  0
POINT
  5
A6
100
AcDbEntity
  8
0
390
0
  6
CONTINUOUS
 62
   170
100
AcDbPoint
 10
-50.75
 20
-34.25
 30
0.0
  0
POINT
  5
A7
100
AcDbEntity
  8
0
390
0
  6
CONTINUOUS
 62
   170
100
AcDbPoint
 10
-50.75
 20
-48.75
 30
0.0
  0
POINT
  5
A8
100
AcDbEntity
  8
0
390
0
  6
CONTINUOUS
 62
   170
100
AcDbPoint
 10
-50.75
 20
-63.25
 30
0.0
  0
POINT
  5
A9
100
AcDbEntity
  8
0
390
0
  6
CONTINUOUS
 62
   170
100
AcDbPoint
 10
-50.75
 20
-77.75
 30
0.0
  0
POINT
  5
AA
100
AcDbEntity
  8
0
390
0
  6
CONTINUOUS
 62
   170
100
AcDbPoint
 10
-22.75
 20
52.75
 30
0.0
  0
POINT
  5
AB
100
AcDbEntity
  8
0
390
0
  6
CONTINUOUS
 62
   170
100
AcDbPoint
 10
-22.75
 20
38.25
 30
0.0
  0
POINT
  5
AC
100
AcDbEntity
  8
0
390
0
  6
CONTINUOUS
 62
   170
100
AcDbPoint
 10
-22.75
 20
23.75
 30
0.0
  0
POINT
  5
AD
100
AcDbEntity
  8
0
390
0
  6
CONTINUOUS
 62
   170
100
AcDbPoint
 10
-22.75
 20
9.25
 30
0.0
  0
POINT
  5
AE
100
AcDbEntity
  8
0
390
0
  6
CONTINUOUS
 62
   170
100
AcDbPoint
 10
-22.75
 20
-5.25
 30
0.0
  0
POINT
  5
AF
100
AcDbEntity
  8
0
390
0
  6
CONTINUOUS
 62
   170
100
AcDbPoint
 10
-22.75
 20
-19.75
 30
0.0
  0
POINT
  5
B0
100
AcDbEntity
  8
0
390
0
  6
CONTINUOUS
 62
   170
100
AcDbPoint
 10
-22.75
 20
-34.25
 30
0.0
  0
POINT
  5
B1
100
AcDbEntity
  8
0
390
0
  6
CONTINUOUS
 62
   170
100
AcDbPoint
 10
-22.75
 20
-48.75
 30
0.0
  0
POINT
  5
B2
100
AcDbEntity
  8
0
390
0
  6
CONTINUOUS
 62
   170
100
AcDbPoint
 10
-22.75
 20
-63.25
 30
0.0
  0
POINT
  5
B3
100
AcDbEntity
  8
0
390
0
  6
CONTINUOUS
 62
   170
100
AcDbPoint
 10
-22.75
 20
-77.75
 30
0.0
  0
ENDBLK
  5
B4
100
AcDbEntity
  8
0
370
    -2
390
0
100
AcDbBlockEnd
  0
BLOCK
  5
B5
100
AcDbEntity
  8
0
370
    -2
390
0
100
AcDbBlockBegin
  2
MS_2
 70
     0
 10
0.0
 20
0.0
 30
0.0
  3
MS_2
  1

  0
POINT
  5
B6
100
AcDbEntity
  8
0
390
0
  6
CONTINUOUS
 62
   170
100
AcDbPoint
 10
0.0
 20
0.0
 30
0.0
  0
POINT
  5
B7
100
AcDbEntity
  8
0
390
0
  6
CONTINUOUS
 62
   170
100
AcDbPoint
 10
0.0
 20
-7.0
 30
0.0
  0
LINE
  5
B8
100
AcDbEntity
  8
0
390
0
  6
CONTINUOUS
 62
   255
100
AcDbLine
 10
22.5
 20
3.5
 30
0.0
 11
22.5
 21
-3.5
 31
0.0
  0
LINE
  5
B9
100
AcDbEntity
  8
0
390
0
  6
CONTINUOUS
 62
   140
100
AcDbLine
 10
-22.5
 20
-10.5
 30
0.0
 11
22.5
 21
-10.5
 31
0.0
  0
LINE
  5
BA
100
AcDbEntity
  8
0
390
0
  6
CONTINUOUS
 62
   255
100
AcDbLine
 10
-22.5
 20
3.5
 30
0.0
 11
-22.5
 21
-3.5
 31
0.0
  0
LINE
  5
BB
100
AcDbEntity
  8
0
390
0
  6
CONTINUOUS
 62
   140
100
AcDbLine
 10
-22.5
 20
-3.5
 30
0.0
 11
22.5
 21
-3.5
 31
0.0
  0
LINE
  5
BC
100
AcDbEntity
  8
0
390
0
  6
CONTINUOUS
 62
   255
100
AcDbLine
 10
-22.5
 20
3.5
 30
0.0
 11
22.5
 21
3.5
 31
0.0
  0
LINE
  5
BD
100
AcDbEntity
  8
0
390
0
  6
CONTINUOUS
 62
   140
100
AcDbLine
 10
-22.5
 20
-3.5
 30
0.0
 11
-22.5
 21
-10.5
 31
0.0
  0
LINE
  5
BE
100
AcDbEntity
  8
0
390
0
  6
CONTINUOUS
 62
   140
100
AcDbLine
 10
22.5
 20
-3.5
 30
0.0
 11
22.5
 21
-10.5
 31
0.0
  0
MTEXT
  5
BF
100
AcDbEntity
  8
0
390
0
  6
CONTINUOUS
 62
   110
100
AcDbMText
 10
-17.066667
 20
1.6
 30
0.0
 40
3.2
 41
0.0
 71
     1
 72
     1
  1
\A1;----------*
 73
     1
 44
0.9
  0
MTEXT
  5
C0
100
AcDbEntity
  8
0
390
0
  6
CONTINUOUS
 62
   110
100
AcDbMText
 10
-9.155556
 20
-5.4
 30
0.0
 40
3.2
 41
0.0
 71
     1
 72
     1
  1
\W0.833;\A1;製品関連図面
 73
     1
 44
0.9
  0
ENDBLK
  5
C1
100
AcDbEntity
  8
0
370
    -2
390
0
100
AcDbBlockEnd
  0
BLOCK
  5
C2
100
AcDbEntity
  8
0
370
    -2
390
0
100
AcDbBlockBegin
  2
VF1010
 70
     0
 10
0.0
 20
0.0
 30
0.0
  3
VF1010
  1

  0
DIMENSION
  5
CF
100
AcDbEntity
  8
0
390
0
  6
CONTINUOUS
 62
   110
100
AcDbDimension
  2
*D11
 10
-80.0
 20
32.0
 30
0.0
 11
-90.0
 21
32.0
 31
0.0
 70
   128
 71
     5
 72
     1
 41
0.9
 42
20.0
  1
\A1;<>
  3
MXDIMSTYLE
100
AcDbAlignedDimension
 13
-100.0
 23
15.0
 33
0.0
 14
-80.0
 24
7.65
 34
0.0
100
AcDbRotatedDimension
1001
ACAD
1000
DSTYLE
1002
{
1070
    41
1040
2.77
1070
    44
1040
2.286
1070
    75
1070
     1
1070
   140
1040
3.2
1070
   271
1070
     0
1070
   284
1070
     8
1070
   340
1005
C9
1002
}
  0
DIMENSION
  5
DC
100
AcDbEntity
  8
0
390
0
  6
CONTINUOUS
 62
   255
100
AcDbDimension
  2
*D12
 10
80.0
 20
32.0
 30
0.0
 11
0.0
 21
32.0
 31
0.0
 70
   128
 71
     5
 72
     1
 41
0.9
 42
160.0
  1
\A1;(<>)
  3
MXDIMSTYLE
100
AcDbAlignedDimension
 13
-80.0
 23
7.65
 33
0.0
 14
80.0
 24
7.65
 34
0.0
100
AcDbRotatedDimension
1001
ACAD
1000
DSTYLE
1002
{
1070
    41
1040
2.77
1070
    44
1040
2.286
1070
    75
1070
     1
1070
   140
1040
3.2
1070
   271
1070
     0
1070
   284
1070
     8
1070
   340
1005
D6
1002
}
  0
DIMENSION
  5
E9
100
AcDbEntity
  8
0
390
0
  6
CONTINUOUS
 62
   255
100
AcDbDimension
  2
*D13
 10
-100.0
 20
40.0
 30
0.0
 11
0.0
 21
40.0
 31
0.0
 70
   128
 71
     5
 72
     1
 41
0.9
 42
200.0
  1
\A1;<>±5%
  3
MXDIMSTYLE
100
AcDbAlignedDimension
 13
100.0
 23
15.0
 33
0.0
 14
-100.0
 24
15.0
 34
0.0
100
AcDbRotatedDimension
1001
ACAD
1000
DSTYLE
1002
{
1070
    41
1040
2.77
1070
    44
1040
2.286
1070
   140
1040
3.2
1070
   271
1070
     0
1070
   284
1070
     8
1002
}
  0
DIMENSION
  5
F6
100
AcDbEntity
  8
0
390
0
  6
CONTINUOUS
 62
   110
100
AcDbDimension
  2
*D14
 10
-120.0
 20
-15.0
 30
0.0
 11
-120.0
 21
0.0
 31
0.0
 70
   128
 71
     5
 72
     1
 41
0.9
 42
30.0
  1
\A1;\U+2205<>
  3
MXDIMSTYLE
100
AcDbAlignedDimension
 13
-100.0
 23
15.0
 33
0.0
 14
-100.0
 24
-15.0
 34
0.0
 50
90.0
100
AcDbRotatedDimension
1001
ACAD
1000
DSTYLE
1002
{
1070
    41
1040
2.77
1070
    44
1040
2.286
1070
   140
1040
3.2
1070
   271
1070
     0
1070
   284
1070
     8
1002
}
  0
DIMENSION
  5
101
100
AcDbEntity
  8
0
390
0
  6
CONTINUOUS
 62
   110
100
AcDbDimension
  2
*D15
 10
100.0
 20
32.0
 30
0.0
 11
90.0
 21
32.0
 31
0.0
 70
   128
 71
     5
 72
     1
 41
0.9
 42
20.0
  1
\A1;<>
  3
MXDIMSTYLE
100
AcDbAlignedDimension
 13
80.0
 23
7.65
 33
0.0
 14
100.0
 24
15.0
 34
0.0
100
AcDbRotatedDimension
1001
ACAD
1000
DSTYLE
1002
{
1070
    41
1040
2.77
1070
    75
1070
     1
1070
    76
1070
     1
1070
   140
1040
3.2
1070
   271
1070
     0
1070
   284
1070
     8
1070
   340
1005
C9
1002
}
  0
DIMENSION
  5
10E
100
AcDbEntity
  8
0
390
0
  6
CONTINUOUS
 62
   110
100
AcDbDimension
  2
*D16
 10
-16.0
 20
7.5
 30
0.0
 11
-16.0
 21
16.0
 31
0.0
 70
   128
 71
     5
 72
     1
 41
0.9
 42
15.0
  1
\A1;\U+2205<>
  3
MXDIMSTYLE
100
AcDbAlignedDimension
 13
-2.845592
 23
-7.5
 33
0.0
 14
-0.200687
 24
7.5
 34
0.0
 50
90.0
100
AcDbRotatedDimension
1001
ACAD
1000
DSTYLE
1002
{
1070
    41
1040
2.77
1070
    75
1070
     1
1070
    76
1070
     1
1070
   140
1040
3.2
1070
   271
1070
     0
1070
   284
1070
     8
1070
   340
1005
108
1002
}
  0
DIMENSION
  5
11B
100
AcDbEntity
  8
0
390
0
  6
CONTINUOUS
 62
   110
100
AcDbDimension
  2
*D17
 10
-24.0
 20
5.25
 30
0.0
 11
-24.0
 21
16.0
 31
0.0
 70
   128
 71
     5
 72
     1
 41
0.9
 42
10.5
  1
\A1;\U+2205<>
  3
MXDIMSTYLE
100
AcDbAlignedDimension
 13
-2.448856
 23
-5.25
 33
0.0
 14
-0.597424
 24
5.25
 34
0.0
 50
90.0
100
AcDbRotatedDimension
1001
ACAD
1000
DSTYLE
1002
{
1070
    41
1040
2.77
1070
    75
1070
     1
1070
    76
1070
     1
1070
   140
1040
3.2
1070
   271
1070
     1
1070
   284
1070
     8
1070
   340
1005
115
1002
}
  0
ARC
  5
11C
100
AcDbEntity
  8
0
390
0
  6
CONTINUOUS
 62
     3
100
AcDbCircle
 10
77.75
 20
-6.75
 30
0.0
 40
0.75
100
AcDbArc
 50
180.0
 51
0.0
  0
ARC
  5
11D
100
AcDbEntity
  8
0
390
0
  6
CONTINUOUS
 62
     3
100
AcDbCircle
 10
79.25
 20
-6.0
 30
0.0
 40
0.75
100
AcDbArc
 50
0.0
 51
180.0
  0
ARC
  5
11E
100
AcDbEntity
  8
0
390
0
  6
CONTINUOUS
 62
     3
100
AcDbCircle
 10
71.75
 20
6.75
 30
0.0
 40
0.75
100
AcDbArc
 50
0.0
 51
180.0
  0
ARC
  5
11F
100
AcDbEntity
  8
0
390
0
  6
CONTINUOUS
 62
     3
100
AcDbCircle
 10
73.25
 20
6.0
 30
0.0
 40
0.75
100
AcDbArc
 50
180.0
 51
0.0
  0
ARC
  5
120
100
AcDbEntity
  8
0
390
0
  6
CONTINUOUS
 62
     3
100
AcDbCircle
 10
74.75
 20
6.75
 30
0.0
 40
0.75
100
AcDbArc
 50
0.0
 51
180.0
  0
ARC
  5
121
100
AcDbEntity
  8
0
390
0
  6
CONTINUOUS
 62
     3
100
AcDbCircle
 10
76.25
 20
6.0
 30
0.0
 40
0.75
100
AcDbArc
 50
180.0
 51
0.0
  0
ARC
  5
122
100
AcDbEntity
  8
0
390
0
  6
CONTINUOUS
 62
     3
100
AcDbCircle
 10
77.75
 20
6.75
 30
0.0
 40
0.75
100
AcDbArc
 50
0.0
 51
180.0
  0
ARC
  5
123
100
AcDbEntity
  8
0
390
0
  6
CONTINUOUS
 62
     3
100
AcDbCircle
 10
79.25
 20
6.0
 30
0.0
 40
0.75
100
AcDbArc
 50
180.0
 51
0.0
  0
ARC
  5
124
100
AcDbEntity
  8
0
390
0
  6
CONTINUOUS
 62
     3
100
AcDbCircle
 10
98.15099
 20
-13.5
 30
0.0
 40
1.5
100
AcDbArc
 50
195.0
 51
270.0
  0
ARC
  5
125
100
AcDbEntity
  8
0
390
0
  6
CONTINUOUS
 62
     3
100
AcDbCircle
 10
98.15099
 20
13.5
 30
0.0
 40
1.5
100
AcDbArc
 50
90.0
 51
165.0
  0
ARC
  5
126
100
AcDbEntity
  8
0
390
0
  6
CONTINUOUS
 62
     3
100
AcDbCircle
 10
71.75
 20
-6.75
 30
0.0
 40
0.75
100
AcDbArc
 50
180.0
 51
0.0
  0
ARC
  5
127
100
AcDbEntity
  8
0
390
0
  6
CONTINUOUS
 62
     3
100
AcDbCircle
 10
73.25
 20
-6.0
 30
0.0
 40
0.75
100
AcDbArc
 50
0.0
 51
180.0
  0
ARC
  5
128
100
AcDbEntity
  8
0
390
0
  6
CONTINUOUS
 62
     3
100
AcDbCircle
 10
74.75
 20
-6.75
 30
0.0
 40
0.75
100
AcDbArc
 50
180.0
 51
0.0
  0
ARC
  5
129
100
AcDbEntity
  8
0
390
0
  6
CONTINUOUS
 62
     3
100
AcDbCircle
 10
76.25
 20
-6.0
 30
0.0
 40
0.75
100
AcDbArc
 50
0.0
 51
180.0
  0
ARC
  5
12A
100
AcDbEntity
  8
0
390
0
  6
CONTINUOUS
 62
     3
100
AcDbCircle
 10
-71.75
 20
-6.75
 30
0.0
 40
0.75
100
AcDbArc
 50
180.0
 51
0.0
  0
ARC
  5
12B
100
AcDbEntity
  8
0
390
0
  6
CONTINUOUS
 62
     3
100
AcDbCircle
 10
-73.25
 20
-6.0
 30
0.0
 40
0.75
100
AcDbArc
 50
0.0
 51
180.0
  0
ARC
  5
12C
100
AcDbEntity
  8
0
390
0
  6
CONTINUOUS
 62
     3
100
AcDbCircle
 10
-74.75
 20
-6.75
 30
0.0
 40
0.75
100
AcDbArc
 50
180.0
 51
0.0
  0
ARC
  5
12D
100
AcDbEntity
  8
0
390
0
  6
CONTINUOUS
 62
     3
100
AcDbCircle
 10
-76.25
 20
-6.0
 30
0.0
 40
0.75
100
AcDbArc
 50
0.0
 51
180.0
  0
ARC
  5
12E
100
AcDbEntity
  8
0
390
0
  6
CONTINUOUS
 62
     3
100
AcDbCircle
 10
-77.75
 20
-6.75
 30
0.0
 40
0.75
100
AcDbArc
 50
180.0
 51
0.0
  0
ARC
  5
12F
100
AcDbEntity
  8
0
390
0
  6
CONTINUOUS
 62
     3
100
AcDbCircle
 10
-79.25
 20
-6.0
 30
0.0
 40
0.75
100
AcDbArc
 50
0.0
 51
180.0
  0
ARC
  5
130
100
AcDbEntity
  8
0
390
0
  6
CONTINUOUS
 62
     3
100
AcDbCircle
 10
-71.75
 20
6.75
 30
0.0
 40
0.75
100
AcDbArc
 50
0.0
 51
180.0
  0
ARC
  5
131
100
AcDbEntity
  8
0
390
0
  6
CONTINUOUS
 62
     3
100
AcDbCircle
 10
-73.25
 20
6.0
 30
0.0
 40
0.75
100
AcDbArc
 50
180.0
 51
0.0
  0
ARC
  5
132
100
AcDbEntity
  8
0
390
0
  6
CONTINUOUS
 62
     3
100
AcDbCircle
 10
-74.75
 20
6.75
 30
0.0
 40
0.75
100
AcDbArc
 50
0.0
 51
180.0
  0
ARC
  5
133
100
AcDbEntity
  8
0
390
0
  6
CONTINUOUS
 62
     3
100
AcDbCircle
 10
-76.25
 20
6.0
 30
0.0
 40
0.75
100
AcDbArc
 50
180.0
 51
0.0
  0
ARC
  5
134
100
AcDbEntity
  8
0
390
0
  6
CONTINUOUS
 62
     3
100
AcDbCircle
 10
-77.75
 20
6.75
 30
0.0
 40
0.75
100
AcDbArc
 50
0.0
 51
180.0
  0
ARC
  5
135
100
AcDbEntity
  8
0
390
0
  6
CONTINUOUS
 62
     3
100
AcDbCircle
 10
-79.25
 20
6.0
 30
0.0
 40
0.75
100
AcDbArc
 50
180.0
 51
0.0
  0
ARC
  5
136
100
AcDbEntity
  8
0
390
0
  6
CONTINUOUS
 62
     3
100
AcDbCircle
 10
-98.15099
 20
-13.5
 30
0.0
 40
1.5
100
AcDbArc
 50
270.0
 51
345.0
  0
ARC
  5
137
100
AcDbEntity
  8
0
390
0
  6
CONTINUOUS
 62
     3
100
AcDbCircle
 10
-98.15099
 20
13.5
 30
0.0
 40
1.5
100
AcDbArc
 50
15.0
 51
90.0
  0
LINE
  5
139
100
AcDbEntity
  8
0
390
0
  6
PHANTOM
 62
   110
100
AcDbLine
 10
71.75
 20
-7.5
 30
0.0
 11
0.200688
 21
-7.5
 31
0.0
  0
LINE
  5
13A
100
AcDbEntity
  8
0
390
0
  6
PHANTOM
 62
   110
100
AcDbLine
 10
73.25
 20
-5.25
 30
0.0
 11
0.597423
 21
-5.25
 31
0.0
  0
LINE
  5
13B
100
AcDbEntity
  8
0
390
0
  6
CONTINUOUS
 62
     3
100
AcDbLine
 10
71.0
 20
-6.75
 30
0.0
 11
71.0
 21
-6.0
 31
0.0
  0
LINE
  5
13C
100
AcDbEntity
  8
0
390
0
  6
CONTINUOUS
 62
     3
100
AcDbLine
 10
72.5
 20
-6.75
 30
0.0
 11
72.5
 21
-6.0
 31
0.0
  0
LINE
  5
13D
100
AcDbEntity
  8
0
390
0
  6
CONTINUOUS
 62
     3
100
AcDbLine
 10
74.0
 20
-6.75
 30
0.0
 11
74.0
 21
-6.0
 31
0.0
  0
LINE
  5
13E
100
AcDbEntity
  8
0
390
0
  6
CONTINUOUS
 62
     3
100
AcDbLine
 10
75.5
 20
-6.75
 30
0.0
 11
75.5
 21
-6.0
 31
0.0
  0
LINE
  5
13F
100
AcDbEntity
  8
0
390
0
  6
CONTINUOUS
 62
     3
100
AcDbLine
 10
77.0
 20
-6.75
 30
0.0
 11
77.0
 21
-6.0
 31
0.0
  0
LINE
  5
140
100
AcDbEntity
  8
0
390
0
  6
CONTINUOUS
 62
     3
100
AcDbLine
 10
78.5
 20
-6.75
 30
0.0
 11
78.5
 21
-6.0
 31
0.0
  0
LINE
  5
141
100
AcDbEntity
  8
0
390
0
  6
PHANTOM
 62
   110
100
AcDbLine
 10
71.75
 20
7.5
 30
0.0
 11
2.845592
 21
7.5
 31
0.0
  0
LINE
  5
142
100
AcDbEntity
  8
0
390
0
  6
PHANTOM
 62
   110
100
AcDbLine
 10
73.25
 20
5.25
 30
0.0
 11
2.448857
 21
5.25
 31
0.0
  0
LINE
  5
143
100
AcDbEntity
  8
0
390
0
  6
CONTINUOUS
 62
     3
100
AcDbLine
 10
71.0
 20
6.75
 30
0.0
 11
71.0
 21
6.0
 31
0.0
  0
LINE
  5
144
100
AcDbEntity
  8
0
390
0
  6
CONTINUOUS
 62
     3
100
AcDbLine
 10
72.5
 20
6.75
 30
0.0
 11
72.5
 21
6.0
 31
0.0
  0
LINE
  5
145
100
AcDbEntity
  8
0
390
0
  6
CONTINUOUS
 62
     3
100
AcDbLine
 10
74.0
 20
6.75
 30
0.0
 11
74.0
 21
6.0
 31
0.0
  0
LINE
  5
146
100
AcDbEntity
  8
0
390
0
  6
CONTINUOUS
 62
     3
100
AcDbLine
 10
75.5
 20
6.75
 30
0.0
 11
75.5
 21
6.0
 31
0.0
  0
LINE
  5
147
100
AcDbEntity
  8
0
390
0
  6
CONTINUOUS
 62
     3
100
AcDbLine
 10
77.0
 20
6.75
 30
0.0
 11
77.0
 21
6.0
 31
0.0
  0
LINE
  5
148
100
AcDbEntity
  8
0
390
0
  6
CONTINUOUS
 62
     3
100
AcDbLine
 10
78.5
 20
6.75
 30
0.0
 11
78.5
 21
6.0
 31
0.0
  0
LINE
  5
149
100
AcDbEntity
  8
0
390
0
  6
CONTINUOUS
 62
     3
100
AcDbLine
 10
100.0
 20
-15.0
 30
0.0
 11
98.15099
 21
-15.0
 31
0.0
  0
LINE
  5
14A
100
AcDbEntity
  8
0
390
0
  6
CONTINUOUS
 62
     3
100
AcDbLine
 10
96.702102
 20
-13.888229
 30
0.0
 11
94.829612
 21
-6.9
 31
0.0
  0
LINE
  5
14B
100
AcDbEntity
  8
0
390
0
  6
CONTINUOUS
 62
     3
100
AcDbLine
 10
94.829612
 20
-6.9
 30
0.0
 11
80.933013
 21
-6.9
 31
0.0
  0
LINE
  5
14C
100
AcDbEntity
  8
0
390
0
  6
CONTINUOUS
 62
     3
100
AcDbLine
 10
80.5
 20
-7.65
 30
0.0
 11
80.933013
 21
-6.9
 31
0.0
  0
LINE
  5
14D
100
AcDbEntity
  8
0
390
0
  6
CONTINUOUS
 62
     3
100
AcDbLine
 10
80.5
 20
-7.65
 30
0.0
 11
80.0
 21
-7.65
 31
0.0
  0
LINE
  5
14E
100
AcDbEntity
  8
0
390
0
  6
CONTINUOUS
 62
     3
100
AcDbLine
 10
97.5
 20
-5.0
 30
0.0
 11
80.0
 21
-5.0
 31
0.0
  0
LINE
  5
14F
100
AcDbEntity
  8
0
390
0
  6
CONTINUOUS
 62
     3
100
AcDbLine
 10
100.0
 20
-6.1
 30
0.0
 11
97.5
 21
-6.1
 31
0.0
  0
LINE
  5
150
100
AcDbEntity
  8
0
390
0
  6
CONTINUOUS
 62
     3
100
AcDbLine
 10
97.5
 20
6.1
 30
0.0
 11
97.5
 21
-6.1
 31
0.0
  0
LINE
  5
151
100
AcDbEntity
  8
0
390
0
  6
CONTINUOUS
 62
     3
100
AcDbLine
 10
100.0
 20
6.1
 30
0.0
 11
97.5
 21
6.1
 31
0.0
  0
LINE
  5
152
100
AcDbEntity
  8
0
390
0
  6
CONTINUOUS
 62
     3
100
AcDbLine
 10
97.5
 20
5.0
 30
0.0
 11
80.0
 21
5.0
 31
0.0
  0
LINE
  5
153
100
AcDbEntity
  8
0
390
0
  6
CONTINUOUS
 62
     3
100
AcDbLine
 10
80.5
 20
7.65
 30
0.0
 11
80.933013
 21
6.9
 31
0.0
  0
LINE
  5
154
100
AcDbEntity
  8
0
390
0
  6
CONTINUOUS
 62
     3
100
AcDbLine
 10
80.5
 20
7.65
 30
0.0
 11
80.0
 21
7.65
 31
0.0
  0
LINE
  5
155
100
AcDbEntity
  8
0
390
0
  6
CONTINUOUS
 62
     3
100
AcDbLine
 10
96.702102
 20
13.888229
 30
0.0
 11
94.829612
 21
6.9
 31
0.0
  0
LINE
  5
156
100
AcDbEntity
  8
0
390
0
  6
CONTINUOUS
 62
     3
100
AcDbLine
 10
94.829612
 20
6.9
 30
0.0
 11
80.933013
 21
6.9
 31
0.0
  0
LINE
  5
157
100
AcDbEntity
  8
0
390
0
  6
CONTINUOUS
 62
     3
100
AcDbLine
 10
100.0
 20
15.0
 30
0.0
 11
98.15099
 21
15.0
 31
0.0
  0
LINE
  5
158
100
AcDbEntity
  8
0
390
0
  6
CONTINUOUS
 62
     3
100
AcDbLine
 10
80.0
 20
7.65
 30
0.0
 11
80.0
 21
-7.65
 31
0.0
  0
LINE
  5
159
100
AcDbEntity
  8
0
390
0
  6
CONTINUOUS
 62
     3
100
AcDbLine
 10
100.0
 20
15.0
 30
0.0
 11
100.0
 21
-15.0
 31
0.0
  0
LINE
  5
15A
100
AcDbEntity
  8
0
390
0
  6
PHANTOM
 62
   110
100
AcDbLine
 10
-71.75
 20
-7.5
 30
0.0
 11
-2.845592
 21
-7.5
 31
0.0
  0
LINE
  5
15B
100
AcDbEntity
  8
0
390
0
  6
PHANTOM
 62
   110
100
AcDbLine
 10
-73.25
 20
-5.25
 30
0.0
 11
-2.448857
 21
-5.25
 31
0.0
  0
LINE
  5
15C
100
AcDbEntity
  8
0
390
0
  6
CONTINUOUS
 62
     3
100
AcDbLine
 10
-71.0
 20
-6.75
 30
0.0
 11
-71.0
 21
-6.0
 31
0.0
  0
LINE
  5
15D
100
AcDbEntity
  8
0
390
0
  6
CONTINUOUS
 62
     3
100
AcDbLine
 10
-72.5
 20
-6.75
 30
0.0
 11
-72.5
 21
-6.0
 31
0.0
  0
LINE
  5
15E
100
AcDbEntity
  8
0
390
0
  6
CONTINUOUS
 62
     3
100
AcDbLine
 10
-74.0
 20
-6.75
 30
0.0
 11
-74.0
 21
-6.0
 31
0.0
  0
LINE
  5
15F
100
AcDbEntity
  8
0
390
0
  6
CONTINUOUS
 62
     3
100
AcDbLine
 10
-75.5
 20
-6.75
 30
0.0
 11
-75.5
 21
-6.0
 31
0.0
  0
LINE
  5
160
100
AcDbEntity
  8
0
390
0
  6
CONTINUOUS
 62
     3
100
AcDbLine
 10
-77.0
 20
-6.75
 30
0.0
 11
-77.0
 21
-6.0
 31
0.0
  0
LINE
  5
161
100
AcDbEntity
  8
0
390
0
  6
CONTINUOUS
 62
     3
100
AcDbLine
 10
-78.5
 20
-6.75
 30
0.0
 11
-78.5
 21
-6.0
 31
0.0
  0
LINE
  5
162
100
AcDbEntity
  8
0
390
0
  6
PHANTOM
 62
   110
100
AcDbLine
 10
-71.75
 20
7.5
 30
0.0
 11
-0.200688
 21
7.5
 31
0.0
  0
LINE
  5
163
100
AcDbEntity
  8
0
390
0
  6
PHANTOM
 62
   110
100
AcDbLine
 10
-73.25
 20
5.25
 30
0.0
 11
-0.597423
 21
5.25
 31
0.0
  0
LINE
  5
164
100
AcDbEntity
  8
0
390
0
  6
CONTINUOUS
 62
     3
100
AcDbLine
 10
-71.0
 20
6.75
 30
0.0
 11
-71.0
 21
6.0
 31
0.0
  0
LINE
  5
165
100
AcDbEntity
  8
0
390
0
  6
CONTINUOUS
 62
     3
100
AcDbLine
 10
-72.5
 20
6.75
 30
0.0
 11
-72.5
 21
6.0
 31
0.0
  0
LINE
  5
166
100
AcDbEntity
  8
0
390
0
  6
CONTINUOUS
 62
     3
100
AcDbLine
 10
-74.0
 20
6.75
 30
0.0
 11
-74.0
 21
6.0
 31
0.0
  0
LINE
  5
167
100
AcDbEntity
  8
0
390
0
  6
CONTINUOUS
 62
     3
100
AcDbLine
 10
-75.5
 20
6.75
 30
0.0
 11
-75.5
 21
6.0
 31
0.0
  0
LINE
  5
168
100
AcDbEntity
  8
0
390
0
  6
CONTINUOUS
 62
     3
100
AcDbLine
 10
-77.0
 20
6.75
 30
0.0
 11
-77.0
 21
6.0
 31
0.0
  0
LINE
  5
169
100
AcDbEntity
  8
0
390
0
  6
CONTINUOUS
 62
     3
100
AcDbLine
 10
-78.5
 20
6.75
 30
0.0
 11
-78.5
 21
6.0
 31
0.0
  0
LINE
  5
16A
100
AcDbEntity
  8
0
390
0
  6
CONTINUOUS
 62
     3
100
AcDbLine
 10
-100.0
 20
-15.0
 30
0.0
 11
-98.15099
 21
-15.0
 31
0.0
  0
LINE
  5
16B
100
AcDbEntity
  8
0
390
0
  6
CONTINUOUS
 62
     3
100
AcDbLine
 10
-96.702102
 20
-13.888229
 30
0.0
 11
-94.829612
 21
-6.9
 31
0.0
  0
LINE
  5
16C
100
AcDbEntity
  8
0
390
0
  6
CONTINUOUS
 62
     3
100
AcDbLine
 10
-94.829612
 20
-6.9
 30
0.0
 11
-80.933013
 21
-6.9
 31
0.0
  0
LINE
  5
16D
100
AcDbEntity
  8
0
390
0
  6
CONTINUOUS
 62
     3
100
AcDbLine
 10
-80.5
 20
-7.65
 30
0.0
 11
-80.933013
 21
-6.9
 31
0.0
  0
LINE
  5
16E
100
AcDbEntity
  8
0
390
0
  6
CONTINUOUS
 62
     3
100
AcDbLine
 10
-80.5
 20
-7.65
 30
0.0
 11
-80.0
 21
-7.65
 31
0.0
  0
LINE
  5
16F
100
AcDbEntity
  8
0
390
0
  6
CONTINUOUS
 62
     3
100
AcDbLine
 10
-97.5
 20
-5.0
 30
0.0
 11
-80.0
 21
-5.0
 31
0.0
  0
LINE
  5
170
100
AcDbEntity
  8
0
390
0
  6
CONTINUOUS
 62
     3
100
AcDbLine
 10
-100.0
 20
-6.1
 30
0.0
 11
-97.5
 21
-6.1
 31
0.0
  0
LINE
  5
171
100
AcDbEntity
  8
0
390
0
  6
CONTINUOUS
 62
     3
100
AcDbLine
 10
-97.5
 20
6.1
 30
0.0
 11
-97.5
 21
-6.1
 31
0.0
  0
LINE
  5
172
100
AcDbEntity
  8
0
390
0
  6
CONTINUOUS
 62
     3
100
AcDbLine
 10
-100.0
 20
6.1
 30
0.0
 11
-97.5
 21
6.1
 31
0.0
  0
LINE
  5
173
100
AcDbEntity
  8
0
390
0
  6
CONTINUOUS
 62
     3
100
AcDbLine
 10
-97.5
 20
5.0
 30
0.0
 11
-80.0
 21
5.0
 31
0.0
  0
LINE
  5
174
100
AcDbEntity
  8
0
390
0
  6
CONTINUOUS
 62
     3
100
AcDbLine
 10
-80.5
 20
7.65
 30
0.0
 11
-80.933013
 21
6.9
 31
0.0
  0
LINE
  5
175
100
AcDbEntity
  8
0
390
0
  6
CONTINUOUS
 62
     3
100
AcDbLine
 10
-80.5
 20
7.65
 30
0.0
 11
-80.0
 21
7.65
 31
0.0
  0
LINE
  5
176
100
AcDbEntity
  8
0
390
0
  6
CONTINUOUS
 62
     3
100
AcDbLine
 10
-96.702102
 20
13.888229
 30
0.0
 11
-94.829612
 21
6.9
 31
0.0
  0
LINE
  5
177
100
AcDbEntity
  8
0
390
0
  6
CONTINUOUS
 62
     3
100
AcDbLine
 10
-94.829612
 20
6.9
 30
0.0
 11
-80.933013
 21
6.9
 31
0.0
  0
LINE
  5
178
100
AcDbEntity
  8
0
390
0
  6
CONTINUOUS
 62
     3
100
AcDbLine
 10
-100.0
 20
15.0
 30
0.0
 11
-98.15099
 21
15.0
 31
0.0
  0
LINE
  5
179
100
AcDbEntity
  8
0
390
0
  6
CONTINUOUS
 62
     3
100
AcDbLine
 10
-80.0
 20
7.65
 30
0.0
 11
-80.0
 21
-7.65
 31
0.0
  0
LINE
  5
17B
100
AcDbEntity
  8
0
390
0
  6
CENTER
 62
   110
100
AcDbLine
 10
-0.328293
 20
-10.5
 30
0.0
 11
3.374573
 21
10.5
 31
0.0
  0
LINE
  5
17C
100
AcDbEntity
  8
0
390
0
  6
CENTER
 62
   110
100
AcDbLine
 10
-3.374573
 20
-10.5
 30
0.0
 11
0.328293
 21
10.5
 31
0.0
  0
LINE
  5
17D
100
AcDbEntity
  8
0
390
0
  6
CONTINUOUS
 62
     3
100
AcDbLine
 10
-100.0
 20
15.0
 30
0.0
 11
-100.0
 21
-15.0
 31
0.0
  0
LINE
  5
17E
100
AcDbEntity
  8
0
390
0
  6
CENTER
 62
   110
100
AcDbLine
 10
-104.0
 20
0.0
 30
0.0
 11
104.0
 21
0.0
 31
0.0
  0
ENDBLK
  5
17F
100
AcDbEntity
  8
0
370
    -2
390
0
100
AcDbBlockEnd
  0
BLOCK
  5
180
100
AcDbEntity
  8
0
370
    -2
390
0
100
AcDbBlockBegin
  2
VF1016
 70
     0
 10
0.0
 20
0.0
 30
0.0
  3
VF1016
  1

  0
DIMENSION
  5
18C
100
AcDbEntity
  8
0
390
0
  6
CONTINUOUS
 62
   110
100
AcDbDimension
  2
*D18
 10
-80.0
 20
32.0
 30
0.0
 11
-90.0
 21
32.0
 31
0.0
 70
   128
 71
     5
 72
     1
 41
0.9
 42
20.0
  1
\A1;<>
  3
MXDIMSTYLE
100
AcDbAlignedDimension
 13
-100.0
 23
15.0
 33
0.0
 14
-80.0
 24
9.65
 34
0.0
100
AcDbRotatedDimension
1001
ACAD
1000
DSTYLE
1002
{
1070
    41
1040
2.77
1070
    44
1040
2.286
1070
    75
1070
     1
1070
   140
1040
3.2
1070
   271
1070
     0
1070
   284
1070
     8
1070
   340
1005
C9
1002
}
  0
DIMENSION
  5
198
100
AcDbEntity
  8
0
390
0
  6
CONTINUOUS
 62
   255
100
AcDbDimension
  2
*D19
 10
80.0
 20
32.0
 30
0.0
 11
0.0
 21
32.0
 31
0.0
 70
   128
 71
     5
 72
     1
 41
0.9
 42
160.0
  1
\A1;(<>)
  3
MXDIMSTYLE
100
AcDbAlignedDimension
 13
-80.0
 23
9.65
 33
0.0
 14
80.0
 24
9.65
 34
0.0
100
AcDbRotatedDimension
1001
ACAD
1000
DSTYLE
1002
{
1070
    41
1040
2.77
1070
    44
1040
2.286
1070
    75
1070
     1
1070
   140
1040
3.2
1070
   271
1070
     0
1070
   284
1070
     8
1070
   340
1005
D6
1002
}
  0
DIMENSION
  5
1A5
100
AcDbEntity
  8
0
390
0
  6
CONTINUOUS
 62
   255
100
AcDbDimension
  2
*D20
 10
-100.0
 20
40.0
 30
0.0
 11
0.0
 21
40.0
 31
0.0
 70
   128
 71
     5
 72
     1
 41
0.9
 42
200.0
  1
\A1;<>±5%
  3
MXDIMSTYLE
100
AcDbAlignedDimension
 13
100.0
 23
15.0
 33
0.0
 14
-100.0
 24
15.0
 34
0.0
100
AcDbRotatedDimension
1001
ACAD
1000
DSTYLE
1002
{
1070
    41
1040
2.77
1070
    44
1040
2.286
1070
   140
1040
3.2
1070
   271
1070
     0
1070
   284
1070
     8
1002
}
  0
DIMENSION
  5
1B2
100
AcDbEntity
  8
0
390
0
  6
CONTINUOUS
 62
   110
100
AcDbDimension
  2
*D21
 10
-120.0
 20
-15.0
 30
0.0
 11
-120.0
 21
0.0
 31
0.0
 70
   128
 71
     5
 72
     1
 41
0.9
 42
30.0
  1
\A1;\U+2205<>
  3
MXDIMSTYLE
100
AcDbAlignedDimension
 13
-100.0
 23
15.0
 33
0.0
 14
-100.0
 24
-15.0
 34
0.0
 50
90.0
100
AcDbRotatedDimension
1001
ACAD
1000
DSTYLE
1002
{
1070
    41
1040
2.77
1070
    44
1040
2.286
1070
   140
1040
3.2
1070
   271
1070
     0
1070
   284
1070
     8
1002
}
  0
DIMENSION
  5
1BD
100
AcDbEntity
  8
0
390
0
  6
CONTINUOUS
 62
   110
100
AcDbDimension
  2
*D22
 10
100.0
 20
32.0
 30
0.0
 11
90.0
 21
32.0
 31
0.0
 70
   128
 71
     5
 72
     1
 41
0.9
 42
20.0
  1
\A1;<>
  3
MXDIMSTYLE
100
AcDbAlignedDimension
 13
80.0
 23
9.65
 33
0.0
 14
100.0
 24
15.0
 34
0.0
100
AcDbRotatedDimension
1001
ACAD
1000
DSTYLE
1002
{
1070
    41
1040
2.77
1070
    75
1070
     1
1070
    76
1070
     1
1070
   140
1040
3.2
1070
   271
1070
     0
1070
   284
1070
     8
1070
   340
1005
C9
1002
}
  0
DIMENSION
  5
1CA
100
AcDbEntity
  8
0
390
0
  6
CONTINUOUS
 62
   110
100
AcDbDimension
  2
*D23
 10
-16.0
 20
9.25
 30
0.0
 11
-16.0
 21
19.200001
 31
0.0
 70
   128
 71
     5
 72
     1
 41
0.9
 42
18.5
  1
\A1;\U+2205<>
  3
MXDIMSTYLE
100
AcDbAlignedDimension
 13
-3.154164
 23
-9.25
 33
0.0
 14
0.107885
 24
9.25
 34
0.0
 50
90.0
100
AcDbRotatedDimension
1001
ACAD
1000
DSTYLE
1002
{
1070
    41
1040
2.77
1070
    75
1070
     1
1070
    76
1070
     1
1070
   140
1040
3.2
1070
   271
1070
     1
1070
   284
1070
     8
1070
   340
1005
1C4
1002
}
  0
DIMENSION
  5
1D6
100
AcDbEntity
  8
0
390
0
  6
CONTINUOUS
 62
   110
100
AcDbDimension
  2
*D24
 10
-24.0
 20
6.5
 30
0.0
 11
-24.0
 21
16.0
 31
0.0
 70
   128
 71
     5
 72
     1
 41
0.9
 42
13.0
  1
\A1;\U+2205<>
  3
MXDIMSTYLE
100
AcDbAlignedDimension
 13
-2.669266
 23
-6.5
 33
0.0
 14
-0.377014
 24
6.5
 34
0.0
 50
90.0
100
AcDbRotatedDimension
1001
ACAD
1000
DSTYLE
1002
{
1070
    41
1040
2.77
1070
    75
1070
     1
1070
    76
1070
     1
1070
   140
1040
3.2
1070
   271
1070
     0
1070
   284
1070
     8
1070
   340
1005
108
1002
}
  0
ARC
  5
1D7
100
AcDbEntity
  8
0
390
0
  6
CONTINUOUS
 62
     3
100
AcDbCircle
 10
-71.2
 20
-8.45
 30
0.0
 40
0.8
100
AcDbArc
 50
180.0
 51
0.0
  0
ARC
  5
1D8
100
AcDbEntity
  8
0
390
0
  6
CONTINUOUS
 62
     3
100
AcDbCircle
 10
-72.8
 20
-7.3
 30
0.0
 40
0.8
100
AcDbArc
 50
0.0
 51
180.0
  0
ARC
  5
1D9
100
AcDbEntity
  8
0
390
0
  6
CONTINUOUS
 62
     3
100
AcDbCircle
 10
-74.4
 20
-8.45
 30
0.0
 40
0.8
100
AcDbArc
 50
180.0
 51
0.0
  0
ARC
  5
1DA
100
AcDbEntity
  8
0
390
0
  6
CONTINUOUS
 62
     3
100
AcDbCircle
 10
-76.0
 20
-7.3
 30
0.0
 40
0.8
100
AcDbArc
 50
0.0
 51
180.0
  0
ARC
  5
1DB
100
AcDbEntity
  8
0
390
0
  6
CONTINUOUS
 62
     3
100
AcDbCircle
 10
-77.6
 20
-8.45
 30
0.0
 40
0.8
100
AcDbArc
 50
180.0
 51
0.0
  0
ARC
  5
1DC
100
AcDbEntity
  8
0
390
0
  6
CONTINUOUS
 62
     3
100
AcDbCircle
 10
-79.2
 20
-7.3
 30
0.0
 40
0.8
100
AcDbArc
 50
0.0
 51
180.0
  0
ARC
  5
1DD
100
AcDbEntity
  8
0
390
0
  6
CONTINUOUS
 62
     3
100
AcDbCircle
 10
72.8
 20
-7.3
 30
0.0
 40
0.8
100
AcDbArc
 50
0.0
 51
180.0
  0
ARC
  5
1DE
100
AcDbEntity
  8
0
390
0
  6
CONTINUOUS
 62
     3
100
AcDbCircle
 10
74.4
 20
-8.45
 30
0.0
 40
0.8
100
AcDbArc
 50
180.0
 51
0.0
  0
ARC
  5
1DF
100
AcDbEntity
  8
0
390
0
  6
CONTINUOUS
 62
     3
100
AcDbCircle
 10
76.0
 20
-7.3
 30
0.0
 40
0.8
100
AcDbArc
 50
0.0
 51
180.0
  0
ARC
  5
1E0
100
AcDbEntity
  8
0
390
0
  6
CONTINUOUS
 62
     3
100
AcDbCircle
 10
77.6
 20
-8.45
 30
0.0
 40
0.8
100
AcDbArc
 50
180.0
 51
0.0
  0
ARC
  5
1E1
100
AcDbEntity
  8
0
390
0
  6
CONTINUOUS
 62
     3
100
AcDbCircle
 10
79.2
 20
-7.3
 30
0.0
 40
0.8
100
AcDbArc
 50
0.0
 51
180.0
  0
ARC
  5
1E2
100
AcDbEntity
  8
0
390
0
  6
CONTINUOUS
 62
     3
100
AcDbCircle
 10
71.2
 20
-8.45
 30
0.0
 40
0.8
100
AcDbArc
 50
180.0
 51
0.0
  0
ARC
  5
1E3
100
AcDbEntity
  8
0
390
0
  6
CONTINUOUS
 62
     3
100
AcDbCircle
 10
72.8
 20
7.3
 30
0.0
 40
0.8
100
AcDbArc
 50
180.0
 51
0.0
  0
ARC
  5
1E4
100
AcDbEntity
  8
0
390
0
  6
CONTINUOUS
 62
     3
100
AcDbCircle
 10
74.4
 20
8.45
 30
0.0
 40
0.8
100
AcDbArc
 50
0.0
 51
180.0
  0
ARC
  5
1E5
100
AcDbEntity
  8
0
390
0
  6
CONTINUOUS
 62
     3
100
AcDbCircle
 10
76.0
 20
7.3
 30
0.0
 40
0.8
100
AcDbArc
 50
180.0
 51
0.0
  0
ARC
  5
1E6
100
AcDbEntity
  8
0
390
0
  6
CONTINUOUS
 62
     3
100
AcDbCircle
 10
77.6
 20
8.45
 30
0.0
 40
0.8
100
AcDbArc
 50
0.0
 51
180.0
  0
ARC
  5
1E7
100
AcDbEntity
  8
0
390
0
  6
CONTINUOUS
 62
     3
100
AcDbCircle
 10
79.2
 20
7.3
 30
0.0
 40
0.8
100
AcDbArc
 50
180.0
 51
0.0
  0
ARC
  5
1E8
100
AcDbEntity
  8
0
390
0
  6
CONTINUOUS
 62
     3
100
AcDbCircle
 10
71.2
 20
8.45
 30
0.0
 40
0.8
100
AcDbArc
 50
0.0
 51
180.0
  0
ARC
  5
1E9
100
AcDbEntity
  8
0
390
0
  6
CONTINUOUS
 62
     3
100
AcDbCircle
 10
-71.2
 20
8.45
 30
0.0
 40
0.8
100
AcDbArc
 50
0.0
 51
180.0
  0
ARC
  5
1EA
100
AcDbEntity
  8
0
390
0
  6
CONTINUOUS
 62
     3
100
AcDbCircle
 10
-72.8
 20
7.3
 30
0.0
 40
0.8
100
AcDbArc
 50
180.0
 51
0.0
  0
ARC
  5
1EB
100
AcDbEntity
  8
0
390
0
  6
CONTINUOUS
 62
     3
100
AcDbCircle
 10
-74.4
 20
8.45
 30
0.0
 40
0.8
100
AcDbArc
 50
0.0
 51
180.0
  0
ARC
  5
1EC
100
AcDbEntity
  8
0
390
0
  6
CONTINUOUS
 62
     3
100
AcDbCircle
 10
-76.0
 20
7.3
 30
0.0
 40
0.8
100
AcDbArc
 50
180.0
 51
0.0
  0
ARC
  5
1ED
100
AcDbEntity
  8
0
390
0
  6
CONTINUOUS
 62
     3
100
AcDbCircle
 10
-77.6
 20
8.45
 30
0.0
 40
0.8
100
AcDbArc
 50
0.0
 51
180.0
  0
ARC
  5
1EE
100
AcDbEntity
  8
0
390
0
  6
CONTINUOUS
 62
     3
100
AcDbCircle
 10
-79.2
 20
7.3
 30
0.0
 40
0.8
100
AcDbArc
 50
180.0
 51
0.0
  0
ARC
  5
1EF
100
AcDbEntity
  8
0
390
0
  6
CONTINUOUS
 62
     3
100
AcDbCircle
 10
81.498749
 20
-9.7
 30
0.0
 40
1.0
100
AcDbArc
 50
0.0
 51
177.133994
  0
ARC
  5
1F0
100
AcDbEntity
  8
0
390
0
  6
CONTINUOUS
 62
     3
100
AcDbCircle
 10
81.498749
 20
9.7
 30
0.0
 40
1.0
100
AcDbArc
 50
182.866006
 51
0.0
  0
ARC
  5
1F1
100
AcDbEntity
  8
0
390
0
  6
CONTINUOUS
 62
     3
100
AcDbCircle
 10
98.150986
 20
-13.5
 30
0.0
 40
1.5
100
AcDbArc
 50
194.999994
 51
269.999982
  0
ARC
  5
1F2
100
AcDbEntity
  8
0
390
0
  6
CONTINUOUS
 62
     3
100
AcDbCircle
 10
98.150986
 20
13.5
 30
0.0
 40
1.5
100
AcDbArc
 50
90.000018
 51
165.000006
  0
ARC
  5
1F3
100
AcDbEntity
  8
0
390
0
  6
CONTINUOUS
 62
     3
100
AcDbCircle
 10
-81.498749
 20
-9.7
 30
0.0
 40
1.0
100
AcDbArc
 50
2.866006
 51
180.0
  0
ARC
  5
1F4
100
AcDbEntity
  8
0
390
0
  6
CONTINUOUS
 62
     3
100
AcDbCircle
 10
-81.498749
 20
9.7
 30
0.0
 40
1.0
100
AcDbArc
 50
180.0
 51
357.133994
  0
ARC
  5
1F5
100
AcDbEntity
  8
0
390
0
  6
CONTINUOUS
 62
     3
100
AcDbCircle
 10
-98.150986
 20
-13.5
 30
0.0
 40
1.5
100
AcDbArc
 50
270.000018
 51
345.000006
  0
ARC
  5
1F6
100
AcDbEntity
  8
0
390
0
  6
CONTINUOUS
 62
     3
100
AcDbCircle
 10
-98.150986
 20
13.5
 30
0.0
 40
1.5
100
AcDbArc
 50
14.999994
 51
89.999982
  0
LINE
  5
1F7
100
AcDbEntity
  8
0
390
0
  6
PHANTOM
 62
   110
100
AcDbLine
 10
-0.107885
 20
-9.25
 30
0.0
 11
71.2
 21
-9.25
 31
0.0
  0
LINE
  5
1F8
100
AcDbEntity
  8
0
390
0
  6
PHANTOM
 62
   110
100
AcDbLine
 10
0.377015
 20
-6.5
 30
0.0
 11
72.8
 21
-6.5
 31
0.0
  0
LINE
  5
1F9
100
AcDbEntity
  8
0
390
0
  6
PHANTOM
 62
   110
100
AcDbLine
 10
2.669265
 20
6.5
 30
0.0
 11
72.8
 21
6.5
 31
0.0
  0
LINE
  5
1FA
100
AcDbEntity
  8
0
390
0
  6
PHANTOM
 62
   110
100
AcDbLine
 10
3.154164
 20
9.25
 30
0.0
 11
71.2
 21
9.25
 31
0.0
  0
LINE
  5
1FB
100
AcDbEntity
  8
0
390
0
  6
CENTER
 62
   110
100
AcDbLine
 10
-0.636866
 20
-12.25
 30
0.0
 11
3.683145
 21
12.25
 31
0.0
  0
LINE
  5
1FC
100
AcDbEntity
  8
0
390
0
  6
CENTER
 62
   110
100
AcDbLine
 10
-3.683145
 20
-12.25
 30
0.0
 11
0.636866
 21
12.25
 31
0.0
  0
LINE
  5
1FD
100
AcDbEntity
  8
0
390
0
  6
CONTINUOUS
 62
     3
100
AcDbLine
 10
-70.4
 20
-8.45
 30
0.0
 11
-70.4
 21
-7.3
 31
0.0
  0
LINE
  5
1FE
100
AcDbEntity
  8
0
390
0
  6
CONTINUOUS
 62
     3
100
AcDbLine
 10
-72.0
 20
-8.45
 30
0.0
 11
-72.0
 21
-7.3
 31
0.0
  0
LINE
  5
1FF
100
AcDbEntity
  8
0
390
0
  6
CONTINUOUS
 62
     3
100
AcDbLine
 10
-73.6
 20
-8.45
 30
0.0
 11
-73.6
 21
-7.3
 31
0.0
  0
LINE
  5
200
100
AcDbEntity
  8
0
390
0
  6
CONTINUOUS
 62
     3
100
AcDbLine
 10
-75.2
 20
-8.45
 30
0.0
 11
-75.2
 21
-7.3
 31
0.0
  0
LINE
  5
201
100
AcDbEntity
  8
0
390
0
  6
CONTINUOUS
 62
     3
100
AcDbLine
 10
-76.8
 20
-8.45
 30
0.0
 11
-76.8
 21
-7.3
 31
0.0
  0
LINE
  5
202
100
AcDbEntity
  8
0
390
0
  6
CONTINUOUS
 62
     3
100
AcDbLine
 10
-78.4
 20
-8.45
 30
0.0
 11
-78.4
 21
-7.3
 31
0.0
  0
LINE
  5
203
100
AcDbEntity
  8
0
390
0
  6
CONTINUOUS
 62
     3
100
AcDbLine
 10
70.4
 20
-8.45
 30
0.0
 11
70.4
 21
-7.3
 31
0.0
  0
LINE
  5
204
100
AcDbEntity
  8
0
390
0
  6
CONTINUOUS
 62
     3
100
AcDbLine
 10
72.0
 20
-8.45
 30
0.0
 11
72.0
 21
-7.3
 31
0.0
  0
LINE
  5
205
100
AcDbEntity
  8
0
390
0
  6
CONTINUOUS
 62
     3
100
AcDbLine
 10
73.6
 20
-8.45
 30
0.0
 11
73.6
 21
-7.3
 31
0.0
  0
LINE
  5
206
100
AcDbEntity
  8
0
390
0
  6
CONTINUOUS
 62
     3
100
AcDbLine
 10
75.2
 20
-8.45
 30
0.0
 11
75.2
 21
-7.3
 31
0.0
  0
LINE
  5
207
100
AcDbEntity
  8
0
390
0
  6
CONTINUOUS
 62
     3
100
AcDbLine
 10
76.8
 20
-8.45
 30
0.0
 11
76.8
 21
-7.3
 31
0.0
  0
LINE
  5
208
100
AcDbEntity
  8
0
390
0
  6
CONTINUOUS
 62
     3
100
AcDbLine
 10
78.4
 20
-8.45
 30
0.0
 11
78.4
 21
-7.3
 31
0.0
  0
LINE
  5
209
100
AcDbEntity
  8
0
390
0
  6
PHANTOM
 62
   110
100
AcDbLine
 10
-71.2
 20
-9.25
 30
0.0
 11
-3.154164
 21
-9.25
 31
0.0
  0
LINE
  5
20A
100
AcDbEntity
  8
0
390
0
  6
PHANTOM
 62
   110
100
AcDbLine
 10
-72.8
 20
-6.5
 30
0.0
 11
-2.669265
 21
-6.5
 31
0.0
  0
LINE
  5
20B
100
AcDbEntity
  8
0
390
0
  6
CONTINUOUS
 62
     3
100
AcDbLine
 10
70.4
 20
8.45
 30
0.0
 11
70.4
 21
7.3
 31
0.0
  0
LINE
  5
20C
100
AcDbEntity
  8
0
390
0
  6
CONTINUOUS
 62
     3
100
AcDbLine
 10
72.0
 20
8.45
 30
0.0
 11
72.0
 21
7.3
 31
0.0
  0
LINE
  5
20D
100
AcDbEntity
  8
0
390
0
  6
CONTINUOUS
 62
     3
100
AcDbLine
 10
73.6
 20
8.45
 30
0.0
 11
73.6
 21
7.3
 31
0.0
  0
LINE
  5
20E
100
AcDbEntity
  8
0
390
0
  6
CONTINUOUS
 62
     3
100
AcDbLine
 10
75.2
 20
8.45
 30
0.0
 11
75.2
 21
7.3
 31
0.0
  0
LINE
  5
20F
100
AcDbEntity
  8
0
390
0
  6
CONTINUOUS
 62
     3
100
AcDbLine
 10
76.8
 20
8.45
 30
0.0
 11
76.8
 21
7.3
 31
0.0
  0
LINE
  5
210
100
AcDbEntity
  8
0
390
0
  6
CONTINUOUS
 62
     3
100
AcDbLine
 10
78.4
 20
8.45
 30
0.0
 11
78.4
 21
7.3
 31
0.0
  0
LINE
  5
211
100
AcDbEntity
  8
0
390
0
  6
PHANTOM
 62
   110
100
AcDbLine
 10
-71.2
 20
9.25
 30
0.0
 11
0.107885
 21
9.25
 31
0.0
  0
LINE
  5
212
100
AcDbEntity
  8
0
390
0
  6
PHANTOM
 62
   110
100
AcDbLine
 10
-72.8
 20
6.5
 30
0.0
 11
-0.377015
 21
6.5
 31
0.0
  0
LINE
  5
213
100
AcDbEntity
  8
0
390
0
  6
CONTINUOUS
 62
     3
100
AcDbLine
 10
-70.4
 20
8.45
 30
0.0
 11
-70.4
 21
7.3
 31
0.0
  0
LINE
  5
214
100
AcDbEntity
  8
0
390
0
  6
CONTINUOUS
 62
     3
100
AcDbLine
 10
-72.0
 20
8.45
 30
0.0
 11
-72.0
 21
7.3
 31
0.0
  0
LINE
  5
215
100
AcDbEntity
  8
0
390
0
  6
CONTINUOUS
 62
     3
100
AcDbLine
 10
-73.6
 20
8.45
 30
0.0
 11
-73.6
 21
7.3
 31
0.0
  0
LINE
  5
216
100
AcDbEntity
  8
0
390
0
  6
CONTINUOUS
 62
     3
100
AcDbLine
 10
-75.2
 20
8.45
 30
0.0
 11
-75.2
 21
7.3
 31
0.0
  0
LINE
  5
217
100
AcDbEntity
  8
0
390
0
  6
CONTINUOUS
 62
     3
100
AcDbLine
 10
-76.8
 20
8.45
 30
0.0
 11
-76.8
 21
7.3
 31
0.0
  0
LINE
  5
218
100
AcDbEntity
  8
0
390
0
  6
CONTINUOUS
 62
     3
100
AcDbLine
 10
-78.4
 20
8.45
 30
0.0
 11
-78.4
 21
7.3
 31
0.0
  0
LINE
  5
219
100
AcDbEntity
  8
0
390
0
  6
CONTINUOUS
 62
     3
100
AcDbLine
 10
100.0
 20
-8.6
 30
0.0
 11
97.5
 21
-8.6
 31
0.0
  0
LINE
  5
21A
100
AcDbEntity
  8
0
390
0
  6
CONTINUOUS
 62
     3
100
AcDbLine
 10
97.5
 20
-8.0
 30
0.0
 11
80.0
 21
-8.0
 31
0.0
  0
LINE
  5
21B
100
AcDbEntity
  8
0
390
0
  6
CONTINUOUS
 62
     3
100
AcDbLine
 10
82.498749
 20
-9.7
 30
0.0
 11
82.498749
 21
-10.0
 31
0.0
  0
LINE
  5
21C
100
AcDbEntity
  8
0
390
0
  6
CONTINUOUS
 62
     3
100
AcDbLine
 10
82.498749
 20
9.7
 30
0.0
 11
82.498749
 21
10.0
 31
0.0
  0
LINE
  5
21D
100
AcDbEntity
  8
0
390
0
  6
CONTINUOUS
 62
     3
100
AcDbLine
 10
100.0
 20
15.0
 30
0.0
 11
100.0
 21
-15.0
 31
0.0
  0
LINE
  5
21E
100
AcDbEntity
  8
0
390
0
  6
CONTINUOUS
 62
     3
100
AcDbLine
 10
96.702099
 20
13.88823
 30
0.0
 11
95.66025
 21
9.999998
 31
0.0
  0
LINE
  5
21F
100
AcDbEntity
  8
0
390
0
  6
CONTINUOUS
 62
     3
100
AcDbLine
 10
96.702099
 20
-13.88823
 30
0.0
 11
95.66025
 21
-9.999998
 31
0.0
  0
LINE
  5
220
100
AcDbEntity
  8
0
390
0
  6
CONTINUOUS
 62
     3
100
AcDbLine
 10
95.660255
 20
-10.0
 30
0.0
 11
82.498749
 21
-10.0
 31
0.0
  0
LINE
  5
221
100
AcDbEntity
  8
0
390
0
  6
CONTINUOUS
 62
     3
100
AcDbLine
 10
95.660255
 20
10.0
 30
0.0
 11
82.5
 21
10.0
 31
0.0
  0
LINE
  5
222
100
AcDbEntity
  8
0
390
0
  6
CONTINUOUS
 62
     3
100
AcDbLine
 10
97.5
 20
8.6
 30
0.0
 11
97.5
 21
-8.6
 31
0.0
  0
LINE
  5
223
100
AcDbEntity
  8
0
390
0
  6
CONTINUOUS
 62
     3
100
AcDbLine
 10
80.5
 20
9.65
 30
0.0
 11
80.0
 21
9.65
 31
0.0
  0
LINE
  5
224
100
AcDbEntity
  8
0
390
0
  6
CONTINUOUS
 62
     3
100
AcDbLine
 10
80.5
 20
-9.65
 30
0.0
 11
80.0
 21
-9.65
 31
0.0
  0
LINE
  5
225
100
AcDbEntity
  8
0
390
0
  6
CONTINUOUS
 62
     3
100
AcDbLine
 10
100.0
 20
8.6
 30
0.0
 11
97.5
 21
8.6
 31
0.0
  0
LINE
  5
226
100
AcDbEntity
  8
0
390
0
  6
CONTINUOUS
 62
     3
100
AcDbLine
 10
97.5
 20
8.0
 30
0.0
 11
80.0
 21
8.0
 31
0.0
  0
LINE
  5
227
100
AcDbEntity
  8
0
390
0
  6
CONTINUOUS
 62
     3
100
AcDbLine
 10
100.0
 20
-15.0
 30
0.0
 11
98.150986
 21
-15.0
 31
0.0
  0
LINE
  5
228
100
AcDbEntity
  8
0
390
0
  6
CONTINUOUS
 62
     3
100
AcDbLine
 10
100.0
 20
15.0
 30
0.0
 11
98.150986
 21
15.0
 31
0.0
  0
LINE
  5
229
100
AcDbEntity
  8
0
390
0
  6
CONTINUOUS
 62
     3
100
AcDbLine
 10
80.0
 20
9.65
 30
0.0
 11
80.0
 21
-9.65
 31
0.0
  0
LINE
  5
22A
100
AcDbEntity
  8
0
390
0
  6
CONTINUOUS
 62
     3
100
AcDbLine
 10
-100.0
 20
-8.6
 30
0.0
 11
-97.5
 21
-8.6
 31
0.0
  0
LINE
  5
22B
100
AcDbEntity
  8
0
390
0
  6
CONTINUOUS
 62
     3
100
AcDbLine
 10
-97.5
 20
-8.0
 30
0.0
 11
-80.0
 21
-8.0
 31
0.0
  0
LINE
  5
22C
100
AcDbEntity
  8
0
390
0
  6
CONTINUOUS
 62
     3
100
AcDbLine
 10
-82.498749
 20
-9.7
 30
0.0
 11
-82.498749
 21
-10.0
 31
0.0
  0
LINE
  5
22D
100
AcDbEntity
  8
0
390
0
  6
CONTINUOUS
 62
     3
100
AcDbLine
 10
-82.498749
 20
9.7
 30
0.0
 11
-82.498749
 21
10.0
 31
0.0
  0
LINE
  5
22E
100
AcDbEntity
  8
0
390
0
  6
CONTINUOUS
 62
     3
100
AcDbLine
 10
-100.0
 20
15.0
 30
0.0
 11
-100.0
 21
-15.0
 31
0.0
  0
LINE
  5
22F
100
AcDbEntity
  8
0
390
0
  6
CENTER
 62
   110
100
AcDbLine
 10
-104.0
 20
0.0
 30
0.0
 11
104.0
 21
0.0
 31
0.0
  0
LINE
  5
230
100
AcDbEntity
  8
0
390
0
  6
CONTINUOUS
 62
     3
100
AcDbLine
 10
-96.702099
 20
13.88823
 30
0.0
 11
-95.66025
 21
9.999998
 31
0.0
  0
LINE
  5
231
100
AcDbEntity
  8
0
390
0
  6
CONTINUOUS
 62
     3
100
AcDbLine
 10
-96.702099
 20
-13.88823
 30
0.0
 11
-95.66025
 21
-9.999998
 31
0.0
  0
LINE
  5
232
100
AcDbEntity
  8
0
390
0
  6
CONTINUOUS
 62
     3
100
AcDbLine
 10
-95.660255
 20
-10.0
 30
0.0
 11
-82.498749
 21
-10.0
 31
0.0
  0
LINE
  5
233
100
AcDbEntity
  8
0
390
0
  6
CONTINUOUS
 62
     3
100
AcDbLine
 10
-95.660255
 20
10.0
 30
0.0
 11
-82.5
 21
10.0
 31
0.0
  0
LINE
  5
234
100
AcDbEntity
  8
0
390
0
  6
CONTINUOUS
 62
     3
100
AcDbLine
 10
-97.5
 20
8.6
 30
0.0
 11
-97.5
 21
-8.6
 31
0.0
  0
LINE
  5
235
100
AcDbEntity
  8
0
390
0
  6
CONTINUOUS
 62
     3
100
AcDbLine
 10
-80.5
 20
9.65
 30
0.0
 11
-80.0
 21
9.65
 31
0.0
  0
LINE
  5
236
100
AcDbEntity
  8
0
390
0
  6
CONTINUOUS
 62
     3
100
AcDbLine
 10
-80.5
 20
-9.65
 30
0.0
 11
-80.0
 21
-9.65
 31
0.0
  0
LINE
  5
237
100
AcDbEntity
  8
0
390
0
  6
CONTINUOUS
 62
     3
100
AcDbLine
 10
-100.0
 20
8.6
 30
0.0
 11
-97.5
 21
8.6
 31
0.0
  0
LINE
  5
238
100
AcDbEntity
  8
0
390
0
  6
CONTINUOUS
 62
     3
100
AcDbLine
 10
-97.5
 20
8.0
 30
0.0
 11
-80.0
 21
8.0
 31
0.0
  0
LINE
  5
239
100
AcDbEntity
  8
0
390
0
  6
CONTINUOUS
 62
     3
100
AcDbLine
 10
-100.0
 20
-15.0
 30
0.0
 11
-98.150986
 21
-15.0
 31
0.0
  0
LINE
  5
23A
100
AcDbEntity
  8
0
390
0
  6
CONTINUOUS
 62
     3
100
AcDbLine
 10
-100.0
 20
15.0
 30
0.0
 11
-98.150986
 21
15.0
 31
0.0
  0
LINE
  5
23B
100
AcDbEntity
  8
0
390
0
  6
CONTINUOUS
 62
     3
100
AcDbLine
 10
-80.0
 20
9.65
 30
0.0
 11
-80.0
 21
-9.65
 31
0.0
  0
ENDBLK
  5
23C
100
AcDbEntity
  8
0
370
    -2
390
0
100
AcDbBlockEnd
  0
BLOCK
  5
23D
100
AcDbEntity
  8
0
370
    -2
390
0
100
AcDbBlockBegin
  2
VF1025
 70
     0
 10
0.0
 20
0.0
 30
0.0
  3
VF1025
  1

  0
DIMENSION
  5
249
100
AcDbEntity
  8
0
390
0
  6
CONTINUOUS
 62
   110
100
AcDbDimension
  2
*D25
 10
-80.0
 20
40.0
 30
0.0
 11
-90.0
 21
40.0
 31
0.0
 70
   128
 71
     5
 72
     1
 41
0.9
 42
20.0
  1
\A1;<>
  3
MXDIMSTYLE
100
AcDbAlignedDimension
 13
-100.0
 23
20.0
 33
0.0
 14
-80.0
 24
18.25
 34
0.0
100
AcDbRotatedDimension
1001
ACAD
1000
DSTYLE
1002
{
1070
    41
1040
2.77
1070
    44
1040
2.286
1070
    75
1070
     1
1070
   140
1040
3.2
1070
   271
1070
     0
1070
   284
1070
     8
1070
   340
1005
C9
1002
}
  0
DIMENSION
  5
255
100
AcDbEntity
  8
0
390
0
  6
CONTINUOUS
 62
   255
100
AcDbDimension
  2
*D26
 10
80.0
 20
40.0
 30
0.0
 11
0.0
 21
40.0
 31
0.0
 70
   128
 71
     5
 72
     1
 41
0.9
 42
160.0
  1
\A1;(<>)
  3
MXDIMSTYLE
100
AcDbAlignedDimension
 13
-80.0
 23
18.25
 33
0.0
 14
80.0
 24
18.25
 34
0.0
100
AcDbRotatedDimension
1001
ACAD
1000
DSTYLE
1002
{
1070
    41
1040
2.77
1070
    44
1040
2.286
1070
    75
1070
     1
1070
   140
1040
3.2
1070
   271
1070
     0
1070
   284
1070
     8
1070
   340
1005
D6
1002
}
  0
DIMENSION
  5
262
100
AcDbEntity
  8
0
390
0
  6
CONTINUOUS
 62
   255
100
AcDbDimension
  2
*D27
 10
-100.0
 20
48.0
 30
0.0
 11
0.0
 21
48.0
 31
0.0
 70
   128
 71
     5
 72
     1
 41
0.9
 42
200.0
  1
\A1;<>±5%
  3
MXDIMSTYLE
100
AcDbAlignedDimension
 13
100.0
 23
20.0
 33
0.0
 14
-100.0
 24
20.0
 34
0.0
100
AcDbRotatedDimension
1001
ACAD
1000
DSTYLE
1002
{
1070
    41
1040
2.77
1070
    44
1040
2.286
1070
   140
1040
3.2
1070
   271
1070
     0
1070
   284
1070
     8
1002
}
  0
DIMENSION
  5
26F
100
AcDbEntity
  8
0
390
0
  6
CONTINUOUS
 62
   110
100
AcDbDimension
  2
*D28
 10
-120.0
 20
-20.0
 30
0.0
 11
-120.0
 21
0.0
 31
0.0
 70
   128
 71
     5
 72
     1
 41
0.9
 42
40.0
  1
\A1;\U+2205<>
  3
MXDIMSTYLE
100
AcDbAlignedDimension
 13
-100.0
 23
20.0
 33
0.0
 14
-100.0
 24
-20.0
 34
0.0
 50
90.0
100
AcDbRotatedDimension
1001
ACAD
1000
DSTYLE
1002
{
1070
    41
1040
2.77
1070
    44
1040
2.286
1070
   140
1040
3.2
1070
   271
1070
     0
1070
   284
1070
     8
1002
}
  0
DIMENSION
  5
27A
100
AcDbEntity
  8
0
390
0
  6
CONTINUOUS
 62
   110
100
AcDbDimension
  2
*D29
 10
100.0
 20
40.0
 30
0.0
 11
90.0
 21
40.0
 31
0.0
 70
   128
 71
     5
 72
     1
 41
0.9
 42
20.0
  1
\A1;<>
  3
MXDIMSTYLE
100
AcDbAlignedDimension
 13
80.0
 23
18.25
 33
0.0
 14
100.0
 24
20.0
 34
0.0
100
AcDbRotatedDimension
1001
ACAD
1000
DSTYLE
1002
{
1070
    41
1040
2.77
1070
    75
1070
     1
1070
    76
1070
     1
1070
   140
1040
3.2
1070
   271
1070
     0
1070
   284
1070
     8
1070
   340
1005
C9
1002
}
  0
DIMENSION
  5
286
100
AcDbEntity
  8
0
390
0
  6
CONTINUOUS
 62
   110
100
AcDbDimension
  2
*D30
 10
-24.0
 20
12.75
 30
0.0
 11
-24.0
 21
27.200001
 31
0.0
 70
   128
 71
     5
 72
     1
 41
0.9
 42
25.5
  1
\A1;\U+2205<>
  3
MXDIMSTYLE
100
AcDbAlignedDimension
 13
-69.875
 23
-12.75
 33
0.0
 14
-69.875
 24
12.75
 34
0.0
 50
90.0
100
AcDbRotatedDimension
1001
ACAD
1000
DSTYLE
1002
{
1070
    41
1040
2.77
1070
    75
1070
     1
1070
    76
1070
     1
1070
   140
1040
3.2
1070
   271
1070
     1
1070
   284
1070
     8
1070
   340
1005
C9
1002
}
  0
DIMENSION
  5
293
100
AcDbEntity
  8
0
390
0
  6
CONTINUOUS
 62
   110
100
AcDbDimension
  2
*D31
 10
-16.0
 20
17.0
 30
0.0
 11
-16.0
 21
24.0
 31
0.0
 70
   128
 71
     5
 72
     1
 41
0.9
 42
34.0
  1
\A1;\U+2205<>
  3
MXDIMSTYLE
100
AcDbAlignedDimension
 13
-67.625
 23
-17.0
 33
0.0
 14
-67.625
 24
17.0
 34
0.0
 50
90.0
100
AcDbRotatedDimension
1001
ACAD
1000
DSTYLE
1002
{
1070
    41
1040
2.77
1070
    75
1070
     1
1070
    76
1070
     1
1070
   140
1040
3.2
1070
   271
1070
     0
1070
   284
1070
     8
1070
   340
1005
28D
1002
}
  0
ARC
  5
294
100
AcDbEntity
  8
0
390
0
  6
CONTINUOUS
 62
     3
100
AcDbCircle
 10
67.625
 20
-15.875
 30
0.0
 40
1.125
100
AcDbArc
 50
180.0
 51
0.0
  0
ARC
  5
295
100
AcDbEntity
  8
0
390
0
  6
CONTINUOUS
 62
     3
100
AcDbCircle
 10
69.875
 20
-13.875
 30
0.0
 40
1.125
100
AcDbArc
 50
0.0
 51
180.0
  0
ARC
  5
296
100
AcDbEntity
  8
0
390
0
  6
CONTINUOUS
 62
     3
100
AcDbCircle
 10
72.125
 20
-15.875
 30
0.0
 40
1.125
100
AcDbArc
 50
180.0
 51
0.0
  0
ARC
  5
297
100
AcDbEntity
  8
0
390
0
  6
CONTINUOUS
 62
     3
100
AcDbCircle
 10
74.375
 20
-13.875
 30
0.0
 40
1.125
100
AcDbArc
 50
0.0
 51
180.0
  0
ARC
  5
298
100
AcDbEntity
  8
0
390
0
  6
CONTINUOUS
 62
     3
100
AcDbCircle
 10
76.625
 20
-15.875
 30
0.0
 40
1.125
100
AcDbArc
 50
180.0
 51
0.0
  0
ARC
  5
299
100
AcDbEntity
  8
0
390
0
  6
CONTINUOUS
 62
     3
100
AcDbCircle
 10
78.875
 20
-13.875
 30
0.0
 40
1.125
100
AcDbArc
 50
0.0
 51
180.0
  0
ARC
  5
29A
100
AcDbEntity
  8
0
390
0
  6
CONTINUOUS
 62
     3
100
AcDbCircle
 10
-67.625
 20
-15.875
 30
0.0
 40
1.125
100
AcDbArc
 50
180.0
 51
0.0
  0
ARC
  5
29B
100
AcDbEntity
  8
0
390
0
  6
CONTINUOUS
 62
     3
100
AcDbCircle
 10
-69.875
 20
-13.875
 30
0.0
 40
1.125
100
AcDbArc
 50
0.0
 51
180.0
  0
ARC
  5
29C
100
AcDbEntity
  8
0
390
0
  6
CONTINUOUS
 62
     3
100
AcDbCircle
 10
-72.125
 20
-15.875
 30
0.0
 40
1.125
100
AcDbArc
 50
180.0
 51
0.0
  0
ARC
  5
29D
100
AcDbEntity
  8
0
390
0
  6
CONTINUOUS
 62
     3
100
AcDbCircle
 10
-74.375
 20
-13.875
 30
0.0
 40
1.125
100
AcDbArc
 50
0.0
 51
180.0
  0
ARC
  5
29E
100
AcDbEntity
  8
0
390
0
  6
CONTINUOUS
 62
     3
100
AcDbCircle
 10
-76.625
 20
-15.875
 30
0.0
 40
1.125
100
AcDbArc
 50
180.0
 51
0.0
  0
ARC
  5
29F
100
AcDbEntity
  8
0
390
0
  6
CONTINUOUS
 62
     3
100
AcDbCircle
 10
-78.875
 20
-13.875
 30
0.0
 40
1.125
100
AcDbArc
 50
0.0
 51
180.0
  0
ARC
  5
2A0
100
AcDbEntity
  8
0
390
0
  6
CONTINUOUS
 62
     3
100
AcDbCircle
 10
67.625
 20
15.875
 30
0.0
 40
1.125
100
AcDbArc
 50
0.0
 51
180.0
  0
ARC
  5
2A1
100
AcDbEntity
  8
0
390
0
  6
CONTINUOUS
 62
     3
100
AcDbCircle
 10
69.875
 20
13.875
 30
0.0
 40
1.125
100
AcDbArc
 50
180.0
 51
0.0
  0
ARC
  5
2A2
100
AcDbEntity
  8
0
390
0
  6
CONTINUOUS
 62
     3
100
AcDbCircle
 10
72.125
 20
15.875
 30
0.0
 40
1.125
100
AcDbArc
 50
0.0
 51
180.0
  0
ARC
  5
2A3
100
AcDbEntity
  8
0
390
0
  6
CONTINUOUS
 62
     3
100
AcDbCircle
 10
74.375
 20
13.875
 30
0.0
 40
1.125
100
AcDbArc
 50
180.0
 51
0.0
  0
ARC
  5
2A4
100
AcDbEntity
  8
0
390
0
  6
CONTINUOUS
 62
     3
100
AcDbCircle
 10
76.625
 20
15.875
 30
0.0
 40
1.125
100
AcDbArc
 50
0.0
 51
180.0
  0
ARC
  5
2A5
100
AcDbEntity
  8
0
390
0
  6
CONTINUOUS
 62
     3
100
AcDbCircle
 10
78.875
 20
13.875
 30
0.0
 40
1.125
100
AcDbArc
 50
180.0
 51
0.0
  0
ARC
  5
2A6
100
AcDbEntity
  8
0
390
0
  6
CONTINUOUS
 62
     3
100
AcDbCircle
 10
-67.625
 20
15.875
 30
0.0
 40
1.125
100
AcDbArc
 50
0.0
 51
180.0
  0
ARC
  5
2A7
100
AcDbEntity
  8
0
390
0
  6
CONTINUOUS
 62
     3
100
AcDbCircle
 10
-69.875
 20
13.875
 30
0.0
 40
1.125
100
AcDbArc
 50
180.0
 51
0.0
  0
ARC
  5
2A8
100
AcDbEntity
  8
0
390
0
  6
CONTINUOUS
 62
     3
100
AcDbCircle
 10
-72.125
 20
15.875
 30
0.0
 40
1.125
100
AcDbArc
 50
0.0
 51
180.0
  0
ARC
  5
2A9
100
AcDbEntity
  8
0
390
0
  6
CONTINUOUS
 62
     3
100
AcDbCircle
 10
-74.375
 20
13.875
 30
0.0
 40
1.125
100
AcDbArc
 50
180.0
 51
0.0
  0
ARC
  5
2AA
100
AcDbEntity
  8
0
390
0
  6
CONTINUOUS
 62
     3
100
AcDbCircle
 10
-76.625
 20
15.875
 30
0.0
 40
1.125
100
AcDbArc
 50
0.0
 51
180.0
  0
ARC
  5
2AB
100
AcDbEntity
  8
0
390
0
  6
CONTINUOUS
 62
     3
100
AcDbCircle
 10
-78.875
 20
13.875
 30
0.0
 40
1.125
100
AcDbArc
 50
180.0
 51
0.0
  0
ARC
  5
2AC
100
AcDbEntity
  8
0
390
0
  6
CONTINUOUS
 62
     3
100
AcDbCircle
 10
98.150986
 20
-18.5
 30
0.0
 40
1.5
100
AcDbArc
 50
195.000031
 51
269.999982
  0
ARC
  5
2AD
100
AcDbEntity
  8
0
390
0
  6
CONTINUOUS
 62
     3
100
AcDbCircle
 10
98.150986
 20
18.5
 30
0.0
 40
1.5
100
AcDbArc
 50
90.000018
 51
164.999976
  0
ARC
  5
2AE
100
AcDbEntity
  8
0
390
0
  6
CONTINUOUS
 62
     3
100
AcDbCircle
 10
-98.150986
 20
-18.5
 30
0.0
 40
1.5
100
AcDbArc
 50
270.000018
 51
344.999969
  0
ARC
  5
2AF
100
AcDbEntity
  8
0
390
0
  6
CONTINUOUS
 62
     3
100
AcDbCircle
 10
-98.150986
 20
18.5
 30
0.0
 40
1.5
100
AcDbArc
 50
15.000024
 51
89.999982
  0
LINE
  5
2B0
100
AcDbEntity
  8
0
390
0
  6
PHANTOM
 62
   110
100
AcDbLine
 10
-1.474419
 20
-17.0
 30
0.0
 11
67.625
 21
-17.0
 31
0.0
  0
LINE
  5
2B1
100
AcDbEntity
  8
0
390
0
  6
PHANTOM
 62
   110
100
AcDbLine
 10
-0.725029
 20
-12.75
 30
0.0
 11
69.875
 21
-12.75
 31
0.0
  0
LINE
  5
2B2
100
AcDbEntity
  8
0
390
0
  6
PHANTOM
 62
   110
100
AcDbLine
 10
3.771309
 20
12.75
 30
0.0
 11
69.875
 21
12.75
 31
0.0
  0
LINE
  5
2B3
100
AcDbEntity
  8
0
390
0
  6
PHANTOM
 62
   110
100
AcDbLine
 10
4.520699
 20
17.0
 30
0.0
 11
67.625
 21
17.0
 31
0.0
  0
LINE
  5
2B4
100
AcDbEntity
  8
0
390
0
  6
CENTER
 62
   110
100
AcDbLine
 10
-5.04968
 20
-20.0
 30
0.0
 11
2.0034
 21
20.0
 31
0.0
  0
LINE
  5
2B5
100
AcDbEntity
  8
0
390
0
  6
CENTER
 62
   110
100
AcDbLine
 10
-2.0034
 20
-20.0
 30
0.0
 11
5.04968
 21
20.0
 31
0.0
  0
LINE
  5
2B6
100
AcDbEntity
  8
0
390
0
  6
CONTINUOUS
 62
     3
100
AcDbLine
 10
66.5
 20
-15.875
 30
0.0
 11
66.5
 21
-13.875
 31
0.0
  0
LINE
  5
2B7
100
AcDbEntity
  8
0
390
0
  6
CONTINUOUS
 62
     3
100
AcDbLine
 10
68.75
 20
-15.875
 30
0.0
 11
68.75
 21
-13.875
 31
0.0
  0
LINE
  5
2B8
100
AcDbEntity
  8
0
390
0
  6
CONTINUOUS
 62
     3
100
AcDbLine
 10
71.0
 20
-15.875
 30
0.0
 11
71.0
 21
-13.875
 31
0.0
  0
LINE
  5
2B9
100
AcDbEntity
  8
0
390
0
  6
CONTINUOUS
 62
     3
100
AcDbLine
 10
73.25
 20
-15.875
 30
0.0
 11
73.25
 21
-13.875
 31
0.0
  0
LINE
  5
2BA
100
AcDbEntity
  8
0
390
0
  6
CONTINUOUS
 62
     3
100
AcDbLine
 10
75.5
 20
-15.875
 30
0.0
 11
75.5
 21
-13.875
 31
0.0
  0
LINE
  5
2BB
100
AcDbEntity
  8
0
390
0
  6
CONTINUOUS
 62
     3
100
AcDbLine
 10
77.75
 20
-15.875
 30
0.0
 11
77.75
 21
-13.875
 31
0.0
  0
LINE
  5
2BC
100
AcDbEntity
  8
0
390
0
  6
PHANTOM
 62
   110
100
AcDbLine
 10
-67.625
 20
-17.0
 30
0.0
 11
-4.520699
 21
-17.0
 31
0.0
  0
LINE
  5
2BD
100
AcDbEntity
  8
0
390
0
  6
PHANTOM
 62
   110
100
AcDbLine
 10
-69.875
 20
-12.75
 30
0.0
 11
-3.771309
 21
-12.75
 31
0.0
  0
LINE
  5
2BE
100
AcDbEntity
  8
0
390
0
  6
CONTINUOUS
 62
     3
100
AcDbLine
 10
-66.5
 20
-15.875
 30
0.0
 11
-66.5
 21
-13.875
 31
0.0
  0
LINE
  5
2BF
100
AcDbEntity
  8
0
390
0
  6
CONTINUOUS
 62
     3
100
AcDbLine
 10
-68.75
 20
-15.875
 30
0.0
 11
-68.75
 21
-13.875
 31
0.0
  0
LINE
  5
2C0
100
AcDbEntity
  8
0
390
0
  6
CONTINUOUS
 62
     3
100
AcDbLine
 10
-71.0
 20
-15.875
 30
0.0
 11
-71.0
 21
-13.875
 31
0.0
  0
LINE
  5
2C1
100
AcDbEntity
  8
0
390
0
  6
CONTINUOUS
 62
     3
100
AcDbLine
 10
-73.25
 20
-15.875
 30
0.0
 11
-73.25
 21
-13.875
 31
0.0
  0
LINE
  5
2C2
100
AcDbEntity
  8
0
390
0
  6
CONTINUOUS
 62
     3
100
AcDbLine
 10
-75.5
 20
-15.875
 30
0.0
 11
-75.5
 21
-13.875
 31
0.0
  0
LINE
  5
2C3
100
AcDbEntity
  8
0
390
0
  6
CONTINUOUS
 62
     3
100
AcDbLine
 10
-77.75
 20
-15.875
 30
0.0
 11
-77.75
 21
-13.875
 31
0.0
  0
LINE
  5
2C4
100
AcDbEntity
  8
0
390
0
  6
CONTINUOUS
 62
     3
100
AcDbLine
 10
66.5
 20
15.875
 30
0.0
 11
66.5
 21
13.875
 31
0.0
  0
LINE
  5
2C5
100
AcDbEntity
  8
0
390
0
  6
CONTINUOUS
 62
     3
100
AcDbLine
 10
68.75
 20
15.875
 30
0.0
 11
68.75
 21
13.875
 31
0.0
  0
LINE
  5
2C6
100
AcDbEntity
  8
0
390
0
  6
CONTINUOUS
 62
     3
100
AcDbLine
 10
71.0
 20
15.875
 30
0.0
 11
71.0
 21
13.875
 31
0.0
  0
LINE
  5
2C7
100
AcDbEntity
  8
0
390
0
  6
CONTINUOUS
 62
     3
100
AcDbLine
 10
73.25
 20
15.875
 30
0.0
 11
73.25
 21
13.875
 31
0.0
  0
LINE
  5
2C8
100
AcDbEntity
  8
0
390
0
  6
CONTINUOUS
 62
     3
100
AcDbLine
 10
75.5
 20
15.875
 30
0.0
 11
75.5
 21
13.875
 31
0.0
  0
LINE
  5
2C9
100
AcDbEntity
  8
0
390
0
  6
CONTINUOUS
 62
     3
100
AcDbLine
 10
77.75
 20
15.875
 30
0.0
 11
77.75
 21
13.875
 31
0.0
  0
LINE
  5
2CA
100
AcDbEntity
  8
0
390
0
  6
PHANTOM
 62
   110
100
AcDbLine
 10
-67.625
 20
17.0
 30
0.0
 11
1.474419
 21
17.0
 31
0.0
  0
LINE
  5
2CB
100
AcDbEntity
  8
0
390
0
  6
PHANTOM
 62
   110
100
AcDbLine
 10
-69.875
 20
12.75
 30
0.0
 11
0.725029
 21
12.75
 31
0.0
  0
LINE
  5
2CC
100
AcDbEntity
  8
0
390
0
  6
CONTINUOUS
 62
     3
100
AcDbLine
 10
-66.5
 20
15.875
 30
0.0
 11
-66.5
 21
13.875
 31
0.0
  0
LINE
  5
2CD
100
AcDbEntity
  8
0
390
0
  6
CONTINUOUS
 62
     3
100
AcDbLine
 10
-68.75
 20
15.875
 30
0.0
 11
-68.75
 21
13.875
 31
0.0
  0
LINE
  5
2CE
100
AcDbEntity
  8
0
390
0
  6
CONTINUOUS
 62
     3
100
AcDbLine
 10
-71.0
 20
15.875
 30
0.0
 11
-71.0
 21
13.875
 31
0.0
  0
LINE
  5
2CF
100
AcDbEntity
  8
0
390
0
  6
CONTINUOUS
 62
     3
100
AcDbLine
 10
-73.25
 20
15.875
 30
0.0
 11
-73.25
 21
13.875
 31
0.0
  0
LINE
  5
2D0
100
AcDbEntity
  8
0
390
0
  6
CONTINUOUS
 62
     3
100
AcDbLine
 10
-75.5
 20
15.875
 30
0.0
 11
-75.5
 21
13.875
 31
0.0
  0
LINE
  5
2D1
100
AcDbEntity
  8
0
390
0
  6
CONTINUOUS
 62
     3
100
AcDbLine
 10
-77.75
 20
15.875
 30
0.0
 11
-77.75
 21
13.875
 31
0.0
  0
LINE
  5
2D2
100
AcDbEntity
  8
0
390
0
  6
CONTINUOUS
 62
     3
100
AcDbLine
 10
100.0
 20
-13.1
 30
0.0
 11
97.5
 21
-13.1
 31
0.0
  0
LINE
  5
2D3
100
AcDbEntity
  8
0
390
0
  6
CONTINUOUS
 62
     3
100
AcDbLine
 10
80.5
 20
-18.25
 30
0.0
 11
80.0
 21
-18.25
 31
0.0
  0
LINE
  5
2D4
100
AcDbEntity
  8
0
390
0
  6
CONTINUOUS
 62
     3
100
AcDbLine
 10
80.5
 20
-18.25
 30
0.0
 11
83.184679
 21
-13.6
 31
0.0
  0
LINE
  5
2D5
100
AcDbEntity
  8
0
390
0
  6
CONTINUOUS
 62
     3
100
AcDbLine
 10
80.5
 20
18.25
 30
0.0
 11
83.184679
 21
13.6
 31
0.0
  0
LINE
  5
2D6
100
AcDbEntity
  8
0
390
0
  6
CONTINUOUS
 62
     3
100
AcDbLine
 10
80.5
 20
18.25
 30
0.0
 11
80.0
 21
18.25
 31
0.0
  0
LINE
  5
2D7
100
AcDbEntity
  8
0
390
0
  6
CONTINUOUS
 62
     3
100
AcDbLine
 10
100.0
 20
20.0
 30
0.0
 11
100.0
 21
-20.0
 31
0.0
  0
LINE
  5
2D8
100
AcDbEntity
  8
0
390
0
  6
CONTINUOUS
 62
     3
100
AcDbLine
 10
97.5
 20
-12.0
 30
0.0
 11
80.0
 21
-12.0
 31
0.0
  0
LINE
  5
2D9
100
AcDbEntity
  8
0
390
0
  6
CONTINUOUS
 62
     3
100
AcDbLine
 10
96.702085
 20
-18.888234
 30
0.0
 11
95.28511
 21
-13.600005
 31
0.0
  0
LINE
  5
2DA
100
AcDbEntity
  8
0
390
0
  6
CONTINUOUS
 62
     3
100
AcDbLine
 10
96.702085
 20
18.888234
 30
0.0
 11
95.28511
 21
13.600005
 31
0.0
  0
LINE
  5
2DB
100
AcDbEntity
  8
0
390
0
  6
CONTINUOUS
 62
     3
100
AcDbLine
 10
100.0
 20
13.1
 30
0.0
 11
97.5
 21
13.1
 31
0.0
  0
LINE
  5
2DC
100
AcDbEntity
  8
0
390
0
  6
CONTINUOUS
 62
     3
100
AcDbLine
 10
97.5
 20
13.1
 30
0.0
 11
97.5
 21
-13.1
 31
0.0
  0
LINE
  5
2DD
100
AcDbEntity
  8
0
390
0
  6
CONTINUOUS
 62
     3
100
AcDbLine
 10
97.5
 20
12.0
 30
0.0
 11
80.0
 21
12.0
 31
0.0
  0
LINE
  5
2DE
100
AcDbEntity
  8
0
390
0
  6
CONTINUOUS
 62
     3
100
AcDbLine
 10
95.285126
 20
-13.6
 30
0.0
 11
83.184679
 21
-13.6
 31
0.0
  0
LINE
  5
2DF
100
AcDbEntity
  8
0
390
0
  6
CONTINUOUS
 62
     3
100
AcDbLine
 10
95.285126
 20
13.6
 30
0.0
 11
83.184679
 21
13.6
 31
0.0
  0
LINE
  5
2E0
100
AcDbEntity
  8
0
390
0
  6
CONTINUOUS
 62
     3
100
AcDbLine
 10
100.0
 20
-20.0
 30
0.0
 11
98.150986
 21
-20.0
 31
0.0
  0
LINE
  5
2E1
100
AcDbEntity
  8
0
390
0
  6
CONTINUOUS
 62
     3
100
AcDbLine
 10
100.0
 20
20.0
 30
0.0
 11
98.150986
 21
20.0
 31
0.0
  0
LINE
  5
2E2
100
AcDbEntity
  8
0
390
0
  6
CONTINUOUS
 62
     3
100
AcDbLine
 10
80.0
 20
18.25
 30
0.0
 11
80.0
 21
-18.25
 31
0.0
  0
LINE
  5
2E3
100
AcDbEntity
  8
0
390
0
  6
CONTINUOUS
 62
     3
100
AcDbLine
 10
-97.5
 20
-12.0
 30
0.0
 11
-80.0
 21
-12.0
 31
0.0
  0
LINE
  5
2E4
100
AcDbEntity
  8
0
390
0
  6
CONTINUOUS
 62
     3
100
AcDbLine
 10
-100.0
 20
-13.1
 30
0.0
 11
-97.5
 21
-13.1
 31
0.0
  0
LINE
  5
2E5
100
AcDbEntity
  8
0
390
0
  6
CONTINUOUS
 62
     3
100
AcDbLine
 10
-80.5
 20
-18.25
 30
0.0
 11
-80.0
 21
-18.25
 31
0.0
  0
LINE
  5
2E6
100
AcDbEntity
  8
0
390
0
  6
CONTINUOUS
 62
     3
100
AcDbLine
 10
-80.5
 20
-18.25
 30
0.0
 11
-83.184679
 21
-13.6
 31
0.0
  0
LINE
  5
2E7
100
AcDbEntity
  8
0
390
0
  6
CONTINUOUS
 62
     3
100
AcDbLine
 10
-80.5
 20
18.25
 30
0.0
 11
-83.184679
 21
13.6
 31
0.0
  0
LINE
  5
2E8
100
AcDbEntity
  8
0
390
0
  6
CONTINUOUS
 62
     3
100
AcDbLine
 10
-80.5
 20
18.25
 30
0.0
 11
-80.0
 21
18.25
 31
0.0
  0
LINE
  5
2E9
100
AcDbEntity
  8
0
390
0
  6
CONTINUOUS
 62
     3
100
AcDbLine
 10
-100.0
 20
20.0
 30
0.0
 11
-100.0
 21
-20.0
 31
0.0
  0
LINE
  5
2EA
100
AcDbEntity
  8
0
390
0
  6
CENTER
 62
   110
100
AcDbLine
 10
-104.0
 20
0.0
 30
0.0
 11
104.0
 21
0.0
 31
0.0
  0
LINE
  5
2EB
100
AcDbEntity
  8
0
390
0
  6
CONTINUOUS
 62
     3
100
AcDbLine
 10
-96.702085
 20
-18.888234
 30
0.0
 11
-95.28511
 21
-13.600005
 31
0.0
  0
LINE
  5
2EC
100
AcDbEntity
  8
0
390
0
  6
CONTINUOUS
 62
     3
100
AcDbLine
 10
-96.702085
 20
18.888234
 30
0.0
 11
-95.28511
 21
13.600005
 31
0.0
  0
LINE
  5
2ED
100
AcDbEntity
  8
0
390
0
  6
CONTINUOUS
 62
     3
100
AcDbLine
 10
-100.0
 20
13.1
 30
0.0
 11
-97.5
 21
13.1
 31
0.0
  0
LINE
  5
2EE
100
AcDbEntity
  8
0
390
0
  6
CONTINUOUS
 62
     3
100
AcDbLine
 10
-97.5
 20
13.1
 30
0.0
 11
-97.5
 21
-13.1
 31
0.0
  0
LINE
  5
2EF
100
AcDbEntity
  8
0
390
0
  6
CONTINUOUS
 62
     3
100
AcDbLine
 10
-97.5
 20
12.0
 30
0.0
 11
-80.0
 21
12.0
 31
0.0
  0
LINE
  5
2F0
100
AcDbEntity
  8
0
390
0
  6
CONTINUOUS
 62
     3
100
AcDbLine
 10
-95.285126
 20
-13.6
 30
0.0
 11
-83.184679
 21
-13.6
 31
0.0
  0
LINE
  5
2F1
100
AcDbEntity
  8
0
390
0
  6
CONTINUOUS
 62
     3
100
AcDbLine
 10
-95.285126
 20
13.6
 30
0.0
 11
-83.184679
 21
13.6
 31
0.0
  0
LINE
  5
2F2
100
AcDbEntity
  8
0
390
0
  6
CONTINUOUS
 62
     3
100
AcDbLine
 10
-100.0
 20
-20.0
 30
0.0
 11
-98.150986
 21
-20.0
 31
0.0
  0
LINE
  5
2F3
100
AcDbEntity
  8
0
390
0
  6
CONTINUOUS
 62
     3
100
AcDbLine
 10
-100.0
 20
20.0
 30
0.0
 11
-98.150986
 21
20.0
 31
0.0
  0
LINE
  5
2F4
100
AcDbEntity
  8
0
390
0
  6
CONTINUOUS
 62
     3
100
AcDbLine
 10
-80.0
 20
18.25
 30
0.0
 11
-80.0
 21
-18.25
 31
0.0
  0
ENDBLK
  5
2F5
100
AcDbEntity
  8
0
370
    -2
390
0
100
AcDbBlockEnd
  0
BLOCK
  5
2F6
100
AcDbEntity
  8
0
370
    -2
390
0
100
AcDbBlockBegin
  2
VF1040
 70
     0
 10
0.0
 20
0.0
 30
0.0
  3
VF1040
  1

  0
DIMENSION
  5
303
100
AcDbEntity
  8
0
390
0
  6
CONTINUOUS
 62
   255
100
AcDbDimension
  2
*D32
 10
-100.0
 20
56.0
 30
0.0
 11
0.0
 21
56.0
 31
0.0
 70
   128
 71
     5
 72
     1
 41
0.9
 42
200.0
  1
\A1;<>±5%
  3
MXDIMSTYLE
100
AcDbAlignedDimension
 13
100.0
 23
27.5
 33
0.0
 14
-100.0
 24
27.5
 34
0.0
100
AcDbRotatedDimension
1001
ACAD
1000
DSTYLE
1002
{
1070
    41
1040
2.77
1070
    44
1040
2.286
1070
   140
1040
3.2
1070
   271
1070
     0
1070
   284
1070
     8
1002
}
  0
DIMENSION
  5
30F
100
AcDbEntity
  8
0
390
0
  6
CONTINUOUS
 62
   255
100
AcDbDimension
  2
*D33
 10
80.0
 20
48.0
 30
0.0
 11
0.0
 21
48.0
 31
0.0
 70
   128
 71
     5
 72
     1
 41
0.9
 42
160.0
  1
\A1;(<>)
  3
MXDIMSTYLE
100
AcDbAlignedDimension
 13
-80.0
 23
26.25
 33
0.0
 14
80.0
 24
26.25
 34
0.0
100
AcDbRotatedDimension
1001
ACAD
1000
DSTYLE
1002
{
1070
    41
1040
2.77
1070
    44
1040
2.286
1070
    75
1070
     1
1070
   140
1040
3.2
1070
   271
1070
     0
1070
   284
1070
     8
1070
   340
1005
D6
1002
}
  0
DIMENSION
  5
31B
100
AcDbEntity
  8
0
390
0
  6
CONTINUOUS
 62
   110
100
AcDbDimension
  2
*D34
 10
-80.0
 20
48.0
 30
0.0
 11
-90.0
 21
48.0
 31
0.0
 70
   128
 71
     5
 72
     1
 41
0.9
 42
20.0
  1
\A1;<>
  3
MXDIMSTYLE
100
AcDbAlignedDimension
 13
-100.0
 23
27.5
 33
0.0
 14
-80.0
 24
26.25
 34
0.0
100
AcDbRotatedDimension
1001
ACAD
1000
DSTYLE
1002
{
1070
    41
1040
2.77
1070
    44
1040
2.286
1070
    75
1070
     1
1070
   140
1040
3.2
1070
   271
1070
     0
1070
   284
1070
     8
1070
   340
1005
C9
1002
}
  0
DIMENSION
  5
328
100
AcDbEntity
  8
0
390
0
  6
CONTINUOUS
 62
   110
100
AcDbDimension
  2
*D35
 10
-120.0
 20
-27.5
 30
0.0
 11
-120.0
 21
0.0
 31
0.0
 70
   128
 71
     5
 72
     1
 41
0.9
 42
55.0
  1
\A1;\U+2205<>
  3
MXDIMSTYLE
100
AcDbAlignedDimension
 13
-100.0
 23
27.5
 33
0.0
 14
-100.0
 24
-27.5
 34
0.0
 50
90.0
100
AcDbRotatedDimension
1001
ACAD
1000
DSTYLE
1002
{
1070
    41
1040
2.77
1070
    44
1040
2.286
1070
   140
1040
3.2
1070
   271
1070
     0
1070
   284
1070
     8
1070
   340
1005
28D
1002
}
  0
DIMENSION
  5
333
100
AcDbEntity
  8
0
390
0
  6
CONTINUOUS
 62
   110
100
AcDbDimension
  2
*D36
 10
100.0
 20
48.0
 30
0.0
 11
90.0
 21
48.0
 31
0.0
 70
   128
 71
     5
 72
     1
 41
0.9
 42
20.0
  1
\A1;<>
  3
MXDIMSTYLE
100
AcDbAlignedDimension
 13
80.0
 23
26.25
 33
0.0
 14
100.0
 24
27.5
 34
0.0
100
AcDbRotatedDimension
1001
ACAD
1000
DSTYLE
1002
{
1070
    41
1040
2.77
1070
    75
1070
     1
1070
    76
1070
     1
1070
   140
1040
3.2
1070
   271
1070
     0
1070
   284
1070
     8
1070
   340
1005
C9
1002
}
  0
DIMENSION
  5
33E
100
AcDbEntity
  8
0
390
0
  6
CONTINUOUS
 62
   110
100
AcDbDimension
  2
*D37
 10
-24.0
 20
19.0
 30
0.0
 11
-24.0
 21
8.0
 31
0.0
 70
   128
 71
     5
 72
     1
 41
0.9
 42
38.0
  1
\A1;\U+2205<>
  3
MXDIMSTYLE
100
AcDbAlignedDimension
 13
-4.873352
 23
-19.0
 33
0.0
 14
1.827072
 24
19.0
 34
0.0
 50
90.0
100
AcDbRotatedDimension
1001
ACAD
1000
DSTYLE
1002
{
1070
    41
1040
2.77
1070
    75
1070
     1
1070
    76
1070
     1
1070
   140
1040
3.2
1070
   271
1070
     0
1070
   284
1070
     8
1070
   340
1005
28D
1002
}
  0
DIMENSION
  5
349
100
AcDbEntity
  8
0
390
0
  6
CONTINUOUS
 62
   110
100
AcDbDimension
  2
*D38
 10
-16.0
 20
25.0
 30
0.0
 11
-16.0
 21
8.0
 31
0.0
 70
   128
 71
     5
 72
     1
 41
0.9
 42
50.0
  1
\A1;\U+2205<>
  3
MXDIMSTYLE
100
AcDbAlignedDimension
 13
-5.931314
 23
-25.0
 33
0.0
 14
2.885035
 24
25.0
 34
0.0
 50
90.0
100
AcDbRotatedDimension
1001
ACAD
1000
DSTYLE
1002
{
1070
    41
1040
2.77
1070
    75
1070
     1
1070
    76
1070
     1
1070
   140
1040
3.2
1070
   271
1070
     0
1070
   284
1070
     8
1002
}
  0
ARC
  5
34A
100
AcDbEntity
  8
0
390
0
  6
CONTINUOUS
 62
     3
100
AcDbCircle
 10
64.05
 20
-23.55
 30
0.0
 40
1.45
100
AcDbArc
 50
180.0
 51
0.0
  0
ARC
  5
34B
100
AcDbEntity
  8
0
390
0
  6
CONTINUOUS
 62
     3
100
AcDbCircle
 10
66.95
 20
-20.45
 30
0.0
 40
1.45
100
AcDbArc
 50
0.0
 51
180.0
  0
ARC
  5
34C
100
AcDbEntity
  8
0
390
0
  6
CONTINUOUS
 62
     3
100
AcDbCircle
 10
69.85
 20
-23.55
 30
0.0
 40
1.45
100
AcDbArc
 50
180.0
 51
0.0
  0
ARC
  5
34D
100
AcDbEntity
  8
0
390
0
  6
CONTINUOUS
 62
     3
100
AcDbCircle
 10
72.75
 20
-20.45
 30
0.0
 40
1.45
100
AcDbArc
 50
0.0
 51
180.0
  0
ARC
  5
34E
100
AcDbEntity
  8
0
390
0
  6
CONTINUOUS
 62
     3
100
AcDbCircle
 10
75.65
 20
-23.55
 30
0.0
 40
1.45
100
AcDbArc
 50
180.0
 51
0.0
  0
ARC
  5
34F
100
AcDbEntity
  8
0
390
0
  6
CONTINUOUS
 62
     3
100
AcDbCircle
 10
78.55
 20
-20.45
 30
0.0
 40
1.45
100
AcDbArc
 50
0.0
 51
180.0
  0
ARC
  5
350
100
AcDbEntity
  8
0
390
0
  6
CONTINUOUS
 62
     3
100
AcDbCircle
 10
-64.05
 20
-23.55
 30
0.0
 40
1.45
100
AcDbArc
 50
180.0
 51
0.0
  0
ARC
  5
351
100
AcDbEntity
  8
0
390
0
  6
CONTINUOUS
 62
     3
100
AcDbCircle
 10
-66.95
 20
-20.45
 30
0.0
 40
1.45
100
AcDbArc
 50
0.0
 51
180.0
  0
ARC
  5
352
100
AcDbEntity
  8
0
390
0
  6
CONTINUOUS
 62
     3
100
AcDbCircle
 10
-69.85
 20
-23.55
 30
0.0
 40
1.45
100
AcDbArc
 50
180.0
 51
0.0
  0
ARC
  5
353
100
AcDbEntity
  8
0
390
0
  6
CONTINUOUS
 62
     3
100
AcDbCircle
 10
-72.75
 20
-20.45
 30
0.0
 40
1.45
100
AcDbArc
 50
0.0
 51
180.0
  0
ARC
  5
354
100
AcDbEntity
  8
0
390
0
  6
CONTINUOUS
 62
     3
100
AcDbCircle
 10
-75.65
 20
-23.55
 30
0.0
 40
1.45
100
AcDbArc
 50
180.0
 51
0.0
  0
ARC
  5
355
100
AcDbEntity
  8
0
390
0
  6
CONTINUOUS
 62
     3
100
AcDbCircle
 10
-78.55
 20
-20.45
 30
0.0
 40
1.45
100
AcDbArc
 50
0.0
 51
180.0
  0
ARC
  5
356
100
AcDbEntity
  8
0
390
0
  6
CONTINUOUS
 62
     3
100
AcDbCircle
 10
64.05
 20
23.55
 30
0.0
 40
1.45
100
AcDbArc
 50
0.0
 51
180.0
  0
ARC
  5
357
100
AcDbEntity
  8
0
390
0
  6
CONTINUOUS
 62
     3
100
AcDbCircle
 10
66.95
 20
20.45
 30
0.0
 40
1.45
100
AcDbArc
 50
180.0
 51
0.0
  0
ARC
  5
358
100
AcDbEntity
  8
0
390
0
  6
CONTINUOUS
 62
     3
100
AcDbCircle
 10
69.85
 20
23.55
 30
0.0
 40
1.45
100
AcDbArc
 50
0.0
 51
180.0
  0
ARC
  5
359
100
AcDbEntity
  8
0
390
0
  6
CONTINUOUS
 62
     3
100
AcDbCircle
 10
72.75
 20
20.45
 30
0.0
 40
1.45
100
AcDbArc
 50
180.0
 51
0.0
  0
ARC
  5
35A
100
AcDbEntity
  8
0
390
0
  6
CONTINUOUS
 62
     3
100
AcDbCircle
 10
75.65
 20
23.55
 30
0.0
 40
1.45
100
AcDbArc
 50
0.0
 51
180.0
  0
ARC
  5
35B
100
AcDbEntity
  8
0
390
0
  6
CONTINUOUS
 62
     3
100
AcDbCircle
 10
78.55
 20
20.45
 30
0.0
 40
1.45
100
AcDbArc
 50
180.0
 51
0.0
  0
ARC
  5
35C
100
AcDbEntity
  8
0
390
0
  6
CONTINUOUS
 62
     3
100
AcDbCircle
 10
-64.05
 20
23.55
 30
0.0
 40
1.45
100
AcDbArc
 50
0.0
 51
180.0
  0
ARC
  5
35D
100
AcDbEntity
  8
0
390
0
  6
CONTINUOUS
 62
     3
100
AcDbCircle
 10
-66.95
 20
20.45
 30
0.0
 40
1.45
100
AcDbArc
 50
180.0
 51
0.0
  0
ARC
  5
35E
100
AcDbEntity
  8
0
390
0
  6
CONTINUOUS
 62
     3
100
AcDbCircle
 10
-69.85
 20
23.55
 30
0.0
 40
1.45
100
AcDbArc
 50
0.0
 51
180.0
  0
ARC
  5
35F
100
AcDbEntity
  8
0
390
0
  6
CONTINUOUS
 62
     3
100
AcDbCircle
 10
-72.75
 20
20.45
 30
0.0
 40
1.45
100
AcDbArc
 50
180.0
 51
0.0
  0
ARC
  5
360
100
AcDbEntity
  8
0
390
0
  6
CONTINUOUS
 62
     3
100
AcDbCircle
 10
-75.65
 20
23.55
 30
0.0
 40
1.45
100
AcDbArc
 50
0.0
 51
180.0
  0
ARC
  5
361
100
AcDbEntity
  8
0
390
0
  6
CONTINUOUS
 62
     3
100
AcDbCircle
 10
-78.55
 20
20.45
 30
0.0
 40
1.45
100
AcDbArc
 50
180.0
 51
0.0
  0
ARC
  5
362
100
AcDbEntity
  8
0
390
0
  6
CONTINUOUS
 62
     3
100
AcDbCircle
 10
98.150986
 20
26.0
 30
0.0
 40
1.5
100
AcDbArc
 50
90.000018
 51
164.999971
  0
ARC
  5
363
100
AcDbEntity
  8
0
390
0
  6
CONTINUOUS
 62
     3
100
AcDbCircle
 10
98.150986
 20
-26.0
 30
0.0
 40
1.5
100
AcDbArc
 50
195.000029
 51
269.999982
  0
ARC
  5
364
100
AcDbEntity
  8
0
390
0
  6
CONTINUOUS
 62
     3
100
AcDbCircle
 10
-98.150986
 20
-26.0
 30
0.0
 40
1.5
100
AcDbArc
 50
270.000018
 51
344.999971
  0
ARC
  5
365
100
AcDbEntity
  8
0
390
0
  6
CONTINUOUS
 62
     3
100
AcDbCircle
 10
-98.150986
 20
26.0
 30
0.0
 40
1.5
100
AcDbArc
 50
15.000029
 51
89.999982
  0
LINE
  5
366
100
AcDbEntity
  8
0
390
0
  6
PHANTOM
 62
   110
100
AcDbLine
 10
-2.885035
 20
-25.0
 30
0.0
 11
64.05
 21
-25.0
 31
0.0
  0
LINE
  5
367
100
AcDbEntity
  8
0
390
0
  6
PHANTOM
 62
   110
100
AcDbLine
 10
-1.827073
 20
-19.0
 30
0.0
 11
66.95
 21
-19.0
 31
0.0
  0
LINE
  5
368
100
AcDbEntity
  8
0
390
0
  6
PHANTOM
 62
   110
100
AcDbLine
 10
4.873353
 20
19.0
 30
0.0
 11
66.95
 21
19.0
 31
0.0
  0
LINE
  5
369
100
AcDbEntity
  8
0
390
0
  6
PHANTOM
 62
   110
100
AcDbLine
 10
5.931314
 20
25.0
 30
0.0
 11
64.05
 21
25.0
 31
0.0
  0
LINE
  5
36A
100
AcDbEntity
  8
0
390
0
  6
CENTER
 62
   110
100
AcDbLine
 10
-6.460295
 20
-28.0
 30
0.0
 11
3.414016
 21
28.0
 31
0.0
  0
LINE
  5
36B
100
AcDbEntity
  8
0
390
0
  6
CENTER
 62
   110
100
AcDbLine
 10
-3.414016
 20
-28.0
 30
0.0
 11
6.460295
 21
28.0
 31
0.0
  0
LINE
  5
36C
100
AcDbEntity
  8
0
390
0
  6
CONTINUOUS
 62
     3
100
AcDbLine
 10
62.6
 20
-23.55
 30
0.0
 11
62.6
 21
-20.45
 31
0.0
  0
LINE
  5
36D
100
AcDbEntity
  8
0
390
0
  6
CONTINUOUS
 62
     3
100
AcDbLine
 10
65.5
 20
-23.55
 30
0.0
 11
65.5
 21
-20.45
 31
0.0
  0
LINE
  5
36E
100
AcDbEntity
  8
0
390
0
  6
CONTINUOUS
 62
     3
100
AcDbLine
 10
68.4
 20
-23.55
 30
0.0
 11
68.4
 21
-20.45
 31
0.0
  0
LINE
  5
36F
100
AcDbEntity
  8
0
390
0
  6
CONTINUOUS
 62
     3
100
AcDbLine
 10
71.3
 20
-23.55
 30
0.0
 11
71.3
 21
-20.45
 31
0.0
  0
LINE
  5
370
100
AcDbEntity
  8
0
390
0
  6
CONTINUOUS
 62
     3
100
AcDbLine
 10
74.2
 20
-23.55
 30
0.0
 11
74.2
 21
-20.45
 31
0.0
  0
LINE
  5
371
100
AcDbEntity
  8
0
390
0
  6
CONTINUOUS
 62
     3
100
AcDbLine
 10
77.1
 20
-23.55
 30
0.0
 11
77.1
 21
-20.45
 31
0.0
  0
LINE
  5
372
100
AcDbEntity
  8
0
390
0
  6
PHANTOM
 62
   110
100
AcDbLine
 10
-64.05
 20
-25.0
 30
0.0
 11
-5.931314
 21
-25.0
 31
0.0
  0
LINE
  5
373
100
AcDbEntity
  8
0
390
0
  6
PHANTOM
 62
   110
100
AcDbLine
 10
-66.95
 20
-19.0
 30
0.0
 11
-4.873353
 21
-19.0
 31
0.0
  0
LINE
  5
374
100
AcDbEntity
  8
0
390
0
  6
CONTINUOUS
 62
     3
100
AcDbLine
 10
-62.6
 20
-23.55
 30
0.0
 11
-62.6
 21
-20.45
 31
0.0
  0
LINE
  5
375
100
AcDbEntity
  8
0
390
0
  6
CONTINUOUS
 62
     3
100
AcDbLine
 10
-65.5
 20
-23.55
 30
0.0
 11
-65.5
 21
-20.45
 31
0.0
  0
LINE
  5
376
100
AcDbEntity
  8
0
390
0
  6
CONTINUOUS
 62
     3
100
AcDbLine
 10
-68.4
 20
-23.55
 30
0.0
 11
-68.4
 21
-20.45
 31
0.0
  0
LINE
  5
377
100
AcDbEntity
  8
0
390
0
  6
CONTINUOUS
 62
     3
100
AcDbLine
 10
-71.3
 20
-23.55
 30
0.0
 11
-71.3
 21
-20.45
 31
0.0
  0
LINE
  5
378
100
AcDbEntity
  8
0
390
0
  6
CONTINUOUS
 62
     3
100
AcDbLine
 10
-74.2
 20
-23.55
 30
0.0
 11
-74.2
 21
-20.45
 31
0.0
  0
LINE
  5
379
100
AcDbEntity
  8
0
390
0
  6
CONTINUOUS
 62
     3
100
AcDbLine
 10
-77.1
 20
-23.55
 30
0.0
 11
-77.1
 21
-20.45
 31
0.0
  0
LINE
  5
37A
100
AcDbEntity
  8
0
390
0
  6
CONTINUOUS
 62
     3
100
AcDbLine
 10
62.6
 20
23.55
 30
0.0
 11
62.6
 21
20.45
 31
0.0
  0
LINE
  5
37B
100
AcDbEntity
  8
0
390
0
  6
CONTINUOUS
 62
     3
100
AcDbLine
 10
65.5
 20
23.55
 30
0.0
 11
65.5
 21
20.45
 31
0.0
  0
LINE
  5
37C
100
AcDbEntity
  8
0
390
0
  6
CONTINUOUS
 62
     3
100
AcDbLine
 10
68.4
 20
23.55
 30
0.0
 11
68.4
 21
20.45
 31
0.0
  0
LINE
  5
37D
100
AcDbEntity
  8
0
390
0
  6
CONTINUOUS
 62
     3
100
AcDbLine
 10
71.3
 20
23.55
 30
0.0
 11
71.3
 21
20.45
 31
0.0
  0
LINE
  5
37E
100
AcDbEntity
  8
0
390
0
  6
CONTINUOUS
 62
     3
100
AcDbLine
 10
74.2
 20
23.55
 30
0.0
 11
74.2
 21
20.45
 31
0.0
  0
LINE
  5
37F
100
AcDbEntity
  8
0
390
0
  6
CONTINUOUS
 62
     3
100
AcDbLine
 10
77.1
 20
23.55
 30
0.0
 11
77.1
 21
20.45
 31
0.0
  0
LINE
  5
380
100
AcDbEntity
  8
0
390
0
  6
PHANTOM
 62
   110
100
AcDbLine
 10
-64.05
 20
25.0
 30
0.0
 11
2.885035
 21
25.0
 31
0.0
  0
LINE
  5
381
100
AcDbEntity
  8
0
390
0
  6
PHANTOM
 62
   110
100
AcDbLine
 10
-66.95
 20
19.0
 30
0.0
 11
1.827073
 21
19.0
 31
0.0
  0
LINE
  5
382
100
AcDbEntity
  8
0
390
0
  6
CONTINUOUS
 62
     3
100
AcDbLine
 10
-62.6
 20
23.55
 30
0.0
 11
-62.6
 21
20.45
 31
0.0
  0
LINE
  5
383
100
AcDbEntity
  8
0
390
0
  6
CONTINUOUS
 62
     3
100
AcDbLine
 10
-65.5
 20
23.55
 30
0.0
 11
-65.5
 21
20.45
 31
0.0
  0
LINE
  5
384
100
AcDbEntity
  8
0
390
0
  6
CONTINUOUS
 62
     3
100
AcDbLine
 10
-68.4
 20
23.55
 30
0.0
 11
-68.4
 21
20.45
 31
0.0
  0
LINE
  5
385
100
AcDbEntity
  8
0
390
0
  6
CONTINUOUS
 62
     3
100
AcDbLine
 10
-71.3
 20
23.55
 30
0.0
 11
-71.3
 21
20.45
 31
0.0
  0
LINE
  5
386
100
AcDbEntity
  8
0
390
0
  6
CONTINUOUS
 62
     3
100
AcDbLine
 10
-74.2
 20
23.55
 30
0.0
 11
-74.2
 21
20.45
 31
0.0
  0
LINE
  5
387
100
AcDbEntity
  8
0
390
0
  6
CONTINUOUS
 62
     3
100
AcDbLine
 10
-77.1
 20
23.55
 30
0.0
 11
-77.1
 21
20.45
 31
0.0
  0
LINE
  5
388
100
AcDbEntity
  8
0
390
0
  6
CONTINUOUS
 62
     3
100
AcDbLine
 10
97.5
 20
-19.5
 30
0.0
 11
80.0
 21
-19.5
 31
0.0
  0
LINE
  5
389
100
AcDbEntity
  8
0
390
0
  6
CONTINUOUS
 62
     3
100
AcDbLine
 10
80.5
 20
-26.25
 30
0.0
 11
80.0
 21
-26.25
 31
0.0
  0
LINE
  5
38A
100
AcDbEntity
  8
0
390
0
  6
CONTINUOUS
 62
     3
100
AcDbLine
 10
80.5
 20
-26.25
 30
0.0
 11
83.329016
 21
-21.35
 31
0.0
  0
LINE
  5
38B
100
AcDbEntity
  8
0
390
0
  6
CONTINUOUS
 62
     3
100
AcDbLine
 10
80.5
 20
26.25
 30
0.0
 11
83.329016
 21
21.35
 31
0.0
  0
LINE
  5
38C
100
AcDbEntity
  8
0
390
0
  6
CONTINUOUS
 62
     3
100
AcDbLine
 10
80.5
 20
26.25
 30
0.0
 11
80.0
 21
26.25
 31
0.0
  0
LINE
  5
38D
100
AcDbEntity
  8
0
390
0
  6
CONTINUOUS
 62
     3
100
AcDbLine
 10
80.0
 20
26.25
 30
0.0
 11
80.0
 21
-26.25
 31
0.0
  0
LINE
  5
38E
100
AcDbEntity
  8
0
390
0
  6
CONTINUOUS
 62
     3
100
AcDbLine
 10
100.0
 20
27.5
 30
0.0
 11
100.0
 21
-27.5
 31
0.0
  0
LINE
  5
38F
100
AcDbEntity
  8
0
390
0
  6
CONTINUOUS
 62
     3
100
AcDbLine
 10
100.0
 20
-20.6
 30
0.0
 11
97.5
 21
-20.6
 31
0.0
  0
LINE
  5
390
100
AcDbEntity
  8
0
390
0
  6
CONTINUOUS
 62
     3
100
AcDbLine
 10
96.702101
 20
-26.388231
 30
0.0
 11
95.352111
 21
-21.350003
 31
0.0
  0
LINE
  5
391
100
AcDbEntity
  8
0
390
0
  6
CONTINUOUS
 62
     3
100
AcDbLine
 10
96.702101
 20
26.388231
 30
0.0
 11
95.352111
 21
21.350003
 31
0.0
  0
LINE
  5
392
100
AcDbEntity
  8
0
390
0
  6
CONTINUOUS
 62
     3
100
AcDbLine
 10
100.0
 20
20.6
 30
0.0
 11
97.5
 21
20.6
 31
0.0
  0
LINE
  5
393
100
AcDbEntity
  8
0
390
0
  6
CONTINUOUS
 62
     3
100
AcDbLine
 10
97.5
 20
20.6
 30
0.0
 11
97.5
 21
-20.6
 31
0.0
  0
LINE
  5
394
100
AcDbEntity
  8
0
390
0
  6
CONTINUOUS
 62
     3
100
AcDbLine
 10
97.5
 20
19.5
 30
0.0
 11
80.0
 21
19.5
 31
0.0
  0
LINE
  5
395
100
AcDbEntity
  8
0
390
0
  6
CONTINUOUS
 62
     3
100
AcDbLine
 10
95.352112
 20
-21.35
 30
0.0
 11
83.329016
 21
-21.35
 31
0.0
  0
LINE
  5
396
100
AcDbEntity
  8
0
390
0
  6
CONTINUOUS
 62
     3
100
AcDbLine
 10
95.352112
 20
21.35
 30
0.0
 11
83.329016
 21
21.35
 31
0.0
  0
LINE
  5
397
100
AcDbEntity
  8
0
390
0
  6
CONTINUOUS
 62
     3
100
AcDbLine
 10
100.0
 20
-27.5
 30
0.0
 11
98.150986
 21
-27.5
 31
0.0
  0
LINE
  5
398
100
AcDbEntity
  8
0
390
0
  6
CONTINUOUS
 62
     3
100
AcDbLine
 10
100.0
 20
27.5
 30
0.0
 11
98.150986
 21
27.5
 31
0.0
  0
LINE
  5
399
100
AcDbEntity
  8
0
390
0
  6
CONTINUOUS
 62
     3
100
AcDbLine
 10
-100.0
 20
-20.6
 30
0.0
 11
-97.5
 21
-20.6
 31
0.0
  0
LINE
  5
39A
100
AcDbEntity
  8
0
390
0
  6
CONTINUOUS
 62
     3
100
AcDbLine
 10
-97.5
 20
-19.5
 30
0.0
 11
-80.0
 21
-19.5
 31
0.0
  0
LINE
  5
39B
100
AcDbEntity
  8
0
390
0
  6
CONTINUOUS
 62
     3
100
AcDbLine
 10
-80.5
 20
-26.25
 30
0.0
 11
-80.0
 21
-26.25
 31
0.0
  0
LINE
  5
39C
100
AcDbEntity
  8
0
390
0
  6
CONTINUOUS
 62
     3
100
AcDbLine
 10
-80.5
 20
-26.25
 30
0.0
 11
-83.329016
 21
-21.35
 31
0.0
  0
LINE
  5
39D
100
AcDbEntity
  8
0
390
0
  6
CONTINUOUS
 62
     3
100
AcDbLine
 10
-80.5
 20
26.25
 30
0.0
 11
-83.329016
 21
21.35
 31
0.0
  0
LINE
  5
39E
100
AcDbEntity
  8
0
390
0
  6
CONTINUOUS
 62
     3
100
AcDbLine
 10
-80.5
 20
26.25
 30
0.0
 11
-80.0
 21
26.25
 31
0.0
  0
LINE
  5
39F
100
AcDbEntity
  8
0
390
0
  6
CONTINUOUS
 62
     3
100
AcDbLine
 10
-80.0
 20
26.25
 30
0.0
 11
-80.0
 21
-26.25
 31
0.0
  0
LINE
  5
3A0
100
AcDbEntity
  8
0
390
0
  6
CONTINUOUS
 62
     3
100
AcDbLine
 10
-100.0
 20
27.5
 30
0.0
 11
-100.0
 21
-27.5
 31
0.0
  0
LINE
  5
3A1
100
AcDbEntity
  8
0
390
0
  6
CENTER
 62
   110
100
AcDbLine
 10
-104.0
 20
0.0
 30
0.0
 11
104.0
 21
0.0
 31
0.0
  0
LINE
  5
3A2
100
AcDbEntity
  8
0
390
0
  6
CONTINUOUS
 62
     3
100
AcDbLine
 10
-96.702101
 20
-26.388231
 30
0.0
 11
-95.352111
 21
-21.350003
 31
0.0
  0
LINE
  5
3A3
100
AcDbEntity
  8
0
390
0
  6
CONTINUOUS
 62
     3
100
AcDbLine
 10
-96.702101
 20
26.388231
 30
0.0
 11
-95.352111
 21
21.350003
 31
0.0
  0
LINE
  5
3A4
100
AcDbEntity
  8
0
390
0
  6
CONTINUOUS
 62
     3
100
AcDbLine
 10
-100.0
 20
20.6
 30
0.0
 11
-97.5
 21
20.6
 31
0.0
  0
LINE
  5
3A5
100
AcDbEntity
  8
0
390
0
  6
CONTINUOUS
 62
     3
100
AcDbLine
 10
-97.5
 20
20.6
 30
0.0
 11
-97.5
 21
-20.6
 31
0.0
  0
LINE
  5
3A6
100
AcDbEntity
  8
0
390
0
  6
CONTINUOUS
 62
     3
100
AcDbLine
 10
-97.5
 20
19.5
 30
0.0
 11
-80.0
 21
19.5
 31
0.0
  0
LINE
  5
3A7
100
AcDbEntity
  8
0
390
0
  6
CONTINUOUS
 62
     3
100
AcDbLine
 10
-95.352112
 20
-21.35
 30
0.0
 11
-83.329016
 21
-21.35
 31
0.0
  0
LINE
  5
3A8
100
AcDbEntity
  8
0
390
0
  6
CONTINUOUS
 62
     3
100
AcDbLine
 10
-95.352112
 20
21.35
 30
0.0
 11
-83.329016
 21
21.35
 31
0.0
  0
LINE
  5
3A9
100
AcDbEntity
  8
0
390
0
  6
CONTINUOUS
 62
     3
100
AcDbLine
 10
-100.0
 20
-27.5
 30
0.0
 11
-98.150986
 21
-27.5
 31
0.0
  0
LINE
  5
3AA
100
AcDbEntity
  8
0
390
0
  6
CONTINUOUS
 62
     3
100
AcDbLine
 10
-100.0
 20
27.5
 30
0.0
 11
-98.150986
 21
27.5
 31
0.0
  0
ENDBLK
  5
3AB
100
AcDbEntity
  8
0
370
    -2
390
0
100
AcDbBlockEnd
  0
BLOCK
  5
3AC
100
AcDbEntity
  8
0
370
    -2
390
0
100
AcDbBlockBegin
  2
VF1050
 70
     0
 10
0.0
 20
0.0
 30
0.0
  3
VF1050
  1

  0
DIMENSION
  5
3B9
100
AcDbEntity
  8
0
390
0
  6
CONTINUOUS
 62
   255
100
AcDbDimension
  2
*D39
 10
-100.0
 20
72.0
 30
0.0
 11
0.0
 21
72.0
 31
0.0
 70
   128
 71
     5
 72
     1
 41
0.9
 42
200.0
  1
\A1;<>±5%
  3
MXDIMSTYLE
100
AcDbAlignedDimension
 13
100.0
 23
37.5
 33
0.0
 14
-100.0
 24
37.5
 34
0.0
100
AcDbRotatedDimension
1001
ACAD
1000
DSTYLE
1002
{
1070
    41
1040
2.77
1070
    44
1040
2.286
1070
   140
1040
3.2
1070
   271
1070
     0
1070
   284
1070
     8
1002
}
  0
DIMENSION
  5
3C5
100
AcDbEntity
  8
0
390
0
  6
CONTINUOUS
 62
   255
100
AcDbDimension
  2
*D40
 10
80.0
 20
64.0
 30
0.0
 11
0.0
 21
64.0
 31
0.0
 70
   128
 71
     5
 72
     1
 41
0.9
 42
160.0
  1
\A1;(<>)
  3
MXDIMSTYLE
100
AcDbAlignedDimension
 13
-80.0
 23
35.0
 33
0.0
 14
80.0
 24
35.0
 34
0.0
100
AcDbRotatedDimension
1001
ACAD
1000
DSTYLE
1002
{
1070
    41
1040
2.77
1070
    44
1040
2.286
1070
    75
1070
     1
1070
   140
1040
3.2
1070
   271
1070
     0
1070
   284
1070
     8
1070
   340
1005
D6
1002
}
  0
DIMENSION
  5
3D1
100
AcDbEntity
  8
0
390
0
  6
CONTINUOUS
 62
   110
100
AcDbDimension
  2
*D41
 10
-80.0
 20
64.0
 30
0.0
 11
-90.0
 21
64.0
 31
0.0
 70
   128
 71
     5
 72
     1
 41
0.9
 42
20.0
  1
\A1;<>
  3
MXDIMSTYLE
100
AcDbAlignedDimension
 13
-100.0
 23
37.5
 33
0.0
 14
-80.0
 24
35.0
 34
0.0
100
AcDbRotatedDimension
1001
ACAD
1000
DSTYLE
1002
{
1070
    41
1040
2.77
1070
    44
1040
2.286
1070
    75
1070
     1
1070
   140
1040
3.2
1070
   271
1070
     0
1070
   284
1070
     8
1070
   340
1005
C9
1002
}
  0
DIMENSION
  5
3DE
100
AcDbEntity
  8
0
390
0
  6
CONTINUOUS
 62
   110
100
AcDbDimension
  2
*D42
 10
-120.0
 20
37.5
 30
0.0
 11
-120.0
 21
0.0
 31
0.0
 70
   128
 71
     5
 72
     1
 41
0.9
 42
75.0
  1
\A1;\U+2205<>
  3
MXDIMSTYLE
100
AcDbAlignedDimension
 13
-100.0
 23
-37.5
 33
0.0
 14
-100.0
 24
37.5
 34
0.0
 50
90.0
100
AcDbRotatedDimension
1001
ACAD
1000
DSTYLE
1002
{
1070
    41
1040
2.77
1070
    44
1040
2.285999
1070
   140
1040
3.2
1070
   271
1070
     0
1070
   284
1070
     8
1070
   340
1005
28D
1002
}
  0
DIMENSION
  5
3E9
100
AcDbEntity
  8
0
390
0
  6
CONTINUOUS
 62
   110
100
AcDbDimension
  2
*D43
 10
100.0
 20
64.0
 30
0.0
 11
90.0
 21
64.0
 31
0.0
 70
   128
 71
     5
 72
     1
 41
0.9
 42
20.0
  1
\A1;<>
  3
MXDIMSTYLE
100
AcDbAlignedDimension
 13
80.0
 23
35.0
 33
0.0
 14
100.0
 24
37.5
 34
0.0
100
AcDbRotatedDimension
1001
ACAD
1000
DSTYLE
1002
{
1070
    41
1040
2.77
1070
    75
1070
     1
1070
    76
1070
     1
1070
   140
1040
3.2
1070
   271
1070
     0
1070
   284
1070
     8
1070
   340
1005
C9
1002
}
  0
DIMENSION
  5
3F4
100
AcDbEntity
  8
0
390
0
  6
CONTINUOUS
 62
   110
100
AcDbDimension
  2
*D44
 10
-24.0
 20
26.0
 30
0.0
 11
-24.0
 21
12.0
 31
0.0
 70
   128
 71
     5
 72
     1
 41
0.9
 42
52.0
  1
\A1;\U+2205<>
  3
MXDIMSTYLE
100
AcDbAlignedDimension
 13
-6.107641
 23
-26.0
 33
0.0
 14
3.061361
 24
26.0
 34
0.0
 50
90.0
100
AcDbRotatedDimension
1001
ACAD
1000
DSTYLE
1002
{
1070
    41
1040
2.77
1070
    75
1070
     1
1070
    76
1070
     1
1070
   140
1040
3.2
1070
   271
1070
     0
1070
   284
1070
     8
1070
   340
1005
28D
1002
}
  0
DIMENSION
  5
3FF
100
AcDbEntity
  8
0
390
0
  6
CONTINUOUS
 62
   110
100
AcDbDimension
  2
*D45
 10
-16.0
 20
-33.75
 30
0.0
 11
-16.0
 21
12.0
 31
0.0
 70
   128
 71
     5
 72
     1
 41
0.9
 42
67.5
  1
\A1;\U+2205<>
  3
MXDIMSTYLE
100
AcDbAlignedDimension
 13
4.427896
 23
33.75
 33
0.0
 14
-7.474176
 24
-33.75
 34
0.0
 50
90.0
100
AcDbRotatedDimension
1001
ACAD
1000
DSTYLE
1002
{
1070
    41
1040
2.77
1070
    75
1070
     1
1070
    76
1070
     1
1070
   140
1040
3.2
1070
   271
1070
     1
1070
   284
1070
     8
1070
   340
1005
C9
1002
}
  0
ARC
  5
400
100
AcDbEntity
  8
0
390
0
  6
CONTINUOUS
 62
     3
100
AcDbCircle
 10
61.3
 20
-32.05
 30
0.0
 40
1.7
100
AcDbArc
 50
180.0
 51
0.0
  0
ARC
  5
401
100
AcDbEntity
  8
0
390
0
  6
CONTINUOUS
 62
     3
100
AcDbCircle
 10
64.7
 20
-27.7
 30
0.0
 40
1.7
100
AcDbArc
 50
0.0
 51
180.0
  0
ARC
  5
402
100
AcDbEntity
  8
0
390
0
  6
CONTINUOUS
 62
     3
100
AcDbCircle
 10
68.1
 20
-32.05
 30
0.0
 40
1.7
100
AcDbArc
 50
180.0
 51
0.0
  0
ARC
  5
403
100
AcDbEntity
  8
0
390
0
  6
CONTINUOUS
 62
     3
100
AcDbCircle
 10
71.5
 20
-27.7
 30
0.0
 40
1.7
100
AcDbArc
 50
0.0
 51
180.0
  0
ARC
  5
404
100
AcDbEntity
  8
0
390
0
  6
CONTINUOUS
 62
     3
100
AcDbCircle
 10
74.9
 20
-32.05
 30
0.0
 40
1.7
100
AcDbArc
 50
180.0
 51
0.0
  0
ARC
  5
405
100
AcDbEntity
  8
0
390
0
  6
CONTINUOUS
 62
     3
100
AcDbCircle
 10
78.3
 20
-27.7
 30
0.0
 40
1.7
100
AcDbArc
 50
0.0
 51
180.0
  0
ARC
  5
406
100
AcDbEntity
  8
0
390
0
  6
CONTINUOUS
 62
     3
100
AcDbCircle
 10
-61.3
 20
-32.05
 30
0.0
 40
1.7
100
AcDbArc
 50
180.0
 51
0.0
  0
ARC
  5
407
100
AcDbEntity
  8
0
390
0
  6
CONTINUOUS
 62
     3
100
AcDbCircle
 10
-64.7
 20
-27.7
 30
0.0
 40
1.7
100
AcDbArc
 50
0.0
 51
180.0
  0
ARC
  5
408
100
AcDbEntity
  8
0
390
0
  6
CONTINUOUS
 62
     3
100
AcDbCircle
 10
-68.1
 20
-32.05
 30
0.0
 40
1.7
100
AcDbArc
 50
180.0
 51
0.0
  0
ARC
  5
409
100
AcDbEntity
  8
0
390
0
  6
CONTINUOUS
 62
     3
100
AcDbCircle
 10
-71.5
 20
-27.7
 30
0.0
 40
1.7
100
AcDbArc
 50
0.0
 51
180.0
  0
ARC
  5
40A
100
AcDbEntity
  8
0
390
0
  6
CONTINUOUS
 62
     3
100
AcDbCircle
 10
-74.9
 20
-32.05
 30
0.0
 40
1.7
100
AcDbArc
 50
180.0
 51
0.0
  0
ARC
  5
40B
100
AcDbEntity
  8
0
390
0
  6
CONTINUOUS
 62
     3
100
AcDbCircle
 10
-78.3
 20
-27.7
 30
0.0
 40
1.7
100
AcDbArc
 50
0.0
 51
180.0
  0
ARC
  5
40C
100
AcDbEntity
  8
0
390
0
  6
CONTINUOUS
 62
     3
100
AcDbCircle
 10
61.3
 20
32.05
 30
0.0
 40
1.7
100
AcDbArc
 50
0.0
 51
180.0
  0
ARC
  5
40D
100
AcDbEntity
  8
0
390
0
  6
CONTINUOUS
 62
     3
100
AcDbCircle
 10
64.7
 20
27.7
 30
0.0
 40
1.7
100
AcDbArc
 50
180.0
 51
0.0
  0
ARC
  5
40E
100
AcDbEntity
  8
0
390
0
  6
CONTINUOUS
 62
     3
100
AcDbCircle
 10
68.1
 20
32.05
 30
0.0
 40
1.7
100
AcDbArc
 50
0.0
 51
180.0
  0
ARC
  5
40F
100
AcDbEntity
  8
0
390
0
  6
CONTINUOUS
 62
     3
100
AcDbCircle
 10
71.5
 20
27.7
 30
0.0
 40
1.7
100
AcDbArc
 50
180.0
 51
0.0
  0
ARC
  5
410
100
AcDbEntity
  8
0
390
0
  6
CONTINUOUS
 62
     3
100
AcDbCircle
 10
74.9
 20
32.05
 30
0.0
 40
1.7
100
AcDbArc
 50
0.0
 51
180.0
  0
ARC
  5
411
100
AcDbEntity
  8
0
390
0
  6
CONTINUOUS
 62
     3
100
AcDbCircle
 10
78.3
 20
27.7
 30
0.0
 40
1.7
100
AcDbArc
 50
180.0
 51
0.0
  0
ARC
  5
412
100
AcDbEntity
  8
0
390
0
  6
CONTINUOUS
 62
     3
100
AcDbCircle
 10
-61.3
 20
32.05
 30
0.0
 40
1.7
100
AcDbArc
 50
0.0
 51
180.0
  0
ARC
  5
413
100
AcDbEntity
  8
0
390
0
  6
CONTINUOUS
 62
     3
100
AcDbCircle
 10
-64.7
 20
27.7
 30
0.0
 40
1.7
100
AcDbArc
 50
180.0
 51
0.0
  0
ARC
  5
414
100
AcDbEntity
  8
0
390
0
  6
CONTINUOUS
 62
     3
100
AcDbCircle
 10
-68.1
 20
32.05
 30
0.0
 40
1.7
100
AcDbArc
 50
0.0
 51
180.0
  0
ARC
  5
415
100
AcDbEntity
  8
0
390
0
  6
CONTINUOUS
 62
     3
100
AcDbCircle
 10
-71.5
 20
27.7
 30
0.0
 40
1.7
100
AcDbArc
 50
180.0
 51
0.0
  0
ARC
  5
416
100
AcDbEntity
  8
0
390
0
  6
CONTINUOUS
 62
     3
100
AcDbCircle
 10
-74.9
 20
32.05
 30
0.0
 40
1.7
100
AcDbArc
 50
0.0
 51
180.0
  0
ARC
  5
417
100
AcDbEntity
  8
0
390
0
  6
CONTINUOUS
 62
     3
100
AcDbCircle
 10
-78.3
 20
27.7
 30
0.0
 40
1.7
100
AcDbArc
 50
180.0
 51
0.0
  0
ARC
  5
418
100
AcDbEntity
  8
0
390
0
  6
CONTINUOUS
 62
     3
100
AcDbCircle
 10
98.150986
 20
-36.0
 30
0.0
 40
1.5
100
AcDbArc
 50
195.000029
 51
269.999982
  0
ARC
  5
419
100
AcDbEntity
  8
0
390
0
  6
CONTINUOUS
 62
     3
100
AcDbCircle
 10
98.150986
 20
36.0
 30
0.0
 40
1.5
100
AcDbArc
 50
90.000018
 51
164.999971
  0
CIRCLE
  5
41A
100
AcDbEntity
  8
0
390
0
  6
CONTINUOUS
 62
     3
 60
     1
100
AcDbCircle
 10
-50.300003
 20
30.85
 30
0.0
 40
4.200005
  0
ARC
  5
41B
100
AcDbEntity
  8
0
390
0
  6
CONTINUOUS
 62
     3
100
AcDbCircle
 10
-98.150986
 20
-36.0
 30
0.0
 40
1.5
100
AcDbArc
 50
270.000018
 51
344.999971
  0
ARC
  5
41C
100
AcDbEntity
  8
0
390
0
  6
CONTINUOUS
 62
     3
100
AcDbCircle
 10
-98.150986
 20
36.0
 30
0.0
 40
1.5
100
AcDbArc
 50
15.000029
 51
89.999982
  0
LINE
  5
41D
100
AcDbEntity
  8
0
390
0
  6
PHANTOM
 62
   110
100
AcDbLine
 10
-4.427896
 20
-33.75
 30
0.0
 11
61.3
 21
-33.75
 31
0.0
  0
LINE
  5
41E
100
AcDbEntity
  8
0
390
0
  6
PHANTOM
 62
   110
100
AcDbLine
 10
-3.061362
 20
-26.0
 30
0.0
 11
64.7
 21
-26.0
 31
0.0
  0
LINE
  5
41F
100
AcDbEntity
  8
0
390
0
  6
PHANTOM
 62
   110
100
AcDbLine
 10
6.107641
 20
26.0
 30
0.0
 11
64.7
 21
26.0
 31
0.0
  0
LINE
  5
420
100
AcDbEntity
  8
0
390
0
  6
PHANTOM
 62
   110
100
AcDbLine
 10
7.474176
 20
33.75
 30
0.0
 11
61.3
 21
33.75
 31
0.0
  0
LINE
  5
421
100
AcDbEntity
  8
0
390
0
  6
CENTER
 62
   110
100
AcDbLine
 10
-8.003156
 20
-36.75
 30
0.0
 11
4.956877
 21
36.75
 31
0.0
  0
LINE
  5
422
100
AcDbEntity
  8
0
390
0
  6
CENTER
 62
   110
100
AcDbLine
 10
-4.956877
 20
-36.75
 30
0.0
 11
8.003156
 21
36.75
 31
0.0
  0
LINE
  5
423
100
AcDbEntity
  8
0
390
0
  6
CONTINUOUS
 62
     3
100
AcDbLine
 10
59.6
 20
-32.05
 30
0.0
 11
59.6
 21
-27.7
 31
0.0
  0
LINE
  5
424
100
AcDbEntity
  8
0
390
0
  6
CONTINUOUS
 62
     3
100
AcDbLine
 10
63.0
 20
-32.05
 30
0.0
 11
63.0
 21
-27.7
 31
0.0
  0
LINE
  5
425
100
AcDbEntity
  8
0
390
0
  6
CONTINUOUS
 62
     3
100
AcDbLine
 10
66.4
 20
-32.05
 30
0.0
 11
66.4
 21
-27.7
 31
0.0
  0
LINE
  5
426
100
AcDbEntity
  8
0
390
0
  6
CONTINUOUS
 62
     3
100
AcDbLine
 10
69.8
 20
-32.05
 30
0.0
 11
69.8
 21
-27.7
 31
0.0
  0
LINE
  5
427
100
AcDbEntity
  8
0
390
0
  6
CONTINUOUS
 62
     3
100
AcDbLine
 10
73.2
 20
-32.05
 30
0.0
 11
73.2
 21
-27.7
 31
0.0
  0
LINE
  5
428
100
AcDbEntity
  8
0
390
0
  6
CONTINUOUS
 62
     3
100
AcDbLine
 10
76.6
 20
-32.05
 30
0.0
 11
76.6
 21
-27.7
 31
0.0
  0
LINE
  5
429
100
AcDbEntity
  8
0
390
0
  6
PHANTOM
 62
   110
100
AcDbLine
 10
-61.3
 20
-33.75
 30
0.0
 11
-7.474176
 21
-33.75
 31
0.0
  0
LINE
  5
42A
100
AcDbEntity
  8
0
390
0
  6
PHANTOM
 62
   110
100
AcDbLine
 10
-64.7
 20
-26.0
 30
0.0
 11
-6.107641
 21
-26.0
 31
0.0
  0
LINE
  5
42B
100
AcDbEntity
  8
0
390
0
  6
CONTINUOUS
 62
     3
100
AcDbLine
 10
-59.6
 20
-32.05
 30
0.0
 11
-59.6
 21
-27.7
 31
0.0
  0
LINE
  5
42C
100
AcDbEntity
  8
0
390
0
  6
CONTINUOUS
 62
     3
100
AcDbLine
 10
-63.0
 20
-32.05
 30
0.0
 11
-63.0
 21
-27.7
 31
0.0
  0
LINE
  5
42D
100
AcDbEntity
  8
0
390
0
  6
CONTINUOUS
 62
     3
100
AcDbLine
 10
-66.4
 20
-32.05
 30
0.0
 11
-66.4
 21
-27.7
 31
0.0
  0
LINE
  5
42E
100
AcDbEntity
  8
0
390
0
  6
CONTINUOUS
 62
     3
100
AcDbLine
 10
-69.8
 20
-32.05
 30
0.0
 11
-69.8
 21
-27.7
 31
0.0
  0
LINE
  5
42F
100
AcDbEntity
  8
0
390
0
  6
CONTINUOUS
 62
     3
100
AcDbLine
 10
-73.2
 20
-32.05
 30
0.0
 11
-73.2
 21
-27.7
 31
0.0
  0
LINE
  5
430
100
AcDbEntity
  8
0
390
0
  6
CONTINUOUS
 62
     3
100
AcDbLine
 10
-76.6
 20
-32.05
 30
0.0
 11
-76.6
 21
-27.7
 31
0.0
  0
LINE
  5
431
100
AcDbEntity
  8
0
390
0
  6
CONTINUOUS
 62
     3
100
AcDbLine
 10
59.6
 20
32.05
 30
0.0
 11
59.6
 21
27.7
 31
0.0
  0
LINE
  5
432
100
AcDbEntity
  8
0
390
0
  6
CONTINUOUS
 62
     3
100
AcDbLine
 10
63.0
 20
32.05
 30
0.0
 11
63.0
 21
27.7
 31
0.0
  0
LINE
  5
433
100
AcDbEntity
  8
0
390
0
  6
CONTINUOUS
 62
     3
100
AcDbLine
 10
66.4
 20
32.05
 30
0.0
 11
66.4
 21
27.7
 31
0.0
  0
LINE
  5
434
100
AcDbEntity
  8
0
390
0
  6
CONTINUOUS
 62
     3
100
AcDbLine
 10
69.8
 20
32.05
 30
0.0
 11
69.8
 21
27.7
 31
0.0
  0
LINE
  5
435
100
AcDbEntity
  8
0
390
0
  6
CONTINUOUS
 62
     3
100
AcDbLine
 10
73.2
 20
32.05
 30
0.0
 11
73.2
 21
27.7
 31
0.0
  0
LINE
  5
436
100
AcDbEntity
  8
0
390
0
  6
CONTINUOUS
 62
     3
100
AcDbLine
 10
76.6
 20
32.05
 30
0.0
 11
76.6
 21
27.7
 31
0.0
  0
LINE
  5
437
100
AcDbEntity
  8
0
390
0
  6
PHANTOM
 62
   110
100
AcDbLine
 10
-61.3
 20
33.75
 30
0.0
 11
4.427896
 21
33.75
 31
0.0
  0
LINE
  5
438
100
AcDbEntity
  8
0
390
0
  6
PHANTOM
 62
   110
100
AcDbLine
 10
-64.7
 20
26.0
 30
0.0
 11
3.061362
 21
26.0
 31
0.0
  0
LINE
  5
439
100
AcDbEntity
  8
0
390
0
  6
CONTINUOUS
 62
     3
100
AcDbLine
 10
-59.6
 20
32.05
 30
0.0
 11
-59.6
 21
27.7
 31
0.0
  0
LINE
  5
43A
100
AcDbEntity
  8
0
390
0
  6
CONTINUOUS
 62
     3
100
AcDbLine
 10
-63.0
 20
32.05
 30
0.0
 11
-63.0
 21
27.7
 31
0.0
  0
LINE
  5
43B
100
AcDbEntity
  8
0
390
0
  6
CONTINUOUS
 62
     3
100
AcDbLine
 10
-66.4
 20
32.05
 30
0.0
 11
-66.4
 21
27.7
 31
0.0
  0
LINE
  5
43C
100
AcDbEntity
  8
0
390
0
  6
CONTINUOUS
 62
     3
100
AcDbLine
 10
-69.8
 20
32.05
 30
0.0
 11
-69.8
 21
27.7
 31
0.0
  0
LINE
  5
43D
100
AcDbEntity
  8
0
390
0
  6
CONTINUOUS
 62
     3
100
AcDbLine
 10
-73.2
 20
32.05
 30
0.0
 11
-73.2
 21
27.7
 31
0.0
  0
LINE
  5
43E
100
AcDbEntity
  8
0
390
0
  6
CONTINUOUS
 62
     3
100
AcDbLine
 10
-76.6
 20
32.05
 30
0.0
 11
-76.6
 21
27.7
 31
0.0
  0
LINE
  5
43F
100
AcDbEntity
  8
0
390
0
  6
CONTINUOUS
 62
     3
100
AcDbLine
 10
80.5
 20
-35.0
 30
0.0
 11
80.0
 21
-35.0
 31
0.0
  0
LINE
  5
440
100
AcDbEntity
  8
0
390
0
  6
CONTINUOUS
 62
     3
100
AcDbLine
 10
80.5
 20
-35.0
 30
0.0
 11
83.242414
 21
-30.25
 31
0.0
  0
LINE
  5
441
100
AcDbEntity
  8
0
390
0
  6
CONTINUOUS
 62
     3
100
AcDbLine
 10
80.5
 20
35.0
 30
0.0
 11
83.242414
 21
30.25
 31
0.0
  0
LINE
  5
442
100
AcDbEntity
  8
0
390
0
  6
CONTINUOUS
 62
     3
100
AcDbLine
 10
80.5
 20
35.0
 30
0.0
 11
80.0
 21
35.0
 31
0.0
  0
LINE
  5
443
100
AcDbEntity
  8
0
390
0
  6
CONTINUOUS
 62
     3
100
AcDbLine
 10
80.0
 20
35.0
 30
0.0
 11
80.0
 21
-35.0
 31
0.0
  0
LINE
  5
444
100
AcDbEntity
  8
0
390
0
  6
CONTINUOUS
 62
     3
100
AcDbLine
 10
100.0
 20
-26.1
 30
0.0
 11
80.0
 21
-26.1
 31
0.0
  0
LINE
  5
445
100
AcDbEntity
  8
0
390
0
  6
CONTINUOUS
 62
     3
100
AcDbLine
 10
96.702096
 20
36.388234
 30
0.0
 11
95.057361
 21
30.25
 31
0.0
  0
LINE
  5
446
100
AcDbEntity
  8
0
390
0
  6
CONTINUOUS
 62
     3
100
AcDbLine
 10
96.702096
 20
-36.388234
 30
0.0
 11
95.057361
 21
-30.25
 31
0.0
  0
LINE
  5
447
100
AcDbEntity
  8
0
390
0
  6
CONTINUOUS
 62
     3
100
AcDbLine
 10
100.0
 20
26.1
 30
0.0
 11
80.0
 21
26.1
 31
0.0
  0
LINE
  5
448
100
AcDbEntity
  8
0
390
0
  6
CONTINUOUS
 62
     3
100
AcDbLine
 10
95.057365
 20
-30.25
 30
0.0
 11
83.242414
 21
-30.25
 31
0.0
  0
LINE
  5
449
100
AcDbEntity
  8
0
390
0
  6
CONTINUOUS
 62
     3
100
AcDbLine
 10
95.057365
 20
30.25
 30
0.0
 11
83.242414
 21
30.25
 31
0.0
  0
LINE
  5
44A
100
AcDbEntity
  8
0
390
0
  6
CONTINUOUS
 62
     3
100
AcDbLine
 10
100.0
 20
37.5
 30
0.0
 11
98.150986
 21
37.5
 31
0.0
  0
LINE
  5
44B
100
AcDbEntity
  8
0
390
0
  6
CONTINUOUS
 62
     3
100
AcDbLine
 10
100.0
 20
-37.5
 30
0.0
 11
98.150986
 21
-37.5
 31
0.0
  0
LINE
  5
44C
100
AcDbEntity
  8
0
390
0
  6
CONTINUOUS
 62
     3
100
AcDbLine
 10
100.0
 20
37.5
 30
0.0
 11
100.0
 21
-37.5
 31
0.0
  0
LINE
  5
44D
100
AcDbEntity
  8
0
390
0
  6
CONTINUOUS
 62
     3
100
AcDbLine
 10
-100.0
 20
-26.1
 30
0.0
 11
-80.0
 21
-26.1
 31
0.0
  0
LINE
  5
44E
100
AcDbEntity
  8
0
390
0
  6
CONTINUOUS
 62
     3
100
AcDbLine
 10
-80.5
 20
-35.0
 30
0.0
 11
-80.0
 21
-35.0
 31
0.0
  0
LINE
  5
44F
100
AcDbEntity
  8
0
390
0
  6
CONTINUOUS
 62
     3
100
AcDbLine
 10
-80.5
 20
-35.0
 30
0.0
 11
-83.242414
 21
-30.25
 31
0.0
  0
LINE
  5
450
100
AcDbEntity
  8
0
390
0
  6
CONTINUOUS
 62
     3
100
AcDbLine
 10
-80.5
 20
35.0
 30
0.0
 11
-83.242414
 21
30.25
 31
0.0
  0
LINE
  5
451
100
AcDbEntity
  8
0
390
0
  6
CONTINUOUS
 62
     3
100
AcDbLine
 10
-80.5
 20
35.0
 30
0.0
 11
-80.0
 21
35.0
 31
0.0
  0
LINE
  5
452
100
AcDbEntity
  8
0
390
0
  6
CONTINUOUS
 62
     3
100
AcDbLine
 10
-80.0
 20
35.0
 30
0.0
 11
-80.0
 21
-35.0
 31
0.0
  0
LINE
  5
453
100
AcDbEntity
  8
0
390
0
  6
CENTER
 62
   110
100
AcDbLine
 10
-104.0
 20
0.0
 30
0.0
 11
104.0
 21
0.0
 31
0.0
  0
LINE
  5
454
100
AcDbEntity
  8
0
390
0
  6
CONTINUOUS
 62
     3
100
AcDbLine
 10
-96.702096
 20
36.388234
 30
0.0
 11
-95.057361
 21
30.25
 31
0.0
  0
LINE
  5
455
100
AcDbEntity
  8
0
390
0
  6
CONTINUOUS
 62
     3
100
AcDbLine
 10
-96.702096
 20
-36.388234
 30
0.0
 11
-95.057361
 21
-30.25
 31
0.0
  0
LINE
  5
456
100
AcDbEntity
  8
0
390
0
  6
CONTINUOUS
 62
     3
100
AcDbLine
 10
-100.0
 20
26.1
 30
0.0
 11
-80.0
 21
26.1
 31
0.0
  0
LINE
  5
457
100
AcDbEntity
  8
0
390
0
  6
CONTINUOUS
 62
     3
100
AcDbLine
 10
-95.057365
 20
-30.25
 30
0.0
 11
-83.242414
 21
-30.25
 31
0.0
  0
LINE
  5
458
100
AcDbEntity
  8
0
390
0
  6
CONTINUOUS
 62
     3
100
AcDbLine
 10
-95.057365
 20
30.25
 30
0.0
 11
-83.242414
 21
30.25
 31
0.0
  0
LINE
  5
459
100
AcDbEntity
  8
0
390
0
  6
CONTINUOUS
 62
     3
100
AcDbLine
 10
-100.0
 20
37.5
 30
0.0
 11
-98.150986
 21
37.5
 31
0.0
  0
LINE
  5
45A
100
AcDbEntity
  8
0
390
0
  6
CONTINUOUS
 62
     3
100
AcDbLine
 10
-100.0
 20
-37.5
 30
0.0
 11
-98.150986
 21
-37.5
 31
0.0
  0
LINE
  5
45B
100
AcDbEntity
  8
0
390
0
  6
CONTINUOUS
 62
     3
100
AcDbLine
 10
-100.0
 20
37.5
 30
0.0
 11
-100.0
 21
-37.5
 31
0.0
  0
ENDBLK
  5
45C
100
AcDbEntity
  8
0
370
    -2
390
0
100
AcDbBlockEnd
  0
BLOCK
  5
45D
100
AcDbEntity
  8
0
370
    -2
390
0
100
AcDbBlockBegin
  2
VF1063
 70
     0
 10
0.0
 20
0.0
 30
0.0
  3
VF1063
  1

  0
DIMENSION
  5
46A
100
AcDbEntity
  8
0
390
0
  6
CONTINUOUS
 62
   110
100
AcDbDimension
  2
*D46
 10
-124.0
 20
-43.5
 30
0.0
 11
-124.0
 21
0.0
 31
0.0
 70
   128
 71
     5
 72
     1
 41
0.9
 42
87.0
  1
\A1;\U+2205<>
  3
MXDIMSTYLE
100
AcDbAlignedDimension
 13
-100.0
 23
43.5
 33
0.0
 14
-100.0
 24
-43.5
 34
0.0
 50
90.0
100
AcDbRotatedDimension
1001
ACAD
1000
DSTYLE
1002
{
1070
    41
1040
2.77
1070
    44
1040
2.286
1070
   140
1040
3.2
1070
   271
1070
     0
1070
   284
1070
     8
1070
   340
1005
28D
1002
}
  0
DIMENSION
  5
477
100
AcDbEntity
  8
0
390
0
  6
CONTINUOUS
 62
   255
100
AcDbDimension
  2
*D47
 10
-100.0
 20
80.0
 30
0.0
 11
0.0
 21
80.0
 31
0.0
 70
   128
 71
     5
 72
     1
 41
0.9
 42
200.0
  1
\A1;<>±5%
  3
MXDIMSTYLE
100
AcDbAlignedDimension
 13
100.0
 23
43.5
 33
0.0
 14
-100.0
 24
43.5
 34
0.0
100
AcDbRotatedDimension
1001
ACAD
1000
DSTYLE
1002
{
1070
    41
1040
2.77
1070
    44
1040
2.286
1070
   140
1040
3.2
1070
   271
1070
     0
1070
   284
1070
     8
1002
}
  0
DIMENSION
  5
483
100
AcDbEntity
  8
0
390
0
  6
CONTINUOUS
 62
   255
100
AcDbDimension
  2
*D48
 10
80.0
 20
72.0
 30
0.0
 11
0.0
 21
72.0
 31
0.0
 70
   128
 71
     5
 72
     1
 41
0.9
 42
160.0
  1
\A1;(<>)
  3
MXDIMSTYLE
100
AcDbAlignedDimension
 13
-80.0
 23
44.5
 33
0.0
 14
80.0
 24
44.5
 34
0.0
100
AcDbRotatedDimension
1001
ACAD
1000
DSTYLE
1002
{
1070
    41
1040
2.77
1070
    44
1040
2.286
1070
    75
1070
     1
1070
   140
1040
3.2
1070
   271
1070
     0
1070
   284
1070
     8
1070
   340
1005
D6
1002
}
  0
DIMENSION
  5
48F
100
AcDbEntity
  8
0
390
0
  6
CONTINUOUS
 62
   110
100
AcDbDimension
  2
*D49
 10
-80.0
 20
72.0
 30
0.0
 11
-90.0
 21
72.0
 31
0.0
 70
   128
 71
     5
 72
     1
 41
0.9
 42
20.0
  1
\A1;<>
  3
MXDIMSTYLE
100
AcDbAlignedDimension
 13
-100.0
 23
43.5
 33
0.0
 14
-80.0
 24
44.5
 34
0.0
100
AcDbRotatedDimension
1001
ACAD
1000
DSTYLE
1002
{
1070
    41
1040
2.77
1070
    44
1040
2.286
1070
    75
1070
     1
1070
   140
1040
3.2
1070
   271
1070
     0
1070
   284
1070
     8
1070
   340
1005
C9
1002
}
  0
DIMENSION
  5
49A
100
AcDbEntity
  8
0
390
0
  6
CONTINUOUS
 62
   110
100
AcDbDimension
  2
*D50
 10
-20.0
 20
-42.75
 30
0.0
 11
-20.0
 21
16.0
 31
0.0
 70
   128
 71
     5
 72
     1
 41
0.9
 42
85.5
  1
\A1;\U+2205<>
  3
MXDIMSTYLE
100
AcDbAlignedDimension
 13
6.014839
 23
42.75
 33
0.0
 14
-9.061118
 24
-42.75
 34
0.0
 50
90.0
100
AcDbRotatedDimension
1001
ACAD
1000
DSTYLE
1002
{
1070
    41
1040
2.77
1070
    75
1070
     1
1070
    76
1070
     1
1070
   140
1040
3.2
1070
   271
1070
     1
1070
   284
1070
     8
1070
   340
1005
C9
1002
}
  0
DIMENSION
  5
4A5
100
AcDbEntity
  8
0
390
0
  6
CONTINUOUS
 62
   110
100
AcDbDimension
  2
*D51
 10
-28.0
 20
33.25
 30
0.0
 11
-28.0
 21
16.0
 31
0.0
 70
   128
 71
     5
 72
     1
 41
0.9
 42
66.5
  1
\A1;\U+2205<>
  3
MXDIMSTYLE
100
AcDbAlignedDimension
 13
-7.386011
 23
-33.25
 33
0.0
 14
-59.092105
 24
33.25
 34
0.0
 50
90.0
100
AcDbRotatedDimension
1001
ACAD
1000
DSTYLE
1002
{
1070
    41
1040
2.77
1070
    75
1070
     1
1070
    76
1070
     1
1070
   140
1040
3.2
1070
   271
1070
     1
1070
   284
1070
     8
1070
   340
1005
C9
1002
}
  0
DIMENSION
  5
4B0
100
AcDbEntity
  8
0
390
0
  6
CONTINUOUS
 62
   110
100
AcDbDimension
  2
*D52
 10
100.0
 20
72.0
 30
0.0
 11
90.0
 21
72.0
 31
0.0
 70
   128
 71
     5
 72
     1
 41
0.9
 42
20.0
  1
\A1;<>
  3
MXDIMSTYLE
100
AcDbAlignedDimension
 13
80.0
 23
44.5
 33
0.0
 14
100.0
 24
43.5
 34
0.0
100
AcDbRotatedDimension
1001
ACAD
1000
DSTYLE
1002
{
1070
    41
1040
2.77
1070
    75
1070
     1
1070
    76
1070
     1
1070
   140
1040
3.2
1070
   271
1070
     0
1070
   284
1070
     8
1070
   340
1005
C9
1002
}
  0
ARC
  5
4B1
100
AcDbEntity
  8
0
390
0
  6
CONTINUOUS
 62
     3
100
AcDbCircle
 10
-98.15099
 20
-42.0
 30
0.0
 40
1.5
100
AcDbArc
 50
270.0
 51
345.0
  0
ARC
  5
4B2
100
AcDbEntity
  8
0
390
0
  6
CONTINUOUS
 62
     3
100
AcDbCircle
 10
-98.15099
 20
42.0
 30
0.0
 40
1.5
100
AcDbArc
 50
15.0
 51
90.0
  0
ARC
  5
4B3
100
AcDbEntity
  8
0
390
0
  6
CONTINUOUS
 62
     3
100
AcDbCircle
 10
68.092105
 20
-36.157895
 30
0.0
 40
2.907895
100
AcDbArc
 50
320.692352
 51
219.307648
  0
ARC
  5
4B4
100
AcDbEntity
  8
0
390
0
  6
CONTINUOUS
 62
     3
100
AcDbCircle
 10
54.592105
 20
-39.842105
 30
0.0
 40
2.907895
100
AcDbArc
 50
140.692352
 51
39.307648
  0
ARC
  5
4B5
100
AcDbEntity
  8
0
390
0
  6
CONTINUOUS
 62
     3
100
AcDbCircle
 10
59.092105
 20
-36.157895
 30
0.0
 40
2.907895
100
AcDbArc
 50
320.692352
 51
219.307648
  0
ARC
  5
4B6
100
AcDbEntity
  8
0
390
0
  6
CONTINUOUS
 62
     3
100
AcDbCircle
 10
72.592105
 20
-39.842105
 30
0.0
 40
2.907895
100
AcDbArc
 50
140.692352
 51
39.307648
  0
ARC
  5
4B7
100
AcDbEntity
  8
0
390
0
  6
CONTINUOUS
 62
     3
100
AcDbCircle
 10
77.092105
 20
-36.157895
 30
0.0
 40
2.907895
100
AcDbArc
 50
0.0
 51
219.307648
  0
ARC
  5
4B8
100
AcDbEntity
  8
0
390
0
  6
CONTINUOUS
 62
     3
100
AcDbCircle
 10
-63.592105
 20
-39.842105
 30
0.0
 40
2.907895
100
AcDbArc
 50
140.692352
 51
39.307648
  0
ARC
  5
4B9
100
AcDbEntity
  8
0
390
0
  6
CONTINUOUS
 62
     3
100
AcDbCircle
 10
-68.092105
 20
-36.157895
 30
0.0
 40
2.907895
100
AcDbArc
 50
320.692352
 51
219.307648
  0
ARC
  5
4BA
100
AcDbEntity
  8
0
390
0
  6
CONTINUOUS
 62
     3
100
AcDbCircle
 10
-54.592105
 20
-39.842105
 30
0.0
 40
2.907895
100
AcDbArc
 50
140.692352
 51
39.307648
  0
ARC
  5
4BB
100
AcDbEntity
  8
0
390
0
  6
CONTINUOUS
 62
     3
100
AcDbCircle
 10
-59.092105
 20
-36.157895
 30
0.0
 40
2.907895
100
AcDbArc
 50
320.692352
 51
219.307648
  0
ARC
  5
4BC
100
AcDbEntity
  8
0
390
0
  6
CONTINUOUS
 62
     3
100
AcDbCircle
 10
-72.592105
 20
-39.842105
 30
0.0
 40
2.907895
100
AcDbArc
 50
140.692352
 51
39.307648
  0
ARC
  5
4BD
100
AcDbEntity
  8
0
390
0
  6
CONTINUOUS
 62
     3
100
AcDbCircle
 10
-77.092105
 20
-36.157895
 30
0.0
 40
2.907895
100
AcDbArc
 50
320.692352
 51
180.0
  0
ARC
  5
4BE
100
AcDbEntity
  8
0
390
0
  6
CONTINUOUS
 62
     3
100
AcDbCircle
 10
63.592105
 20
-39.842105
 30
0.0
 40
2.907895
100
AcDbArc
 50
140.692352
 51
39.307648
  0
ARC
  5
4BF
100
AcDbEntity
  8
0
390
0
  6
CONTINUOUS
 62
     3
100
AcDbCircle
 10
63.592105
 20
39.842105
 30
0.0
 40
2.907895
100
AcDbArc
 50
320.692352
 51
219.307648
  0
ARC
  5
4C0
100
AcDbEntity
  8
0
390
0
  6
CONTINUOUS
 62
     3
100
AcDbCircle
 10
68.092105
 20
36.157895
 30
0.0
 40
2.907895
100
AcDbArc
 50
140.692352
 51
39.307648
  0
ARC
  5
4C1
100
AcDbEntity
  8
0
390
0
  6
CONTINUOUS
 62
     3
100
AcDbCircle
 10
54.592105
 20
39.842105
 30
0.0
 40
2.907895
100
AcDbArc
 50
320.692352
 51
219.307648
  0
ARC
  5
4C2
100
AcDbEntity
  8
0
390
0
  6
CONTINUOUS
 62
     3
100
AcDbCircle
 10
59.092105
 20
36.157895
 30
0.0
 40
2.907895
100
AcDbArc
 50
140.692352
 51
39.307648
  0
ARC
  5
4C3
100
AcDbEntity
  8
0
390
0
  6
CONTINUOUS
 62
     3
100
AcDbCircle
 10
72.592105
 20
39.842105
 30
0.0
 40
2.907895
100
AcDbArc
 50
320.692352
 51
219.307648
  0
ARC
  5
4C4
100
AcDbEntity
  8
0
390
0
  6
CONTINUOUS
 62
     3
100
AcDbCircle
 10
77.092105
 20
36.157895
 30
0.0
 40
2.907895
100
AcDbArc
 50
140.692352
 51
0.0
  0
ARC
  5
4C5
100
AcDbEntity
  8
0
390
0
  6
CONTINUOUS
 62
     3
100
AcDbCircle
 10
-63.592105
 20
39.842105
 30
0.0
 40
2.907895
100
AcDbArc
 50
320.692352
 51
219.307648
  0
ARC
  5
4C6
100
AcDbEntity
  8
0
390
0
  6
CONTINUOUS
 62
     3
100
AcDbCircle
 10
-68.092105
 20
36.157895
 30
0.0
 40
2.907895
100
AcDbArc
 50
140.692352
 51
39.307648
  0
ARC
  5
4C7
100
AcDbEntity
  8
0
390
0
  6
CONTINUOUS
 62
     3
100
AcDbCircle
 10
-54.592105
 20
39.842105
 30
0.0
 40
2.907895
100
AcDbArc
 50
320.692352
 51
219.307648
  0
ARC
  5
4C8
100
AcDbEntity
  8
0
390
0
  6
CONTINUOUS
 62
     3
100
AcDbCircle
 10
-59.092105
 20
36.157895
 30
0.0
 40
2.907895
100
AcDbArc
 50
140.692352
 51
39.307648
  0
ARC
  5
4C9
100
AcDbEntity
  8
0
390
0
  6
CONTINUOUS
 62
     3
100
AcDbCircle
 10
-72.592105
 20
39.842105
 30
0.0
 40
2.907895
100
AcDbArc
 50
320.692352
 51
219.307648
  0
ARC
  5
4CA
100
AcDbEntity
  8
0
390
0
  6
CONTINUOUS
 62
     3
100
AcDbCircle
 10
-77.092105
 20
36.157895
 30
0.0
 40
2.907895
100
AcDbArc
 50
180.0
 51
39.307648
  0
ARC
  5
4CB
100
AcDbEntity
  8
0
390
0
  6
CONTINUOUS
 62
     3
100
AcDbCircle
 10
98.15099
 20
-42.0
 30
0.0
 40
1.5
100
AcDbArc
 50
195.0
 51
270.0
  0
ARC
  5
4CC
100
AcDbEntity
  8
0
390
0
  6
CONTINUOUS
 62
     3
100
AcDbCircle
 10
98.15099
 20
42.0
 30
0.0
 40
1.5
100
AcDbArc
 50
90.0
 51
165.0
  0
CIRCLE
  5
4CD
100
AcDbEntity
  8
0
390
0
  6
CONTINUOUS
 62
     3
 60
     1
100
AcDbCircle
 10
49.699997
 20
30.85
 30
0.0
 40
4.200005
  0
LINE
  5
4CE
100
AcDbEntity
  8
0
390
0
  6
CONTINUOUS
 62
     3
100
AcDbLine
 10
-80.5
 20
-44.5
 30
0.0
 11
-84.166174
 21
-38.15
 31
0.0
  0
LINE
  5
4CF
100
AcDbEntity
  8
0
390
0
  6
CONTINUOUS
 62
     3
100
AcDbLine
 10
-80.0
 20
-44.5
 30
0.0
 11
-80.5
 21
-44.5
 31
0.0
  0
LINE
  5
4D0
100
AcDbEntity
  8
0
390
0
  6
CONTINUOUS
 62
     3
100
AcDbLine
 10
-96.702102
 20
-42.388229
 30
0.0
 11
-95.566472
 21
-38.15
 31
0.0
  0
LINE
  5
4D1
100
AcDbEntity
  8
0
390
0
  6
CONTINUOUS
 62
     3
100
AcDbLine
 10
-84.166174
 20
-38.15
 30
0.0
 11
-95.566472
 21
-38.15
 31
0.0
  0
LINE
  5
4D2
100
AcDbEntity
  8
0
390
0
  6
CONTINUOUS
 62
     3
100
AcDbLine
 10
-98.15099
 20
-43.5
 30
0.0
 11
-100.0
 21
-43.5
 31
0.0
  0
LINE
  5
4D3
100
AcDbEntity
  8
0
390
0
  6
CONTINUOUS
 62
     3
100
AcDbLine
 10
-80.0
 20
-35.1
 30
0.0
 11
-100.0
 21
-35.1
 31
0.0
  0
LINE
  5
4D4
100
AcDbEntity
  8
0
390
0
  6
CONTINUOUS
 62
     3
100
AcDbLine
 10
-80.0
 20
35.1
 30
0.0
 11
-100.0
 21
35.1
 31
0.0
  0
LINE
  5
4D5
100
AcDbEntity
  8
0
390
0
  6
CONTINUOUS
 62
     3
100
AcDbLine
 10
-80.5
 20
44.5
 30
0.0
 11
-84.166174
 21
38.15
 31
0.0
  0
LINE
  5
4D6
100
AcDbEntity
  8
0
390
0
  6
CONTINUOUS
 62
     3
100
AcDbLine
 10
-80.0
 20
44.5
 30
0.0
 11
-80.5
 21
44.5
 31
0.0
  0
LINE
  5
4D7
100
AcDbEntity
  8
0
390
0
  6
CONTINUOUS
 62
     3
100
AcDbLine
 10
-96.702102
 20
42.388229
 30
0.0
 11
-95.566472
 21
38.15
 31
0.0
  0
LINE
  5
4D8
100
AcDbEntity
  8
0
390
0
  6
CONTINUOUS
 62
     3
100
AcDbLine
 10
-84.166174
 20
38.15
 30
0.0
 11
-95.566472
 21
38.15
 31
0.0
  0
LINE
  5
4D9
100
AcDbEntity
  8
0
390
0
  6
CONTINUOUS
 62
     3
100
AcDbLine
 10
-98.15099
 20
43.5
 30
0.0
 11
-100.0
 21
43.5
 31
0.0
  0
LINE
  5
4DA
100
AcDbEntity
  8
0
390
0
  6
CONTINUOUS
 62
     3
100
AcDbLine
 10
-100.0
 20
43.5
 30
0.0
 11
-100.0
 21
-43.5
 31
0.0
  0
LINE
  5
4DB
100
AcDbEntity
  8
0
390
0
  6
PHANTOM
 62
   110
100
AcDbLine
 10
9.061118
 20
42.75
 30
0.0
 11
54.592105
 21
42.75
 31
0.0
  0
LINE
  5
4DC
100
AcDbEntity
  8
0
390
0
  6
PHANTOM
 62
   110
100
AcDbLine
 10
7.386012
 20
33.25
 30
0.0
 11
59.092105
 21
33.25
 31
0.0
  0
LINE
  5
4DD
100
AcDbEntity
  8
0
390
0
  6
PHANTOM
 62
   110
100
AcDbLine
 10
-4.339732
 20
-33.25
 30
0.0
 11
59.092105
 21
-33.25
 31
0.0
  0
LINE
  5
4DE
100
AcDbEntity
  8
0
390
0
  6
PHANTOM
 62
   110
100
AcDbLine
 10
-6.014839
 20
-42.75
 30
0.0
 11
54.592105
 21
-42.75
 31
0.0
  0
LINE
  5
4DF
100
AcDbEntity
  8
0
390
0
  6
CENTER
 62
   110
100
AcDbLine
 10
-9.590099
 20
-45.75
 30
0.0
 11
6.543819
 21
45.75
 31
0.0
  0
LINE
  5
4E0
100
AcDbEntity
  8
0
390
0
  6
CENTER
 62
   110
100
AcDbLine
 10
-6.543819
 20
-45.75
 30
0.0
 11
9.590099
 21
45.75
 31
0.0
  0
LINE
  5
4E1
100
AcDbEntity
  8
0
390
0
  6
PHANTOM
 62
   110
100
AcDbLine
 10
-54.592105
 20
-42.75
 30
0.0
 11
-9.061118
 21
-42.75
 31
0.0
  0
LINE
  5
4E2
100
AcDbEntity
  8
0
390
0
  6
PHANTOM
 62
   110
100
AcDbLine
 10
-59.092105
 20
-33.25
 30
0.0
 11
-7.386012
 21
-33.25
 31
0.0
  0
LINE
  5
4E3
100
AcDbEntity
  8
0
390
0
  6
PHANTOM
 62
   110
100
AcDbLine
 10
-54.592105
 20
42.75
 30
0.0
 11
6.014839
 21
42.75
 31
0.0
  0
LINE
  5
4E4
100
AcDbEntity
  8
0
390
0
  6
PHANTOM
 62
   110
100
AcDbLine
 10
-59.092105
 20
33.25
 30
0.0
 11
4.339732
 21
33.25
 31
0.0
  0
LINE
  5
4E5
100
AcDbEntity
  8
0
390
0
  6
CONTINUOUS
 62
     3
100
AcDbLine
 10
-80.0
 20
44.5
 30
0.0
 11
-80.0
 21
-44.5
 31
0.0
  0
LINE
  5
4E6
100
AcDbEntity
  8
0
390
0
  6
CONTINUOUS
 62
     3
100
AcDbLine
 10
80.5
 20
-44.5
 30
0.0
 11
84.166174
 21
-38.15
 31
0.0
  0
LINE
  5
4E7
100
AcDbEntity
  8
0
390
0
  6
CONTINUOUS
 62
     3
100
AcDbLine
 10
80.0
 20
-44.5
 30
0.0
 11
80.5
 21
-44.5
 31
0.0
  0
LINE
  5
4E8
100
AcDbEntity
  8
0
390
0
  6
CONTINUOUS
 62
     3
100
AcDbLine
 10
96.702102
 20
-42.388229
 30
0.0
 11
95.566472
 21
-38.15
 31
0.0
  0
LINE
  5
4E9
100
AcDbEntity
  8
0
390
0
  6
CONTINUOUS
 62
     3
100
AcDbLine
 10
84.166174
 20
-38.15
 30
0.0
 11
95.566472
 21
-38.15
 31
0.0
  0
LINE
  5
4EA
100
AcDbEntity
  8
0
390
0
  6
CONTINUOUS
 62
     3
100
AcDbLine
 10
98.15099
 20
-43.5
 30
0.0
 11
100.0
 21
-43.5
 31
0.0
  0
LINE
  5
4EB
100
AcDbEntity
  8
0
390
0
  6
CONTINUOUS
 62
     3
100
AcDbLine
 10
80.0
 20
-35.1
 30
0.0
 11
100.0
 21
-35.1
 31
0.0
  0
LINE
  5
4EC
100
AcDbEntity
  8
0
390
0
  6
CONTINUOUS
 62
     3
100
AcDbLine
 10
80.0
 20
35.1
 30
0.0
 11
100.0
 21
35.1
 31
0.0
  0
LINE
  5
4ED
100
AcDbEntity
  8
0
390
0
  6
CONTINUOUS
 62
     3
100
AcDbLine
 10
80.5
 20
44.5
 30
0.0
 11
84.166174
 21
38.15
 31
0.0
  0
LINE
  5
4EE
100
AcDbEntity
  8
0
390
0
  6
CONTINUOUS
 62
     3
100
AcDbLine
 10
80.0
 20
44.5
 30
0.0
 11
80.5
 21
44.5
 31
0.0
  0
LINE
  5
4EF
100
AcDbEntity
  8
0
390
0
  6
CONTINUOUS
 62
     3
100
AcDbLine
 10
96.702102
 20
42.388229
 30
0.0
 11
95.566472
 21
38.15
 31
0.0
  0
LINE
  5
4F0
100
AcDbEntity
  8
0
390
0
  6
CONTINUOUS
 62
     3
100
AcDbLine
 10
84.166174
 20
38.15
 30
0.0
 11
95.566472
 21
38.15
 31
0.0
  0
LINE
  5
4F1
100
AcDbEntity
  8
0
390
0
  6
CONTINUOUS
 62
     3
100
AcDbLine
 10
98.15099
 20
43.5
 30
0.0
 11
100.0
 21
43.5
 31
0.0
  0
LINE
  5
4F2
100
AcDbEntity
  8
0
390
0
  6
CONTINUOUS
 62
     3
100
AcDbLine
 10
100.0
 20
43.5
 30
0.0
 11
100.0
 21
-43.5
 31
0.0
  0
LINE
  5
4F3
100
AcDbEntity
  8
0
390
0
  6
CONTINUOUS
 62
     3
100
AcDbLine
 10
80.0
 20
44.5
 30
0.0
 11
80.0
 21
-44.5
 31
0.0
  0
LINE
  5
4F4
100
AcDbEntity
  8
0
390
0
  6
CENTER
 62
   110
100
AcDbLine
 10
-105.0
 20
0.0
 30
0.0
 11
105.0
 21
0.0
 31
0.0
  0
ENDBLK
  5
4F5
100
AcDbEntity
  8
0
370
    -2
390
0
100
AcDbBlockEnd
  0
BLOCK
  5
4F6
100
AcDbEntity
  8
0
370
    -2
390
0
100
AcDbBlockBegin
  2
VF1080
 70
     0
 10
0.0
 20
0.0
 30
0.0
  3
VF1080
  1

  0
DIMENSION
  5
502
100
AcDbEntity
  8
0
390
0
  6
CONTINUOUS
 62
   110
100
AcDbDimension
  2
*D53
 10
-75.0
 20
80.0
 30
0.0
 11
-87.5
 21
80.0
 31
0.0
 70
   128
 71
     5
 72
     1
 41
0.9
 42
25.0
  1
\A1;<>
  3
MXDIMSTYLE
100
AcDbAlignedDimension
 13
-100.0
 23
57.0
 33
0.0
 14
-75.0
 24
52.0
 34
0.0
100
AcDbRotatedDimension
1001
ACAD
1000
DSTYLE
1002
{
1070
    41
1040
2.77
1070
    44
1040
2.286
1070
    75
1070
     1
1070
   140
1040
3.2
1070
   271
1070
     0
1070
   284
1070
     8
1002
}
  0
DIMENSION
  5
50E
100
AcDbEntity
  8
0
390
0
  6
CONTINUOUS
 62
   255
100
AcDbDimension
  2
*D54
 10
75.0
 20
80.0
 30
0.0
 11
0.0
 21
80.0
 31
0.0
 70
   128
 71
     5
 72
     1
 41
0.9
 42
150.0
  1
\A1;(<>)
  3
MXDIMSTYLE
100
AcDbAlignedDimension
 13
-75.0
 23
52.0
 33
0.0
 14
75.0
 24
52.0
 34
0.0
100
AcDbRotatedDimension
1001
ACAD
1000
DSTYLE
1002
{
1070
    41
1040
2.77
1070
    44
1040
2.286
1070
    75
1070
     1
1070
   140
1040
3.2
1070
   271
1070
     0
1070
   284
1070
     8
1070
   340
1005
D6
1002
}
  0
DIMENSION
  5
51B
100
AcDbEntity
  8
0
390
0
  6
CONTINUOUS
 62
   255
100
AcDbDimension
  2
*D55
 10
-100.0
 20
88.0
 30
0.0
 11
0.0
 21
88.0
 31
0.0
 70
   128
 71
     5
 72
     1
 41
0.9
 42
200.0
  1
\A1;<>±5%
  3
MXDIMSTYLE
100
AcDbAlignedDimension
 13
100.0
 23
57.0
 33
0.0
 14
-100.0
 24
57.0
 34
0.0
100
AcDbRotatedDimension
1001
ACAD
1000
DSTYLE
1002
{
1070
    41
1040
2.77
1070
    44
1040
2.286
1070
   140
1040
3.2
1070
   271
1070
     0
1070
   284
1070
     8
1002
}
  0
DIMENSION
  5
529
100
AcDbEntity
  8
0
390
0
  6
CONTINUOUS
 62
   110
100
AcDbDimension
  2
*D56
 10
-120.0
 20
-57.0
 30
0.0
 11
-120.0
 21
0.0
 31
0.0
 70
   128
 71
     5
 72
     1
 41
0.9
 42
114.0
  1
\A1;\U+2205<>
  3
MXDIMSTYLE
100
AcDbAlignedDimension
 13
-100.0
 23
57.0
 33
0.0
 14
-100.0
 24
-57.0
 34
0.0
 50
90.0
100
AcDbRotatedDimension
1001
ACAD
1000
DSTYLE
1002
{
1070
    41
1040
2.77
1070
    44
1040
2.286
1070
   140
1040
3.2
1070
   271
1070
     0
1070
   284
1070
     8
1070
   340
1005
523
1002
}
  0
DIMENSION
  5
534
100
AcDbEntity
  8
0
390
0
  6
CONTINUOUS
 62
   110
100
AcDbDimension
  2
*D57
 10
100.0
 20
80.0
 30
0.0
 11
87.5
 21
80.0
 31
0.0
 70
   128
 71
     5
 72
     1
 41
0.9
 42
25.0
  1
\A1;<>
  3
MXDIMSTYLE
100
AcDbAlignedDimension
 13
75.0
 23
52.0
 33
0.0
 14
100.0
 24
57.0
 34
0.0
100
AcDbRotatedDimension
1001
ACAD
1000
DSTYLE
1002
{
1070
    41
1040
2.77
1070
    75
1070
     1
1070
    76
1070
     1
1070
   140
1040
3.2
1070
   271
1070
     0
1070
   284
1070
     8
1002
}
  0
DIMENSION
  5
53F
100
AcDbEntity
  8
0
390
0
  6
CONTINUOUS
 62
   110
100
AcDbDimension
  2
*D58
 10
-24.0
 20
39.0
 30
0.0
 11
-24.0
 21
16.0
 31
0.0
 70
   128
 71
     5
 72
     1
 41
0.9
 42
78.0
  1
\A1;\U+2205<>
  3
MXDIMSTYLE
100
AcDbAlignedDimension
 13
-8.399892
 23
-39.0
 33
0.0
 14
-51.581522
 24
39.0
 34
0.0
 50
90.0
100
AcDbRotatedDimension
1001
ACAD
1000
DSTYLE
1002
{
1070
    41
1040
2.77
1070
    75
1070
     1
1070
    76
1070
     1
1070
   140
1040
3.2
1070
   271
1070
     0
1070
   284
1070
     8
1070
   340
1005
28D
1002
}
  0
DIMENSION
  5
54A
100
AcDbEntity
  8
0
390
0
  6
CONTINUOUS
 62
   110
100
AcDbDimension
  2
*D59
 10
-16.0
 20
50.5
 30
0.0
 11
-16.0
 21
16.0
 31
0.0
 70
   128
 71
     5
 72
     1
 41
0.9
 42
101.0
  1
\A1;\U+2205<>
  3
MXDIMSTYLE
100
AcDbAlignedDimension
 13
-10.427652
 23
-50.5
 33
0.0
 14
7.381372
 24
50.5
 34
0.0
 50
90.0
100
AcDbRotatedDimension
1001
ACAD
1000
DSTYLE
1002
{
1070
    41
1040
2.77
1070
    75
1070
     1
1070
    76
1070
     1
1070
   140
1040
3.2
1070
   271
1070
     0
1070
   284
1070
     8
1070
   340
1005
1C4
1002
}
  0
ARC
  5
54B
100
AcDbEntity
  8
0
390
0
  6
CONTINUOUS
 62
     3
100
AcDbCircle
 10
66.581522
 20
-47.081522
 30
0.0
 40
3.418478
100
AcDbArc
 50
136.997131
 51
43.002869
  0
ARC
  5
54C
100
AcDbEntity
  8
0
390
0
  6
CONTINUOUS
 62
     3
100
AcDbCircle
 10
71.581522
 20
-42.418478
 30
0.0
 40
3.418478
100
AcDbArc
 50
0.0
 51
223.002869
  0
ARC
  5
54D
100
AcDbEntity
  8
0
390
0
  6
CONTINUOUS
 62
     3
100
AcDbCircle
 10
51.581522
 20
-42.418478
 30
0.0
 40
3.418478
100
AcDbArc
 50
316.997131
 51
223.002869
  0
ARC
  5
54E
100
AcDbEntity
  8
0
390
0
  6
CONTINUOUS
 62
     3
100
AcDbCircle
 10
46.581522
 20
-47.081522
 30
0.0
 40
3.418478
100
AcDbArc
 50
136.997131
 51
43.002869
  0
ARC
  5
54F
100
AcDbEntity
  8
0
390
0
  6
CONTINUOUS
 62
     3
100
AcDbCircle
 10
56.581522
 20
-47.081522
 30
0.0
 40
3.418478
100
AcDbArc
 50
136.997131
 51
43.002869
  0
ARC
  5
550
100
AcDbEntity
  8
0
390
0
  6
CONTINUOUS
 62
     3
100
AcDbCircle
 10
61.581522
 20
-42.418478
 30
0.0
 40
3.418478
100
AcDbArc
 50
316.997131
 51
223.002869
  0
ARC
  5
551
100
AcDbEntity
  8
0
390
0
  6
CONTINUOUS
 62
     3
100
AcDbCircle
 10
-56.581522
 20
-47.081522
 30
0.0
 40
3.418478
100
AcDbArc
 50
136.997131
 51
43.002869
  0
ARC
  5
552
100
AcDbEntity
  8
0
390
0
  6
CONTINUOUS
 62
     3
100
AcDbCircle
 10
-61.581522
 20
-42.418478
 30
0.0
 40
3.418478
100
AcDbArc
 50
316.997131
 51
223.002869
  0
ARC
  5
553
100
AcDbEntity
  8
0
390
0
  6
CONTINUOUS
 62
     3
100
AcDbCircle
 10
-66.581522
 20
-47.081522
 30
0.0
 40
3.418478
100
AcDbArc
 50
136.997131
 51
43.002869
  0
ARC
  5
554
100
AcDbEntity
  8
0
390
0
  6
CONTINUOUS
 62
     3
100
AcDbCircle
 10
-71.581522
 20
-42.418478
 30
0.0
 40
3.418478
100
AcDbArc
 50
316.997131
 51
180.0
  0
ARC
  5
555
100
AcDbEntity
  8
0
390
0
  6
CONTINUOUS
 62
     3
100
AcDbCircle
 10
-51.581522
 20
-42.418478
 30
0.0
 40
3.418478
100
AcDbArc
 50
316.997131
 51
223.002869
  0
ARC
  5
556
100
AcDbEntity
  8
0
390
0
  6
CONTINUOUS
 62
     3
100
AcDbCircle
 10
-46.581522
 20
-47.081522
 30
0.0
 40
3.418478
100
AcDbArc
 50
136.997131
 51
43.002869
  0
ARC
  5
557
100
AcDbEntity
  8
0
390
0
  6
CONTINUOUS
 62
     3
100
AcDbCircle
 10
66.581522
 20
47.081522
 30
0.0
 40
3.418478
100
AcDbArc
 50
316.997131
 51
223.002869
  0
ARC
  5
558
100
AcDbEntity
  8
0
390
0
  6
CONTINUOUS
 62
     3
100
AcDbCircle
 10
71.581522
 20
42.418478
 30
0.0
 40
3.418478
100
AcDbArc
 50
136.997131
 51
0.0
  0
ARC
  5
559
100
AcDbEntity
  8
0
390
0
  6
CONTINUOUS
 62
     3
100
AcDbCircle
 10
51.581522
 20
42.418478
 30
0.0
 40
3.418478
100
AcDbArc
 50
136.997131
 51
43.002869
  0
ARC
  5
55A
100
AcDbEntity
  8
0
390
0
  6
CONTINUOUS
 62
     3
100
AcDbCircle
 10
46.581522
 20
47.081522
 30
0.0
 40
3.418478
100
AcDbArc
 50
316.997131
 51
223.002869
  0
ARC
  5
55B
100
AcDbEntity
  8
0
390
0
  6
CONTINUOUS
 62
     3
100
AcDbCircle
 10
56.581522
 20
47.081522
 30
0.0
 40
3.418478
100
AcDbArc
 50
316.997131
 51
223.002869
  0
ARC
  5
55C
100
AcDbEntity
  8
0
390
0
  6
CONTINUOUS
 62
     3
100
AcDbCircle
 10
61.581522
 20
42.418478
 30
0.0
 40
3.418478
100
AcDbArc
 50
136.997131
 51
43.002869
  0
ARC
  5
55D
100
AcDbEntity
  8
0
390
0
  6
CONTINUOUS
 62
     3
100
AcDbCircle
 10
-56.581522
 20
47.081522
 30
0.0
 40
3.418478
100
AcDbArc
 50
316.997131
 51
223.002869
  0
ARC
  5
55E
100
AcDbEntity
  8
0
390
0
  6
CONTINUOUS
 62
     3
100
AcDbCircle
 10
-61.581522
 20
42.418478
 30
0.0
 40
3.418478
100
AcDbArc
 50
136.997131
 51
43.002869
  0
ARC
  5
55F
100
AcDbEntity
  8
0
390
0
  6
CONTINUOUS
 62
     3
100
AcDbCircle
 10
-66.581522
 20
47.081522
 30
0.0
 40
3.418478
100
AcDbArc
 50
316.997131
 51
223.002869
  0
ARC
  5
560
100
AcDbEntity
  8
0
390
0
  6
CONTINUOUS
 62
     3
100
AcDbCircle
 10
-71.581522
 20
42.418478
 30
0.0
 40
3.418478
100
AcDbArc
 50
180.0
 51
43.002869
  0
ARC
  5
561
100
AcDbEntity
  8
0
390
0
  6
CONTINUOUS
 62
     3
100
AcDbCircle
 10
-51.581522
 20
42.418478
 30
0.0
 40
3.418478
100
AcDbArc
 50
136.997131
 51
43.002869
  0
ARC
  5
562
100
AcDbEntity
  8
0
390
0
  6
CONTINUOUS
 62
     3
100
AcDbCircle
 10
-46.581522
 20
47.081522
 30
0.0
 40
3.418478
100
AcDbArc
 50
316.997131
 51
223.002869
  0
ARC
  5
563
100
AcDbEntity
  8
0
390
0
  6
CONTINUOUS
 62
     3
100
AcDbCircle
 10
93.150986
 20
55.5
 30
0.0
 40
1.5
100
AcDbArc
 50
90.000018
 51
164.999971
  0
ARC
  5
564
100
AcDbEntity
  8
0
390
0
  6
CONTINUOUS
 62
     3
100
AcDbCircle
 10
93.150986
 20
-55.5
 30
0.0
 40
1.5
100
AcDbArc
 50
195.000029
 51
269.999982
  0
ARC
  5
565
100
AcDbEntity
  8
0
390
0
  6
CONTINUOUS
 62
     3
100
AcDbCircle
 10
-93.150986
 20
-55.5
 30
0.0
 40
1.5
100
AcDbArc
 50
270.000018
 51
344.999971
  0
ARC
  5
566
100
AcDbEntity
  8
0
390
0
  6
CONTINUOUS
 62
     3
100
AcDbCircle
 10
-93.150986
 20
55.5
 30
0.0
 40
1.5
100
AcDbArc
 50
15.000029
 51
89.999982
  0
LINE
  5
567
100
AcDbEntity
  8
0
390
0
  6
PHANTOM
 62
   110
100
AcDbLine
 10
-7.381373
 20
-50.5
 30
0.0
 11
46.581522
 21
-50.5
 31
0.0
  0
LINE
  5
568
100
AcDbEntity
  8
0
390
0
  6
PHANTOM
 62
   110
100
AcDbLine
 10
-5.353612
 20
-39.0
 30
0.0
 11
51.581522
 21
-39.0
 31
0.0
  0
LINE
  5
569
100
AcDbEntity
  8
0
390
0
  6
PHANTOM
 62
   110
100
AcDbLine
 10
8.399892
 20
39.0
 30
0.0
 11
51.581522
 21
39.0
 31
0.0
  0
LINE
  5
56A
100
AcDbEntity
  8
0
390
0
  6
PHANTOM
 62
   110
100
AcDbLine
 10
10.427652
 20
50.5
 30
0.0
 11
46.581522
 21
50.5
 31
0.0
  0
LINE
  5
56B
100
AcDbEntity
  8
0
390
0
  6
CENTER
 62
   110
100
AcDbLine
 10
-7.910354
 20
-53.5
 30
0.0
 11
10.956633
 21
53.5
 31
0.0
  0
LINE
  5
56C
100
AcDbEntity
  8
0
390
0
  6
CENTER
 62
   110
100
AcDbLine
 10
-10.956633
 20
-53.5
 30
0.0
 11
7.910354
 21
53.5
 31
0.0
  0
LINE
  5
56D
100
AcDbEntity
  8
0
390
0
  6
PHANTOM
 62
   110
100
AcDbLine
 10
-46.581522
 20
-50.5
 30
0.0
 11
-10.427652
 21
-50.5
 31
0.0
  0
LINE
  5
56E
100
AcDbEntity
  8
0
390
0
  6
PHANTOM
 62
   110
100
AcDbLine
 10
-51.581522
 20
-39.0
 30
0.0
 11
-8.399892
 21
-39.0
 31
0.0
  0
LINE
  5
56F
100
AcDbEntity
  8
0
390
0
  6
PHANTOM
 62
   110
100
AcDbLine
 10
-46.581522
 20
50.5
 30
0.0
 11
7.381373
 21
50.5
 31
0.0
  0
LINE
  5
570
100
AcDbEntity
  8
0
390
0
  6
PHANTOM
 62
   110
100
AcDbLine
 10
-51.581522
 20
39.0
 30
0.0
 11
5.353612
 21
39.0
 31
0.0
  0
LINE
  5
571
100
AcDbEntity
  8
0
390
0
  6
CONTINUOUS
 62
     3
100
AcDbLine
 10
91.702098
 20
55.88822
 30
0.0
 11
89.856403
 21
48.999993
 31
0.0
  0
LINE
  5
572
100
AcDbEntity
  8
0
390
0
  6
CONTINUOUS
 62
     3
100
AcDbLine
 10
77.232056
 20
49.000007
 30
0.0
 11
75.500004
 21
52.000009
 31
0.0
  0
LINE
  5
573
100
AcDbEntity
  8
0
390
0
  6
CONTINUOUS
 62
     3
100
AcDbLine
 10
75.5
 20
-52.0
 30
0.0
 11
75.0
 21
-52.0
 31
0.0
  0
LINE
  5
574
100
AcDbEntity
  8
0
390
0
  6
CONTINUOUS
 62
     3
100
AcDbLine
 10
75.5
 20
52.0
 30
0.0
 11
75.0
 21
52.0
 31
0.0
  0
LINE
  5
575
100
AcDbEntity
  8
0
390
0
  6
CONTINUOUS
 62
     3
100
AcDbLine
 10
89.856407
 20
-49.0
 30
0.0
 11
76.303848
 21
-49.0
 31
0.0
  0
LINE
  5
576
100
AcDbEntity
  8
0
390
0
  6
CONTINUOUS
 62
     3
100
AcDbLine
 10
89.856407
 20
49.0
 30
0.0
 11
77.232048
 21
49.0
 31
0.0
  0
LINE
  5
577
100
AcDbEntity
  8
0
390
0
  6
CONTINUOUS
 62
     3
100
AcDbLine
 10
100.0
 20
-57.0
 30
0.0
 11
93.150986
 21
-57.0
 31
0.0
  0
LINE
  5
578
100
AcDbEntity
  8
0
390
0
  6
CONTINUOUS
 62
     3
100
AcDbLine
 10
100.0
 20
57.0
 30
0.0
 11
93.150986
 21
57.0
 31
0.0
  0
LINE
  5
579
100
AcDbEntity
  8
0
390
0
  6
CONTINUOUS
 62
     3
100
AcDbLine
 10
100.0
 20
-41.6
 30
0.0
 11
75.0
 21
-41.6
 31
0.0
  0
LINE
  5
57A
100
AcDbEntity
  8
0
390
0
  6
CONTINUOUS
 62
     3
100
AcDbLine
 10
100.0
 20
57.0
 30
0.0
 11
100.0
 21
-57.0
 31
0.0
  0
LINE
  5
57B
100
AcDbEntity
  8
0
390
0
  6
CONTINUOUS
 62
     3
100
AcDbLine
 10
75.0
 20
52.0
 30
0.0
 11
75.0
 21
-52.0
 31
0.0
  0
LINE
  5
57C
100
AcDbEntity
  8
0
390
0
  6
CONTINUOUS
 62
     3
100
AcDbLine
 10
100.0
 20
41.6
 30
0.0
 11
75.0
 21
41.6
 31
0.0
  0
LINE
  5
57D
100
AcDbEntity
  8
0
390
0
  6
CONTINUOUS
 62
     3
100
AcDbLine
 10
76.303843
 20
-48.999997
 30
0.0
 11
75.499994
 21
-52.000004
 31
0.0
  0
LINE
  5
57E
100
AcDbEntity
  8
0
390
0
  6
CONTINUOUS
 62
     3
100
AcDbLine
 10
91.702098
 20
-55.88822
 30
0.0
 11
89.856403
 21
-48.999993
 31
0.0
  0
LINE
  5
57F
100
AcDbEntity
  8
0
390
0
  6
CONTINUOUS
 62
     3
100
AcDbLine
 10
-100.0
 20
-41.6
 30
0.0
 11
-75.0
 21
-41.6
 31
0.0
  0
LINE
  5
580
100
AcDbEntity
  8
0
390
0
  6
CONTINUOUS
 62
     3
100
AcDbLine
 10
-100.0
 20
41.6
 30
0.0
 11
-75.0
 21
41.6
 31
0.0
  0
LINE
  5
581
100
AcDbEntity
  8
0
390
0
  6
CONTINUOUS
 62
     3
100
AcDbLine
 10
-75.0
 20
52.0
 30
0.0
 11
-75.0
 21
-52.0
 31
0.0
  0
LINE
  5
582
100
AcDbEntity
  8
0
390
0
  6
CONTINUOUS
 62
     3
100
AcDbLine
 10
-100.0
 20
57.0
 30
0.0
 11
-100.0
 21
-57.0
 31
0.0
  0
LINE
  5
583
100
AcDbEntity
  8
0
390
0
  6
CENTER
 62
   110
100
AcDbLine
 10
-104.0
 20
0.0
 30
0.0
 11
104.0
 21
0.0
 31
0.0
  0
LINE
  5
584
100
AcDbEntity
  8
0
390
0
  6
CONTINUOUS
 62
     3
100
AcDbLine
 10
-76.303843
 20
-48.999997
 30
0.0
 11
-75.499994
 21
-52.000004
 31
0.0
  0
LINE
  5
585
100
AcDbEntity
  8
0
390
0
  6
CONTINUOUS
 62
     3
100
AcDbLine
 10
-91.702098
 20
-55.88822
 30
0.0
 11
-89.856403
 21
-48.999993
 31
0.0
  0
LINE
  5
586
100
AcDbEntity
  8
0
390
0
  6
CONTINUOUS
 62
     3
100
AcDbLine
 10
-91.702098
 20
55.88822
 30
0.0
 11
-89.856403
 21
48.999993
 31
0.0
  0
LINE
  5
587
100
AcDbEntity
  8
0
390
0
  6
CONTINUOUS
 62
     3
100
AcDbLine
 10
-77.232056
 20
49.000007
 30
0.0
 11
-75.500004
 21
52.000009
 31
0.0
  0
LINE
  5
588
100
AcDbEntity
  8
0
390
0
  6
CONTINUOUS
 62
     3
100
AcDbLine
 10
-75.5
 20
-52.0
 30
0.0
 11
-75.0
 21
-52.0
 31
0.0
  0
LINE
  5
589
100
AcDbEntity
  8
0
390
0
  6
CONTINUOUS
 62
     3
100
AcDbLine
 10
-75.5
 20
52.0
 30
0.0
 11
-75.0
 21
52.0
 31
0.0
  0
LINE
  5
58A
100
AcDbEntity
  8
0
390
0
  6
CONTINUOUS
 62
     3
100
AcDbLine
 10
-89.856407
 20
-49.0
 30
0.0
 11
-76.303848
 21
-49.0
 31
0.0
  0
LINE
  5
58B
100
AcDbEntity
  8
0
390
0
  6
CONTINUOUS
 62
     3
100
AcDbLine
 10
-89.856407
 20
49.0
 30
0.0
 11
-77.232048
 21
49.0
 31
0.0
  0
LINE
  5
58C
100
AcDbEntity
  8
0
390
0
  6
CONTINUOUS
 62
     3
100
AcDbLine
 10
-100.0
 20
-57.0
 30
0.0
 11
-93.150986
 21
-57.0
 31
0.0
  0
LINE
  5
58D
100
AcDbEntity
  8
0
390
0
  6
CONTINUOUS
 62
     3
100
AcDbLine
 10
-100.0
 20
57.0
 30
0.0
 11
-93.150986
 21
57.0
 31
0.0
  0
ENDBLK
  5
58E
100
AcDbEntity
  8
0
370
    -2
390
0
100
AcDbBlockEnd
  0
BLOCK
  5
58F
100
AcDbEntity
  8
0
370
    -2
390
0
100
AcDbBlockBegin
  2
VF1100
 70
     0
 10
0.0
 20
0.0
 30
0.0
  3
VF1100
  1

  0
DIMENSION
  5
59C
100
AcDbEntity
  8
0
390
0
  6
CONTINUOUS
 62
   255
100
AcDbDimension
  2
*D60
 10
-100.0
 20
96.0
 30
0.0
 11
0.0
 21
96.0
 31
0.0
 70
   128
 71
     5
 72
     1
 41
0.9
 42
200.0
  1
\A1;<>±5%
  3
MXDIMSTYLE
100
AcDbAlignedDimension
 13
100.0
 23
67.0
 33
0.0
 14
-100.0
 24
67.0
 34
0.0
100
AcDbRotatedDimension
1001
ACAD
1000
DSTYLE
1002
{
1070
    41
1040
2.77
1070
    44
1040
2.286
1070
   140
1040
3.2
1070
   271
1070
     0
1070
   284
1070
     8
1002
}
  0
DIMENSION
  5
5A8
100
AcDbEntity
  8
0
390
0
  6
CONTINUOUS
 62
   255
100
AcDbDimension
  2
*D61
 10
75.0
 20
88.0
 30
0.0
 11
0.0
 21
88.0
 31
0.0
 70
   128
 71
     5
 72
     1
 41
0.9
 42
150.0
  1
\A1;(<>)
  3
MXDIMSTYLE
100
AcDbAlignedDimension
 13
-75.0
 23
65.0
 33
0.0
 14
75.0
 24
65.0
 34
0.0
100
AcDbRotatedDimension
1001
ACAD
1000
DSTYLE
1002
{
1070
    41
1040
2.77
1070
    44
1040
2.286
1070
    75
1070
     1
1070
   140
1040
3.2
1070
   271
1070
     0
1070
   284
1070
     8
1070
   340
1005
D6
1002
}
  0
DIMENSION
  5
5B4
100
AcDbEntity
  8
0
390
0
  6
CONTINUOUS
 62
   110
100
AcDbDimension
  2
*D62
 10
-75.0
 20
88.0
 30
0.0
 11
-87.5
 21
88.0
 31
0.0
 70
   128
 71
     5
 72
     1
 41
0.9
 42
25.0
  1
\A1;<>
  3
MXDIMSTYLE
100
AcDbAlignedDimension
 13
-100.0
 23
67.0
 33
0.0
 14
-75.0
 24
65.0
 34
0.0
100
AcDbRotatedDimension
1001
ACAD
1000
DSTYLE
1002
{
1070
    41
1040
2.77
1070
    44
1040
2.286
1070
    75
1070
     1
1070
   140
1040
3.2
1070
   271
1070
     0
1070
   284
1070
     8
1002
}
  0
DIMENSION
  5
5C1
100
AcDbEntity
  8
0
390
0
  6
CONTINUOUS
 62
   110
100
AcDbDimension
  2
*D63
 10
-120.0
 20
-67.0
 30
0.0
 11
-120.0
 21
0.0
 31
0.0
 70
   128
 71
     5
 72
     1
 41
0.9
 42
134.0
  1
\A1;\U+2205<>
  3
MXDIMSTYLE
100
AcDbAlignedDimension
 13
-100.0
 23
67.0
 33
0.0
 14
-100.0
 24
-67.0
 34
0.0
 50
90.0
100
AcDbRotatedDimension
1001
ACAD
1000
DSTYLE
1002
{
1070
    41
1040
2.77
1070
    44
1040
2.286
1070
   140
1040
3.2
1070
   271
1070
     0
1070
   284
1070
     8
1070
   340
1005
108
1002
}
  0
DIMENSION
  5
5CC
100
AcDbEntity
  8
0
390
0
  6
CONTINUOUS
 62
   110
100
AcDbDimension
  2
*D64
 10
100.0
 20
88.0
 30
0.0
 11
87.5
 21
88.0
 31
0.0
 70
   128
 71
     5
 72
     1
 41
0.9
 42
25.0
  1
\A1;<>
  3
MXDIMSTYLE
100
AcDbAlignedDimension
 13
75.0
 23
65.0
 33
0.0
 14
100.0
 24
67.0
 34
0.0
100
AcDbRotatedDimension
1001
ACAD
1000
DSTYLE
1002
{
1070
    41
1040
2.77
1070
    75
1070
     1
1070
    76
1070
     1
1070
   140
1040
3.2
1070
   271
1070
     0
1070
   284
1070
     8
1002
}
  0
DIMENSION
  5
5D7
100
AcDbEntity
  8
0
390
0
  6
CONTINUOUS
 62
   110
100
AcDbDimension
  2
*D65
 10
-16.0
 20
63.25
 30
0.0
 11
-16.0
 21
16.0
 31
0.0
 70
   128
 71
     5
 72
     1
 41
0.9
 42
126.5
  1
\A1;\U+2205<>
  3
MXDIMSTYLE
100
AcDbAlignedDimension
 13
-12.675822
 23
-63.25
 33
0.0
 14
9.629541
 24
63.25
 34
0.0
 50
90.0
100
AcDbRotatedDimension
1001
ACAD
1000
DSTYLE
1002
{
1070
    41
1040
2.77
1070
    75
1070
     1
1070
    76
1070
     1
1070
   140
1040
3.2
1070
   271
1070
     1
1070
   284
1070
     8
1070
   340
1005
523
1002
}
  0
DIMENSION
  5
5E2
100
AcDbEntity
  8
0
390
0
  6
CONTINUOUS
 62
   110
100
AcDbDimension
  2
*D66
 10
-24.0
 20
-51.5
 30
0.0
 11
-24.0
 21
16.0
 31
0.0
 70
   128
 71
     5
 72
     1
 41
0.9
 42
103.0
  1
\A1;\U+2205<>
  3
MXDIMSTYLE
100
AcDbAlignedDimension
 13
-51.530586
 23
51.5
 33
0.0
 14
-10.603979
 24
-51.5
 34
0.0
 50
90.0
100
AcDbRotatedDimension
1001
ACAD
1000
DSTYLE
1002
{
1070
    41
1040
2.77
1070
    75
1070
     1
1070
    76
1070
     1
1070
   140
1040
3.2
1070
   271
1070
     0
1070
   284
1070
     8
1070
   340
1005
C9
1002
}
  0
ARC
  5
5E3
100
AcDbEntity
  8
0
390
0
  6
CONTINUOUS
 62
     3
100
AcDbCircle
 10
93.050311
 20
-65.5
 30
0.0
 40
1.5
100
AcDbArc
 50
200.0
 51
270.0
  0
ARC
  5
5E4
100
AcDbEntity
  8
0
390
0
  6
CONTINUOUS
 62
     3
100
AcDbCircle
 10
93.050311
 20
65.5
 30
0.0
 40
1.5
100
AcDbArc
 50
90.0
 51
160.0
  0
ARC
  5
5E5
100
AcDbEntity
  8
0
390
0
  6
CONTINUOUS
 62
     3
100
AcDbCircle
 10
-93.050311
 20
65.5
 30
0.0
 40
1.5
100
AcDbArc
 50
20.0
 51
90.0
  0
ARC
  5
5E6
100
AcDbEntity
  8
0
390
0
  6
CONTINUOUS
 62
     3
100
AcDbCircle
 10
-93.050311
 20
-65.5
 30
0.0
 40
1.5
100
AcDbArc
 50
270.0
 51
340.0
  0
ARC
  5
5E7
100
AcDbEntity
  8
0
390
0
  6
CONTINUOUS
 62
     3
100
AcDbCircle
 10
46.530585
 20
-59.780585
 30
0.0
 40
3.469415
100
AcDbArc
 50
136.102604
 51
43.897397
  0
ARC
  5
5E8
100
AcDbEntity
  8
0
390
0
  6
CONTINUOUS
 62
     3
100
AcDbCircle
 10
51.530585
 20
-54.969415
 30
0.0
 40
3.469415
100
AcDbArc
 50
316.1026
 51
223.897397
  0
ARC
  5
5E9
100
AcDbEntity
  8
0
390
0
  6
CONTINUOUS
 62
     3
100
AcDbCircle
 10
66.530585
 20
-59.780585
 30
0.0
 40
3.469415
100
AcDbArc
 50
136.1026
 51
43.897398
  0
ARC
  5
5EA
100
AcDbEntity
  8
0
390
0
  6
CONTINUOUS
 62
     3
100
AcDbCircle
 10
71.530585
 20
-54.969415
 30
0.0
 40
3.469415
100
AcDbArc
 50
0.0
 51
223.897398
  0
ARC
  5
5EB
100
AcDbEntity
  8
0
390
0
  6
CONTINUOUS
 62
     3
100
AcDbCircle
 10
56.530585
 20
-59.780585
 30
0.0
 40
3.469415
100
AcDbArc
 50
136.102604
 51
43.897397
  0
ARC
  5
5EC
100
AcDbEntity
  8
0
390
0
  6
CONTINUOUS
 62
     3
100
AcDbCircle
 10
61.530585
 20
-54.969415
 30
0.0
 40
3.469415
100
AcDbArc
 50
316.1026
 51
223.897397
  0
ARC
  5
5ED
100
AcDbEntity
  8
0
390
0
  6
CONTINUOUS
 62
     3
100
AcDbCircle
 10
-56.530585
 20
-59.780585
 30
0.0
 40
3.469415
100
AcDbArc
 50
136.102603
 51
43.897396
  0
ARC
  5
5EE
100
AcDbEntity
  8
0
390
0
  6
CONTINUOUS
 62
     3
100
AcDbCircle
 10
-61.530585
 20
-54.969415
 30
0.0
 40
3.469415
100
AcDbArc
 50
316.102603
 51
223.8974
  0
ARC
  5
5EF
100
AcDbEntity
  8
0
390
0
  6
CONTINUOUS
 62
     3
100
AcDbCircle
 10
-46.530585
 20
-59.780585
 30
0.0
 40
3.469415
100
AcDbArc
 50
136.102603
 51
43.897396
  0
ARC
  5
5F0
100
AcDbEntity
  8
0
390
0
  6
CONTINUOUS
 62
     3
100
AcDbCircle
 10
-51.530585
 20
-54.969415
 30
0.0
 40
3.469415
100
AcDbArc
 50
316.102603
 51
223.8974
  0
ARC
  5
5F1
100
AcDbEntity
  8
0
390
0
  6
CONTINUOUS
 62
     3
100
AcDbCircle
 10
-66.530585
 20
-59.780585
 30
0.0
 40
3.469415
100
AcDbArc
 50
136.102602
 51
43.8974
  0
ARC
  5
5F2
100
AcDbEntity
  8
0
390
0
  6
CONTINUOUS
 62
     3
100
AcDbCircle
 10
-71.530585
 20
-54.969415
 30
0.0
 40
3.469415
100
AcDbArc
 50
316.102602
 51
180.0
  0
ARC
  5
5F3
100
AcDbEntity
  8
0
390
0
  6
CONTINUOUS
 62
     3
100
AcDbCircle
 10
46.530585
 20
59.780585
 30
0.0
 40
3.469415
100
AcDbArc
 50
316.102603
 51
223.897396
  0
ARC
  5
5F4
100
AcDbEntity
  8
0
390
0
  6
CONTINUOUS
 62
     3
100
AcDbCircle
 10
51.530585
 20
54.969415
 30
0.0
 40
3.469415
100
AcDbArc
 50
136.102603
 51
43.8974
  0
ARC
  5
5F5
100
AcDbEntity
  8
0
390
0
  6
CONTINUOUS
 62
     3
100
AcDbCircle
 10
66.530585
 20
59.780585
 30
0.0
 40
3.469415
100
AcDbArc
 50
316.102602
 51
223.8974
  0
ARC
  5
5F6
100
AcDbEntity
  8
0
390
0
  6
CONTINUOUS
 62
     3
100
AcDbCircle
 10
71.530585
 20
54.969415
 30
0.0
 40
3.469415
100
AcDbArc
 50
136.102602
 51
0.0
  0
ARC
  5
5F7
100
AcDbEntity
  8
0
390
0
  6
CONTINUOUS
 62
     3
100
AcDbCircle
 10
56.530585
 20
59.780585
 30
0.0
 40
3.469415
100
AcDbArc
 50
316.102603
 51
223.897396
  0
ARC
  5
5F8
100
AcDbEntity
  8
0
390
0
  6
CONTINUOUS
 62
     3
100
AcDbCircle
 10
61.530585
 20
54.969415
 30
0.0
 40
3.469415
100
AcDbArc
 50
136.102603
 51
43.8974
  0
ARC
  5
5F9
100
AcDbEntity
  8
0
390
0
  6
CONTINUOUS
 62
     3
100
AcDbCircle
 10
-56.530585
 20
59.780585
 30
0.0
 40
3.469415
100
AcDbArc
 50
316.102604
 51
223.897397
  0
ARC
  5
5FA
100
AcDbEntity
  8
0
390
0
  6
CONTINUOUS
 62
     3
100
AcDbCircle
 10
-61.530585
 20
54.969415
 30
0.0
 40
3.469415
100
AcDbArc
 50
136.1026
 51
43.897397
  0
ARC
  5
5FB
100
AcDbEntity
  8
0
390
0
  6
CONTINUOUS
 62
     3
100
AcDbCircle
 10
-46.530585
 20
59.780585
 30
0.0
 40
3.469415
100
AcDbArc
 50
316.102604
 51
223.897397
  0
ARC
  5
5FC
100
AcDbEntity
  8
0
390
0
  6
CONTINUOUS
 62
     3
100
AcDbCircle
 10
-51.530585
 20
54.969415
 30
0.0
 40
3.469415
100
AcDbArc
 50
136.1026
 51
43.897397
  0
ARC
  5
5FD
100
AcDbEntity
  8
0
390
0
  6
CONTINUOUS
 62
     3
100
AcDbCircle
 10
-66.530585
 20
59.780585
 30
0.0
 40
3.469415
100
AcDbArc
 50
316.1026
 51
223.897398
  0
ARC
  5
5FE
100
AcDbEntity
  8
0
390
0
  6
CONTINUOUS
 62
     3
100
AcDbCircle
 10
-71.530585
 20
54.969415
 30
0.0
 40
3.469415
100
AcDbArc
 50
180.0
 51
43.897398
  0
LINE
  5
5FF
100
AcDbEntity
  8
0
390
0
  6
CONTINUOUS
 62
     3
100
AcDbLine
 10
91.640772
 20
-66.01303
 30
0.0
 11
89.088238
 21
-59.0
 31
0.0
  0
LINE
  5
600
100
AcDbEntity
  8
0
390
0
  6
CONTINUOUS
 62
     3
100
AcDbLine
 10
89.088238
 20
-59.0
 30
0.0
 11
78.964104
 21
-59.0
 31
0.0
  0
LINE
  5
601
100
AcDbEntity
  8
0
390
0
  6
CONTINUOUS
 62
     3
100
AcDbLine
 10
100.0
 20
-67.0
 30
0.0
 11
93.050311
 21
-67.0
 31
0.0
  0
LINE
  5
602
100
AcDbEntity
  8
0
390
0
  6
CONTINUOUS
 62
     3
100
AcDbLine
 10
91.640772
 20
66.01303
 30
0.0
 11
89.088238
 21
59.0
 31
0.0
  0
LINE
  5
603
100
AcDbEntity
  8
0
390
0
  6
CONTINUOUS
 62
     3
100
AcDbLine
 10
100.0
 20
67.0
 30
0.0
 11
93.050311
 21
67.0
 31
0.0
  0
LINE
  5
604
100
AcDbEntity
  8
0
390
0
  6
CONTINUOUS
 62
     3
100
AcDbLine
 10
89.088238
 20
59.0
 30
0.0
 11
78.964104
 21
59.0
 31
0.0
  0
LINE
  5
605
100
AcDbEntity
  8
0
390
0
  6
CONTINUOUS
 62
     3
100
AcDbLine
 10
-91.640772
 20
66.01303
 30
0.0
 11
-89.088238
 21
59.0
 31
0.0
  0
LINE
  5
606
100
AcDbEntity
  8
0
390
0
  6
CONTINUOUS
 62
     3
100
AcDbLine
 10
-100.0
 20
67.0
 30
0.0
 11
-93.050311
 21
67.0
 31
0.0
  0
LINE
  5
607
100
AcDbEntity
  8
0
390
0
  6
CONTINUOUS
 62
     3
100
AcDbLine
 10
-91.640772
 20
-66.01303
 30
0.0
 11
-89.088238
 21
-59.0
 31
0.0
  0
LINE
  5
608
100
AcDbEntity
  8
0
390
0
  6
PHANTOM
 62
   110
100
AcDbLine
 10
-9.629542
 20
-63.25
 30
0.0
 11
46.530585
 21
-63.25
 31
0.0
  0
LINE
  5
609
100
AcDbEntity
  8
0
390
0
  6
PHANTOM
 62
   110
100
AcDbLine
 10
-7.5577
 20
-51.5
 30
0.0
 11
51.530585
 21
-51.5
 31
0.0
  0
LINE
  5
60A
100
AcDbEntity
  8
0
390
0
  6
PHANTOM
 62
   110
100
AcDbLine
 10
10.603979
 20
51.5
 30
0.0
 11
51.530585
 21
51.5
 31
0.0
  0
LINE
  5
60B
100
AcDbEntity
  8
0
390
0
  6
PHANTOM
 62
   110
100
AcDbLine
 10
12.675821
 20
63.25
 30
0.0
 11
46.530585
 21
63.25
 31
0.0
  0
LINE
  5
60C
100
AcDbEntity
  8
0
390
0
  6
CENTER
 62
   110
100
AcDbLine
 10
-10.158523
 20
-66.25
 30
0.0
 11
13.204802
 21
66.25
 31
0.0
  0
LINE
  5
60D
100
AcDbEntity
  8
0
390
0
  6
CENTER
 62
   110
100
AcDbLine
 10
-13.204802
 20
-66.25
 30
0.0
 11
10.158523
 21
66.25
 31
0.0
  0
LINE
  5
60E
100
AcDbEntity
  8
0
390
0
  6
PHANTOM
 62
   110
100
AcDbLine
 10
-46.530585
 20
-63.25
 30
0.0
 11
-12.675821
 21
-63.25
 31
0.0
  0
LINE
  5
60F
100
AcDbEntity
  8
0
390
0
  6
PHANTOM
 62
   110
100
AcDbLine
 10
-51.530585
 20
-51.5
 30
0.0
 11
-10.603979
 21
-51.5
 31
0.0
  0
LINE
  5
610
100
AcDbEntity
  8
0
390
0
  6
PHANTOM
 62
   110
100
AcDbLine
 10
-46.530585
 20
63.25
 30
0.0
 11
9.629542
 21
63.25
 31
0.0
  0
LINE
  5
611
100
AcDbEntity
  8
0
390
0
  6
PHANTOM
 62
   110
100
AcDbLine
 10
-51.530585
 20
51.5
 30
0.0
 11
7.5577
 21
51.5
 31
0.0
  0
LINE
  5
612
100
AcDbEntity
  8
0
390
0
  6
CONTINUOUS
 62
     3
100
AcDbLine
 10
100.0
 20
51.1
 30
0.0
 11
75.0
 21
51.1
 31
0.0
  0
LINE
  5
613
100
AcDbEntity
  8
0
390
0
  6
CONTINUOUS
 62
     3
100
AcDbLine
 10
75.0
 20
65.0
 30
0.0
 11
75.0
 21
-65.0
 31
0.0
  0
LINE
  5
614
100
AcDbEntity
  8
0
390
0
  6
CONTINUOUS
 62
     3
100
AcDbLine
 10
100.0
 20
67.0
 30
0.0
 11
100.0
 21
-67.0
 31
0.0
  0
LINE
  5
615
100
AcDbEntity
  8
0
390
0
  6
CONTINUOUS
 62
     3
100
AcDbLine
 10
100.0
 20
-51.1
 30
0.0
 11
75.0
 21
-51.1
 31
0.0
  0
LINE
  5
616
100
AcDbEntity
  8
0
390
0
  6
CONTINUOUS
 62
     3
100
AcDbLine
 10
78.964108
 20
-59.000003
 30
0.0
 11
75.500004
 21
-65.000006
 31
0.0
  0
LINE
  5
617
100
AcDbEntity
  8
0
390
0
  6
CONTINUOUS
 62
     3
100
AcDbLine
 10
78.964108
 20
59.000003
 30
0.0
 11
75.500004
 21
65.000006
 31
0.0
  0
LINE
  5
618
100
AcDbEntity
  8
0
390
0
  6
CONTINUOUS
 62
     3
100
AcDbLine
 10
75.5
 20
65.0
 30
0.0
 11
75.0
 21
65.0
 31
0.0
  0
LINE
  5
619
100
AcDbEntity
  8
0
390
0
  6
CONTINUOUS
 62
     3
100
AcDbLine
 10
75.5
 20
-65.0
 30
0.0
 11
75.0
 21
-65.0
 31
0.0
  0
LINE
  5
61A
100
AcDbEntity
  8
0
390
0
  6
CONTINUOUS
 62
     3
100
AcDbLine
 10
-100.0
 20
-51.1
 30
0.0
 11
-75.0
 21
-51.1
 31
0.0
  0
LINE
  5
61B
100
AcDbEntity
  8
0
390
0
  6
CONTINUOUS
 62
     3
100
AcDbLine
 10
-100.0
 20
51.1
 30
0.0
 11
-75.0
 21
51.1
 31
0.0
  0
LINE
  5
61C
100
AcDbEntity
  8
0
390
0
  6
CONTINUOUS
 62
     3
100
AcDbLine
 10
-75.0
 20
65.0
 30
0.0
 11
-75.0
 21
-65.0
 31
0.0
  0
LINE
  5
61D
100
AcDbEntity
  8
0
390
0
  6
CONTINUOUS
 62
     3
100
AcDbLine
 10
-100.0
 20
67.0
 30
0.0
 11
-100.0
 21
-67.0
 31
0.0
  0
LINE
  5
61E
100
AcDbEntity
  8
0
390
0
  6
CENTER
 62
   110
100
AcDbLine
 10
-104.0
 20
0.0
 30
0.0
 11
104.0
 21
0.0
 31
0.0
  0
LINE
  5
61F
100
AcDbEntity
  8
0
390
0
  6
CONTINUOUS
 62
     3
100
AcDbLine
 10
-78.964108
 20
-59.000003
 30
0.0
 11
-75.500004
 21
-65.000006
 31
0.0
  0
LINE
  5
620
100
AcDbEntity
  8
0
390
0
  6
CONTINUOUS
 62
     3
100
AcDbLine
 10
-78.964108
 20
59.000003
 30
0.0
 11
-75.500004
 21
65.000006
 31
0.0
  0
LINE
  5
621
100
AcDbEntity
  8
0
390
0
  6
CONTINUOUS
 62
     3
100
AcDbLine
 10
-89.088238
 20
59.0
 30
0.0
 11
-78.964104
 21
59.0
 31
0.0
  0
LINE
  5
622
100
AcDbEntity
  8
0
390
0
  6
CONTINUOUS
 62
     3
100
AcDbLine
 10
-89.088238
 20
-59.0
 30
0.0
 11
-78.964104
 21
-59.0
 31
0.0
  0
LINE
  5
623
100
AcDbEntity
  8
0
390
0
  6
CONTINUOUS
 62
     3
100
AcDbLine
 10
-75.5
 20
65.0
 30
0.0
 11
-75.0
 21
65.0
 31
0.0
  0
LINE
  5
624
100
AcDbEntity
  8
0
390
0
  6
CONTINUOUS
 62
     3
100
AcDbLine
 10
-75.5
 20
-65.0
 30
0.0
 11
-75.0
 21
-65.0
 31
0.0
  0
LINE
  5
625
100
AcDbEntity
  8
0
390
0
  6
CONTINUOUS
 62
     3
100
AcDbLine
 10
-100.0
 20
-67.0
 30
0.0
 11
-93.050311
 21
-67.0
 31
0.0
  0
ENDBLK
  5
626
100
AcDbEntity
  8
0
370
    -2
390
0
100
AcDbBlockEnd
  0
BLOCK
  5
31
100
AcDbEntity
  8
0
370
    -2
390
0
  6
ByBlock
 62
     0
100
AcDbBlockBegin
  2
_OPEN30
 70
     2
 10
0.0
 20
0.0
 30
0.0
  3
_OPEN30
  1

  0
LINE
  5
32
100
AcDbEntity
  8
0
370
    -2
390
0
  6
ByBlock
 62
     0
100
AcDbLine
 10
-1.0
 20
0.267949
 30
0.0
 11
0.0
 21
0.0
 31
0.0
  0
LINE
  5
33
100
AcDbEntity
  8
0
370
    -2
390
0
  6
ByBlock
 62
     0
100
AcDbLine
 10
0.0
 20
0.0
 30
0.0
 11
-1.0
 21
-0.267949
 31
0.0
  0
LINE
  5
34
100
AcDbEntity
  8
0
370
    -2
390
0
  6
ByBlock
 62
     0
100
AcDbLine
 10
0.0
 20
0.0
 30
0.0
 11
-1.0
 21
0.0
 31
0.0
  0
ENDBLK
  5
35
100
AcDbEntity
  8
0
370
    -2
390
0
  6
ByBlock
 62
     0
100
AcDbBlockEnd
  0
BLOCK
  5
C4
100
AcDbEntity
  8
0
370
    -2
390
0
  6
ByBlock
 62
     0
100
AcDbBlockBegin
  2
*D11
 70
     1
 10
0.0
 20
0.0
 30
0.0
  3
*D11
  1

  0
LINE
  5
C5
100
AcDbEntity
  8
0
390
0
  6
CONTINUOUS
 62
   110
100
AcDbLine
 10
-100.0
 20
32.0
 30
0.0
 11
-80.0
 21
32.0
 31
0.0
  0
LINE
  5
C6
100
AcDbEntity
  8
0
390
0
  6
CONTINUOUS
 62
   110
100
AcDbLine
 10
-80.0
 20
9.65
 30
0.0
 11
-80.0
 21
34.286
 31
0.0
  0
INSERT
  5
C7
100
AcDbEntity
  8
0
390
0
  6
CONTINUOUS
 62
   110
100
AcDbBlockReference
  2
_OPEN30
 10
-100.0
 20
32.0
 30
0.0
 41
2.77
 42
2.77
 43
2.77
 50
180.0
  0
INSERT
  5
C8
100
AcDbEntity
  8
0
390
0
  6
CONTINUOUS
 62
   110
100
AcDbBlockReference
  2
_OPEN30
 10
-80.0
 20
32.0
 30
0.0
 41
2.77
 42
2.77
 43
2.77
  0
MTEXT
  5
CA
100
AcDbEntity
  8
0
390
0
  6
CONTINUOUS
 62
   110
100
AcDbMText
 10
-90.0
 20
34.6
 30
0.0
 40
3.2
 41
0.0
 71
     5
 72
     1
  1
\A1;20
  7
MX_DIMTXSTY_2
 73
     1
 44
0.9
  0
POINT
  5
CB
100
AcDbEntity
  8
DEFPOINTS
390
0
  6
CONTINUOUS
 62
     0
100
AcDbPoint
 10
-100.0
 20
15.0
 30
0.0
  0
POINT
  5
CC
100
AcDbEntity
  8
DEFPOINTS
390
0
  6
CONTINUOUS
 62
     0
100
AcDbPoint
 10
-80.0
 20
7.65
 30
0.0
  0
POINT
  5
CD
100
AcDbEntity
  8
DEFPOINTS
390
0
  6
CONTINUOUS
 62
     0
100
AcDbPoint
 10
-80.0
 20
32.0
 30
0.0
  0
ENDBLK
  5
CE
100
AcDbEntity
  8
0
370
    -2
390
0
  6
ByBlock
 62
     0
100
AcDbBlockEnd
  0
BLOCK
  5
D1
100
AcDbEntity
  8
0
370
    -2
390
0
  6
ByBlock
 62
     0
100
AcDbBlockBegin
  2
*D12
 70
     1
 10
0.0
 20
0.0
 30
0.0
  3
*D12
  1

  0
LINE
  5
D2
100
AcDbEntity
  8
0
390
0
  6
CONTINUOUS
 62
   255
100
AcDbLine
 10
-80.0
 20
32.0
 30
0.0
 11
80.0
 21
32.0
 31
0.0
  0
LINE
  5
D3
100
AcDbEntity
  8
0
390
0
  6
CONTINUOUS
 62
   255
100
AcDbLine
 10
80.0
 20
9.65
 30
0.0
 11
80.0
 21
34.286
 31
0.0
  0
INSERT
  5
D4
100
AcDbEntity
  8
0
390
0
  6
CONTINUOUS
 62
   255
100
AcDbBlockReference
  2
_OPEN30
 10
-80.0
 20
32.0
 30
0.0
 41
2.77
 42
2.77
 43
2.77
 50
180.0
  0
INSERT
  5
D5
100
AcDbEntity
  8
0
390
0
  6
CONTINUOUS
 62
   255
100
AcDbBlockReference
  2
_OPEN30
 10
80.0
 20
32.0
 30
0.0
 41
2.77
 42
2.77
 43
2.77
  0
MTEXT
  5
D7
100
AcDbEntity
  8
0
390
0
  6
CONTINUOUS
 62
   255
100
AcDbMText
 10
0.0
 20
34.6
 30
0.0
 40
3.2
 41
0.0
 71
     5
 72
     1
  1
\A1;(160)
  7
MX_DIMTXSTY_3
 73
     1
 44
0.9
  0
POINT
  5
D8
100
AcDbEntity
  8
DEFPOINTS
390
0
  6
CONTINUOUS
 62
     0
100
AcDbPoint
 10
-80.0
 20
7.65
 30
0.0
  0
POINT
  5
D9
100
AcDbEntity
  8
DEFPOINTS
390
0
  6
CONTINUOUS
 62
     0
100
AcDbPoint
 10
80.0
 20
7.65
 30
0.0
  0
POINT
  5
DA
100
AcDbEntity
  8
DEFPOINTS
390
0
  6
CONTINUOUS
 62
     0
100
AcDbPoint
 10
80.0
 20
32.0
 30
0.0
  0
ENDBLK
  5
DB
100
AcDbEntity
  8
0
370
    -2
390
0
  6
ByBlock
 62
     0
100
AcDbBlockEnd
  0
BLOCK
  5
DE
100
AcDbEntity
  8
0
370
    -2
390
0
  6
ByBlock
 62
     0
100
AcDbBlockBegin
  2
*D13
 70
     1
 10
0.0
 20
0.0
 30
0.0
  3
*D13
  1

  0
LINE
  5
DF
100
AcDbEntity
  8
0
390
0
  6
CONTINUOUS
 62
   255
100
AcDbLine
 10
100.0
 20
40.0
 30
0.0
 11
-100.0
 21
40.0
 31
0.0
  0
LINE
  5
E0
100
AcDbEntity
  8
0
390
0
  6
CONTINUOUS
 62
   255
100
AcDbLine
 10
100.0
 20
17.0
 30
0.0
 11
100.0
 21
42.286
 31
0.0
  0
LINE
  5
E1
100
AcDbEntity
  8
0
390
0
  6
CONTINUOUS
 62
   255
100
AcDbLine
 10
-100.0
 20
17.0
 30
0.0
 11
-100.0
 21
42.286
 31
0.0
  0
INSERT
  5
E2
100
AcDbEntity
  8
0
390
0
  6
CONTINUOUS
 62
   255
100
AcDbBlockReference
  2
_OPEN30
 10
100.0
 20
40.0
 30
0.0
 41
2.77
 42
2.77
 43
2.77
  0
INSERT
  5
E3
100
AcDbEntity
  8
0
390
0
  6
CONTINUOUS
 62
   255
100
AcDbBlockReference
  2
_OPEN30
 10
-100.0
 20
40.0
 30
0.0
 41
2.77
 42
2.77
 43
2.77
 50
180.0
  0
MTEXT
  5
E4
100
AcDbEntity
  8
0
390
0
  6
CONTINUOUS
 62
   255
100
AcDbMText
 10
0.0
 20
42.6
 30
0.0
 40
3.2
 41
0.0
 71
     5
 72
     1
  1
\A1;200±5%
 11
1.0
 21
0.0
 31
0.0
 73
     1
 44
0.9
  0
POINT
  5
E5
100
AcDbEntity
  8
DEFPOINTS
390
0
  6
CONTINUOUS
 62
     0
100
AcDbPoint
 10
100.0
 20
15.0
 30
0.0
  0
POINT
  5
E6
100
AcDbEntity
  8
DEFPOINTS
390
0
  6
CONTINUOUS
 62
     0
100
AcDbPoint
 10
-100.0
 20
15.0
 30
0.0
  0
POINT
  5
E7
100
AcDbEntity
  8
DEFPOINTS
390
0
  6
CONTINUOUS
 62
     0
100
AcDbPoint
 10
-100.0
 20
40.0
 30
0.0
  0
ENDBLK
  5
E8
100
AcDbEntity
  8
0
370
    -2
390
0
  6
ByBlock
 62
     0
100
AcDbBlockEnd
  0
BLOCK
  5
EB
100
AcDbEntity
  8
0
370
    -2
390
0
  6
ByBlock
 62
     0
100
AcDbBlockBegin
  2
*D14
 70
     1
 10
0.0
 20
0.0
 30
0.0
  3
*D14
  1

  0
LINE
  5
EC
100
AcDbEntity
  8
0
390
0
  6
CONTINUOUS
 62
   110
100
AcDbLine
 10
-120.0
 20
15.0
 30
0.0
 11
-120.0
 21
-15.0
 31
0.0
  0
LINE
  5
ED
100
AcDbEntity
  8
0
390
0
  6
CONTINUOUS
 62
   110
100
AcDbLine
 10
-102.0
 20
15.0
 30
0.0
 11
-122.286
 21
15.0
 31
0.0
  0
LINE
  5
EE
100
AcDbEntity
  8
0
390
0
  6
CONTINUOUS
 62
   110
100
AcDbLine
 10
-102.0
 20
-15.0
 30
0.0
 11
-122.286
 21
-15.0
 31
0.0
  0
INSERT
  5
EF
100
AcDbEntity
  8
0
390
0
  6
CONTINUOUS
 62
   110
100
AcDbBlockReference
  2
_OPEN30
 10
-120.0
 20
15.0
 30
0.0
 41
2.77
 42
2.77
 43
2.77
 50
90.0
  0
INSERT
  5
F0
100
AcDbEntity
  8
0
390
0
  6
CONTINUOUS
 62
   110
100
AcDbBlockReference
  2
_OPEN30
 10
-120.0
 20
-15.0
 30
0.0
 41
2.77
 42
2.77
 43
2.77
 50
270.0
  0
MTEXT
  5
F1
100
AcDbEntity
  8
0
390
0
  6
CONTINUOUS
 62
   110
100
AcDbMText
 10
-122.6
 20
0.0
 30
0.0
 40
3.2
 41
0.0
 71
     5
 72
     1
  1
\A1;\U+220530
 11
0.0
 21
1.0
 31
0.0
 73
     1
 44
0.9
  0
POINT
  5
F2
100
AcDbEntity
  8
DEFPOINTS
390
0
  6
CONTINUOUS
 62
     0
100
AcDbPoint
 10
-100.0
 20
15.0
 30
0.0
  0
POINT
  5
F3
100
AcDbEntity
  8
DEFPOINTS
390
0
  6
CONTINUOUS
 62
     0
100
AcDbPoint
 10
-100.0
 20
-15.0
 30
0.0
  0
POINT
  5
F4
100
AcDbEntity
  8
DEFPOINTS
390
0
  6
CONTINUOUS
 62
     0
100
AcDbPoint
 10
-120.0
 20
-15.0
 30
0.0
  0
ENDBLK
  5
F5
100
AcDbEntity
  8
0
370
    -2
390
0
  6
ByBlock
 62
     0
100
AcDbBlockEnd
  0
BLOCK
  5
F8
100
AcDbEntity
  8
0
370
    -2
390
0
  6
ByBlock
 62
     0
100
AcDbBlockBegin
  2
*D15
 70
     1
 10
0.0
 20
0.0
 30
0.0
  3
*D15
  1

  0
LINE
  5
F9
100
AcDbEntity
  8
0
390
0
  6
CONTINUOUS
 62
   110
100
AcDbLine
 10
80.0
 20
32.0
 30
0.0
 11
100.0
 21
32.0
 31
0.0
  0
INSERT
  5
FA
100
AcDbEntity
  8
0
390
0
  6
CONTINUOUS
 62
   110
100
AcDbBlockReference
  2
_OPEN30
 10
80.0
 20
32.0
 30
0.0
 41
2.77
 42
2.77
 43
2.77
 50
180.0
  0
INSERT
  5
FB
100
AcDbEntity
  8
0
390
0
  6
CONTINUOUS
 62
   110
100
AcDbBlockReference
  2
_OPEN30
 10
100.0
 20
32.0
 30
0.0
 41
2.77
 42
2.77
 43
2.77
  0
MTEXT
  5
FC
100
AcDbEntity
  8
0
390
0
  6
CONTINUOUS
 62
   110
100
AcDbMText
 10
90.0
 20
34.6
 30
0.0
 40
3.2
 41
0.0
 71
     5
 72
     1
  1
\A1;20
  7
MX_DIMTXSTY_2
 73
     1
 44
0.9
  0
POINT
  5
FD
100
AcDbEntity
  8
DEFPOINTS
390
0
  6
CONTINUOUS
 62
     0
100
AcDbPoint
 10
80.0
 20
7.65
 30
0.0
  0
POINT
  5
FE
100
AcDbEntity
  8
DEFPOINTS
390
0
  6
CONTINUOUS
 62
     0
100
AcDbPoint
 10
100.0
 20
15.0
 30
0.0
  0
POINT
  5
FF
100
AcDbEntity
  8
DEFPOINTS
390
0
  6
CONTINUOUS
 62
     0
100
AcDbPoint
 10
100.0
 20
32.0
 30
0.0
  0
ENDBLK
  5
100
100
AcDbEntity
  8
0
370
    -2
390
0
  6
ByBlock
 62
     0
100
AcDbBlockEnd
  0
BLOCK
  5
103
100
AcDbEntity
  8
0
370
    -2
390
0
  6
ByBlock
 62
     0
100
AcDbBlockBegin
  2
*D16
 70
     1
 10
0.0
 20
0.0
 30
0.0
  3
*D16
  1

  0
LINE
  5
104
100
AcDbEntity
  8
0
390
0
  6
CONTINUOUS
 62
   110
100
AcDbLine
 10
-16.0
 20
-7.5
 30
0.0
 11
-16.0
 21
7.5
 31
0.0
  0
LINE
  5
105
100
AcDbEntity
  8
0
390
0
  6
CONTINUOUS
 62
   110
100
AcDbLine
 10
-16.0
 20
7.5
 30
0.0
 11
-16.0
 21
20.8
 31
0.0
  0
INSERT
  5
106
100
AcDbEntity
  8
0
390
0
  6
CONTINUOUS
 62
   110
100
AcDbBlockReference
  2
_OPEN30
 10
-16.0
 20
-7.5
 30
0.0
 41
2.77
 42
2.77
 43
2.77
 50
270.0
  0
INSERT
  5
107
100
AcDbEntity
  8
0
390
0
  6
CONTINUOUS
 62
   110
100
AcDbBlockReference
  2
_OPEN30
 10
-16.0
 20
7.5
 30
0.0
 41
2.77
 42
2.77
 43
2.77
 50
90.0
  0
MTEXT
  5
109
100
AcDbEntity
  8
0
390
0
  6
CONTINUOUS
 62
   110
100
AcDbMText
 10
-18.6
 20
16.0
 30
0.0
 40
3.2
 41
0.0
 71
     5
 72
     1
  1
\A1;\U+220515
  7
MX_DIMTXSTY_4
 11
0.0
 21
1.0
 31
0.0
 73
     1
 44
0.9
  0
POINT
  5
10A
100
AcDbEntity
  8
DEFPOINTS
390
0
  6
CONTINUOUS
 62
     0
100
AcDbPoint
 10
-2.845592
 20
-7.5
 30
0.0
  0
POINT
  5
10B
100
AcDbEntity
  8
DEFPOINTS
390
0
  6
CONTINUOUS
 62
     0
100
AcDbPoint
 10
-0.200687
 20
7.5
 30
0.0
  0
POINT
  5
10C
100
AcDbEntity
  8
DEFPOINTS
390
0
  6
CONTINUOUS
 62
     0
100
AcDbPoint
 10
-16.0
 20
7.5
 30
0.0
  0
ENDBLK
  5
10D
100
AcDbEntity
  8
0
370
    -2
390
0
  6
ByBlock
 62
     0
100
AcDbBlockEnd
  0
BLOCK
  5
110
100
AcDbEntity
  8
0
370
    -2
390
0
  6
ByBlock
 62
     0
100
AcDbBlockBegin
  2
*D17
 70
     1
 10
0.0
 20
0.0
 30
0.0
  3
*D17
  1

  0
LINE
  5
111
100
AcDbEntity
  8
0
390
0
  6
CONTINUOUS
 62
   110
100
AcDbLine
 10
-24.0
 20
-5.25
 30
0.0
 11
-24.0
 21
5.25
 31
0.0
  0
LINE
  5
112
100
AcDbEntity
  8
0
390
0
  6
CONTINUOUS
 62
   110
100
AcDbLine
 10
-24.0
 20
5.25
 30
0.0
 11
-24.0
 21
24.0
 31
0.0
  0
INSERT
  5
113
100
AcDbEntity
  8
0
390
0
  6
CONTINUOUS
 62
   110
100
AcDbBlockReference
  2
_OPEN30
 10
-24.0
 20
-5.25
 30
0.0
 41
2.77
 42
2.77
 43
2.77
 50
270.0
  0
INSERT
  5
114
100
AcDbEntity
  8
0
390
0
  6
CONTINUOUS
 62
   110
100
AcDbBlockReference
  2
_OPEN30
 10
-24.0
 20
5.25
 30
0.0
 41
2.77
 42
2.77
 43
2.77
 50
90.0
  0
MTEXT
  5
116
100
AcDbEntity
  8
0
390
0
  6
CONTINUOUS
 62
   110
100
AcDbMText
 10
-26.6
 20
16.0
 30
0.0
 40
3.2
 41
0.0
 71
     5
 72
     1
  1
\A1;\U+220510.5
  7
MX_DIMTXSTY_5
 11
0.0
 21
1.0
 31
0.0
 73
     1
 44
0.9
  0
POINT
  5
117
100
AcDbEntity
  8
DEFPOINTS
390
0
  6
CONTINUOUS
 62
     0
100
AcDbPoint
 10
-2.448856
 20
-5.25
 30
0.0
  0
POINT
  5
118
100
AcDbEntity
  8
DEFPOINTS
390
0
  6
CONTINUOUS
 62
     0
100
AcDbPoint
 10
-0.597424
 20
5.25
 30
0.0
  0
POINT
  5
119
100
AcDbEntity
  8
DEFPOINTS
390
0
  6
CONTINUOUS
 62
     0
100
AcDbPoint
 10
-24.0
 20
5.25
 30
0.0
  0
ENDBLK
  5
11A
100
AcDbEntity
  8
0
370
    -2
390
0
  6
ByBlock
 62
     0
100
AcDbBlockEnd
  0
BLOCK
  5
182
100
AcDbEntity
  8
0
370
    -2
390
0
  6
ByBlock
 62
     0
100
AcDbBlockBegin
  2
*D18
 70
     1
 10
0.0
 20
0.0
 30
0.0
  3
*D18
  1

  0
LINE
  5
183
100
AcDbEntity
  8
0
390
0
  6
CONTINUOUS
 62
   110
100
AcDbLine
 10
-100.0
 20
32.0
 30
0.0
 11
-80.0
 21
32.0
 31
0.0
  0
LINE
  5
184
100
AcDbEntity
  8
0
390
0
  6
CONTINUOUS
 62
   110
100
AcDbLine
 10
-80.0
 20
11.65
 30
0.0
 11
-80.0
 21
34.286
 31
0.0
  0
INSERT
  5
185
100
AcDbEntity
  8
0
390
0
  6
CONTINUOUS
 62
   110
100
AcDbBlockReference
  2
_OPEN30
 10
-100.0
 20
32.0
 30
0.0
 41
2.77
 42
2.77
 43
2.77
 50
180.0
  0
INSERT
  5
186
100
AcDbEntity
  8
0
390
0
  6
CONTINUOUS
 62
   110
100
AcDbBlockReference
  2
_OPEN30
 10
-80.0
 20
32.0
 30
0.0
 41
2.77
 42
2.77
 43
2.77
  0
MTEXT
  5
187
100
AcDbEntity
  8
0
390
0
  6
CONTINUOUS
 62
   110
100
AcDbMText
 10
-90.0
 20
34.6
 30
0.0
 40
3.2
 41
0.0
 71
     5
 72
     1
  1
\A1;20
  7
MX_DIMTXSTY_2
 73
     1
 44
0.9
  0
POINT
  5
188
100
AcDbEntity
  8
DEFPOINTS
390
0
  6
CONTINUOUS
 62
     0
100
AcDbPoint
 10
-100.0
 20
15.0
 30
0.0
  0
POINT
  5
189
100
AcDbEntity
  8
DEFPOINTS
390
0
  6
CONTINUOUS
 62
     0
100
AcDbPoint
 10
-80.0
 20
9.65
 30
0.0
  0
POINT
  5
18A
100
AcDbEntity
  8
DEFPOINTS
390
0
  6
CONTINUOUS
 62
     0
100
AcDbPoint
 10
-80.0
 20
32.0
 30
0.0
  0
ENDBLK
  5
18B
100
AcDbEntity
  8
0
370
    -2
390
0
  6
ByBlock
 62
     0
100
AcDbBlockEnd
  0
BLOCK
  5
18E
100
AcDbEntity
  8
0
370
    -2
390
0
  6
ByBlock
 62
     0
100
AcDbBlockBegin
  2
*D19
 70
     1
 10
0.0
 20
0.0
 30
0.0
  3
*D19
  1

  0
LINE
  5
18F
100
AcDbEntity
  8
0
390
0
  6
CONTINUOUS
 62
   255
100
AcDbLine
 10
-80.0
 20
32.0
 30
0.0
 11
80.0
 21
32.0
 31
0.0
  0
LINE
  5
190
100
AcDbEntity
  8
0
390
0
  6
CONTINUOUS
 62
   255
100
AcDbLine
 10
80.0
 20
11.65
 30
0.0
 11
80.0
 21
34.286
 31
0.0
  0
INSERT
  5
191
100
AcDbEntity
  8
0
390
0
  6
CONTINUOUS
 62
   255
100
AcDbBlockReference
  2
_OPEN30
 10
-80.0
 20
32.0
 30
0.0
 41
2.77
 42
2.77
 43
2.77
 50
180.0
  0
INSERT
  5
192
100
AcDbEntity
  8
0
390
0
  6
CONTINUOUS
 62
   255
100
AcDbBlockReference
  2
_OPEN30
 10
80.0
 20
32.0
 30
0.0
 41
2.77
 42
2.77
 43
2.77
  0
MTEXT
  5
193
100
AcDbEntity
  8
0
390
0
  6
CONTINUOUS
 62
   255
100
AcDbMText
 10
0.0
 20
34.6
 30
0.0
 40
3.2
 41
0.0
 71
     5
 72
     1
  1
\A1;(160)
  7
MX_DIMTXSTY_3
 73
     1
 44
0.9
  0
POINT
  5
194
100
AcDbEntity
  8
DEFPOINTS
390
0
  6
CONTINUOUS
 62
     0
100
AcDbPoint
 10
-80.0
 20
9.65
 30
0.0
  0
POINT
  5
195
100
AcDbEntity
  8
DEFPOINTS
390
0
  6
CONTINUOUS
 62
     0
100
AcDbPoint
 10
80.0
 20
9.65
 30
0.0
  0
POINT
  5
196
100
AcDbEntity
  8
DEFPOINTS
390
0
  6
CONTINUOUS
 62
     0
100
AcDbPoint
 10
80.0
 20
32.0
 30
0.0
  0
ENDBLK
  5
197
100
AcDbEntity
  8
0
370
    -2
390
0
  6
ByBlock
 62
     0
100
AcDbBlockEnd
  0
BLOCK
  5
19A
100
AcDbEntity
  8
0
370
    -2
390
0
  6
ByBlock
 62
     0
100
AcDbBlockBegin
  2
*D20
 70
     1
 10
0.0
 20
0.0
 30
0.0
  3
*D20
  1

  0
LINE
  5
19B
100
AcDbEntity
  8
0
390
0
  6
CONTINUOUS
 62
   255
100
AcDbLine
 10
100.0
 20
40.0
 30
0.0
 11
-100.0
 21
40.0
 31
0.0
  0
LINE
  5
19C
100
AcDbEntity
  8
0
390
0
  6
CONTINUOUS
 62
   255
100
AcDbLine
 10
100.0
 20
17.0
 30
0.0
 11
100.0
 21
42.286
 31
0.0
  0
LINE
  5
19D
100
AcDbEntity
  8
0
390
0
  6
CONTINUOUS
 62
   255
100
AcDbLine
 10
-100.0
 20
17.0
 30
0.0
 11
-100.0
 21
42.286
 31
0.0
  0
INSERT
  5
19E
100
AcDbEntity
  8
0
390
0
  6
CONTINUOUS
 62
   255
100
AcDbBlockReference
  2
_OPEN30
 10
100.0
 20
40.0
 30
0.0
 41
2.77
 42
2.77
 43
2.77
  0
INSERT
  5
19F
100
AcDbEntity
  8
0
390
0
  6
CONTINUOUS
 62
   255
100
AcDbBlockReference
  2
_OPEN30
 10
-100.0
 20
40.0
 30
0.0
 41
2.77
 42
2.77
 43
2.77
 50
180.0
  0
MTEXT
  5
1A0
100
AcDbEntity
  8
0
390
0
  6
CONTINUOUS
 62
   255
100
AcDbMText
 10
0.0
 20
42.6
 30
0.0
 40
3.2
 41
0.0
 71
     5
 72
     1
  1
\A1;200±5%
 11
1.0
 21
0.0
 31
0.0
 73
     1
 44
0.9
  0
POINT
  5
1A1
100
AcDbEntity
  8
DEFPOINTS
390
0
  6
CONTINUOUS
 62
     0
100
AcDbPoint
 10
100.0
 20
15.0
 30
0.0
  0
POINT
  5
1A2
100
AcDbEntity
  8
DEFPOINTS
390
0
  6
CONTINUOUS
 62
     0
100
AcDbPoint
 10
-100.0
 20
15.0
 30
0.0
  0
POINT
  5
1A3
100
AcDbEntity
  8
DEFPOINTS
390
0
  6
CONTINUOUS
 62
     0
100
AcDbPoint
 10
-100.0
 20
40.0
 30
0.0
  0
ENDBLK
  5
1A4
100
AcDbEntity
  8
0
370
    -2
390
0
  6
ByBlock
 62
     0
100
AcDbBlockEnd
  0
BLOCK
  5
1A7
100
AcDbEntity
  8
0
370
    -2
390
0
  6
ByBlock
 62
     0
100
AcDbBlockBegin
  2
*D21
 70
     1
 10
0.0
 20
0.0
 30
0.0
  3
*D21
  1

  0
LINE
  5
1A8
100
AcDbEntity
  8
0
390
0
  6
CONTINUOUS
 62
   110
100
AcDbLine
 10
-120.0
 20
15.0
 30
0.0
 11
-120.0
 21
-15.0
 31
0.0
  0
LINE
  5
1A9
100
AcDbEntity
  8
0
390
0
  6
CONTINUOUS
 62
   110
100
AcDbLine
 10
-102.0
 20
15.0
 30
0.0
 11
-122.286
 21
15.0
 31
0.0
  0
LINE
  5
1AA
100
AcDbEntity
  8
0
390
0
  6
CONTINUOUS
 62
   110
100
AcDbLine
 10
-102.0
 20
-15.0
 30
0.0
 11
-122.286
 21
-15.0
 31
0.0
  0
INSERT
  5
1AB
100
AcDbEntity
  8
0
390
0
  6
CONTINUOUS
 62
   110
100
AcDbBlockReference
  2
_OPEN30
 10
-120.0
 20
15.0
 30
0.0
 41
2.77
 42
2.77
 43
2.77
 50
90.0
  0
INSERT
  5
1AC
100
AcDbEntity
  8
0
390
0
  6
CONTINUOUS
 62
   110
100
AcDbBlockReference
  2
_OPEN30
 10
-120.0
 20
-15.0
 30
0.0
 41
2.77
 42
2.77
 43
2.77
 50
270.0
  0
MTEXT
  5
1AD
100
AcDbEntity
  8
0
390
0
  6
CONTINUOUS
 62
   110
100
AcDbMText
 10
-122.6
 20
0.0
 30
0.0
 40
3.2
 41
0.0
 71
     5
 72
     1
  1
\A1;\U+220530
 11
0.0
 21
1.0
 31
0.0
 73
     1
 44
0.9
  0
POINT
  5
1AE
100
AcDbEntity
  8
DEFPOINTS
390
0
  6
CONTINUOUS
 62
     0
100
AcDbPoint
 10
-100.0
 20
15.0
 30
0.0
  0
POINT
  5
1AF
100
AcDbEntity
  8
DEFPOINTS
390
0
  6
CONTINUOUS
 62
     0
100
AcDbPoint
 10
-100.0
 20
-15.0
 30
0.0
  0
POINT
  5
1B0
100
AcDbEntity
  8
DEFPOINTS
390
0
  6
CONTINUOUS
 62
     0
100
AcDbPoint
 10
-120.0
 20
-15.0
 30
0.0
  0
ENDBLK
  5
1B1
100
AcDbEntity
  8
0
370
    -2
390
0
  6
ByBlock
 62
     0
100
AcDbBlockEnd
  0
BLOCK
  5
1B4
100
AcDbEntity
  8
0
370
    -2
390
0
  6
ByBlock
 62
     0
100
AcDbBlockBegin
  2
*D22
 70
     1
 10
0.0
 20
0.0
 30
0.0
  3
*D22
  1

  0
LINE
  5
1B5
100
AcDbEntity
  8
0
390
0
  6
CONTINUOUS
 62
   110
100
AcDbLine
 10
80.0
 20
32.0
 30
0.0
 11
100.0
 21
32.0
 31
0.0
  0
INSERT
  5
1B6
100
AcDbEntity
  8
0
390
0
  6
CONTINUOUS
 62
   110
100
AcDbBlockReference
  2
_OPEN30
 10
80.0
 20
32.0
 30
0.0
 41
2.77
 42
2.77
 43
2.77
 50
180.0
  0
INSERT
  5
1B7
100
AcDbEntity
  8
0
390
0
  6
CONTINUOUS
 62
   110
100
AcDbBlockReference
  2
_OPEN30
 10
100.0
 20
32.0
 30
0.0
 41
2.77
 42
2.77
 43
2.77
  0
MTEXT
  5
1B8
100
AcDbEntity
  8
0
390
0
  6
CONTINUOUS
 62
   110
100
AcDbMText
 10
90.0
 20
34.6
 30
0.0
 40
3.2
 41
0.0
 71
     5
 72
     1
  1
\A1;20
  7
MX_DIMTXSTY_2
 73
     1
 44
0.9
  0
POINT
  5
1B9
100
AcDbEntity
  8
DEFPOINTS
390
0
  6
CONTINUOUS
 62
     0
100
AcDbPoint
 10
80.0
 20
9.65
 30
0.0
  0
POINT
  5
1BA
100
AcDbEntity
  8
DEFPOINTS
390
0
  6
CONTINUOUS
 62
     0
100
AcDbPoint
 10
100.0
 20
15.0
 30
0.0
  0
POINT
  5
1BB
100
AcDbEntity
  8
DEFPOINTS
390
0
  6
CONTINUOUS
 62
     0
100
AcDbPoint
 10
100.0
 20
32.0
 30
0.0
  0
ENDBLK
  5
1BC
100
AcDbEntity
  8
0
370
    -2
390
0
  6
ByBlock
 62
     0
100
AcDbBlockEnd
  0
BLOCK
  5
1BF
100
AcDbEntity
  8
0
370
    -2
390
0
  6
ByBlock
 62
     0
100
AcDbBlockBegin
  2
*D23
 70
     1
 10
0.0
 20
0.0
 30
0.0
  3
*D23
  1

  0
LINE
  5
1C0
100
AcDbEntity
  8
0
390
0
  6
CONTINUOUS
 62
   110
100
AcDbLine
 10
-16.0
 20
-9.25
 30
0.0
 11
-16.0
 21
9.25
 31
0.0
  0
LINE
  5
1C1
100
AcDbEntity
  8
0
390
0
  6
CONTINUOUS
 62
   110
100
AcDbLine
 10
-16.0
 20
9.25
 30
0.0
 11
-16.0
 21
27.200001
 31
0.0
  0
INSERT
  5
1C2
100
AcDbEntity
  8
0
390
0
  6
CONTINUOUS
 62
   110
100
AcDbBlockReference
  2
_OPEN30
 10
-16.0
 20
-9.25
 30
0.0
 41
2.77
 42
2.77
 43
2.77
 50
270.0
  0
INSERT
  5
1C3
100
AcDbEntity
  8
0
390
0
  6
CONTINUOUS
 62
   110
100
AcDbBlockReference
  2
_OPEN30
 10
-16.0
 20
9.25
 30
0.0
 41
2.77
 42
2.77
 43
2.77
 50
90.0
  0
MTEXT
  5
1C5
100
AcDbEntity
  8
0
390
0
  6
CONTINUOUS
 62
   110
100
AcDbMText
 10
-18.6
 20
19.200001
 30
0.0
 40
3.2
 41
0.0
 71
     5
 72
     1
  1
\A1;\U+220518.5
  7
MX_DIMTXSTY_6
 11
0.0
 21
1.0
 31
0.0
 73
     1
 44
0.9
  0
POINT
  5
1C6
100
AcDbEntity
  8
DEFPOINTS
390
0
  6
CONTINUOUS
 62
     0
100
AcDbPoint
 10
-3.154164
 20
-9.25
 30
0.0
  0
POINT
  5
1C7
100
AcDbEntity
  8
DEFPOINTS
390
0
  6
CONTINUOUS
 62
     0
100
AcDbPoint
 10
0.107885
 20
9.25
 30
0.0
  0
POINT
  5
1C8
100
AcDbEntity
  8
DEFPOINTS
390
0
  6
CONTINUOUS
 62
     0
100
AcDbPoint
 10
-16.0
 20
9.25
 30
0.0
  0
ENDBLK
  5
1C9
100
AcDbEntity
  8
0
370
    -2
390
0
  6
ByBlock
 62
     0
100
AcDbBlockEnd
  0
BLOCK
  5
1CC
100
AcDbEntity
  8
0
370
    -2
390
0
  6
ByBlock
 62
     0
100
AcDbBlockBegin
  2
*D24
 70
     1
 10
0.0
 20
0.0
 30
0.0
  3
*D24
  1

  0
LINE
  5
1CD
100
AcDbEntity
  8
0
390
0
  6
CONTINUOUS
 62
   110
100
AcDbLine
 10
-24.0
 20
-6.5
 30
0.0
 11
-24.0
 21
6.5
 31
0.0
  0
LINE
  5
1CE
100
AcDbEntity
  8
0
390
0
  6
CONTINUOUS
 62
   110
100
AcDbLine
 10
-24.0
 20
6.5
 30
0.0
 11
-24.0
 21
20.8
 31
0.0
  0
INSERT
  5
1CF
100
AcDbEntity
  8
0
390
0
  6
CONTINUOUS
 62
   110
100
AcDbBlockReference
  2
_OPEN30
 10
-24.0
 20
-6.5
 30
0.0
 41
2.77
 42
2.77
 43
2.77
 50
270.0
  0
INSERT
  5
1D0
100
AcDbEntity
  8
0
390
0
  6
CONTINUOUS
 62
   110
100
AcDbBlockReference
  2
_OPEN30
 10
-24.0
 20
6.5
 30
0.0
 41
2.77
 42
2.77
 43
2.77
 50
90.0
  0
MTEXT
  5
1D1
100
AcDbEntity
  8
0
390
0
  6
CONTINUOUS
 62
   110
100
AcDbMText
 10
-26.6
 20
16.0
 30
0.0
 40
3.2
 41
0.0
 71
     5
 72
     1
  1
\A1;\U+220513
  7
MX_DIMTXSTY_4
 11
0.0
 21
1.0
 31
0.0
 73
     1
 44
0.9
  0
POINT
  5
1D2
100
AcDbEntity
  8
DEFPOINTS
390
0
  6
CONTINUOUS
 62
     0
100
AcDbPoint
 10
-2.669266
 20
-6.5
 30
0.0
  0
POINT
  5
1D3
100
AcDbEntity
  8
DEFPOINTS
390
0
  6
CONTINUOUS
 62
     0
100
AcDbPoint
 10
-0.377014
 20
6.5
 30
0.0
  0
POINT
  5
1D4
100
AcDbEntity
  8
DEFPOINTS
390
0
  6
CONTINUOUS
 62
     0
100
AcDbPoint
 10
-24.0
 20
6.5
 30
0.0
  0
ENDBLK
  5
1D5
100
AcDbEntity
  8
0
370
    -2
390
0
  6
ByBlock
 62
     0
100
AcDbBlockEnd
  0
BLOCK
  5
23F
100
AcDbEntity
  8
0
370
    -2
390
0
  6
ByBlock
 62
     0
100
AcDbBlockBegin
  2
*D25
 70
     1
 10
0.0
 20
0.0
 30
0.0
  3
*D25
  1

  0
LINE
  5
240
100
AcDbEntity
  8
0
390
0
  6
CONTINUOUS
 62
   110
100
AcDbLine
 10
-100.0
 20
40.0
 30
0.0
 11
-80.0
 21
40.0
 31
0.0
  0
LINE
  5
241
100
AcDbEntity
  8
0
390
0
  6
CONTINUOUS
 62
   110
100
AcDbLine
 10
-80.0
 20
20.25
 30
0.0
 11
-80.0
 21
42.286
 31
0.0
  0
INSERT
  5
242
100
AcDbEntity
  8
0
390
0
  6
CONTINUOUS
 62
   110
100
AcDbBlockReference
  2
_OPEN30
 10
-100.0
 20
40.0
 30
0.0
 41
2.77
 42
2.77
 43
2.77
 50
180.0
  0
INSERT
  5
243
100
AcDbEntity
  8
0
390
0
  6
CONTINUOUS
 62
   110
100
AcDbBlockReference
  2
_OPEN30
 10
-80.0
 20
40.0
 30
0.0
 41
2.77
 42
2.77
 43
2.77
  0
MTEXT
  5
244
100
AcDbEntity
  8
0
390
0
  6
CONTINUOUS
 62
   110
100
AcDbMText
 10
-90.0
 20
42.6
 30
0.0
 40
3.2
 41
0.0
 71
     5
 72
     1
  1
\A1;20
  7
MX_DIMTXSTY_2
 73
     1
 44
0.9
  0
POINT
  5
245
100
AcDbEntity
  8
DEFPOINTS
390
0
  6
CONTINUOUS
 62
     0
100
AcDbPoint
 10
-100.0
 20
20.0
 30
0.0
  0
POINT
  5
246
100
AcDbEntity
  8
DEFPOINTS
390
0
  6
CONTINUOUS
 62
     0
100
AcDbPoint
 10
-80.0
 20
18.25
 30
0.0
  0
POINT
  5
247
100
AcDbEntity
  8
DEFPOINTS
390
0
  6
CONTINUOUS
 62
     0
100
AcDbPoint
 10
-80.0
 20
40.0
 30
0.0
  0
ENDBLK
  5
248
100
AcDbEntity
  8
0
370
    -2
390
0
  6
ByBlock
 62
     0
100
AcDbBlockEnd
  0
BLOCK
  5
24B
100
AcDbEntity
  8
0
370
    -2
390
0
  6
ByBlock
 62
     0
100
AcDbBlockBegin
  2
*D26
 70
     1
 10
0.0
 20
0.0
 30
0.0
  3
*D26
  1

  0
LINE
  5
24C
100
AcDbEntity
  8
0
390
0
  6
CONTINUOUS
 62
   255
100
AcDbLine
 10
-80.0
 20
40.0
 30
0.0
 11
80.0
 21
40.0
 31
0.0
  0
LINE
  5
24D
100
AcDbEntity
  8
0
390
0
  6
CONTINUOUS
 62
   255
100
AcDbLine
 10
80.0
 20
20.25
 30
0.0
 11
80.0
 21
42.286
 31
0.0
  0
INSERT
  5
24E
100
AcDbEntity
  8
0
390
0
  6
CONTINUOUS
 62
   255
100
AcDbBlockReference
  2
_OPEN30
 10
-80.0
 20
40.0
 30
0.0
 41
2.77
 42
2.77
 43
2.77
 50
180.0
  0
INSERT
  5
24F
100
AcDbEntity
  8
0
390
0
  6
CONTINUOUS
 62
   255
100
AcDbBlockReference
  2
_OPEN30
 10
80.0
 20
40.0
 30
0.0
 41
2.77
 42
2.77
 43
2.77
  0
MTEXT
  5
250
100
AcDbEntity
  8
0
390
0
  6
CONTINUOUS
 62
   255
100
AcDbMText
 10
0.0
 20
42.6
 30
0.0
 40
3.2
 41
0.0
 71
     5
 72
     1
  1
\A1;(160)
  7
MX_DIMTXSTY_3
 73
     1
 44
0.9
  0
POINT
  5
251
100
AcDbEntity
  8
DEFPOINTS
390
0
  6
CONTINUOUS
 62
     0
100
AcDbPoint
 10
-80.0
 20
18.25
 30
0.0
  0
POINT
  5
252
100
AcDbEntity
  8
DEFPOINTS
390
0
  6
CONTINUOUS
 62
     0
100
AcDbPoint
 10
80.0
 20
18.25
 30
0.0
  0
POINT
  5
253
100
AcDbEntity
  8
DEFPOINTS
390
0
  6
CONTINUOUS
 62
     0
100
AcDbPoint
 10
80.0
 20
40.0
 30
0.0
  0
ENDBLK
  5
254
100
AcDbEntity
  8
0
370
    -2
390
0
  6
ByBlock
 62
     0
100
AcDbBlockEnd
  0
BLOCK
  5
257
100
AcDbEntity
  8
0
370
    -2
390
0
  6
ByBlock
 62
     0
100
AcDbBlockBegin
  2
*D27
 70
     1
 10
0.0
 20
0.0
 30
0.0
  3
*D27
  1

  0
LINE
  5
258
100
AcDbEntity
  8
0
390
0
  6
CONTINUOUS
 62
   255
100
AcDbLine
 10
100.0
 20
48.0
 30
0.0
 11
-100.0
 21
48.0
 31
0.0
  0
LINE
  5
259
100
AcDbEntity
  8
0
390
0
  6
CONTINUOUS
 62
   255
100
AcDbLine
 10
100.0
 20
22.0
 30
0.0
 11
100.0
 21
50.286
 31
0.0
  0
LINE
  5
25A
100
AcDbEntity
  8
0
390
0
  6
CONTINUOUS
 62
   255
100
AcDbLine
 10
-100.0
 20
22.0
 30
0.0
 11
-100.0
 21
50.286
 31
0.0
  0
INSERT
  5
25B
100
AcDbEntity
  8
0
390
0
  6
CONTINUOUS
 62
   255
100
AcDbBlockReference
  2
_OPEN30
 10
100.0
 20
48.0
 30
0.0
 41
2.77
 42
2.77
 43
2.77
  0
INSERT
  5
25C
100
AcDbEntity
  8
0
390
0
  6
CONTINUOUS
 62
   255
100
AcDbBlockReference
  2
_OPEN30
 10
-100.0
 20
48.0
 30
0.0
 41
2.77
 42
2.77
 43
2.77
 50
180.0
  0
MTEXT
  5
25D
100
AcDbEntity
  8
0
390
0
  6
CONTINUOUS
 62
   255
100
AcDbMText
 10
0.0
 20
50.6
 30
0.0
 40
3.2
 41
0.0
 71
     5
 72
     1
  1
\A1;200±5%
 11
1.0
 21
0.0
 31
0.0
 73
     1
 44
0.9
  0
POINT
  5
25E
100
AcDbEntity
  8
DEFPOINTS
390
0
  6
CONTINUOUS
 62
     0
100
AcDbPoint
 10
100.0
 20
20.0
 30
0.0
  0
POINT
  5
25F
100
AcDbEntity
  8
DEFPOINTS
390
0
  6
CONTINUOUS
 62
     0
100
AcDbPoint
 10
-100.0
 20
20.0
 30
0.0
  0
POINT
  5
260
100
AcDbEntity
  8
DEFPOINTS
390
0
  6
CONTINUOUS
 62
     0
100
AcDbPoint
 10
-100.0
 20
48.0
 30
0.0
  0
ENDBLK
  5
261
100
AcDbEntity
  8
0
370
    -2
390
0
  6
ByBlock
 62
     0
100
AcDbBlockEnd
  0
BLOCK
  5
264
100
AcDbEntity
  8
0
370
    -2
390
0
  6
ByBlock
 62
     0
100
AcDbBlockBegin
  2
*D28
 70
     1
 10
0.0
 20
0.0
 30
0.0
  3
*D28
  1

  0
LINE
  5
265
100
AcDbEntity
  8
0
390
0
  6
CONTINUOUS
 62
   110
100
AcDbLine
 10
-120.0
 20
20.0
 30
0.0
 11
-120.0
 21
-20.0
 31
0.0
  0
LINE
  5
266
100
AcDbEntity
  8
0
390
0
  6
CONTINUOUS
 62
   110
100
AcDbLine
 10
-102.0
 20
20.0
 30
0.0
 11
-122.286
 21
20.0
 31
0.0
  0
LINE
  5
267
100
AcDbEntity
  8
0
390
0
  6
CONTINUOUS
 62
   110
100
AcDbLine
 10
-102.0
 20
-20.0
 30
0.0
 11
-122.286
 21
-20.0
 31
0.0
  0
INSERT
  5
268
100
AcDbEntity
  8
0
390
0
  6
CONTINUOUS
 62
   110
100
AcDbBlockReference
  2
_OPEN30
 10
-120.0
 20
20.0
 30
0.0
 41
2.77
 42
2.77
 43
2.77
 50
90.0
  0
INSERT
  5
269
100
AcDbEntity
  8
0
390
0
  6
CONTINUOUS
 62
   110
100
AcDbBlockReference
  2
_OPEN30
 10
-120.0
 20
-20.0
 30
0.0
 41
2.77
 42
2.77
 43
2.77
 50
270.0
  0
MTEXT
  5
26A
100
AcDbEntity
  8
0
390
0
  6
CONTINUOUS
 62
   110
100
AcDbMText
 10
-122.6
 20
0.0
 30
0.0
 40
3.2
 41
0.0
 71
     5
 72
     1
  1
\A1;\U+220540
 11
0.0
 21
1.0
 31
0.0
 73
     1
 44
0.9
  0
POINT
  5
26B
100
AcDbEntity
  8
DEFPOINTS
390
0
  6
CONTINUOUS
 62
     0
100
AcDbPoint
 10
-100.0
 20
20.0
 30
0.0
  0
POINT
  5
26C
100
AcDbEntity
  8
DEFPOINTS
390
0
  6
CONTINUOUS
 62
     0
100
AcDbPoint
 10
-100.0
 20
-20.0
 30
0.0
  0
POINT
  5
26D
100
AcDbEntity
  8
DEFPOINTS
390
0
  6
CONTINUOUS
 62
     0
100
AcDbPoint
 10
-120.0
 20
-20.0
 30
0.0
  0
ENDBLK
  5
26E
100
AcDbEntity
  8
0
370
    -2
390
0
  6
ByBlock
 62
     0
100
AcDbBlockEnd
  0
BLOCK
  5
271
100
AcDbEntity
  8
0
370
    -2
390
0
  6
ByBlock
 62
     0
100
AcDbBlockBegin
  2
*D29
 70
     1
 10
0.0
 20
0.0
 30
0.0
  3
*D29
  1

  0
LINE
  5
272
100
AcDbEntity
  8
0
390
0
  6
CONTINUOUS
 62
   110
100
AcDbLine
 10
80.0
 20
40.0
 30
0.0
 11
100.0
 21
40.0
 31
0.0
  0
INSERT
  5
273
100
AcDbEntity
  8
0
390
0
  6
CONTINUOUS
 62
   110
100
AcDbBlockReference
  2
_OPEN30
 10
80.0
 20
40.0
 30
0.0
 41
2.77
 42
2.77
 43
2.77
 50
180.0
  0
INSERT
  5
274
100
AcDbEntity
  8
0
390
0
  6
CONTINUOUS
 62
   110
100
AcDbBlockReference
  2
_OPEN30
 10
100.0
 20
40.0
 30
0.0
 41
2.77
 42
2.77
 43
2.77
  0
MTEXT
  5
275
100
AcDbEntity
  8
0
390
0
  6
CONTINUOUS
 62
   110
100
AcDbMText
 10
90.0
 20
42.6
 30
0.0
 40
3.2
 41
0.0
 71
     5
 72
     1
  1
\A1;20
  7
MX_DIMTXSTY_2
 73
     1
 44
0.9
  0
POINT
  5
276
100
AcDbEntity
  8
DEFPOINTS
390
0
  6
CONTINUOUS
 62
     0
100
AcDbPoint
 10
80.0
 20
18.25
 30
0.0
  0
POINT
  5
277
100
AcDbEntity
  8
DEFPOINTS
390
0
  6
CONTINUOUS
 62
     0
100
AcDbPoint
 10
100.0
 20
20.0
 30
0.0
  0
POINT
  5
278
100
AcDbEntity
  8
DEFPOINTS
390
0
  6
CONTINUOUS
 62
     0
100
AcDbPoint
 10
100.0
 20
40.0
 30
0.0
  0
ENDBLK
  5
279
100
AcDbEntity
  8
0
370
    -2
390
0
  6
ByBlock
 62
     0
100
AcDbBlockEnd
  0
BLOCK
  5
27C
100
AcDbEntity
  8
0
370
    -2
390
0
  6
ByBlock
 62
     0
100
AcDbBlockBegin
  2
*D30
 70
     1
 10
0.0
 20
0.0
 30
0.0
  3
*D30
  1

  0
LINE
  5
27D
100
AcDbEntity
  8
0
390
0
  6
CONTINUOUS
 62
   110
100
AcDbLine
 10
-24.0
 20
-12.75
 30
0.0
 11
-24.0
 21
12.75
 31
0.0
  0
LINE
  5
27E
100
AcDbEntity
  8
0
390
0
  6
CONTINUOUS
 62
   110
100
AcDbLine
 10
-24.0
 20
12.75
 30
0.0
 11
-24.0
 21
35.200001
 31
0.0
  0
INSERT
  5
27F
100
AcDbEntity
  8
0
390
0
  6
CONTINUOUS
 62
   110
100
AcDbBlockReference
  2
_OPEN30
 10
-24.0
 20
-12.75
 30
0.0
 41
2.77
 42
2.77
 43
2.77
 50
270.0
  0
INSERT
  5
280
100
AcDbEntity
  8
0
390
0
  6
CONTINUOUS
 62
   110
100
AcDbBlockReference
  2
_OPEN30
 10
-24.0
 20
12.75
 30
0.0
 41
2.77
 42
2.77
 43
2.77
 50
90.0
  0
MTEXT
  5
281
100
AcDbEntity
  8
0
390
0
  6
CONTINUOUS
 62
   110
100
AcDbMText
 10
-26.6
 20
27.200001
 30
0.0
 40
3.2
 41
0.0
 71
     5
 72
     1
  1
\A1;\U+220525.5
  7
MX_DIMTXSTY_2
 11
0.0
 21
1.0
 31
0.0
 73
     1
 44
0.9
  0
POINT
  5
282
100
AcDbEntity
  8
DEFPOINTS
390
0
  6
CONTINUOUS
 62
     0
100
AcDbPoint
 10
-69.875
 20
-12.75
 30
0.0
  0
POINT
  5
283
100
AcDbEntity
  8
DEFPOINTS
390
0
  6
CONTINUOUS
 62
     0
100
AcDbPoint
 10
-69.875
 20
12.75
 30
0.0
  0
POINT
  5
284
100
AcDbEntity
  8
DEFPOINTS
390
0
  6
CONTINUOUS
 62
     0
100
AcDbPoint
 10
-24.0
 20
12.75
 30
0.0
  0
ENDBLK
  5
285
100
AcDbEntity
  8
0
370
    -2
390
0
  6
ByBlock
 62
     0
100
AcDbBlockEnd
  0
BLOCK
  5
288
100
AcDbEntity
  8
0
370
    -2
390
0
  6
ByBlock
 62
     0
100
AcDbBlockBegin
  2
*D31
 70
     1
 10
0.0
 20
0.0
 30
0.0
  3
*D31
  1

  0
LINE
  5
289
100
AcDbEntity
  8
0
390
0
  6
CONTINUOUS
 62
   110
100
AcDbLine
 10
-16.0
 20
-17.0
 30
0.0
 11
-16.0
 21
17.0
 31
0.0
  0
LINE
  5
28A
100
AcDbEntity
  8
0
390
0
  6
CONTINUOUS
 62
   110
100
AcDbLine
 10
-16.0
 20
17.0
 30
0.0
 11
-16.0
 21
28.8
 31
0.0
  0
INSERT
  5
28B
100
AcDbEntity
  8
0
390
0
  6
CONTINUOUS
 62
   110
100
AcDbBlockReference
  2
_OPEN30
 10
-16.0
 20
-17.0
 30
0.0
 41
2.77
 42
2.77
 43
2.77
 50
270.0
  0
INSERT
  5
28C
100
AcDbEntity
  8
0
390
0
  6
CONTINUOUS
 62
   110
100
AcDbBlockReference
  2
_OPEN30
 10
-16.0
 20
17.0
 30
0.0
 41
2.77
 42
2.77
 43
2.77
 50
90.0
  0
MTEXT
  5
28E
100
AcDbEntity
  8
0
390
0
  6
CONTINUOUS
 62
   110
100
AcDbMText
 10
-18.6
 20
24.0
 30
0.0
 40
3.2
 41
0.0
 71
     5
 72
     1
  1
\A1;\U+220534
  7
MX_DIMTXSTY_7
 11
0.0
 21
1.0
 31
0.0
 73
     1
 44
0.9
  0
POINT
  5
28F
100
AcDbEntity
  8
DEFPOINTS
390
0
  6
CONTINUOUS
 62
     0
100
AcDbPoint
 10
-67.625
 20
-17.0
 30
0.0
  0
POINT
  5
290
100
AcDbEntity
  8
DEFPOINTS
390
0
  6
CONTINUOUS
 62
     0
100
AcDbPoint
 10
-67.625
 20
17.0
 30
0.0
  0
POINT
  5
291
100
AcDbEntity
  8
DEFPOINTS
390
0
  6
CONTINUOUS
 62
     0
100
AcDbPoint
 10
-16.0
 20
17.0
 30
0.0
  0
ENDBLK
  5
292
100
AcDbEntity
  8
0
370
    -2
390
0
  6
ByBlock
 62
     0
100
AcDbBlockEnd
  0
BLOCK
  5
2F8
100
AcDbEntity
  8
0
370
    -2
390
0
  6
ByBlock
 62
     0
100
AcDbBlockBegin
  2
*D32
 70
     1
 10
0.0
 20
0.0
 30
0.0
  3
*D32
  1

  0
LINE
  5
2F9
100
AcDbEntity
  8
0
390
0
  6
CONTINUOUS
 62
   255
100
AcDbLine
 10
100.0
 20
56.0
 30
0.0
 11
-100.0
 21
56.0
 31
0.0
  0
LINE
  5
2FA
100
AcDbEntity
  8
0
390
0
  6
CONTINUOUS
 62
   255
100
AcDbLine
 10
100.0
 20
29.5
 30
0.0
 11
100.0
 21
58.286
 31
0.0
  0
LINE
  5
2FB
100
AcDbEntity
  8
0
390
0
  6
CONTINUOUS
 62
   255
100
AcDbLine
 10
-100.0
 20
29.5
 30
0.0
 11
-100.0
 21
58.286
 31
0.0
  0
INSERT
  5
2FC
100
AcDbEntity
  8
0
390
0
  6
CONTINUOUS
 62
   255
100
AcDbBlockReference
  2
_OPEN30
 10
100.0
 20
56.0
 30
0.0
 41
2.77
 42
2.77
 43
2.77
  0
INSERT
  5
2FD
100
AcDbEntity
  8
0
390
0
  6
CONTINUOUS
 62
   255
100
AcDbBlockReference
  2
_OPEN30
 10
-100.0
 20
56.0
 30
0.0
 41
2.77
 42
2.77
 43
2.77
 50
180.0
  0
MTEXT
  5
2FE
100
AcDbEntity
  8
0
390
0
  6
CONTINUOUS
 62
   255
100
AcDbMText
 10
0.0
 20
58.6
 30
0.0
 40
3.2
 41
0.0
 71
     5
 72
     1
  1
\A1;200±5%
 11
1.0
 21
0.0
 31
0.0
 73
     1
 44
0.9
  0
POINT
  5
2FF
100
AcDbEntity
  8
DEFPOINTS
390
0
  6
CONTINUOUS
 62
     0
100
AcDbPoint
 10
100.0
 20
27.5
 30
0.0
  0
POINT
  5
300
100
AcDbEntity
  8
DEFPOINTS
390
0
  6
CONTINUOUS
 62
     0
100
AcDbPoint
 10
-100.0
 20
27.5
 30
0.0
  0
POINT
  5
301
100
AcDbEntity
  8
DEFPOINTS
390
0
  6
CONTINUOUS
 62
     0
100
AcDbPoint
 10
-100.0
 20
56.0
 30
0.0
  0
ENDBLK
  5
302
100
AcDbEntity
  8
0
370
    -2
390
0
  6
ByBlock
 62
     0
100
AcDbBlockEnd
  0
BLOCK
  5
305
100
AcDbEntity
  8
0
370
    -2
390
0
  6
ByBlock
 62
     0
100
AcDbBlockBegin
  2
*D33
 70
     1
 10
0.0
 20
0.0
 30
0.0
  3
*D33
  1

  0
LINE
  5
306
100
AcDbEntity
  8
0
390
0
  6
CONTINUOUS
 62
   255
100
AcDbLine
 10
-80.0
 20
48.0
 30
0.0
 11
80.0
 21
48.0
 31
0.0
  0
LINE
  5
307
100
AcDbEntity
  8
0
390
0
  6
CONTINUOUS
 62
   255
100
AcDbLine
 10
80.0
 20
28.25
 30
0.0
 11
80.0
 21
50.286
 31
0.0
  0
INSERT
  5
308
100
AcDbEntity
  8
0
390
0
  6
CONTINUOUS
 62
   255
100
AcDbBlockReference
  2
_OPEN30
 10
-80.0
 20
48.0
 30
0.0
 41
2.77
 42
2.77
 43
2.77
 50
180.0
  0
INSERT
  5
309
100
AcDbEntity
  8
0
390
0
  6
CONTINUOUS
 62
   255
100
AcDbBlockReference
  2
_OPEN30
 10
80.0
 20
48.0
 30
0.0
 41
2.77
 42
2.77
 43
2.77
  0
MTEXT
  5
30A
100
AcDbEntity
  8
0
390
0
  6
CONTINUOUS
 62
   255
100
AcDbMText
 10
0.0
 20
50.6
 30
0.0
 40
3.2
 41
0.0
 71
     5
 72
     1
  1
\A1;(160)
  7
MX_DIMTXSTY_3
 73
     1
 44
0.9
  0
POINT
  5
30B
100
AcDbEntity
  8
DEFPOINTS
390
0
  6
CONTINUOUS
 62
     0
100
AcDbPoint
 10
-80.0
 20
26.25
 30
0.0
  0
POINT
  5
30C
100
AcDbEntity
  8
DEFPOINTS
390
0
  6
CONTINUOUS
 62
     0
100
AcDbPoint
 10
80.0
 20
26.25
 30
0.0
  0
POINT
  5
30D
100
AcDbEntity
  8
DEFPOINTS
390
0
  6
CONTINUOUS
 62
     0
100
AcDbPoint
 10
80.0
 20
48.0
 30
0.0
  0
ENDBLK
  5
30E
100
AcDbEntity
  8
0
370
    -2
390
0
  6
ByBlock
 62
     0
100
AcDbBlockEnd
  0
BLOCK
  5
311
100
AcDbEntity
  8
0
370
    -2
390
0
  6
ByBlock
 62
     0
100
AcDbBlockBegin
  2
*D34
 70
     1
 10
0.0
 20
0.0
 30
0.0
  3
*D34
  1

  0
LINE
  5
312
100
AcDbEntity
  8
0
390
0
  6
CONTINUOUS
 62
   110
100
AcDbLine
 10
-100.0
 20
48.0
 30
0.0
 11
-80.0
 21
48.0
 31
0.0
  0
LINE
  5
313
100
AcDbEntity
  8
0
390
0
  6
CONTINUOUS
 62
   110
100
AcDbLine
 10
-80.0
 20
28.25
 30
0.0
 11
-80.0
 21
50.286
 31
0.0
  0
INSERT
  5
314
100
AcDbEntity
  8
0
390
0
  6
CONTINUOUS
 62
   110
100
AcDbBlockReference
  2
_OPEN30
 10
-100.0
 20
48.0
 30
0.0
 41
2.77
 42
2.77
 43
2.77
 50
180.0
  0
INSERT
  5
315
100
AcDbEntity
  8
0
390
0
  6
CONTINUOUS
 62
   110
100
AcDbBlockReference
  2
_OPEN30
 10
-80.0
 20
48.0
 30
0.0
 41
2.77
 42
2.77
 43
2.77
  0
MTEXT
  5
316
100
AcDbEntity
  8
0
390
0
  6
CONTINUOUS
 62
   110
100
AcDbMText
 10
-90.0
 20
50.6
 30
0.0
 40
3.2
 41
0.0
 71
     5
 72
     1
  1
\A1;20
  7
MX_DIMTXSTY_2
 73
     1
 44
0.9
  0
POINT
  5
317
100
AcDbEntity
  8
DEFPOINTS
390
0
  6
CONTINUOUS
 62
     0
100
AcDbPoint
 10
-100.0
 20
27.5
 30
0.0
  0
POINT
  5
318
100
AcDbEntity
  8
DEFPOINTS
390
0
  6
CONTINUOUS
 62
     0
100
AcDbPoint
 10
-80.0
 20
26.25
 30
0.0
  0
POINT
  5
319
100
AcDbEntity
  8
DEFPOINTS
390
0
  6
CONTINUOUS
 62
     0
100
AcDbPoint
 10
-80.0
 20
48.0
 30
0.0
  0
ENDBLK
  5
31A
100
AcDbEntity
  8
0
370
    -2
390
0
  6
ByBlock
 62
     0
100
AcDbBlockEnd
  0
BLOCK
  5
31D
100
AcDbEntity
  8
0
370
    -2
390
0
  6
ByBlock
 62
     0
100
AcDbBlockBegin
  2
*D35
 70
     1
 10
0.0
 20
0.0
 30
0.0
  3
*D35
  1

  0
LINE
  5
31E
100
AcDbEntity
  8
0
390
0
  6
CONTINUOUS
 62
   110
100
AcDbLine
 10
-120.0
 20
27.5
 30
0.0
 11
-120.0
 21
-27.5
 31
0.0
  0
LINE
  5
31F
100
AcDbEntity
  8
0
390
0
  6
CONTINUOUS
 62
   110
100
AcDbLine
 10
-102.0
 20
27.5
 30
0.0
 11
-122.286
 21
27.5
 31
0.0
  0
LINE
  5
320
100
AcDbEntity
  8
0
390
0
  6
CONTINUOUS
 62
   110
100
AcDbLine
 10
-102.0
 20
-27.5
 30
0.0
 11
-122.286
 21
-27.5
 31
0.0
  0
INSERT
  5
321
100
AcDbEntity
  8
0
390
0
  6
CONTINUOUS
 62
   110
100
AcDbBlockReference
  2
_OPEN30
 10
-120.0
 20
27.5
 30
0.0
 41
2.77
 42
2.77
 43
2.77
 50
90.0
  0
INSERT
  5
322
100
AcDbEntity
  8
0
390
0
  6
CONTINUOUS
 62
   110
100
AcDbBlockReference
  2
_OPEN30
 10
-120.0
 20
-27.5
 30
0.0
 41
2.77
 42
2.77
 43
2.77
 50
270.0
  0
MTEXT
  5
323
100
AcDbEntity
  8
0
390
0
  6
CONTINUOUS
 62
   110
100
AcDbMText
 10
-122.6
 20
0.0
 30
0.0
 40
3.2
 41
0.0
 71
     5
 72
     1
  1
\A1;\U+220555
  7
MX_DIMTXSTY_7
 11
0.0
 21
1.0
 31
0.0
 73
     1
 44
0.9
  0
POINT
  5
324
100
AcDbEntity
  8
DEFPOINTS
390
0
  6
CONTINUOUS
 62
     0
100
AcDbPoint
 10
-100.0
 20
27.5
 30
0.0
  0
POINT
  5
325
100
AcDbEntity
  8
DEFPOINTS
390
0
  6
CONTINUOUS
 62
     0
100
AcDbPoint
 10
-100.0
 20
-27.5
 30
0.0
  0
POINT
  5
326
100
AcDbEntity
  8
DEFPOINTS
390
0
  6
CONTINUOUS
 62
     0
100
AcDbPoint
 10
-120.0
 20
-27.5
 30
0.0
  0
ENDBLK
  5
327
100
AcDbEntity
  8
0
370
    -2
390
0
  6
ByBlock
 62
     0
100
AcDbBlockEnd
  0
BLOCK
  5
32A
100
AcDbEntity
  8
0
370
    -2
390
0
  6
ByBlock
 62
     0
100
AcDbBlockBegin
  2
*D36
 70
     1
 10
0.0
 20
0.0
 30
0.0
  3
*D36
  1

  0
LINE
  5
32B
100
AcDbEntity
  8
0
390
0
  6
CONTINUOUS
 62
   110
100
AcDbLine
 10
80.0
 20
48.0
 30
0.0
 11
100.0
 21
48.0
 31
0.0
  0
INSERT
  5
32C
100
AcDbEntity
  8
0
390
0
  6
CONTINUOUS
 62
   110
100
AcDbBlockReference
  2
_OPEN30
 10
80.0
 20
48.0
 30
0.0
 41
2.77
 42
2.77
 43
2.77
 50
180.0
  0
INSERT
  5
32D
100
AcDbEntity
  8
0
390
0
  6
CONTINUOUS
 62
   110
100
AcDbBlockReference
  2
_OPEN30
 10
100.0
 20
48.0
 30
0.0
 41
2.77
 42
2.77
 43
2.77
  0
MTEXT
  5
32E
100
AcDbEntity
  8
0
390
0
  6
CONTINUOUS
 62
   110
100
AcDbMText
 10
90.0
 20
50.6
 30
0.0
 40
3.2
 41
0.0
 71
     5
 72
     1
  1
\A1;20
  7
MX_DIMTXSTY_2
 73
     1
 44
0.9
  0
POINT
  5
32F
100
AcDbEntity
  8
DEFPOINTS
390
0
  6
CONTINUOUS
 62
     0
100
AcDbPoint
 10
80.0
 20
26.25
 30
0.0
  0
POINT
  5
330
100
AcDbEntity
  8
DEFPOINTS
390
0
  6
CONTINUOUS
 62
     0
100
AcDbPoint
 10
100.0
 20
27.5
 30
0.0
  0
POINT
  5
331
100
AcDbEntity
  8
DEFPOINTS
390
0
  6
CONTINUOUS
 62
     0
100
AcDbPoint
 10
100.0
 20
48.0
 30
0.0
  0
ENDBLK
  5
332
100
AcDbEntity
  8
0
370
    -2
390
0
  6
ByBlock
 62
     0
100
AcDbBlockEnd
  0
BLOCK
  5
335
100
AcDbEntity
  8
0
370
    -2
390
0
  6
ByBlock
 62
     0
100
AcDbBlockBegin
  2
*D37
 70
     1
 10
0.0
 20
0.0
 30
0.0
  3
*D37
  1

  0
LINE
  5
336
100
AcDbEntity
  8
0
390
0
  6
CONTINUOUS
 62
   110
100
AcDbLine
 10
-24.0
 20
-19.0
 30
0.0
 11
-24.0
 21
19.0
 31
0.0
  0
INSERT
  5
337
100
AcDbEntity
  8
0
390
0
  6
CONTINUOUS
 62
   110
100
AcDbBlockReference
  2
_OPEN30
 10
-24.0
 20
-19.0
 30
0.0
 41
2.77
 42
2.77
 43
2.77
 50
270.0
  0
INSERT
  5
338
100
AcDbEntity
  8
0
390
0
  6
CONTINUOUS
 62
   110
100
AcDbBlockReference
  2
_OPEN30
 10
-24.0
 20
19.0
 30
0.0
 41
2.77
 42
2.77
 43
2.77
 50
90.0
  0
MTEXT
  5
339
100
AcDbEntity
  8
0
390
0
  6
CONTINUOUS
 62
   110
100
AcDbMText
 10
-26.6
 20
8.0
 30
0.0
 40
3.2
 41
0.0
 71
     5
 72
     1
  1
\A1;\U+220538
  7
MX_DIMTXSTY_7
 11
0.0
 21
1.0
 31
0.0
 73
     1
 44
0.9
  0
POINT
  5
33A
100
AcDbEntity
  8
DEFPOINTS
390
0
  6
CONTINUOUS
 62
     0
100
AcDbPoint
 10
-4.873352
 20
-19.0
 30
0.0
  0
POINT
  5
33B
100
AcDbEntity
  8
DEFPOINTS
390
0
  6
CONTINUOUS
 62
     0
100
AcDbPoint
 10
1.827072
 20
19.0
 30
0.0
  0
POINT
  5
33C
100
AcDbEntity
  8
DEFPOINTS
390
0
  6
CONTINUOUS
 62
     0
100
AcDbPoint
 10
-24.0
 20
19.0
 30
0.0
  0
ENDBLK
  5
33D
100
AcDbEntity
  8
0
370
    -2
390
0
  6
ByBlock
 62
     0
100
AcDbBlockEnd
  0
BLOCK
  5
340
100
AcDbEntity
  8
0
370
    -2
390
0
  6
ByBlock
 62
     0
100
AcDbBlockBegin
  2
*D38
 70
     1
 10
0.0
 20
0.0
 30
0.0
  3
*D38
  1

  0
LINE
  5
341
100
AcDbEntity
  8
0
390
0
  6
CONTINUOUS
 62
   110
100
AcDbLine
 10
-16.0
 20
-25.0
 30
0.0
 11
-16.0
 21
25.0
 31
0.0
  0
INSERT
  5
342
100
AcDbEntity
  8
0
390
0
  6
CONTINUOUS
 62
   110
100
AcDbBlockReference
  2
_OPEN30
 10
-16.0
 20
-25.0
 30
0.0
 41
2.77
 42
2.77
 43
2.77
 50
270.0
  0
INSERT
  5
343
100
AcDbEntity
  8
0
390
0
  6
CONTINUOUS
 62
   110
100
AcDbBlockReference
  2
_OPEN30
 10
-16.0
 20
25.0
 30
0.0
 41
2.77
 42
2.77
 43
2.77
 50
90.0
  0
MTEXT
  5
344
100
AcDbEntity
  8
0
390
0
  6
CONTINUOUS
 62
   110
100
AcDbMText
 10
-18.6
 20
8.0
 30
0.0
 40
3.2
 41
0.0
 71
     5
 72
     1
  1
\A1;\U+220550
 11
0.0
 21
1.0
 31
0.0
 73
     1
 44
0.9
  0
POINT
  5
345
100
AcDbEntity
  8
DEFPOINTS
390
0
  6
CONTINUOUS
 62
     0
100
AcDbPoint
 10
-5.931314
 20
-25.0
 30
0.0
  0
POINT
  5
346
100
AcDbEntity
  8
DEFPOINTS
390
0
  6
CONTINUOUS
 62
     0
100
AcDbPoint
 10
2.885035
 20
25.0
 30
0.0
  0
POINT
  5
347
100
AcDbEntity
  8
DEFPOINTS
390
0
  6
CONTINUOUS
 62
     0
100
AcDbPoint
 10
-16.0
 20
25.0
 30
0.0
  0
ENDBLK
  5
348
100
AcDbEntity
  8
0
370
    -2
390
0
  6
ByBlock
 62
     0
100
AcDbBlockEnd
  0
BLOCK
  5
3AE
100
AcDbEntity
  8
0
370
    -2
390
0
  6
ByBlock
 62
     0
100
AcDbBlockBegin
  2
*D39
 70
     1
 10
0.0
 20
0.0
 30
0.0
  3
*D39
  1

  0
LINE
  5
3AF
100
AcDbEntity
  8
0
390
0
  6
CONTINUOUS
 62
   255
100
AcDbLine
 10
100.0
 20
72.0
 30
0.0
 11
-100.0
 21
72.0
 31
0.0
  0
LINE
  5
3B0
100
AcDbEntity
  8
0
390
0
  6
CONTINUOUS
 62
   255
100
AcDbLine
 10
100.0
 20
39.5
 30
0.0
 11
100.0
 21
74.286
 31
0.0
  0
LINE
  5
3B1
100
AcDbEntity
  8
0
390
0
  6
CONTINUOUS
 62
   255
100
AcDbLine
 10
-100.0
 20
39.5
 30
0.0
 11
-100.0
 21
74.286
 31
0.0
  0
INSERT
  5
3B2
100
AcDbEntity
  8
0
390
0
  6
CONTINUOUS
 62
   255
100
AcDbBlockReference
  2
_OPEN30
 10
100.0
 20
72.0
 30
0.0
 41
2.77
 42
2.77
 43
2.77
  0
INSERT
  5
3B3
100
AcDbEntity
  8
0
390
0
  6
CONTINUOUS
 62
   255
100
AcDbBlockReference
  2
_OPEN30
 10
-100.0
 20
72.0
 30
0.0
 41
2.77
 42
2.77
 43
2.77
 50
180.0
  0
MTEXT
  5
3B4
100
AcDbEntity
  8
0
390
0
  6
CONTINUOUS
 62
   255
100
AcDbMText
 10
0.0
 20
74.6
 30
0.0
 40
3.2
 41
0.0
 71
     5
 72
     1
  1
\A1;200±5%
 11
1.0
 21
0.0
 31
0.0
 73
     1
 44
0.9
  0
POINT
  5
3B5
100
AcDbEntity
  8
DEFPOINTS
390
0
  6
CONTINUOUS
 62
     0
100
AcDbPoint
 10
100.0
 20
37.5
 30
0.0
  0
POINT
  5
3B6
100
AcDbEntity
  8
DEFPOINTS
390
0
  6
CONTINUOUS
 62
     0
100
AcDbPoint
 10
-100.0
 20
37.5
 30
0.0
  0
POINT
  5
3B7
100
AcDbEntity
  8
DEFPOINTS
390
0
  6
CONTINUOUS
 62
     0
100
AcDbPoint
 10
-100.0
 20
72.0
 30
0.0
  0
ENDBLK
  5
3B8
100
AcDbEntity
  8
0
370
    -2
390
0
  6
ByBlock
 62
     0
100
AcDbBlockEnd
  0
BLOCK
  5
3BB
100
AcDbEntity
  8
0
370
    -2
390
0
  6
ByBlock
 62
     0
100
AcDbBlockBegin
  2
*D40
 70
     1
 10
0.0
 20
0.0
 30
0.0
  3
*D40
  1

  0
LINE
  5
3BC
100
AcDbEntity
  8
0
390
0
  6
CONTINUOUS
 62
   255
100
AcDbLine
 10
-80.0
 20
64.0
 30
0.0
 11
80.0
 21
64.0
 31
0.0
  0
LINE
  5
3BD
100
AcDbEntity
  8
0
390
0
  6
CONTINUOUS
 62
   255
100
AcDbLine
 10
80.0
 20
37.0
 30
0.0
 11
80.0
 21
66.286
 31
0.0
  0
INSERT
  5
3BE
100
AcDbEntity
  8
0
390
0
  6
CONTINUOUS
 62
   255
100
AcDbBlockReference
  2
_OPEN30
 10
-80.0
 20
64.0
 30
0.0
 41
2.77
 42
2.77
 43
2.77
 50
180.0
  0
INSERT
  5
3BF
100
AcDbEntity
  8
0
390
0
  6
CONTINUOUS
 62
   255
100
AcDbBlockReference
  2
_OPEN30
 10
80.0
 20
64.0
 30
0.0
 41
2.77
 42
2.77
 43
2.77
  0
MTEXT
  5
3C0
100
AcDbEntity
  8
0
390
0
  6
CONTINUOUS
 62
   255
100
AcDbMText
 10
0.0
 20
66.6
 30
0.0
 40
3.2
 41
0.0
 71
     5
 72
     1
  1
\A1;(160)
  7
MX_DIMTXSTY_3
 73
     1
 44
0.9
  0
POINT
  5
3C1
100
AcDbEntity
  8
DEFPOINTS
390
0
  6
CONTINUOUS
 62
     0
100
AcDbPoint
 10
-80.0
 20
35.0
 30
0.0
  0
POINT
  5
3C2
100
AcDbEntity
  8
DEFPOINTS
390
0
  6
CONTINUOUS
 62
     0
100
AcDbPoint
 10
80.0
 20
35.0
 30
0.0
  0
POINT
  5
3C3
100
AcDbEntity
  8
DEFPOINTS
390
0
  6
CONTINUOUS
 62
     0
100
AcDbPoint
 10
80.0
 20
64.0
 30
0.0
  0
ENDBLK
  5
3C4
100
AcDbEntity
  8
0
370
    -2
390
0
  6
ByBlock
 62
     0
100
AcDbBlockEnd
  0
BLOCK
  5
3C7
100
AcDbEntity
  8
0
370
    -2
390
0
  6
ByBlock
 62
     0
100
AcDbBlockBegin
  2
*D41
 70
     1
 10
0.0
 20
0.0
 30
0.0
  3
*D41
  1

  0
LINE
  5
3C8
100
AcDbEntity
  8
0
390
0
  6
CONTINUOUS
 62
   110
100
AcDbLine
 10
-100.0
 20
64.0
 30
0.0
 11
-80.0
 21
64.0
 31
0.0
  0
LINE
  5
3C9
100
AcDbEntity
  8
0
390
0
  6
CONTINUOUS
 62
   110
100
AcDbLine
 10
-80.0
 20
37.0
 30
0.0
 11
-80.0
 21
66.286
 31
0.0
  0
INSERT
  5
3CA
100
AcDbEntity
  8
0
390
0
  6
CONTINUOUS
 62
   110
100
AcDbBlockReference
  2
_OPEN30
 10
-100.0
 20
64.0
 30
0.0
 41
2.77
 42
2.77
 43
2.77
 50
180.0
  0
INSERT
  5
3CB
100
AcDbEntity
  8
0
390
0
  6
CONTINUOUS
 62
   110
100
AcDbBlockReference
  2
_OPEN30
 10
-80.0
 20
64.0
 30
0.0
 41
2.77
 42
2.77
 43
2.77
  0
MTEXT
  5
3CC
100
AcDbEntity
  8
0
390
0
  6
CONTINUOUS
 62
   110
100
AcDbMText
 10
-90.0
 20
66.6
 30
0.0
 40
3.2
 41
0.0
 71
     5
 72
     1
  1
\A1;20
  7
MX_DIMTXSTY_2
 73
     1
 44
0.9
  0
POINT
  5
3CD
100
AcDbEntity
  8
DEFPOINTS
390
0
  6
CONTINUOUS
 62
     0
100
AcDbPoint
 10
-100.0
 20
37.5
 30
0.0
  0
POINT
  5
3CE
100
AcDbEntity
  8
DEFPOINTS
390
0
  6
CONTINUOUS
 62
     0
100
AcDbPoint
 10
-80.0
 20
35.0
 30
0.0
  0
POINT
  5
3CF
100
AcDbEntity
  8
DEFPOINTS
390
0
  6
CONTINUOUS
 62
     0
100
AcDbPoint
 10
-80.0
 20
64.0
 30
0.0
  0
ENDBLK
  5
3D0
100
AcDbEntity
  8
0
370
    -2
390
0
  6
ByBlock
 62
     0
100
AcDbBlockEnd
  0
BLOCK
  5
3D3
100
AcDbEntity
  8
0
370
    -2
390
0
  6
ByBlock
 62
     0
100
AcDbBlockBegin
  2
*D42
 70
     1
 10
0.0
 20
0.0
 30
0.0
  3
*D42
  1

  0
LINE
  5
3D4
100
AcDbEntity
  8
0
390
0
  6
CONTINUOUS
 62
   110
100
AcDbLine
 10
-120.0
 20
-37.5
 30
0.0
 11
-120.0
 21
37.5
 31
0.0
  0
LINE
  5
3D5
100
AcDbEntity
  8
0
390
0
  6
CONTINUOUS
 62
   110
100
AcDbLine
 10
-102.0
 20
-37.5
 30
0.0
 11
-122.285999
 21
-37.5
 31
0.0
  0
LINE
  5
3D6
100
AcDbEntity
  8
0
390
0
  6
CONTINUOUS
 62
   110
100
AcDbLine
 10
-102.0
 20
37.5
 30
0.0
 11
-122.285999
 21
37.5
 31
0.0
  0
INSERT
  5
3D7
100
AcDbEntity
  8
0
390
0
  6
CONTINUOUS
 62
   110
100
AcDbBlockReference
  2
_OPEN30
 10
-120.0
 20
-37.5
 30
0.0
 41
2.77
 42
2.77
 43
2.77
 50
270.0
  0
INSERT
  5
3D8
100
AcDbEntity
  8
0
390
0
  6
CONTINUOUS
 62
   110
100
AcDbBlockReference
  2
_OPEN30
 10
-120.0
 20
37.5
 30
0.0
 41
2.77
 42
2.77
 43
2.77
 50
90.0
  0
MTEXT
  5
3D9
100
AcDbEntity
  8
0
390
0
  6
CONTINUOUS
 62
   110
100
AcDbMText
 10
-122.6
 20
0.0
 30
0.0
 40
3.2
 41
0.0
 71
     5
 72
     1
  1
\A1;\U+220575
  7
MX_DIMTXSTY_7
 11
0.0
 21
1.0
 31
0.0
 73
     1
 44
0.9
  0
POINT
  5
3DA
100
AcDbEntity
  8
DEFPOINTS
390
0
  6
CONTINUOUS
 62
     0
100
AcDbPoint
 10
-100.0
 20
-37.5
 30
0.0
  0
POINT
  5
3DB
100
AcDbEntity
  8
DEFPOINTS
390
0
  6
CONTINUOUS
 62
     0
100
AcDbPoint
 10
-100.0
 20
37.5
 30
0.0
  0
POINT
  5
3DC
100
AcDbEntity
  8
DEFPOINTS
390
0
  6
CONTINUOUS
 62
     0
100
AcDbPoint
 10
-120.0
 20
37.5
 30
0.0
  0
ENDBLK
  5
3DD
100
AcDbEntity
  8
0
370
    -2
390
0
  6
ByBlock
 62
     0
100
AcDbBlockEnd
  0
BLOCK
  5
3E0
100
AcDbEntity
  8
0
370
    -2
390
0
  6
ByBlock
 62
     0
100
AcDbBlockBegin
  2
*D43
 70
     1
 10
0.0
 20
0.0
 30
0.0
  3
*D43
  1

  0
LINE
  5
3E1
100
AcDbEntity
  8
0
390
0
  6
CONTINUOUS
 62
   110
100
AcDbLine
 10
80.0
 20
64.0
 30
0.0
 11
100.0
 21
64.0
 31
0.0
  0
INSERT
  5
3E2
100
AcDbEntity
  8
0
390
0
  6
CONTINUOUS
 62
   110
100
AcDbBlockReference
  2
_OPEN30
 10
80.0
 20
64.0
 30
0.0
 41
2.77
 42
2.77
 43
2.77
 50
180.0
  0
INSERT
  5
3E3
100
AcDbEntity
  8
0
390
0
  6
CONTINUOUS
 62
   110
100
AcDbBlockReference
  2
_OPEN30
 10
100.0
 20
64.0
 30
0.0
 41
2.77
 42
2.77
 43
2.77
  0
MTEXT
  5
3E4
100
AcDbEntity
  8
0
390
0
  6
CONTINUOUS
 62
   110
100
AcDbMText
 10
90.0
 20
66.6
 30
0.0
 40
3.2
 41
0.0
 71
     5
 72
     1
  1
\A1;20
  7
MX_DIMTXSTY_2
 73
     1
 44
0.9
  0
POINT
  5
3E5
100
AcDbEntity
  8
DEFPOINTS
390
0
  6
CONTINUOUS
 62
     0
100
AcDbPoint
 10
80.0
 20
35.0
 30
0.0
  0
POINT
  5
3E6
100
AcDbEntity
  8
DEFPOINTS
390
0
  6
CONTINUOUS
 62
     0
100
AcDbPoint
 10
100.0
 20
37.5
 30
0.0
  0
POINT
  5
3E7
100
AcDbEntity
  8
DEFPOINTS
390
0
  6
CONTINUOUS
 62
     0
100
AcDbPoint
 10
100.0
 20
64.0
 30
0.0
  0
ENDBLK
  5
3E8
100
AcDbEntity
  8
0
370
    -2
390
0
  6
ByBlock
 62
     0
100
AcDbBlockEnd
  0
BLOCK
  5
3EB
100
AcDbEntity
  8
0
370
    -2
390
0
  6
ByBlock
 62
     0
100
AcDbBlockBegin
  2
*D44
 70
     1
 10
0.0
 20
0.0
 30
0.0
  3
*D44
  1

  0
LINE
  5
3EC
100
AcDbEntity
  8
0
390
0
  6
CONTINUOUS
 62
   110
100
AcDbLine
 10
-24.0
 20
-26.0
 30
0.0
 11
-24.0
 21
26.0
 31
0.0
  0
INSERT
  5
3ED
100
AcDbEntity
  8
0
390
0
  6
CONTINUOUS
 62
   110
100
AcDbBlockReference
  2
_OPEN30
 10
-24.0
 20
-26.0
 30
0.0
 41
2.77
 42
2.77
 43
2.77
 50
270.0
  0
INSERT
  5
3EE
100
AcDbEntity
  8
0
390
0
  6
CONTINUOUS
 62
   110
100
AcDbBlockReference
  2
_OPEN30
 10
-24.0
 20
26.0
 30
0.0
 41
2.77
 42
2.77
 43
2.77
 50
90.0
  0
MTEXT
  5
3EF
100
AcDbEntity
  8
0
390
0
  6
CONTINUOUS
 62
   110
100
AcDbMText
 10
-26.6
 20
12.0
 30
0.0
 40
3.2
 41
0.0
 71
     5
 72
     1
  1
\A1;\U+220552
  7
MX_DIMTXSTY_7
 11
0.0
 21
1.0
 31
0.0
 73
     1
 44
0.9
  0
POINT
  5
3F0
100
AcDbEntity
  8
DEFPOINTS
390
0
  6
CONTINUOUS
 62
     0
100
AcDbPoint
 10
-6.107641
 20
-26.0
 30
0.0
  0
POINT
  5
3F1
100
AcDbEntity
  8
DEFPOINTS
390
0
  6
CONTINUOUS
 62
     0
100
AcDbPoint
 10
3.061361
 20
26.0
 30
0.0
  0
POINT
  5
3F2
100
AcDbEntity
  8
DEFPOINTS
390
0
  6
CONTINUOUS
 62
     0
100
AcDbPoint
 10
-24.0
 20
26.0
 30
0.0
  0
ENDBLK
  5
3F3
100
AcDbEntity
  8
0
370
    -2
390
0
  6
ByBlock
 62
     0
100
AcDbBlockEnd
  0
BLOCK
  5
3F6
100
AcDbEntity
  8
0
370
    -2
390
0
  6
ByBlock
 62
     0
100
AcDbBlockBegin
  2
*D45
 70
     1
 10
0.0
 20
0.0
 30
0.0
  3
*D45
  1

  0
LINE
  5
3F7
100
AcDbEntity
  8
0
390
0
  6
CONTINUOUS
 62
   110
100
AcDbLine
 10
-16.0
 20
33.75
 30
0.0
 11
-16.0
 21
-33.75
 31
0.0
  0
INSERT
  5
3F8
100
AcDbEntity
  8
0
390
0
  6
CONTINUOUS
 62
   110
100
AcDbBlockReference
  2
_OPEN30
 10
-16.0
 20
33.75
 30
0.0
 41
2.77
 42
2.77
 43
2.77
 50
90.0
  0
INSERT
  5
3F9
100
AcDbEntity
  8
0
390
0
  6
CONTINUOUS
 62
   110
100
AcDbBlockReference
  2
_OPEN30
 10
-16.0
 20
-33.75
 30
0.0
 41
2.77
 42
2.77
 43
2.77
 50
270.0
  0
MTEXT
  5
3FA
100
AcDbEntity
  8
0
390
0
  6
CONTINUOUS
 62
   110
100
AcDbMText
 10
-18.6
 20
12.0
 30
0.0
 40
3.2
 41
0.0
 71
     5
 72
     1
  1
\A1;\U+220567.5
  7
MX_DIMTXSTY_2
 11
0.0
 21
1.0
 31
0.0
 73
     1
 44
0.9
  0
POINT
  5
3FB
100
AcDbEntity
  8
DEFPOINTS
390
0
  6
CONTINUOUS
 62
     0
100
AcDbPoint
 10
4.427896
 20
33.75
 30
0.0
  0
POINT
  5
3FC
100
AcDbEntity
  8
DEFPOINTS
390
0
  6
CONTINUOUS
 62
     0
100
AcDbPoint
 10
-7.474176
 20
-33.75
 30
0.0
  0
POINT
  5
3FD
100
AcDbEntity
  8
DEFPOINTS
390
0
  6
CONTINUOUS
 62
     0
100
AcDbPoint
 10
-16.0
 20
-33.75
 30
0.0
  0
ENDBLK
  5
3FE
100
AcDbEntity
  8
0
370
    -2
390
0
  6
ByBlock
 62
     0
100
AcDbBlockEnd
  0
BLOCK
  5
45F
100
AcDbEntity
  8
0
370
    -2
390
0
  6
ByBlock
 62
     0
100
AcDbBlockBegin
  2
*D46
 70
     1
 10
0.0
 20
0.0
 30
0.0
  3
*D46
  1

  0
LINE
  5
460
100
AcDbEntity
  8
0
390
0
  6
CONTINUOUS
 62
   110
100
AcDbLine
 10
-124.0
 20
43.5
 30
0.0
 11
-124.0
 21
-43.5
 31
0.0
  0
LINE
  5
461
100
AcDbEntity
  8
0
390
0
  6
CONTINUOUS
 62
   110
100
AcDbLine
 10
-102.0
 20
43.5
 30
0.0
 11
-126.286
 21
43.5
 31
0.0
  0
LINE
  5
462
100
AcDbEntity
  8
0
390
0
  6
CONTINUOUS
 62
   110
100
AcDbLine
 10
-102.0
 20
-43.5
 30
0.0
 11
-126.286
 21
-43.5
 31
0.0
  0
INSERT
  5
463
100
AcDbEntity
  8
0
390
0
  6
CONTINUOUS
 62
   110
100
AcDbBlockReference
  2
_OPEN30
 10
-124.0
 20
43.5
 30
0.0
 41
2.77
 42
2.77
 43
2.77
 50
90.0
  0
INSERT
  5
464
100
AcDbEntity
  8
0
390
0
  6
CONTINUOUS
 62
   110
100
AcDbBlockReference
  2
_OPEN30
 10
-124.0
 20
-43.5
 30
0.0
 41
2.77
 42
2.77
 43
2.77
 50
270.0
  0
MTEXT
  5
465
100
AcDbEntity
  8
0
390
0
  6
CONTINUOUS
 62
   110
100
AcDbMText
 10
-126.6
 20
0.0
 30
0.0
 40
3.2
 41
0.0
 71
     5
 72
     1
  1
\A1;\U+220587
  7
MX_DIMTXSTY_7
 11
0.0
 21
1.0
 31
0.0
 73
     1
 44
0.9
  0
POINT
  5
466
100
AcDbEntity
  8
DEFPOINTS
390
0
  6
CONTINUOUS
 62
     0
100
AcDbPoint
 10
-100.0
 20
43.5
 30
0.0
  0
POINT
  5
467
100
AcDbEntity
  8
DEFPOINTS
390
0
  6
CONTINUOUS
 62
     0
100
AcDbPoint
 10
-100.0
 20
-43.5
 30
0.0
  0
POINT
  5
468
100
AcDbEntity
  8
DEFPOINTS
390
0
  6
CONTINUOUS
 62
     0
100
AcDbPoint
 10
-124.0
 20
-43.5
 30
0.0
  0
ENDBLK
  5
469
100
AcDbEntity
  8
0
370
    -2
390
0
  6
ByBlock
 62
     0
100
AcDbBlockEnd
  0
BLOCK
  5
46C
100
AcDbEntity
  8
0
370
    -2
390
0
  6
ByBlock
 62
     0
100
AcDbBlockBegin
  2
*D47
 70
     1
 10
0.0
 20
0.0
 30
0.0
  3
*D47
  1

  0
LINE
  5
46D
100
AcDbEntity
  8
0
390
0
  6
CONTINUOUS
 62
   255
100
AcDbLine
 10
100.0
 20
80.0
 30
0.0
 11
-100.0
 21
80.0
 31
0.0
  0
LINE
  5
46E
100
AcDbEntity
  8
0
390
0
  6
CONTINUOUS
 62
   255
100
AcDbLine
 10
100.0
 20
45.5
 30
0.0
 11
100.0
 21
82.286
 31
0.0
  0
LINE
  5
46F
100
AcDbEntity
  8
0
390
0
  6
CONTINUOUS
 62
   255
100
AcDbLine
 10
-100.0
 20
45.5
 30
0.0
 11
-100.0
 21
82.286
 31
0.0
  0
INSERT
  5
470
100
AcDbEntity
  8
0
390
0
  6
CONTINUOUS
 62
   255
100
AcDbBlockReference
  2
_OPEN30
 10
100.0
 20
80.0
 30
0.0
 41
2.77
 42
2.77
 43
2.77
  0
INSERT
  5
471
100
AcDbEntity
  8
0
390
0
  6
CONTINUOUS
 62
   255
100
AcDbBlockReference
  2
_OPEN30
 10
-100.0
 20
80.0
 30
0.0
 41
2.77
 42
2.77
 43
2.77
 50
180.0
  0
MTEXT
  5
472
100
AcDbEntity
  8
0
390
0
  6
CONTINUOUS
 62
   255
100
AcDbMText
 10
0.0
 20
82.6
 30
0.0
 40
3.2
 41
0.0
 71
     5
 72
     1
  1
\A1;200±5%
 11
1.0
 21
0.0
 31
0.0
 73
     1
 44
0.9
  0
POINT
  5
473
100
AcDbEntity
  8
DEFPOINTS
390
0
  6
CONTINUOUS
 62
     0
100
AcDbPoint
 10
100.0
 20
43.5
 30
0.0
  0
POINT
  5
474
100
AcDbEntity
  8
DEFPOINTS
390
0
  6
CONTINUOUS
 62
     0
100
AcDbPoint
 10
-100.0
 20
43.5
 30
0.0
  0
POINT
  5
475
100
AcDbEntity
  8
DEFPOINTS
390
0
  6
CONTINUOUS
 62
     0
100
AcDbPoint
 10
-100.0
 20
80.0
 30
0.0
  0
ENDBLK
  5
476
100
AcDbEntity
  8
0
370
    -2
390
0
  6
ByBlock
 62
     0
100
AcDbBlockEnd
  0
BLOCK
  5
479
100
AcDbEntity
  8
0
370
    -2
390
0
  6
ByBlock
 62
     0
100
AcDbBlockBegin
  2
*D48
 70
     1
 10
0.0
 20
0.0
 30
0.0
  3
*D48
  1

  0
LINE
  5
47A
100
AcDbEntity
  8
0
390
0
  6
CONTINUOUS
 62
   255
100
AcDbLine
 10
-80.0
 20
72.0
 30
0.0
 11
80.0
 21
72.0
 31
0.0
  0
LINE
  5
47B
100
AcDbEntity
  8
0
390
0
  6
CONTINUOUS
 62
   255
100
AcDbLine
 10
80.0
 20
46.5
 30
0.0
 11
80.0
 21
74.286
 31
0.0
  0
INSERT
  5
47C
100
AcDbEntity
  8
0
390
0
  6
CONTINUOUS
 62
   255
100
AcDbBlockReference
  2
_OPEN30
 10
-80.0
 20
72.0
 30
0.0
 41
2.77
 42
2.77
 43
2.77
 50
180.0
  0
INSERT
  5
47D
100
AcDbEntity
  8
0
390
0
  6
CONTINUOUS
 62
   255
100
AcDbBlockReference
  2
_OPEN30
 10
80.0
 20
72.0
 30
0.0
 41
2.77
 42
2.77
 43
2.77
  0
MTEXT
  5
47E
100
AcDbEntity
  8
0
390
0
  6
CONTINUOUS
 62
   255
100
AcDbMText
 10
0.0
 20
74.6
 30
0.0
 40
3.2
 41
0.0
 71
     5
 72
     1
  1
\A1;(160)
  7
MX_DIMTXSTY_3
 73
     1
 44
0.9
  0
POINT
  5
47F
100
AcDbEntity
  8
DEFPOINTS
390
0
  6
CONTINUOUS
 62
     0
100
AcDbPoint
 10
-80.0
 20
44.5
 30
0.0
  0
POINT
  5
480
100
AcDbEntity
  8
DEFPOINTS
390
0
  6
CONTINUOUS
 62
     0
100
AcDbPoint
 10
80.0
 20
44.5
 30
0.0
  0
POINT
  5
481
100
AcDbEntity
  8
DEFPOINTS
390
0
  6
CONTINUOUS
 62
     0
100
AcDbPoint
 10
80.0
 20
72.0
 30
0.0
  0
ENDBLK
  5
482
100
AcDbEntity
  8
0
370
    -2
390
0
  6
ByBlock
 62
     0
100
AcDbBlockEnd
  0
BLOCK
  5
485
100
AcDbEntity
  8
0
370
    -2
390
0
  6
ByBlock
 62
     0
100
AcDbBlockBegin
  2
*D49
 70
     1
 10
0.0
 20
0.0
 30
0.0
  3
*D49
  1

  0
LINE
  5
486
100
AcDbEntity
  8
0
390
0
  6
CONTINUOUS
 62
   110
100
AcDbLine
 10
-100.0
 20
72.0
 30
0.0
 11
-80.0
 21
72.0
 31
0.0
  0
LINE
  5
487
100
AcDbEntity
  8
0
390
0
  6
CONTINUOUS
 62
   110
100
AcDbLine
 10
-80.0
 20
46.5
 30
0.0
 11
-80.0
 21
74.286
 31
0.0
  0
INSERT
  5
488
100
AcDbEntity
  8
0
390
0
  6
CONTINUOUS
 62
   110
100
AcDbBlockReference
  2
_OPEN30
 10
-100.0
 20
72.0
 30
0.0
 41
2.77
 42
2.77
 43
2.77
 50
180.0
  0
INSERT
  5
489
100
AcDbEntity
  8
0
390
0
  6
CONTINUOUS
 62
   110
100
AcDbBlockReference
  2
_OPEN30
 10
-80.0
 20
72.0
 30
0.0
 41
2.77
 42
2.77
 43
2.77
  0
MTEXT
  5
48A
100
AcDbEntity
  8
0
390
0
  6
CONTINUOUS
 62
   110
100
AcDbMText
 10
-90.0
 20
74.6
 30
0.0
 40
3.2
 41
0.0
 71
     5
 72
     1
  1
\A1;20
  7
MX_DIMTXSTY_2
 73
     1
 44
0.9
  0
POINT
  5
48B
100
AcDbEntity
  8
DEFPOINTS
390
0
  6
CONTINUOUS
 62
     0
100
AcDbPoint
 10
-100.0
 20
43.5
 30
0.0
  0
POINT
  5
48C
100
AcDbEntity
  8
DEFPOINTS
390
0
  6
CONTINUOUS
 62
     0
100
AcDbPoint
 10
-80.0
 20
44.5
 30
0.0
  0
POINT
  5
48D
100
AcDbEntity
  8
DEFPOINTS
390
0
  6
CONTINUOUS
 62
     0
100
AcDbPoint
 10
-80.0
 20
72.0
 30
0.0
  0
ENDBLK
  5
48E
100
AcDbEntity
  8
0
370
    -2
390
0
  6
ByBlock
 62
     0
100
AcDbBlockEnd
  0
BLOCK
  5
491
100
AcDbEntity
  8
0
370
    -2
390
0
  6
ByBlock
 62
     0
100
AcDbBlockBegin
  2
*D50
 70
     1
 10
0.0
 20
0.0
 30
0.0
  3
*D50
  1

  0
LINE
  5
492
100
AcDbEntity
  8
0
390
0
  6
CONTINUOUS
 62
   110
100
AcDbLine
 10
-20.0
 20
42.75
 30
0.0
 11
-20.0
 21
-42.75
 31
0.0
  0
INSERT
  5
493
100
AcDbEntity
  8
0
390
0
  6
CONTINUOUS
 62
   110
100
AcDbBlockReference
  2
_OPEN30
 10
-20.0
 20
42.75
 30
0.0
 41
2.77
 42
2.77
 43
2.77
 50
90.0
  0
INSERT
  5
494
100
AcDbEntity
  8
0
390
0
  6
CONTINUOUS
 62
   110
100
AcDbBlockReference
  2
_OPEN30
 10
-20.0
 20
-42.75
 30
0.0
 41
2.77
 42
2.77
 43
2.77
 50
270.0
  0
MTEXT
  5
495
100
AcDbEntity
  8
0
390
0
  6
CONTINUOUS
 62
   110
100
AcDbMText
 10
-22.6
 20
16.0
 30
0.0
 40
3.2
 41
0.0
 71
     5
 72
     1
  1
\A1;\U+220585.5
  7
MX_DIMTXSTY_2
 11
0.0
 21
1.0
 31
0.0
 73
     1
 44
0.9
  0
POINT
  5
496
100
AcDbEntity
  8
DEFPOINTS
390
0
  6
CONTINUOUS
 62
     0
100
AcDbPoint
 10
6.014839
 20
42.75
 30
0.0
  0
POINT
  5
497
100
AcDbEntity
  8
DEFPOINTS
390
0
  6
CONTINUOUS
 62
     0
100
AcDbPoint
 10
-9.061118
 20
-42.75
 30
0.0
  0
POINT
  5
498
100
AcDbEntity
  8
DEFPOINTS
390
0
  6
CONTINUOUS
 62
     0
100
AcDbPoint
 10
-20.0
 20
-42.75
 30
0.0
  0
ENDBLK
  5
499
100
AcDbEntity
  8
0
370
    -2
390
0
  6
ByBlock
 62
     0
100
AcDbBlockEnd
  0
BLOCK
  5
49C
100
AcDbEntity
  8
0
370
    -2
390
0
  6
ByBlock
 62
     0
100
AcDbBlockBegin
  2
*D51
 70
     1
 10
0.0
 20
0.0
 30
0.0
  3
*D51
  1

  0
LINE
  5
49D
100
AcDbEntity
  8
0
390
0
  6
CONTINUOUS
 62
   110
100
AcDbLine
 10
-28.0
 20
-33.25
 30
0.0
 11
-28.0
 21
33.25
 31
0.0
  0
INSERT
  5
49E
100
AcDbEntity
  8
0
390
0
  6
CONTINUOUS
 62
   110
100
AcDbBlockReference
  2
_OPEN30
 10
-28.0
 20
-33.25
 30
0.0
 41
2.77
 42
2.77
 43
2.77
 50
270.0
  0
INSERT
  5
49F
100
AcDbEntity
  8
0
390
0
  6
CONTINUOUS
 62
   110
100
AcDbBlockReference
  2
_OPEN30
 10
-28.0
 20
33.25
 30
0.0
 41
2.77
 42
2.77
 43
2.77
 50
90.0
  0
MTEXT
  5
4A0
100
AcDbEntity
  8
0
390
0
  6
CONTINUOUS
 62
   110
100
AcDbMText
 10
-30.6
 20
16.0
 30
0.0
 40
3.2
 41
0.0
 71
     5
 72
     1
  1
\A1;\U+220566.5
  7
MX_DIMTXSTY_2
 11
0.0
 21
1.0
 31
0.0
 73
     1
 44
0.9
  0
POINT
  5
4A1
100
AcDbEntity
  8
DEFPOINTS
390
0
  6
CONTINUOUS
 62
     0
100
AcDbPoint
 10
-7.386011
 20
-33.25
 30
0.0
  0
POINT
  5
4A2
100
AcDbEntity
  8
DEFPOINTS
390
0
  6
CONTINUOUS
 62
     0
100
AcDbPoint
 10
-59.092105
 20
33.25
 30
0.0
  0
POINT
  5
4A3
100
AcDbEntity
  8
DEFPOINTS
390
0
  6
CONTINUOUS
 62
     0
100
AcDbPoint
 10
-28.0
 20
33.25
 30
0.0
  0
ENDBLK
  5
4A4
100
AcDbEntity
  8
0
370
    -2
390
0
  6
ByBlock
 62
     0
100
AcDbBlockEnd
  0
BLOCK
  5
4A7
100
AcDbEntity
  8
0
370
    -2
390
0
  6
ByBlock
 62
     0
100
AcDbBlockBegin
  2
*D52
 70
     1
 10
0.0
 20
0.0
 30
0.0
  3
*D52
  1

  0
LINE
  5
4A8
100
AcDbEntity
  8
0
390
0
  6
CONTINUOUS
 62
   110
100
AcDbLine
 10
80.0
 20
72.0
 30
0.0
 11
100.0
 21
72.0
 31
0.0
  0
INSERT
  5
4A9
100
AcDbEntity
  8
0
390
0
  6
CONTINUOUS
 62
   110
100
AcDbBlockReference
  2
_OPEN30
 10
80.0
 20
72.0
 30
0.0
 41
2.77
 42
2.77
 43
2.77
 50
180.0
  0
INSERT
  5
4AA
100
AcDbEntity
  8
0
390
0
  6
CONTINUOUS
 62
   110
100
AcDbBlockReference
  2
_OPEN30
 10
100.0
 20
72.0
 30
0.0
 41
2.77
 42
2.77
 43
2.77
  0
MTEXT
  5
4AB
100
AcDbEntity
  8
0
390
0
  6
CONTINUOUS
 62
   110
100
AcDbMText
 10
90.0
 20
74.6
 30
0.0
 40
3.2
 41
0.0
 71
     5
 72
     1
  1
\A1;20
  7
MX_DIMTXSTY_2
 73
     1
 44
0.9
  0
POINT
  5
4AC
100
AcDbEntity
  8
DEFPOINTS
390
0
  6
CONTINUOUS
 62
     0
100
AcDbPoint
 10
80.0
 20
44.5
 30
0.0
  0
POINT
  5
4AD
100
AcDbEntity
  8
DEFPOINTS
390
0
  6
CONTINUOUS
 62
     0
100
AcDbPoint
 10
100.0
 20
43.5
 30
0.0
  0
POINT
  5
4AE
100
AcDbEntity
  8
DEFPOINTS
390
0
  6
CONTINUOUS
 62
     0
100
AcDbPoint
 10
100.0
 20
72.0
 30
0.0
  0
ENDBLK
  5
4AF
100
AcDbEntity
  8
0
370
    -2
390
0
  6
ByBlock
 62
     0
100
AcDbBlockEnd
  0
BLOCK
  5
4F8
100
AcDbEntity
  8
0
370
    -2
390
0
  6
ByBlock
 62
     0
100
AcDbBlockBegin
  2
*D53
 70
     1
 10
0.0
 20
0.0
 30
0.0
  3
*D53
  1

  0
LINE
  5
4F9
100
AcDbEntity
  8
0
390
0
  6
CONTINUOUS
 62
   110
100
AcDbLine
 10
-100.0
 20
80.0
 30
0.0
 11
-75.0
 21
80.0
 31
0.0
  0
LINE
  5
4FA
100
AcDbEntity
  8
0
390
0
  6
CONTINUOUS
 62
   110
100
AcDbLine
 10
-75.0
 20
54.0
 30
0.0
 11
-75.0
 21
82.286
 31
0.0
  0
INSERT
  5
4FB
100
AcDbEntity
  8
0
390
0
  6
CONTINUOUS
 62
   110
100
AcDbBlockReference
  2
_OPEN30
 10
-100.0
 20
80.0
 30
0.0
 41
2.77
 42
2.77
 43
2.77
 50
180.0
  0
INSERT
  5
4FC
100
AcDbEntity
  8
0
390
0
  6
CONTINUOUS
 62
   110
100
AcDbBlockReference
  2
_OPEN30
 10
-75.0
 20
80.0
 30
0.0
 41
2.77
 42
2.77
 43
2.77
  0
MTEXT
  5
4FD
100
AcDbEntity
  8
0
390
0
  6
CONTINUOUS
 62
   110
100
AcDbMText
 10
-87.5
 20
82.6
 30
0.0
 40
3.2
 41
0.0
 71
     5
 72
     1
  1
\A1;25
 73
     1
 44
0.9
  0
POINT
  5
4FE
100
AcDbEntity
  8
DEFPOINTS
390
0
  6
CONTINUOUS
 62
     0
100
AcDbPoint
 10
-100.0
 20
57.0
 30
0.0
  0
POINT
  5
4FF
100
AcDbEntity
  8
DEFPOINTS
390
0
  6
CONTINUOUS
 62
     0
100
AcDbPoint
 10
-75.0
 20
52.0
 30
0.0
  0
POINT
  5
500
100
AcDbEntity
  8
DEFPOINTS
390
0
  6
CONTINUOUS
 62
     0
100
AcDbPoint
 10
-75.0
 20
80.0
 30
0.0
  0
ENDBLK
  5
501
100
AcDbEntity
  8
0
370
    -2
390
0
  6
ByBlock
 62
     0
100
AcDbBlockEnd
  0
BLOCK
  5
504
100
AcDbEntity
  8
0
370
    -2
390
0
  6
ByBlock
 62
     0
100
AcDbBlockBegin
  2
*D54
 70
     1
 10
0.0
 20
0.0
 30
0.0
  3
*D54
  1

  0
LINE
  5
505
100
AcDbEntity
  8
0
390
0
  6
CONTINUOUS
 62
   255
100
AcDbLine
 10
-75.0
 20
80.0
 30
0.0
 11
75.0
 21
80.0
 31
0.0
  0
LINE
  5
506
100
AcDbEntity
  8
0
390
0
  6
CONTINUOUS
 62
   255
100
AcDbLine
 10
75.0
 20
54.0
 30
0.0
 11
75.0
 21
82.286
 31
0.0
  0
INSERT
  5
507
100
AcDbEntity
  8
0
390
0
  6
CONTINUOUS
 62
   255
100
AcDbBlockReference
  2
_OPEN30
 10
-75.0
 20
80.0
 30
0.0
 41
2.77
 42
2.77
 43
2.77
 50
180.0
  0
INSERT
  5
508
100
AcDbEntity
  8
0
390
0
  6
CONTINUOUS
 62
   255
100
AcDbBlockReference
  2
_OPEN30
 10
75.0
 20
80.0
 30
0.0
 41
2.77
 42
2.77
 43
2.77
  0
MTEXT
  5
509
100
AcDbEntity
  8
0
390
0
  6
CONTINUOUS
 62
   255
100
AcDbMText
 10
0.0
 20
82.6
 30
0.0
 40
3.2
 41
0.0
 71
     5
 72
     1
  1
\A1;(150)
  7
MX_DIMTXSTY_3
 73
     1
 44
0.9
  0
POINT
  5
50A
100
AcDbEntity
  8
DEFPOINTS
390
0
  6
CONTINUOUS
 62
     0
100
AcDbPoint
 10
-75.0
 20
52.0
 30
0.0
  0
POINT
  5
50B
100
AcDbEntity
  8
DEFPOINTS
390
0
  6
CONTINUOUS
 62
     0
100
AcDbPoint
 10
75.0
 20
52.0
 30
0.0
  0
POINT
  5
50C
100
AcDbEntity
  8
DEFPOINTS
390
0
  6
CONTINUOUS
 62
     0
100
AcDbPoint
 10
75.0
 20
80.0
 30
0.0
  0
ENDBLK
  5
50D
100
AcDbEntity
  8
0
370
    -2
390
0
  6
ByBlock
 62
     0
100
AcDbBlockEnd
  0
BLOCK
  5
510
100
AcDbEntity
  8
0
370
    -2
390
0
  6
ByBlock
 62
     0
100
AcDbBlockBegin
  2
*D55
 70
     1
 10
0.0
 20
0.0
 30
0.0
  3
*D55
  1

  0
LINE
  5
511
100
AcDbEntity
  8
0
390
0
  6
CONTINUOUS
 62
   255
100
AcDbLine
 10
100.0
 20
88.0
 30
0.0
 11
-100.0
 21
88.0
 31
0.0
  0
LINE
  5
512
100
AcDbEntity
  8
0
390
0
  6
CONTINUOUS
 62
   255
100
AcDbLine
 10
100.0
 20
59.0
 30
0.0
 11
100.0
 21
90.286
 31
0.0
  0
LINE
  5
513
100
AcDbEntity
  8
0
390
0
  6
CONTINUOUS
 62
   255
100
AcDbLine
 10
-100.0
 20
59.0
 30
0.0
 11
-100.0
 21
90.286
 31
0.0
  0
INSERT
  5
514
100
AcDbEntity
  8
0
390
0
  6
CONTINUOUS
 62
   255
100
AcDbBlockReference
  2
_OPEN30
 10
100.0
 20
88.0
 30
0.0
 41
2.77
 42
2.77
 43
2.77
  0
INSERT
  5
515
100
AcDbEntity
  8
0
390
0
  6
CONTINUOUS
 62
   255
100
AcDbBlockReference
  2
_OPEN30
 10
-100.0
 20
88.0
 30
0.0
 41
2.77
 42
2.77
 43
2.77
 50
180.0
  0
MTEXT
  5
516
100
AcDbEntity
  8
0
390
0
  6
CONTINUOUS
 62
   255
100
AcDbMText
 10
0.0
 20
90.6
 30
0.0
 40
3.2
 41
0.0
 71
     5
 72
     1
  1
\A1;200±5%
 11
1.0
 21
0.0
 31
0.0
 73
     1
 44
0.9
  0
POINT
  5
517
100
AcDbEntity
  8
DEFPOINTS
390
0
  6
CONTINUOUS
 62
     0
100
AcDbPoint
 10
100.0
 20
57.0
 30
0.0
  0
POINT
  5
518
100
AcDbEntity
  8
DEFPOINTS
390
0
  6
CONTINUOUS
 62
     0
100
AcDbPoint
 10
-100.0
 20
57.0
 30
0.0
  0
POINT
  5
519
100
AcDbEntity
  8
DEFPOINTS
390
0
  6
CONTINUOUS
 62
     0
100
AcDbPoint
 10
-100.0
 20
88.0
 30
0.0
  0
ENDBLK
  5
51A
100
AcDbEntity
  8
0
370
    -2
390
0
  6
ByBlock
 62
     0
100
AcDbBlockEnd
  0
BLOCK
  5
51D
100
AcDbEntity
  8
0
370
    -2
390
0
  6
ByBlock
 62
     0
100
AcDbBlockBegin
  2
*D56
 70
     1
 10
0.0
 20
0.0
 30
0.0
  3
*D56
  1

  0
LINE
  5
51E
100
AcDbEntity
  8
0
390
0
  6
CONTINUOUS
 62
   110
100
AcDbLine
 10
-120.0
 20
57.0
 30
0.0
 11
-120.0
 21
-57.0
 31
0.0
  0
LINE
  5
51F
100
AcDbEntity
  8
0
390
0
  6
CONTINUOUS
 62
   110
100
AcDbLine
 10
-102.0
 20
57.0
 30
0.0
 11
-122.286
 21
57.0
 31
0.0
  0
LINE
  5
520
100
AcDbEntity
  8
0
390
0
  6
CONTINUOUS
 62
   110
100
AcDbLine
 10
-102.0
 20
-57.0
 30
0.0
 11
-122.286
 21
-57.0
 31
0.0
  0
INSERT
  5
521
100
AcDbEntity
  8
0
390
0
  6
CONTINUOUS
 62
   110
100
AcDbBlockReference
  2
_OPEN30
 10
-120.0
 20
57.0
 30
0.0
 41
2.77
 42
2.77
 43
2.77
 50
90.0
  0
INSERT
  5
522
100
AcDbEntity
  8
0
390
0
  6
CONTINUOUS
 62
   110
100
AcDbBlockReference
  2
_OPEN30
 10
-120.0
 20
-57.0
 30
0.0
 41
2.77
 42
2.77
 43
2.77
 50
270.0
  0
MTEXT
  5
524
100
AcDbEntity
  8
0
390
0
  6
CONTINUOUS
 62
   110
100
AcDbMText
 10
-122.6
 20
0.0
 30
0.0
 40
3.2
 41
0.0
 71
     5
 72
     1
  1
\A1;\U+2205114
  7
MX_DIMTXSTY_8
 11
0.0
 21
1.0
 31
0.0
 73
     1
 44
0.9
  0
POINT
  5
525
100
AcDbEntity
  8
DEFPOINTS
390
0
  6
CONTINUOUS
 62
     0
100
AcDbPoint
 10
-100.0
 20
57.0
 30
0.0
  0
POINT
  5
526
100
AcDbEntity
  8
DEFPOINTS
390
0
  6
CONTINUOUS
 62
     0
100
AcDbPoint
 10
-100.0
 20
-57.0
 30
0.0
  0
POINT
  5
527
100
AcDbEntity
  8
DEFPOINTS
390
0
  6
CONTINUOUS
 62
     0
100
AcDbPoint
 10
-120.0
 20
-57.0
 30
0.0
  0
ENDBLK
  5
528
100
AcDbEntity
  8
0
370
    -2
390
0
  6
ByBlock
 62
     0
100
AcDbBlockEnd
  0
BLOCK
  5
52B
100
AcDbEntity
  8
0
370
    -2
390
0
  6
ByBlock
 62
     0
100
AcDbBlockBegin
  2
*D57
 70
     1
 10
0.0
 20
0.0
 30
0.0
  3
*D57
  1

  0
LINE
  5
52C
100
AcDbEntity
  8
0
390
0
  6
CONTINUOUS
 62
   110
100
AcDbLine
 10
75.0
 20
80.0
 30
0.0
 11
100.0
 21
80.0
 31
0.0
  0
INSERT
  5
52D
100
AcDbEntity
  8
0
390
0
  6
CONTINUOUS
 62
   110
100
AcDbBlockReference
  2
_OPEN30
 10
75.0
 20
80.0
 30
0.0
 41
2.77
 42
2.77
 43
2.77
 50
180.0
  0
INSERT
  5
52E
100
AcDbEntity
  8
0
390
0
  6
CONTINUOUS
 62
   110
100
AcDbBlockReference
  2
_OPEN30
 10
100.0
 20
80.0
 30
0.0
 41
2.77
 42
2.77
 43
2.77
  0
MTEXT
  5
52F
100
AcDbEntity
  8
0
390
0
  6
CONTINUOUS
 62
   110
100
AcDbMText
 10
87.5
 20
82.6
 30
0.0
 40
3.2
 41
0.0
 71
     5
 72
     1
  1
\A1;25
 73
     1
 44
0.9
  0
POINT
  5
530
100
AcDbEntity
  8
DEFPOINTS
390
0
  6
CONTINUOUS
 62
     0
100
AcDbPoint
 10
75.0
 20
52.0
 30
0.0
  0
POINT
  5
531
100
AcDbEntity
  8
DEFPOINTS
390
0
  6
CONTINUOUS
 62
     0
100
AcDbPoint
 10
100.0
 20
57.0
 30
0.0
  0
POINT
  5
532
100
AcDbEntity
  8
DEFPOINTS
390
0
  6
CONTINUOUS
 62
     0
100
AcDbPoint
 10
100.0
 20
80.0
 30
0.0
  0
ENDBLK
  5
533
100
AcDbEntity
  8
0
370
    -2
390
0
  6
ByBlock
 62
     0
100
AcDbBlockEnd
  0
BLOCK
  5
536
100
AcDbEntity
  8
0
370
    -2
390
0
  6
ByBlock
 62
     0
100
AcDbBlockBegin
  2
*D58
 70
     1
 10
0.0
 20
0.0
 30
0.0
  3
*D58
  1

  0
LINE
  5
537
100
AcDbEntity
  8
0
390
0
  6
CONTINUOUS
 62
   110
100
AcDbLine
 10
-24.0
 20
-39.0
 30
0.0
 11
-24.0
 21
39.0
 31
0.0
  0
INSERT
  5
538
100
AcDbEntity
  8
0
390
0
  6
CONTINUOUS
 62
   110
100
AcDbBlockReference
  2
_OPEN30
 10
-24.0
 20
-39.0
 30
0.0
 41
2.77
 42
2.77
 43
2.77
 50
270.0
  0
INSERT
  5
539
100
AcDbEntity
  8
0
390
0
  6
CONTINUOUS
 62
   110
100
AcDbBlockReference
  2
_OPEN30
 10
-24.0
 20
39.0
 30
0.0
 41
2.77
 42
2.77
 43
2.77
 50
90.0
  0
MTEXT
  5
53A
100
AcDbEntity
  8
0
390
0
  6
CONTINUOUS
 62
   110
100
AcDbMText
 10
-26.6
 20
16.0
 30
0.0
 40
3.2
 41
0.0
 71
     5
 72
     1
  1
\A1;\U+220578
  7
MX_DIMTXSTY_7
 11
0.0
 21
1.0
 31
0.0
 73
     1
 44
0.9
  0
POINT
  5
53B
100
AcDbEntity
  8
DEFPOINTS
390
0
  6
CONTINUOUS
 62
     0
100
AcDbPoint
 10
-8.399892
 20
-39.0
 30
0.0
  0
POINT
  5
53C
100
AcDbEntity
  8
DEFPOINTS
390
0
  6
CONTINUOUS
 62
     0
100
AcDbPoint
 10
-51.581522
 20
39.0
 30
0.0
  0
POINT
  5
53D
100
AcDbEntity
  8
DEFPOINTS
390
0
  6
CONTINUOUS
 62
     0
100
AcDbPoint
 10
-24.0
 20
39.0
 30
0.0
  0
ENDBLK
  5
53E
100
AcDbEntity
  8
0
370
    -2
390
0
  6
ByBlock
 62
     0
100
AcDbBlockEnd
  0
BLOCK
  5
541
100
AcDbEntity
  8
0
370
    -2
390
0
  6
ByBlock
 62
     0
100
AcDbBlockBegin
  2
*D59
 70
     1
 10
0.0
 20
0.0
 30
0.0
  3
*D59
  1

  0
LINE
  5
542
100
AcDbEntity
  8
0
390
0
  6
CONTINUOUS
 62
   110
100
AcDbLine
 10
-16.0
 20
-50.5
 30
0.0
 11
-16.0
 21
50.5
 31
0.0
  0
INSERT
  5
543
100
AcDbEntity
  8
0
390
0
  6
CONTINUOUS
 62
   110
100
AcDbBlockReference
  2
_OPEN30
 10
-16.0
 20
-50.5
 30
0.0
 41
2.77
 42
2.77
 43
2.77
 50
270.0
  0
INSERT
  5
544
100
AcDbEntity
  8
0
390
0
  6
CONTINUOUS
 62
   110
100
AcDbBlockReference
  2
_OPEN30
 10
-16.0
 20
50.5
 30
0.0
 41
2.77
 42
2.77
 43
2.77
 50
90.0
  0
MTEXT
  5
545
100
AcDbEntity
  8
0
390
0
  6
CONTINUOUS
 62
   110
100
AcDbMText
 10
-18.6
 20
16.0
 30
0.0
 40
3.2
 41
0.0
 71
     5
 72
     1
  1
\A1;\U+2205101
  7
MX_DIMTXSTY_6
 11
0.0
 21
1.0
 31
0.0
 73
     1
 44
0.9
  0
POINT
  5
546
100
AcDbEntity
  8
DEFPOINTS
390
0
  6
CONTINUOUS
 62
     0
100
AcDbPoint
 10
-10.427652
 20
-50.5
 30
0.0
  0
POINT
  5
547
100
AcDbEntity
  8
DEFPOINTS
390
0
  6
CONTINUOUS
 62
     0
100
AcDbPoint
 10
7.381372
 20
50.5
 30
0.0
  0
POINT
  5
548
100
AcDbEntity
  8
DEFPOINTS
390
0
  6
CONTINUOUS
 62
     0
100
AcDbPoint
 10
-16.0
 20
50.5
 30
0.0
  0
ENDBLK
  5
549
100
AcDbEntity
  8
0
370
    -2
390
0
  6
ByBlock
 62
     0
100
AcDbBlockEnd
  0
BLOCK
  5
591
100
AcDbEntity
  8
0
370
    -2
390
0
  6
ByBlock
 62
     0
100
AcDbBlockBegin
  2
*D60
 70
     1
 10
0.0
 20
0.0
 30
0.0
  3
*D60
  1

  0
LINE
  5
592
100
AcDbEntity
  8
0
390
0
  6
CONTINUOUS
 62
   255
100
AcDbLine
 10
100.0
 20
96.0
 30
0.0
 11
-100.0
 21
96.0
 31
0.0
  0
LINE
  5
593
100
AcDbEntity
  8
0
390
0
  6
CONTINUOUS
 62
   255
100
AcDbLine
 10
100.0
 20
69.0
 30
0.0
 11
100.0
 21
98.286
 31
0.0
  0
LINE
  5
594
100
AcDbEntity
  8
0
390
0
  6
CONTINUOUS
 62
   255
100
AcDbLine
 10
-100.0
 20
69.0
 30
0.0
 11
-100.0
 21
98.286
 31
0.0
  0
INSERT
  5
595
100
AcDbEntity
  8
0
390
0
  6
CONTINUOUS
 62
   255
100
AcDbBlockReference
  2
_OPEN30
 10
100.0
 20
96.0
 30
0.0
 41
2.77
 42
2.77
 43
2.77
  0
INSERT
  5
596
100
AcDbEntity
  8
0
390
0
  6
CONTINUOUS
 62
   255
100
AcDbBlockReference
  2
_OPEN30
 10
-100.0
 20
96.0
 30
0.0
 41
2.77
 42
2.77
 43
2.77
 50
180.0
  0
MTEXT
  5
597
100
AcDbEntity
  8
0
390
0
  6
CONTINUOUS
 62
   255
100
AcDbMText
 10
0.0
 20
98.6
 30
0.0
 40
3.2
 41
0.0
 71
     5
 72
     1
  1
\A1;200±5%
 11
1.0
 21
0.0
 31
0.0
 73
     1
 44
0.9
  0
POINT
  5
598
100
AcDbEntity
  8
DEFPOINTS
390
0
  6
CONTINUOUS
 62
     0
100
AcDbPoint
 10
100.0
 20
67.0
 30
0.0
  0
POINT
  5
599
100
AcDbEntity
  8
DEFPOINTS
390
0
  6
CONTINUOUS
 62
     0
100
AcDbPoint
 10
-100.0
 20
67.0
 30
0.0
  0
POINT
  5
59A
100
AcDbEntity
  8
DEFPOINTS
390
0
  6
CONTINUOUS
 62
     0
100
AcDbPoint
 10
-100.0
 20
96.0
 30
0.0
  0
ENDBLK
  5
59B
100
AcDbEntity
  8
0
370
    -2
390
0
  6
ByBlock
 62
     0
100
AcDbBlockEnd
  0
BLOCK
  5
59E
100
AcDbEntity
  8
0
370
    -2
390
0
  6
ByBlock
 62
     0
100
AcDbBlockBegin
  2
*D61
 70
     1
 10
0.0
 20
0.0
 30
0.0
  3
*D61
  1

  0
LINE
  5
59F
100
AcDbEntity
  8
0
390
0
  6
CONTINUOUS
 62
   255
100
AcDbLine
 10
-75.0
 20
88.0
 30
0.0
 11
75.0
 21
88.0
 31
0.0
  0
LINE
  5
5A0
100
AcDbEntity
  8
0
390
0
  6
CONTINUOUS
 62
   255
100
AcDbLine
 10
75.0
 20
67.0
 30
0.0
 11
75.0
 21
90.286
 31
0.0
  0
INSERT
  5
5A1
100
AcDbEntity
  8
0
390
0
  6
CONTINUOUS
 62
   255
100
AcDbBlockReference
  2
_OPEN30
 10
-75.0
 20
88.0
 30
0.0
 41
2.77
 42
2.77
 43
2.77
 50
180.0
  0
INSERT
  5
5A2
100
AcDbEntity
  8
0
390
0
  6
CONTINUOUS
 62
   255
100
AcDbBlockReference
  2
_OPEN30
 10
75.0
 20
88.0
 30
0.0
 41
2.77
 42
2.77
 43
2.77
  0
MTEXT
  5
5A3
100
AcDbEntity
  8
0
390
0
  6
CONTINUOUS
 62
   255
100
AcDbMText
 10
0.0
 20
90.6
 30
0.0
 40
3.2
 41
0.0
 71
     5
 72
     1
  1
\A1;(150)
  7
MX_DIMTXSTY_3
 73
     1
 44
0.9
  0
POINT
  5
5A4
100
AcDbEntity
  8
DEFPOINTS
390
0
  6
CONTINUOUS
 62
     0
100
AcDbPoint
 10
-75.0
 20
65.0
 30
0.0
  0
POINT
  5
5A5
100
AcDbEntity
  8
DEFPOINTS
390
0
  6
CONTINUOUS
 62
     0
100
AcDbPoint
 10
75.0
 20
65.0
 30
0.0
  0
POINT
  5
5A6
100
AcDbEntity
  8
DEFPOINTS
390
0
  6
CONTINUOUS
 62
     0
100
AcDbPoint
 10
75.0
 20
88.0
 30
0.0
  0
ENDBLK
  5
5A7
100
AcDbEntity
  8
0
370
    -2
390
0
  6
ByBlock
 62
     0
100
AcDbBlockEnd
  0
BLOCK
  5
5AA
100
AcDbEntity
  8
0
370
    -2
390
0
  6
ByBlock
 62
     0
100
AcDbBlockBegin
  2
*D62
 70
     1
 10
0.0
 20
0.0
 30
0.0
  3
*D62
  1

  0
LINE
  5
5AB
100
AcDbEntity
  8
0
390
0
  6
CONTINUOUS
 62
   110
100
AcDbLine
 10
-100.0
 20
88.0
 30
0.0
 11
-75.0
 21
88.0
 31
0.0
  0
LINE
  5
5AC
100
AcDbEntity
  8
0
390
0
  6
CONTINUOUS
 62
   110
100
AcDbLine
 10
-75.0
 20
67.0
 30
0.0
 11
-75.0
 21
90.286
 31
0.0
  0
INSERT
  5
5AD
100
AcDbEntity
  8
0
390
0
  6
CONTINUOUS
 62
   110
100
AcDbBlockReference
  2
_OPEN30
 10
-100.0
 20
88.0
 30
0.0
 41
2.77
 42
2.77
 43
2.77
 50
180.0
  0
INSERT
  5
5AE
100
AcDbEntity
  8
0
390
0
  6
CONTINUOUS
 62
   110
100
AcDbBlockReference
  2
_OPEN30
 10
-75.0
 20
88.0
 30
0.0
 41
2.77
 42
2.77
 43
2.77
  0
MTEXT
  5
5AF
100
AcDbEntity
  8
0
390
0
  6
CONTINUOUS
 62
   110
100
AcDbMText
 10
-87.5
 20
90.6
 30
0.0
 40
3.2
 41
0.0
 71
     5
 72
     1
  1
\A1;25
 73
     1
 44
0.9
  0
POINT
  5
5B0
100
AcDbEntity
  8
DEFPOINTS
390
0
  6
CONTINUOUS
 62
     0
100
AcDbPoint
 10
-100.0
 20
67.0
 30
0.0
  0
POINT
  5
5B1
100
AcDbEntity
  8
DEFPOINTS
390
0
  6
CONTINUOUS
 62
     0
100
AcDbPoint
 10
-75.0
 20
65.0
 30
0.0
  0
POINT
  5
5B2
100
AcDbEntity
  8
DEFPOINTS
390
0
  6
CONTINUOUS
 62
     0
100
AcDbPoint
 10
-75.0
 20
88.0
 30
0.0
  0
ENDBLK
  5
5B3
100
AcDbEntity
  8
0
370
    -2
390
0
  6
ByBlock
 62
     0
100
AcDbBlockEnd
  0
BLOCK
  5
5B6
100
AcDbEntity
  8
0
370
    -2
390
0
  6
ByBlock
 62
     0
100
AcDbBlockBegin
  2
*D63
 70
     1
 10
0.0
 20
0.0
 30
0.0
  3
*D63
  1

  0
LINE
  5
5B7
100
AcDbEntity
  8
0
390
0
  6
CONTINUOUS
 62
   110
100
AcDbLine
 10
-120.0
 20
67.0
 30
0.0
 11
-120.0
 21
-67.0
 31
0.0
  0
LINE
  5
5B8
100
AcDbEntity
  8
0
390
0
  6
CONTINUOUS
 62
   110
100
AcDbLine
 10
-102.0
 20
67.0
 30
0.0
 11
-122.286
 21
67.0
 31
0.0
  0
LINE
  5
5B9
100
AcDbEntity
  8
0
390
0
  6
CONTINUOUS
 62
   110
100
AcDbLine
 10
-102.0
 20
-67.0
 30
0.0
 11
-122.286
 21
-67.0
 31
0.0
  0
INSERT
  5
5BA
100
AcDbEntity
  8
0
390
0
  6
CONTINUOUS
 62
   110
100
AcDbBlockReference
  2
_OPEN30
 10
-120.0
 20
67.0
 30
0.0
 41
2.77
 42
2.77
 43
2.77
 50
90.0
  0
INSERT
  5
5BB
100
AcDbEntity
  8
0
390
0
  6
CONTINUOUS
 62
   110
100
AcDbBlockReference
  2
_OPEN30
 10
-120.0
 20
-67.0
 30
0.0
 41
2.77
 42
2.77
 43
2.77
 50
270.0
  0
MTEXT
  5
5BC
100
AcDbEntity
  8
0
390
0
  6
CONTINUOUS
 62
   110
100
AcDbMText
 10
-122.6
 20
0.0
 30
0.0
 40
3.2
 41
0.0
 71
     5
 72
     1
  1
\A1;\U+2205134
  7
MX_DIMTXSTY_4
 11
0.0
 21
1.0
 31
0.0
 73
     1
 44
0.9
  0
POINT
  5
5BD
100
AcDbEntity
  8
DEFPOINTS
390
0
  6
CONTINUOUS
 62
     0
100
AcDbPoint
 10
-100.0
 20
67.0
 30
0.0
  0
POINT
  5
5BE
100
AcDbEntity
  8
DEFPOINTS
390
0
  6
CONTINUOUS
 62
     0
100
AcDbPoint
 10
-100.0
 20
-67.0
 30
0.0
  0
POINT
  5
5BF
100
AcDbEntity
  8
DEFPOINTS
390
0
  6
CONTINUOUS
 62
     0
100
AcDbPoint
 10
-120.0
 20
-67.0
 30
0.0
  0
ENDBLK
  5
5C0
100
AcDbEntity
  8
0
370
    -2
390
0
  6
ByBlock
 62
     0
100
AcDbBlockEnd
  0
BLOCK
  5
5C3
100
AcDbEntity
  8
0
370
    -2
390
0
  6
ByBlock
 62
     0
100
AcDbBlockBegin
  2
*D64
 70
     1
 10
0.0
 20
0.0
 30
0.0
  3
*D64
  1

  0
LINE
  5
5C4
100
AcDbEntity
  8
0
390
0
  6
CONTINUOUS
 62
   110
100
AcDbLine
 10
75.0
 20
88.0
 30
0.0
 11
100.0
 21
88.0
 31
0.0
  0
INSERT
  5
5C5
100
AcDbEntity
  8
0
390
0
  6
CONTINUOUS
 62
   110
100
AcDbBlockReference
  2
_OPEN30
 10
75.0
 20
88.0
 30
0.0
 41
2.77
 42
2.77
 43
2.77
 50
180.0
  0
INSERT
  5
5C6
100
AcDbEntity
  8
0
390
0
  6
CONTINUOUS
 62
   110
100
AcDbBlockReference
  2
_OPEN30
 10
100.0
 20
88.0
 30
0.0
 41
2.77
 42
2.77
 43
2.77
  0
MTEXT
  5
5C7
100
AcDbEntity
  8
0
390
0
  6
CONTINUOUS
 62
   110
100
AcDbMText
 10
87.5
 20
90.6
 30
0.0
 40
3.2
 41
0.0
 71
     5
 72
     1
  1
\A1;25
 73
     1
 44
0.9
  0
POINT
  5
5C8
100
AcDbEntity
  8
DEFPOINTS
390
0
  6
CONTINUOUS
 62
     0
100
AcDbPoint
 10
75.0
 20
65.0
 30
0.0
  0
POINT
  5
5C9
100
AcDbEntity
  8
DEFPOINTS
390
0
  6
CONTINUOUS
 62
     0
100
AcDbPoint
 10
100.0
 20
67.0
 30
0.0
  0
POINT
  5
5CA
100
AcDbEntity
  8
DEFPOINTS
390
0
  6
CONTINUOUS
 62
     0
100
AcDbPoint
 10
100.0
 20
88.0
 30
0.0
  0
ENDBLK
  5
5CB
100
AcDbEntity
  8
0
370
    -2
390
0
  6
ByBlock
 62
     0
100
AcDbBlockEnd
  0
BLOCK
  5
5CE
100
AcDbEntity
  8
0
370
    -2
390
0
  6
ByBlock
 62
     0
100
AcDbBlockBegin
  2
*D65
 70
     1
 10
0.0
 20
0.0
 30
0.0
  3
*D65
  1

  0
LINE
  5
5CF
100
AcDbEntity
  8
0
390
0
  6
CONTINUOUS
 62
   110
100
AcDbLine
 10
-16.0
 20
-63.25
 30
0.0
 11
-16.0
 21
63.25
 31
0.0
  0
INSERT
  5
5D0
100
AcDbEntity
  8
0
390
0
  6
CONTINUOUS
 62
   110
100
AcDbBlockReference
  2
_OPEN30
 10
-16.0
 20
-63.25
 30
0.0
 41
2.77
 42
2.77
 43
2.77
 50
270.0
  0
INSERT
  5
5D1
100
AcDbEntity
  8
0
390
0
  6
CONTINUOUS
 62
   110
100
AcDbBlockReference
  2
_OPEN30
 10
-16.0
 20
63.25
 30
0.0
 41
2.77
 42
2.77
 43
2.77
 50
90.0
  0
MTEXT
  5
5D2
100
AcDbEntity
  8
0
390
0
  6
CONTINUOUS
 62
   110
100
AcDbMText
 10
-18.6
 20
16.0
 30
0.0
 40
3.2
 41
0.0
 71
     5
 72
     1
  1
\A1;\U+2205126.5
  7
MX_DIMTXSTY_8
 11
0.0
 21
1.0
 31
0.0
 73
     1
 44
0.9
  0
POINT
  5
5D3
100
AcDbEntity
  8
DEFPOINTS
390
0
  6
CONTINUOUS
 62
     0
100
AcDbPoint
 10
-12.675822
 20
-63.25
 30
0.0
  0
POINT
  5
5D4
100
AcDbEntity
  8
DEFPOINTS
390
0
  6
CONTINUOUS
 62
     0
100
AcDbPoint
 10
9.629541
 20
63.25
 30
0.0
  0
POINT
  5
5D5
100
AcDbEntity
  8
DEFPOINTS
390
0
  6
CONTINUOUS
 62
     0
100
AcDbPoint
 10
-16.0
 20
63.25
 30
0.0
  0
ENDBLK
  5
5D6
100
AcDbEntity
  8
0
370
    -2
390
0
  6
ByBlock
 62
     0
100
AcDbBlockEnd
  0
BLOCK
  5
5D9
100
AcDbEntity
  8
0
370
    -2
390
0
  6
ByBlock
 62
     0
100
AcDbBlockBegin
  2
*D66
 70
     1
 10
0.0
 20
0.0
 30
0.0
  3
*D66
  1

  0
LINE
  5
5DA
100
AcDbEntity
  8
0
390
0
  6
CONTINUOUS
 62
   110
100
AcDbLine
 10
-24.0
 20
51.5
 30
0.0
 11
-24.0
 21
-51.5
 31
0.0
  0
INSERT
  5
5DB
100
AcDbEntity
  8
0
390
0
  6
CONTINUOUS
 62
   110
100
AcDbBlockReference
  2
_OPEN30
 10
-24.0
 20
51.5
 30
0.0
 41
2.77
 42
2.77
 43
2.77
 50
90.0
  0
INSERT
  5
5DC
100
AcDbEntity
  8
0
390
0
  6
CONTINUOUS
 62
   110
100
AcDbBlockReference
  2
_OPEN30
 10
-24.0
 20
-51.5
 30
0.0
 41
2.77
 42
2.77
 43
2.77
 50
270.0
  0
MTEXT
  5
5DD
100
AcDbEntity
  8
0
390
0
  6
CONTINUOUS
 62
   110
100
AcDbMText
 10
-26.6
 20
16.0
 30
0.0
 40
3.2
 41
0.0
 71
     5
 72
     1
  1
\A1;\U+2205103
  7
MX_DIMTXSTY_2
 11
0.0
 21
1.0
 31
0.0
 73
     1
 44
0.9
  0
POINT
  5
5DE
100
AcDbEntity
  8
DEFPOINTS
390
0
  6
CONTINUOUS
 62
     0
100
AcDbPoint
 10
-51.530586
 20
51.5
 30
0.0
  0
POINT
  5
5DF
100
AcDbEntity
  8
DEFPOINTS
390
0
  6
CONTINUOUS
 62
     0
100
AcDbPoint
 10
-10.603979
 20
-51.5
 30
0.0
  0
POINT
  5
5E0
100
AcDbEntity
  8
DEFPOINTS
390
0
  6
CONTINUOUS
 62
     0
100
AcDbPoint
 10
-24.0
 20
-51.5
 30
0.0
  0
ENDBLK
  5
5E1
100
AcDbEntity
  8
0
370
    -2
390
0
  6
ByBlock
 62
     0
100
AcDbBlockEnd
  0
ENDSEC
  0
SECTION
  2
ENTITIES
  0
ARC
  5
627
100
AcDbEntity
  8
PV
390
0
  6
CONTINUOUS
 62
     3
100
AcDbCircle
 10
98.15099
 20
-42.0
 30
0.0
 40
1.5
100
AcDbArc
 50
195.0
 51
270.0
  0
LINE
  5
628
100
AcDbEntity
  8
PV
390
0
  6
CONTINUOUS
 62
     3
100
AcDbLine
 10
96.702102
 20
-42.388229
 30
0.0
 11
95.566472
 21
-38.15
 31
0.0
  0
LINE
  5
629
100
AcDbEntity
  8
PV
390
0
  6
CONTINUOUS
 62
     3
100
AcDbLine
 10
83.588824
 20
-38.15
 30
0.0
 11
95.566472
 21
-38.15
 31
0.0
  0
LINE
  5
62A
100
AcDbEntity
  8
PV
390
0
  6
CONTINUOUS
 62
     3
100
AcDbLine
 10
98.15099
 20
-43.5
 30
0.0
 11
100.0
 21
-43.5
 31
0.0
  0
LINE
  5
62B
100
AcDbEntity
  8
PV
390
0
  6
CONTINUOUS
 62
     3
100
AcDbLine
 10
80.0
 20
-35.1
 30
0.0
 11
100.0
 21
-35.1
 31
0.0
  0
ARC
  5
62C
100
AcDbEntity
  8
PV
390
0
  6
CONTINUOUS
 62
     3
100
AcDbCircle
 10
78.3
 20
-33.1
 30
0.0
 40
1.7
100
AcDbArc
 50
360.0
 51
180.0
  0
LINE
  5
62D
100
AcDbEntity
  8
PV
390
0
  6
CONTINUOUS
 62
     3
100
AcDbLine
 10
76.6
 20
-33.1
 30
0.0
 11
76.6
 21
-40.8
 31
0.0
  0
LINE
  5
62E
100
AcDbEntity
  8
PV
390
0
  6
CONTINUOUS
 62
     3
100
AcDbLine
 10
73.2
 20
-40.8
 30
0.0
 11
73.2
 21
-33.1
 31
0.0
  0
LINE
  5
62F
100
AcDbEntity
  8
PV
390
0
  6
CONTINUOUS
 62
     3
100
AcDbLine
 10
69.8
 20
-40.8
 30
0.0
 11
69.8
 21
-33.1
 31
0.0
  0
LINE
  5
630
100
AcDbEntity
  8
PV
390
0
  6
CONTINUOUS
 62
     3
100
AcDbLine
 10
66.4
 20
-40.8
 30
0.0
 11
66.4
 21
-33.1
 31
0.0
  0
LINE
  5
631
100
AcDbEntity
  8
PV
390
0
  6
CONTINUOUS
 62
     3
100
AcDbLine
 10
63.0
 20
-40.8
 30
0.0
 11
63.0
 21
-33.1
 31
0.0
  0
LINE
  5
632
100
AcDbEntity
  8
PV
390
0
  6
CONTINUOUS
 62
     3
100
AcDbLine
 10
59.6
 20
-40.8
 30
0.0
 11
59.6
 21
-33.1
 31
0.0
  0
ARC
  5
633
100
AcDbEntity
  8
PV
390
0
  6
CONTINUOUS
 62
     3
100
AcDbCircle
 10
74.9
 20
-40.8
 30
0.0
 40
1.7
100
AcDbArc
 50
180.0
 51
0.0
  0
ARC
  5
634
100
AcDbEntity
  8
PV
390
0
  6
CONTINUOUS
 62
     3
100
AcDbCircle
 10
71.5
 20
-33.1
 30
0.0
 40
1.7
100
AcDbArc
 50
360.0
 51
180.0
  0
ARC
  5
635
100
AcDbEntity
  8
PV
390
0
  6
CONTINUOUS
 62
     3
100
AcDbCircle
 10
68.1
 20
-40.8
 30
0.0
 40
1.7
100
AcDbArc
 50
180.0
 51
0.0
  0
ARC
  5
636
100
AcDbEntity
  8
PV
390
0
  6
CONTINUOUS
 62
     3
100
AcDbCircle
 10
64.7
 20
-33.1
 30
0.0
 40
1.7
100
AcDbArc
 50
360.0
 51
180.0
  0
ARC
  5
637
100
AcDbEntity
  8
PV
390
0
  6
CONTINUOUS
 62
     3
100
AcDbCircle
 10
61.3
 20
-40.8
 30
0.0
 40
1.7
100
AcDbArc
 50
180.0
 51
0.0
  0
LINE
  5
638
100
AcDbEntity
  8
PV
390
0
  6
CONTINUOUS
 62
     3
100
AcDbLine
 10
80.5
 20
-43.5
 30
0.0
 11
83.588824
 21
-38.15
 31
0.0
  0
LINE
  5
639
100
AcDbEntity
  8
PV
390
0
  6
CONTINUOUS
 62
     3
100
AcDbLine
 10
80.0
 20
-43.5
 30
0.0
 11
80.5
 21
-43.5
 31
0.0
  0
LINE
  5
63A
100
AcDbEntity
  8
PV
390
0
  6
PHANTOM
 62
   110
100
AcDbLine
 10
64.7
 20
-31.4
 30
0.0
 11
-4.013527
 21
-31.4
 31
0.0
  0
LINE
  5
63B
100
AcDbEntity
  8
PV
390
0
  6
PHANTOM
 62
   110
100
AcDbLine
 10
61.3
 20
-42.5
 30
0.0
 11
-5.970757
 21
-42.5
 31
0.0
  0
ARC
  5
63C
100
AcDbEntity
  8
PV
390
0
  6
CONTINUOUS
 62
     3
100
AcDbCircle
 10
98.15099
 20
42.0
 30
0.0
 40
1.5
100
AcDbArc
 50
90.0
 51
165.0
  0
LINE
  5
63D
100
AcDbEntity
  8
PV
390
0
  6
CONTINUOUS
 62
     3
100
AcDbLine
 10
80.0
 20
35.1
 30
0.0
 11
100.0
 21
35.1
 31
0.0
  0
LINE
  5
63E
100
AcDbEntity
  8
PV
390
0
  6
CONTINUOUS
 62
     3
100
AcDbLine
 10
80.5
 20
43.5
 30
0.0
 11
83.588824
 21
38.15
 31
0.0
  0
LINE
  5
63F
100
AcDbEntity
  8
PV
390
0
  6
CONTINUOUS
 62
     3
100
AcDbLine
 10
96.702102
 20
42.388229
 30
0.0
 11
95.566472
 21
38.15
 31
0.0
  0
LINE
  5
640
100
AcDbEntity
  8
PV
390
0
  6
CONTINUOUS
 62
     3
100
AcDbLine
 10
83.588824
 20
38.15
 30
0.0
 11
95.566472
 21
38.15
 31
0.0
  0
LINE
  5
641
100
AcDbEntity
  8
PV
390
0
  6
CONTINUOUS
 62
     3
100
AcDbLine
 10
98.15099
 20
43.5
 30
0.0
 11
100.0
 21
43.5
 31
0.0
  0
ARC
  5
642
100
AcDbEntity
  8
PV
390
0
  6
CONTINUOUS
 62
     3
100
AcDbCircle
 10
61.3
 20
40.8
 30
0.0
 40
1.7
100
AcDbArc
 50
360.0
 51
180.0
  0
ARC
  5
643
100
AcDbEntity
  8
PV
390
0
  6
CONTINUOUS
 62
     3
100
AcDbCircle
 10
64.7
 20
33.1
 30
0.0
 40
1.7
100
AcDbArc
 50
180.0
 51
0.0
  0
ARC
  5
644
100
AcDbEntity
  8
PV
390
0
  6
CONTINUOUS
 62
     3
100
AcDbCircle
 10
68.1
 20
40.8
 30
0.0
 40
1.7
100
AcDbArc
 50
360.0
 51
180.0
  0
ARC
  5
645
100
AcDbEntity
  8
PV
390
0
  6
CONTINUOUS
 62
     3
100
AcDbCircle
 10
71.5
 20
33.1
 30
0.0
 40
1.7
100
AcDbArc
 50
180.0
 51
0.0
  0
ARC
  5
646
100
AcDbEntity
  8
PV
390
0
  6
CONTINUOUS
 62
     3
100
AcDbCircle
 10
74.9
 20
40.8
 30
0.0
 40
1.7
100
AcDbArc
 50
360.0
 51
180.0
  0
ARC
  5
647
100
AcDbEntity
  8
PV
390
0
  6
CONTINUOUS
 62
     3
100
AcDbCircle
 10
78.3
 20
33.1
 30
0.0
 40
1.7
100
AcDbArc
 50
180.0
 51
0.0
  0
LINE
  5
648
100
AcDbEntity
  8
PV
390
0
  6
CONTINUOUS
 62
     3
100
AcDbLine
 10
59.6
 20
40.8
 30
0.0
 11
59.6
 21
33.1
 31
0.0
  0
LINE
  5
649
100
AcDbEntity
  8
PV
390
0
  6
CONTINUOUS
 62
     3
100
AcDbLine
 10
63.0
 20
40.8
 30
0.0
 11
63.0
 21
33.1
 31
0.0
  0
LINE
  5
64A
100
AcDbEntity
  8
PV
390
0
  6
CONTINUOUS
 62
     3
100
AcDbLine
 10
66.4
 20
40.8
 30
0.0
 11
66.4
 21
33.1
 31
0.0
  0
LINE
  5
64B
100
AcDbEntity
  8
PV
390
0
  6
CONTINUOUS
 62
     3
100
AcDbLine
 10
69.8
 20
40.8
 30
0.0
 11
69.8
 21
33.1
 31
0.0
  0
LINE
  5
64C
100
AcDbEntity
  8
PV
390
0
  6
CONTINUOUS
 62
     3
100
AcDbLine
 10
73.2
 20
40.8
 30
0.0
 11
73.2
 21
33.1
 31
0.0
  0
LINE
  5
64D
100
AcDbEntity
  8
PV
390
0
  6
CONTINUOUS
 62
     3
100
AcDbLine
 10
76.6
 20
33.1
 30
0.0
 11
76.6
 21
40.8
 31
0.0
  0
LINE
  5
64E
100
AcDbEntity
  8
PV
390
0
  6
CONTINUOUS
 62
     3
100
AcDbLine
 10
80.0
 20
43.5
 30
0.0
 11
80.5
 21
43.5
 31
0.0
  0
LINE
  5
64F
100
AcDbEntity
  8
PV
390
0
  6
PHANTOM
 62
   110
100
AcDbLine
 10
64.7
 20
31.4
 30
0.0
 11
7.059807
 21
31.4
 31
0.0
  0
LINE
  5
650
100
AcDbEntity
  8
PV
390
0
  6
PHANTOM
 62
   110
100
AcDbLine
 10
61.3
 20
42.5
 30
0.0
 11
9.017037
 21
42.5
 31
0.0
  0
LINE
  5
651
100
AcDbEntity
  8
PV
390
0
  6
CONTINUOUS
 62
     3
100
AcDbLine
 10
80.0
 20
43.5
 30
0.0
 11
80.0
 21
-43.5
 31
0.0
  0
LINE
  5
652
100
AcDbEntity
  8
PV
390
0
  6
CONTINUOUS
 62
     3
100
AcDbLine
 10
100.0
 20
43.5
 30
0.0
 11
100.0
 21
-43.5
 31
0.0
  0
LINE
  5
653
100
AcDbEntity
  8
PV
390
0
  6
CONTINUOUS
 62
     3
100
AcDbLine
 10
-80.0
 20
-43.5
 30
0.0
 11
-80.5
 21
-43.5
 31
0.0
  0
LINE
  5
654
100
AcDbEntity
  8
PV
390
0
  6
CONTINUOUS
 62
     3
100
AcDbLine
 10
-80.5
 20
-43.5
 30
0.0
 11
-83.588824
 21
-38.15
 31
0.0
  0
ARC
  5
655
100
AcDbEntity
  8
PV
390
0
  6
CONTINUOUS
 62
     3
100
AcDbCircle
 10
-61.3
 20
-40.8
 30
0.0
 40
1.7
100
AcDbArc
 50
180.0
 51
0.0
  0
ARC
  5
656
100
AcDbEntity
  8
PV
390
0
  6
CONTINUOUS
 62
     3
100
AcDbCircle
 10
-64.7
 20
-33.1
 30
0.0
 40
1.7
100
AcDbArc
 50
0.0
 51
180.0
  0
ARC
  5
657
100
AcDbEntity
  8
PV
390
0
  6
CONTINUOUS
 62
     3
100
AcDbCircle
 10
-68.1
 20
-40.8
 30
0.0
 40
1.7
100
AcDbArc
 50
180.0
 51
0.0
  0
ARC
  5
658
100
AcDbEntity
  8
PV
390
0
  6
CONTINUOUS
 62
     3
100
AcDbCircle
 10
-71.5
 20
-33.1
 30
0.0
 40
1.7
100
AcDbArc
 50
0.0
 51
180.0
  0
ARC
  5
659
100
AcDbEntity
  8
PV
390
0
  6
CONTINUOUS
 62
     3
100
AcDbCircle
 10
-74.9
 20
-40.8
 30
0.0
 40
1.7
100
AcDbArc
 50
180.0
 51
0.0
  0
LINE
  5
65A
100
AcDbEntity
  8
PV
390
0
  6
CONTINUOUS
 62
     3
100
AcDbLine
 10
-59.6
 20
-40.8
 30
0.0
 11
-59.6
 21
-33.1
 31
0.0
  0
LINE
  5
65B
100
AcDbEntity
  8
PV
390
0
  6
CONTINUOUS
 62
     3
100
AcDbLine
 10
-63.0
 20
-40.8
 30
0.0
 11
-63.0
 21
-33.1
 31
0.0
  0
LINE
  5
65C
100
AcDbEntity
  8
PV
390
0
  6
CONTINUOUS
 62
     3
100
AcDbLine
 10
-66.4
 20
-40.8
 30
0.0
 11
-66.4
 21
-33.1
 31
0.0
  0
LINE
  5
65D
100
AcDbEntity
  8
PV
390
0
  6
CONTINUOUS
 62
     3
100
AcDbLine
 10
-69.8
 20
-40.8
 30
0.0
 11
-69.8
 21
-33.1
 31
0.0
  0
LINE
  5
65E
100
AcDbEntity
  8
PV
390
0
  6
CONTINUOUS
 62
     3
100
AcDbLine
 10
-73.2
 20
-40.8
 30
0.0
 11
-73.2
 21
-33.1
 31
0.0
  0
LINE
  5
65F
100
AcDbEntity
  8
PV
390
0
  6
CONTINUOUS
 62
     3
100
AcDbLine
 10
-76.6
 20
-33.1
 30
0.0
 11
-76.6
 21
-40.8
 31
0.0
  0
LINE
  5
660
100
AcDbEntity
  8
PV
390
0
  6
PHANTOM
 62
   110
100
AcDbLine
 10
-64.7
 20
-31.4
 30
0.0
 11
-7.059807
 21
-31.4
 31
0.0
  0
LINE
  5
661
100
AcDbEntity
  8
PV
390
0
  6
PHANTOM
 62
   110
100
AcDbLine
 10
-61.3
 20
-42.5
 30
0.0
 11
-9.017037
 21
-42.5
 31
0.0
  0
ARC
  5
662
100
AcDbEntity
  8
PV
390
0
  6
CONTINUOUS
 62
     3
100
AcDbCircle
 10
-78.3
 20
-33.1
 30
0.0
 40
1.7
100
AcDbArc
 50
0.0
 51
180.0
  0
LINE
  5
663
100
AcDbEntity
  8
PV
390
0
  6
CONTINUOUS
 62
     3
100
AcDbLine
 10
-80.0
 20
43.5
 30
0.0
 11
-80.5
 21
43.5
 31
0.0
  0
LINE
  5
664
100
AcDbEntity
  8
PV
390
0
  6
CONTINUOUS
 62
     3
100
AcDbLine
 10
-76.6
 20
33.1
 30
0.0
 11
-76.6
 21
40.8
 31
0.0
  0
LINE
  5
665
100
AcDbEntity
  8
PV
390
0
  6
CONTINUOUS
 62
     3
100
AcDbLine
 10
-73.2
 20
40.8
 30
0.0
 11
-73.2
 21
33.1
 31
0.0
  0
LINE
  5
666
100
AcDbEntity
  8
PV
390
0
  6
CONTINUOUS
 62
     3
100
AcDbLine
 10
-69.8
 20
40.8
 30
0.0
 11
-69.8
 21
33.1
 31
0.0
  0
LINE
  5
667
100
AcDbEntity
  8
PV
390
0
  6
CONTINUOUS
 62
     3
100
AcDbLine
 10
-66.4
 20
40.8
 30
0.0
 11
-66.4
 21
33.1
 31
0.0
  0
LINE
  5
668
100
AcDbEntity
  8
PV
390
0
  6
CONTINUOUS
 62
     3
100
AcDbLine
 10
-63.0
 20
40.8
 30
0.0
 11
-63.0
 21
33.1
 31
0.0
  0
LINE
  5
669
100
AcDbEntity
  8
PV
390
0
  6
CONTINUOUS
 62
     3
100
AcDbLine
 10
-59.6
 20
40.8
 30
0.0
 11
-59.6
 21
33.1
 31
0.0
  0
LINE
  5
66A
100
AcDbEntity
  8
PV
390
0
  6
PHANTOM
 62
   110
100
AcDbLine
 10
-64.7
 20
31.4
 30
0.0
 11
4.013527
 21
31.4
 31
0.0
  0
LINE
  5
66B
100
AcDbEntity
  8
PV
390
0
  6
PHANTOM
 62
   110
100
AcDbLine
 10
-61.3
 20
42.5
 30
0.0
 11
5.970757
 21
42.5
 31
0.0
  0
ARC
  5
66C
100
AcDbEntity
  8
PV
390
0
  6
CONTINUOUS
 62
     3
100
AcDbCircle
 10
-78.3
 20
33.1
 30
0.0
 40
1.7
100
AcDbArc
 50
180.0
 51
0.0
  0
ARC
  5
66D
100
AcDbEntity
  8
PV
390
0
  6
CONTINUOUS
 62
     3
100
AcDbCircle
 10
-74.9
 20
40.8
 30
0.0
 40
1.7
100
AcDbArc
 50
0.0
 51
180.0
  0
ARC
  5
66E
100
AcDbEntity
  8
PV
390
0
  6
CONTINUOUS
 62
     3
100
AcDbCircle
 10
-71.5
 20
33.1
 30
0.0
 40
1.7
100
AcDbArc
 50
180.0
 51
0.0
  0
ARC
  5
66F
100
AcDbEntity
  8
PV
390
0
  6
CONTINUOUS
 62
     3
100
AcDbCircle
 10
-68.1
 20
40.8
 30
0.0
 40
1.7
100
AcDbArc
 50
0.0
 51
180.0
  0
ARC
  5
670
100
AcDbEntity
  8
PV
390
0
  6
CONTINUOUS
 62
     3
100
AcDbCircle
 10
-64.7
 20
33.1
 30
0.0
 40
1.7
100
AcDbArc
 50
180.0
 51
0.0
  0
ARC
  5
671
100
AcDbEntity
  8
PV
390
0
  6
CONTINUOUS
 62
     3
100
AcDbCircle
 10
-61.3
 20
40.8
 30
0.0
 40
1.7
100
AcDbArc
 50
0.0
 51
180.0
  0
LINE
  5
672
100
AcDbEntity
  8
PV
390
0
  6
CENTER
 62
   110
100
AcDbLine
 10
-110.0
 20
0.0
 30
0.0
 11
110.0
 21
0.0
 31
0.0
  0
LINE
  5
673
100
AcDbEntity
  8
PV
390
0
  6
CONTINUOUS
 62
     3
100
AcDbLine
 10
-80.0
 20
43.5
 30
0.0
 11
-80.0
 21
-43.5
 31
0.0
  0
LINE
  5
674
100
AcDbEntity
  8
PV
390
0
  6
CENTER
 62
   110
100
AcDbLine
 10
-6.543819
 20
-45.75
 30
0.0
 11
9.590099
 21
45.75
 31
0.0
  0
LINE
  5
675
100
AcDbEntity
  8
PV
390
0
  6
CENTER
 62
   110
100
AcDbLine
 10
-9.590099
 20
-45.75
 30
0.0
 11
6.543819
 21
45.75
 31
0.0
  0
LINE
  5
676
100
AcDbEntity
  8
PV
390
0
  6
CONTINUOUS
 62
     3
100
AcDbLine
 10
-100.0
 20
43.5
 30
0.0
 11
-100.0
 21
-43.5
 31
0.0
  0
LINE
  5
677
100
AcDbEntity
  8
PV
390
0
  6
CONTINUOUS
 62
     3
100
AcDbLine
 10
-98.15099
 20
43.5
 30
0.0
 11
-100.0
 21
43.5
 31
0.0
  0
LINE
  5
678
100
AcDbEntity
  8
PV
390
0
  6
CONTINUOUS
 62
     3
100
AcDbLine
 10
-83.588824
 20
38.15
 30
0.0
 11
-95.566472
 21
38.15
 31
0.0
  0
LINE
  5
679
100
AcDbEntity
  8
PV
390
0
  6
CONTINUOUS
 62
     3
100
AcDbLine
 10
-96.702102
 20
42.388229
 30
0.0
 11
-95.566472
 21
38.15
 31
0.0
  0
LINE
  5
67A
100
AcDbEntity
  8
PV
390
0
  6
CONTINUOUS
 62
     3
100
AcDbLine
 10
-80.5
 20
43.5
 30
0.0
 11
-83.588824
 21
38.15
 31
0.0
  0
LINE
  5
67B
100
AcDbEntity
  8
PV
390
0
  6
CONTINUOUS
 62
     3
100
AcDbLine
 10
-80.0
 20
35.1
 30
0.0
 11
-100.0
 21
35.1
 31
0.0
  0
LINE
  5
67C
100
AcDbEntity
  8
PV
390
0
  6
CONTINUOUS
 62
     3
100
AcDbLine
 10
-80.0
 20
-35.1
 30
0.0
 11
-100.0
 21
-35.1
 31
0.0
  0
LINE
  5
67D
100
AcDbEntity
  8
PV
390
0
  6
CONTINUOUS
 62
     3
100
AcDbLine
 10
-98.15099
 20
-43.5
 30
0.0
 11
-100.0
 21
-43.5
 31
0.0
  0
LINE
  5
67E
100
AcDbEntity
  8
PV
390
0
  6
CONTINUOUS
 62
     3
100
AcDbLine
 10
-83.588824
 20
-38.15
 30
0.0
 11
-95.566472
 21
-38.15
 31
0.0
  0
LINE
  5
67F
100
AcDbEntity
  8
PV
390
0
  6
CONTINUOUS
 62
     3
100
AcDbLine
 10
-96.702102
 20
-42.388229
 30
0.0
 11
-95.566472
 21
-38.15
 31
0.0
  0
CIRCLE
  5
680
100
AcDbEntity
  8
PV
390
0
  6
CONTINUOUS
 62
     3
 60
     1
100
AcDbCircle
 10
49.699997
 20
30.85
 30
0.0
 40
4.200005
  0
ARC
  5
681
100
AcDbEntity
  8
PV
390
0
  6
CONTINUOUS
 62
     3
100
AcDbCircle
 10
-98.15099
 20
42.0
 30
0.0
 40
1.5
100
AcDbArc
 50
15.0
 51
90.0
  0
ARC
  5
682
100
AcDbEntity
  8
PV
390
0
  6
CONTINUOUS
 62
     3
100
AcDbCircle
 10
-98.15099
 20
-42.0
 30
0.0
 40
1.5
100
AcDbArc
 50
270.0
 51
345.0
  0
CIRCLE
  5
683
100
AcDbEntity
  8
PV
390
0
  6
CONTINUOUS
 62
     3
 60
     1
100
AcDbCircle
 10
-50.300003
 20
30.85
 30
0.0
 40
4.200005
  0
ENDSEC
  0
SECTION
  2
OBJECTS
  0
DICTIONARY
  5
19
100
AcDbDictionary
280
     0
281
     1
  3
ACAD_GROUP
350
1A
  3
ACAD_MLINESTYLE
350
1B
  3
ACAD_LAYOUT
350
1E
  3
ACAD_PLOTSETTINGS
350
22
  3
ACAD_PLOTSTYLENAME
350
1F
  0
DICTIONARY
  5
1A
102
{ACAD_REACTORS
330
19
102
}
100
AcDbDictionary
280
     0
281
     1
  0
DICTIONARY
  5
1B
102
{ACAD_REACTORS
330
19
102
}
100
AcDbDictionary
280
     0
281
     1
  3
Standard
350
1C
  0
MLINESTYLE
  5
1C
102
{ACAD_REACTORS
330
1B
102
}
100
AcDbMlineStyle
  2
Standard
 70
     0
  3

 62
     0
 51
90.0
 52
90.0
 71
     2
 49
0.5
 62
   256
  6
ByLayer
 49
-0.5
 62
   256
  6
ByLayer
  0
ACDBDICTIONARYWDFLT
  5
1F
102
{ACAD_REACTORS
330
19
102
}
100
AcDbDictionary
281
     1
  3
Normal
350
1D
100
AcDbDictionaryWithDefault
340
1D
  0
ACDBPLACEHOLDER
  5
1D
102
{ACAD_REACTORS
330
1F
102
}
  0
LAYOUT
  5
20
102
{ACAD_REACTORS
330
1E
102
}
100
AcDbPlotSettings
  1

  2

  4

  6

 40
0.0
 41
0.0
 42
0.0
 43
0.0
 44
0.0
 45
0.0
 46
0.0
 47
0.0
 48
0.0
 49
0.0
140
0.0
141
0.0
142
1.0
143
1.0
 70
  1024
 72
     0
 73
     0
 74
     0
  7

 75
     0
147
1.0
148
0.0
149
0.0
100
AcDbLayout
  1
Model
 70
     0
 71
     0
 10
0.0
 20
0.0
 11
0.0
 21
0.0
 12
0.0
 22
0.0
 32
0.0
 14
0.0
 24
0.0
 34
0.0
 15
0.0
 25
0.0
 35
0.0
146
0.0
 13
0.0
 23
0.0
 33
0.0
 16
0.0
 26
0.0
 36
0.0
 17
0.0
 27
0.0
 37
0.0
 76
     0
330
A
331
0
345
0
346
0
  0
LAYOUT
  5
21
102
{ACAD_REACTORS
330
1E
102
}
100
AcDbPlotSettings
  1

  2

  4

  6

 40
0.0
 41
0.0
 42
0.0
 43
0.0
 44
0.0
 45
0.0
 46
0.0
 47
0.0
 48
0.0
 49
0.0
140
0.0
141
0.0
142
1.0
143
1.0
 70
     0
 72
     0
 73
     0
 74
     0
  7

 75
     0
147
1.0
148
0.0
149
0.0
100
AcDbLayout
  1
Layout1
 70
     0
 71
     0
 10
0.0
 20
0.0
 11
0.0
 21
0.0
 12
0.0
 22
0.0
 32
0.0
 14
0.0
 24
0.0
 34
0.0
 15
0.0
 25
0.0
 35
0.0
146
0.0
 13
0.0
 23
0.0
 33
0.0
 16
0.0
 26
0.0
 36
0.0
 17
0.0
 27
0.0
 37
0.0
 76
     0
330
B
331
0
345
0
346
0
  0
DICTIONARY
  5
1E
102
{ACAD_REACTORS
330
19
102
}
100
AcDbDictionary
280
     0
281
     1
  3
Layout1
350
21
  3
Model
350
20
  0
DICTIONARY
  5
22
102
{ACAD_REACTORS
330
19
102
}
100
AcDbDictionary
280
     0
281
     1
  0
ENDSEC
  0
EOF
