  0
SECTION
  2
HEADER
  9
$ACADVER
  1
AC1015
  9
$ACADMAINTVER
 70
    10
  9
$DWGCODEPAGE
  3
ANSI_932
  9
$INSBASE
 10
0.0
 20
0.0
 30
0.0
  9
$EXTMIN
 10
-230.8782034123324
 20
-279.444067575951
 30
-0.0015258207003583
  9
$EXTMAX
 10
124.5858480674901
 20
211.5703556386122
 30
0.0000000349246037
  9
$LIMMIN
 10
-230.8673569999999
 20
-279.429
  9
$LIMMAX
 10
124.575
 20
214.3429999999999
  9
$ORTHOMODE
 70
     0
  9
$REGENMODE
 70
     1
  9
$FILLMODE
 70
     1
  9
$QTEXTMODE
 70
     0
  9
$MIRRTEXT
 70
     1
  9
$LTSCALE
 40
0.3
  9
$ATTMODE
 70
     1
  9
$TEXTSIZE
 40
3.2
  9
$TRACEWID
 40
0.05
  9
$TEXTSTYLE
  7
MX_NOTE_STANDARD
  9
$CLAYER
  8
0
  9
$CELTYPE
  6
CONTINUOUS
  9
$CECOLOR
 62
   256
  9
$CELTSCALE
 40
1.0
  9
$DISPSILH
 70
     0
  9
$DIMSCALE
 40
1.0
  9
$DIMASZ
 40
2.5
  9
$DIMEXO
 40
2.54
  9
$DIMDLI
 40
3.75
  9
$DIMRND
 40
0.0
  9
$DIMDLE
 40
0.0
  9
$DIMEXE
 40
2.286
  9
$DIMTP
 40
0.0
  9
$DIMTM
 40
0.0
  9
$DIMTXT
 40
3.2
  9
$DIMCEN
 40
2.5
  9
$DIMTSZ
 40
0.0
  9
$DIMTOL
 70
     0
  9
$DIMLIM
 70
     0
  9
$DIMTIH
 70
     0
  9
$DIMTOH
 70
     0
  9
$DIMSE1
 70
     0
  9
$DIMSE2
 70
     0
  9
$DIMTAD
 70
     1
  9
$DIMZIN
 70
     8
  9
$DIMBLK
  1

  9
$DIMASO
 70
     1
  9
$DIMSHO
 70
     1
  9
$DIMPOST
  1

  9
$DIMAPOST
  1

  9
$DIMALT
 70
     0
  9
$DIMALTD
 70
     4
  9
$DIMALTF
 40
0.03937
  9
$DIMLFAC
 40
1.0
  9
$DIMTOFL
 70
     1
  9
$DIMTVP
 40
0.0
  9
$DIMTIX
 70
     0
  9
$DIMSOXD
 70
     0
  9
$DIMSAH
 70
     1
  9
$DIMBLK1
  1
OPEN30
  9
$DIMBLK2
  1
OPEN30
  9
$DIMSTYLE
  2
MXDIMSTYLE
  9
$DIMCLRD
 70
     0
  9
$DIMCLRE
 70
     0
  9
$DIMCLRT
 70
     0
  9
$DIMTFAC
 40
1.0
  9
$DIMGAP
 40
1.0
  9
$DIMJUST
 70
     0
  9
$DIMSD1
 70
     0
  9
$DIMSD2
 70
     0
  9
$DIMTOLJ
 70
     0
  9
$DIMTZIN
 70
     0
  9
$DIMALTZ
 70
     0
  9
$DIMALTTZ
 70
     0
  9
$DIMUPT
 70
     1
  9
$DIMDEC
 70
     2
  9
$DIMTDEC
 70
     2
  9
$DIMALTU
 70
     2
  9
$DIMALTTD
 70
     4
  9
$DIMTXSTY
  7
MX_NOTE_STANDARD
  9
$DIMAUNIT
 70
     0
  9
$DIMADEC
 70
     0
  9
$DIMALTRND
 40
0.0
  9
$DIMAZIN
 70
     0
  9
$DIMDSEP
 70
    46
  9
$DIMATFIT
 70
     3
  9
$DIMFRAC
 70
     0
  9
$DIMLDRBLK
  1
OPEN30
  9
$DIMLUNIT
 70
     2
  9
$DIMLWD
 70
    -2
  9
$DIMLWE
 70
    -2
  9
$DIMTMOVE
 70
     0
  9
$LUNITS
 70
     2
  9
$LUPREC
 70
     4
  9
$SKETCHINC
 40
0.1
  9
$FILLETRAD
 40
0.0
  9
$AUNITS
 70
     0
  9
$AUPREC
 70
     0
  9
$MENU
  1
acad
  9
$ELEVATION
 40
0.0
  9
$PELEVATION
 40
0.0
  9
$THICKNESS
 40
0.0
  9
$LIMCHECK
 70
     0
  9
$CHAMFERA
 40
0.0
  9
$CHAMFERB
 40
0.0
  9
$CHAMFERC
 40
0.0
  9
$CHAMFERD
 40
0.0
  9
$SKPOLY
 70
     0
  9
$TDCREATE
 40
2455289.543617581
  9
$TDUCREATE
 40
2455289.168617581
  9
$TDUPDATE
 40
2455289.544889085
  9
$TDUUPDATE
 40
2455289.169889085
  9
$TDINDWG
 40
0.0012724074
  9
$TDUSRTIMER
 40
0.0012720486
  9
$USRTIMER
 70
     1
  9
$ANGBASE
 50
0.0
  9
$ANGDIR
 70
     0
  9
$PDMODE
 70
     0
  9
$PDSIZE
 40
0.0
  9
$PLINEWID
 40
0.0
  9
$SPLFRAME
 70
     0
  9
$SPLINETYPE
 70
     6
  9
$SPLINESEGS
 70
     8
  9
$HANDSEED
  5
3DC
  9
$SURFTAB1
 70
     6
  9
$SURFTAB2
 70
     6
  9
$SURFTYPE
 70
     6
  9
$SURFU
 70
     6
  9
$SURFV
 70
     6
  9
$UCSBASE
  2

  9
$UCSNAME
  2

  9
$UCSORG
 10
0.0
 20
0.0
 30
0.0
  9
$UCSXDIR
 10
1.0
 20
0.0
 30
0.0
  9
$UCSYDIR
 10
0.0
 20
1.0
 30
0.0
  9
$UCSORTHOREF
  2

  9
$UCSORTHOVIEW
 70
     0
  9
$UCSORGTOP
 10
0.0
 20
0.0
 30
0.0
  9
$UCSORGBOTTOM
 10
0.0
 20
0.0
 30
0.0
  9
$UCSORGLEFT
 10
0.0
 20
0.0
 30
0.0
  9
$UCSORGRIGHT
 10
0.0
 20
0.0
 30
0.0
  9
$UCSORGFRONT
 10
0.0
 20
0.0
 30
0.0
  9
$UCSORGBACK
 10
0.0
 20
0.0
 30
0.0
  9
$PUCSBASE
  2

  9
$PUCSNAME
  2

  9
$PUCSORG
 10
0.0
 20
0.0
 30
0.0
  9
$PUCSXDIR
 10
1.0
 20
0.0
 30
0.0
  9
$PUCSYDIR
 10
0.0
 20
1.0
 30
0.0
  9
$PUCSORTHOREF
  2

  9
$PUCSORTHOVIEW
 70
     0
  9
$PUCSORGTOP
 10
0.0
 20
0.0
 30
0.0
  9
$PUCSORGBOTTOM
 10
0.0
 20
0.0
 30
0.0
  9
$PUCSORGLEFT
 10
0.0
 20
0.0
 30
0.0
  9
$PUCSORGRIGHT
 10
0.0
 20
0.0
 30
0.0
  9
$PUCSORGFRONT
 10
0.0
 20
0.0
 30
0.0
  9
$PUCSORGBACK
 10
0.0
 20
0.0
 30
0.0
  9
$USERI1
 70
     0
  9
$USERI2
 70
     0
  9
$USERI3
 70
     0
  9
$USERI4
 70
     0
  9
$USERI5
 70
     0
  9
$USERR1
 40
0.0
  9
$USERR2
 40
0.0
  9
$USERR3
 40
0.0
  9
$USERR4
 40
0.0
  9
$USERR5
 40
0.0
  9
$WORLDVIEW
 70
     1
  9
$SHADEDGE
 70
     3
  9
$SHADEDIF
 70
    70
  9
$TILEMODE
 70
     1
  9
$MAXACTVP
 70
    16
  9
$PINSBASE
 10
0.0
 20
0.0
 30
0.0
  9
$PLIMCHECK
 70
     0
  9
$PEXTMIN
 10
1.000000000000000E+20
 20
1.000000000000000E+20
 30
1.000000000000000E+20
  9
$PEXTMAX
 10
-1.000000000000000E+20
 20
-1.000000000000000E+20
 30
-1.000000000000000E+20
  9
$PLIMMIN
 10
0.0
 20
0.0
  9
$PLIMMAX
 10
12.0
 20
9.0
  9
$UNITMODE
 70
     0
  9
$VISRETAIN
 70
     0
  9
$PLINEGEN
 70
     1
  9
$PSLTSCALE
 70
     0
  9
$TREEDEPTH
 70
  3020
  9
$CMLSTYLE
  2
Standard
  9
$CMLJUST
 70
     0
  9
$CMLSCALE
 40
1.0
  9
$PROXYGRAPHICS
 70
     0
  9
$MEASUREMENT
 70
     1
  9
$CELWEIGHT
370
     0
  9
$ENDCAPS
280
     0
  9
$JOINSTYLE
280
     0
  9
$LWDISPLAY
290
     0
  9
$INSUNITS
 70
     0
  9
$HYPERLINKBASE
  1

  9
$STYLESHEET
  1

  9
$XEDIT
290
     1
  9
$CEPSNTYPE
380
     0
  9
$PSTYLEMODE
290
     1
  9
$FINGERPRINTGUID
  2

  9
$VERSIONGUID
  2
{19052532-40F7-4DBD-BF50-BE8E4EF3DB4D}
  9
$EXTNAMES
290
     1
  9
$PSVPSCALE
 40
0.0
  9
$OLESTARTUP
290
     0
  0
ENDSEC
  0
SECTION
  2
CLASSES
  0
CLASS
  1
LWPOLYLINE
  2
AcDbPolyline
  3
AutoCAD 2000
 90
    32768
280
     0
281
     1
  0
CLASS
  1
IMAGE
  2
AcDbRasterImage
  3
ISM
 90
    32895
280
     0
281
     1
  0
CLASS
  1
OLE2FRAME
  2
AcDbOle2Frame
  3
AutoCAD 2000
 90
    32768
280
     0
281
     1
  0
CLASS
  1
HATCH
  2
AcDbHatch
  3
AutoCAD 2000
 90
    32768
280
     0
281
     1
  0
CLASS
  1
DICTIONARYVAR
  2
AcDbDictionaryVar
  3
AutoCAD 2000
 90
    32768
280
     0
281
     0
  0
CLASS
  1
RASTERVARIABLES
  2
AcDbRasterVariables
  3
ISM
 90
    32768
280
     0
281
     0
  0
CLASS
  1
IMAGEDEF
  2
AcDbRasterImageDef
  3
ISM
 90
    32768
280
     0
281
     0
  0
CLASS
  1
IMAGEDEF_REACTOR
  2
AcDbRasterImageDefReactor
  3
ISM
 90
    32769
280
     0
281
     0
  0
CLASS
  1
IDBUFFER
  2
AcDbIdBuffer
  3
AutoCAD 2000
 90
    32768
280
     0
281
     0
  0
CLASS
  1
SPATIAL_FILTER
  2
AcDbSpatialFilter
  3
AutoCAD 2000
 90
    32768
280
     0
281
     0
  0
CLASS
  1
XRECORD
  2
AcDbXrecord
  3
AutoCAD 2000
 90
    32768
280
     0
281
     0
  0
CLASS
  1
SORTENTSTABLE
  2
AcDbSortentsTable
  3
AutoCAD 2000
 90
    32768
280
     0
281
     0
  0
CLASS
  1
LAYER_INDEX
  2
AcDbLayerIndex
  3
AutoCAD 2000
 90
    32768
280
     0
281
     0
  0
CLASS
  1
SPATIAL_INDEX
  2
AcDbSpatialIndex
  3
AutoCAD 2000
 90
    32768
280
     0
281
     0
  0
CLASS
  1
OBJECT_PTR
  2
CAseDLPNTableRecord
  3
"ASE-LPNTableRecord"
 90
    32769
280
     0
281
     0
  0
CLASS
  1
LAYOUT
  2
AcDbLayout
  3
AutoCAD 2000
 90
        0
280
     0
281
     0
  0
CLASS
  1
PLOTSETTINGS
  2
AcDbPlotSettings
  3
AutoCAD 2000
 90
    32768
280
     0
281
     0
  0
CLASS
  1
ACDBDICTIONARYWDFLT
  2
AcDbDictionaryWithDefault
  3
AutoCAD 2000
 90
        0
280
     0
281
     0
  0
CLASS
  1
ACDBPLACEHOLDER
  2
AcDbPlaceHolder
  3
AutoCAD 2000
 90
        0
280
     0
281
     0
  0
ENDSEC
  0
SECTION
  2
TABLES
  0
TABLE
  2
VPORT
  5
7
330
0
100
AcDbSymbolTable
 70
     2
  0
VPORT
  5
3DB
330
7
100
AcDbSymbolTableRecord
100
AcDbViewportTableRecord
  2
*Active
 70
     0
 10
0.0
 20
0.0
 11
1.0
 21
1.0
 12
-53.14617900000007
 22
-0.6636886209284399
 13
0.0
 23
0.0
 14
1.0
 24
1.0
 15
0.0
 25
0.0
 16
0.0
 26
0.0
 36
1.0
 17
0.0
 27
0.0
 37
0.0
 40
562.468342758143
 41
1.535714285714285
 42
50.0
 43
0.0
 44
0.0
 50
0.0
 51
0.0
 71
     0
 72
   100
 73
     1
 74
     1
 75
     0
 76
     0
 77
     0
 78
     0
281
     0
 65
     0
110
0.0
120
0.0
130
0.0
111
1.0
121
0.0
131
0.0
112
0.0
122
1.0
132
0.0
 79
     0
146
0.0
  0
ENDTAB
  0
TABLE
  2
LTYPE
  5
4
330
0
100
AcDbSymbolTable
 70
     4
  0
LTYPE
  5
11
330
4
100
AcDbSymbolTableRecord
100
AcDbLinetypeTableRecord
  2
BYBLOCK
 70
     0
  3

 72
    65
 73
     0
 40
0.0
  0
LTYPE
  5
12
330
4
100
AcDbSymbolTableRecord
100
AcDbLinetypeTableRecord
  2
BYLAYER
 70
     0
  3

 72
    65
 73
     0
 40
0.0
  0
LTYPE
  5
13
330
4
100
AcDbSymbolTableRecord
100
AcDbLinetypeTableRecord
  2
CONTINUOUS
 70
     0
  3
Solid line
 72
    65
 73
     0
 40
0.0
  0
LTYPE
  5
327
330
4
100
AcDbSymbolTableRecord
100
AcDbLinetypeTableRecord
  2
PHANTOM
 70
     0
  3
Phantom ______  __  __  ______  __  __  ______
 72
    65
 73
     6
 40
63.5
 49
31.75
 74
     0
 49
-6.349999999999999
 74
     0
 49
6.349999999999999
 74
     0
 49
-6.349999999999999
 74
     0
 49
6.349999999999999
 74
     0
 49
-6.349999999999999
 74
     0
  0
LTYPE
  5
331
330
4
100
AcDbSymbolTableRecord
100
AcDbLinetypeTableRecord
  2
CENTER
 70
     0
  3
Center ____ _ ____ _ ____ _ ____ _ ____ _ ____
 72
    65
 73
     4
 40
50.8
 49
31.75
 74
     0
 49
-6.349999999999999
 74
     0
 49
6.349999999999999
 74
     0
 49
-6.349999999999999
 74
     0
  0
LTYPE
  5
34F
330
4
100
AcDbSymbolTableRecord
100
AcDbLinetypeTableRecord
  2
DASHED
 70
     0
  3
Dashed __ __ __ __ __ __ __ __ __ __ __ __ __ _
 72
    65
 73
     2
 40
19.05
 49
12.7
 74
     0
 49
-6.349999999999999
 74
     0
  0
ENDTAB
  0
TABLE
  2
LAYER
  5
2
330
0
100
AcDbSymbolTable
 70
     4
  0
LAYER
  5
14
330
2
100
AcDbSymbolTableRecord
100
AcDbLayerTableRecord
  2
0
 70
     0
 62
     7
  6
CONTINUOUS
370
    -3
390
1D
  0
LAYER
  5
23
330
2
100
AcDbSymbolTableRecord
100
AcDbLayerTableRecord
  2
DEFPOINTS
 70
     0
 62
     7
  6
CONTINUOUS
290
     0
370
    -3
390
1D
  0
LAYER
  5
24
330
2
100
AcDbSymbolTableRecord
100
AcDbLayerTableRecord
  2
PV
 70
     0
 62
     7
  6
CONTINUOUS
370
    -3
390
1D
  0
LAYER
  5
25
330
2
100
AcDbSymbolTableRecord
100
AcDbLayerTableRecord
  2
WV
 70
     0
 62
     7
  6
CONTINUOUS
370
    -3
390
1D
  0
ENDTAB
  0
TABLE
  2
STYLE
  5
3
330
0
100
AcDbSymbolTable
 70
     3
  0
STYLE
  5
17
330
3
100
AcDbSymbolTableRecord
100
AcDbTextStyleTableRecord
  2
MX_NOTE_STANDARD
 70
     0
 40
0.0
 41
1.0
 50
0.0
 71
     0
 42
3.2
  3
txt.shx
  4
extfont.shx
  0
STYLE
  5
36
330
3
100
AcDbSymbolTableRecord
100
AcDbTextStyleTableRecord
  2
MX_DIMTXSTY_2
 70
     0
 40
0.0
 41
0.9
 50
0.0
 71
     0
 42
3.2
  3
txt.shx
  4
extfont.shx
  0
STYLE
  5
3D7
330
3
100
AcDbSymbolTableRecord
100
AcDbTextStyleTableRecord
  2
Standard
 70
     0
 40
0.0
 41
1.0
 50
0.0
 71
     0
 42
0.2
  3

  4

  0
ENDTAB
  0
TABLE
  2
VIEW
  5
5
330
0
100
AcDbSymbolTable
 70
     0
  0
ENDTAB
  0
TABLE
  2
UCS
  5
6
330
0
100
AcDbSymbolTable
 70
     0
  0
ENDTAB
  0
TABLE
  2
APPID
  5
8
330
0
100
AcDbSymbolTable
 70
     1
  0
APPID
  5
16
330
8
100
AcDbSymbolTableRecord
100
AcDbRegAppTableRecord
  2
ACAD
 70
     0
  0
ENDTAB
  0
TABLE
  2
DIMSTYLE
  5
9
330
0
100
AcDbSymbolTable
 70
     1
100
AcDbDimStyleTable
 71
     0
  0
DIMSTYLE
105
18
102
{ACAD_REACTORS
330
3B
102
}
330
9
100
AcDbSymbolTableRecord
100
AcDbDimStyleTableRecord
  2
MXDIMSTYLE
 70
     0
 41
2.5
 42
2.54
 43
3.75
 44
2.286
 73
     0
 74
     0
 77
     1
 78
     8
140
3.2
141
2.5
143
0.03937
147
1.0
171
     4
172
     1
173
     1
271
     2
272
     2
274
     4
283
     0
288
     1
340
17
341
26
343
26
344
26
  0
ENDTAB
  0
TABLE
  2
BLOCK_RECORD
  5
1
330
0
100
AcDbSymbolTable
 70
     3
  0
BLOCK_RECORD
  5
A
330
1
100
AcDbSymbolTableRecord
100
AcDbBlockTableRecord
  2
*MODEL_SPACE
340
20
  0
BLOCK_RECORD
  5
B
330
1
100
AcDbSymbolTableRecord
100
AcDbBlockTableRecord
  2
*PAPER_SPACE
340
21
  0
BLOCK_RECORD
  5
26
330
1
100
AcDbSymbolTableRecord
100
AcDbBlockTableRecord
  2
_OPEN30
340
0
102
{BLKREFS
331
31
102
}
  0
BLOCK_RECORD
  5
2C
330
1
100
AcDbSymbolTableRecord
100
AcDbBlockTableRecord
  2
*D1
340
0
  0
BLOCK_RECORD
  5
32
330
1
100
AcDbSymbolTableRecord
100
AcDbBlockTableRecord
  2
_NONE
340
0
  0
ENDTAB
  0
ENDSEC
  0
SECTION
  2
BLOCKS
  0
BLOCK
  5
D
330
A
100
AcDbEntity
  8
0
100
AcDbBlockBegin
  2
*MODEL_SPACE
 70
     0
 10
0.0
 20
0.0
 30
0.0
  3
*MODEL_SPACE
  1

  0
ENDBLK
  5
E
330
A
100
AcDbEntity
  8
0
100
AcDbBlockEnd
  0
BLOCK
  5
F
330
B
100
AcDbEntity
 67
     1
  8
0
100
AcDbBlockBegin
  2
*PAPER_SPACE
 70
     0
 10
0.0
 20
0.0
 30
0.0
  3
*PAPER_SPACE
  1

  0
ENDBLK
  5
10
330
B
100
AcDbEntity
 67
     1
  8
0
100
AcDbBlockEnd
  0
BLOCK
  5
27
330
26
100
AcDbEntity
  8
0
  6
ByBlock
 62
     0
370
    -2
100
AcDbBlockBegin
  2
_OPEN30
 70
     2
 10
0.0
 20
0.0
 30
0.0
  3
_OPEN30
  1

  0
LINE
  5
28
330
26
100
AcDbEntity
  8
0
  6
ByBlock
 62
     0
370
    -2
100
AcDbLine
 10
-1.0
 20
0.267949
 30
0.0
 11
0.0
 21
0.0
 31
0.0
  0
LINE
  5
29
330
26
100
AcDbEntity
  8
0
  6
ByBlock
 62
     0
370
    -2
100
AcDbLine
 10
0.0
 20
0.0
 30
0.0
 11
-1.0
 21
-0.267949
 31
0.0
  0
LINE
  5
2A
330
26
100
AcDbEntity
  8
0
  6
ByBlock
 62
     0
370
    -2
100
AcDbLine
 10
0.0
 20
0.0
 30
0.0
 11
-1.0
 21
0.0
 31
0.0
  0
ENDBLK
  5
2B
330
26
100
AcDbEntity
  8
0
  6
ByBlock
 62
     0
370
    -2
100
AcDbBlockEnd
  0
BLOCK
  5
2D
330
2C
100
AcDbEntity
  8
0
  6
ByBlock
 62
     0
370
    -2
100
AcDbBlockBegin
  2
*D1
 70
     1
 10
0.0
 20
0.0
 30
0.0
  3
*D1
  1

  0
LINE
  5
2E
330
2C
100
AcDbEntity
  8
0
  6
Continuous
 62
     7
100
AcDbLine
 10
-198.418273
 20
69.634005
 30
0.0
 11
-230.8673569999999
 21
3.973532
 31
0.0
  0
LINE
  5
2F
330
2C
100
AcDbEntity
  8
0
  6
Continuous
 62
     7
100
AcDbLine
 10
-230.8673569999999
 20
3.973532
 30
0.0
 11
-142.365708
 21
3.973532
 31
0.0
  0
LINE
  5
30
330
2C
100
AcDbEntity
  8
0
  6
Continuous
 62
     7
100
AcDbLine
 10
-198.418273
 20
69.634005
 30
0.0
 11
-201.231612
 21
63.941236
 31
0.0
  0
INSERT
  5
31
330
2C
100
AcDbEntity
  8
0
  6
Continuous
 62
     7
100
AcDbBlockReference
  2
_OPEN30
 10
-198.418273
 20
69.634005
 30
0.0
 41
4.155
 42
4.155
 43
4.155
 50
63.701643
  0
MTEXT
  5
37
330
2C
100
AcDbEntity
  8
0
  6
Continuous
 62
     7
100
AcDbMText
 10
-183.4417099999999
 20
9.173532000000001
 30
0.0
 40
8.4
 41
0.0
 71
     5
 72
     1
  1
\A1;4-12キリ（等配）
  7
MX_DIMTXSTY_2
 73
     1
 44
0.9
  0
POINT
  5
38
330
2C
100
AcDbEntity
  8
DEFPOINTS
  6
Continuous
 62
     0
100
AcDbPoint
 10
-198.418273
 20
69.634005
 30
0.0
  0
POINT
  5
39
330
2C
100
AcDbEntity
  8
DEFPOINTS
  6
Continuous
 62
     0
100
AcDbPoint
 10
-193.101727
 20
80.391995
 30
0.0
  0
ENDBLK
  5
3A
330
2C
100
AcDbEntity
  8
0
  6
ByBlock
 62
     0
370
    -2
100
AcDbBlockEnd
  0
BLOCK
  5
33
330
32
100
AcDbEntity
  8
0
  6
ByBlock
 62
     0
370
    -2
100
AcDbBlockBegin
  2
_NONE
 70
     2
 10
0.0
 20
0.0
 30
0.0
  3
_NONE
  1

  0
CIRCLE
  5
34
330
32
100
AcDbEntity
  8
0
  6
ByBlock
 62
     0
370
    -2
100
AcDbCircle
 10
0.0
 20
0.0
 30
0.0
 40
0.25
  0
ENDBLK
  5
35
330
32
100
AcDbEntity
  8
0
  6
ByBlock
 62
     0
370
    -2
100
AcDbBlockEnd
  0
ENDSEC
  0
SECTION
  2
ENTITIES
  0
DIMENSION
  5
3B
330
A
100
AcDbEntity
  8
0
  6
Continuous
 62
     7
100
AcDbDimension
  2
*D1
 10
-193.101727
 20
80.391995
 30
0.0
 11
-183.4417099999999
 21
3.973532
 31
0.0
 70
   131
  1
4-<>
 71
     5
 41
0.9
 42
12.0
  3
MXDIMSTYLE
100
AcDbDiametricDimension
 15
-198.418273
 25
69.634005
 35
0.0
 40
0.0
1001
ACAD
1000
DSTYLE
1002
{
1070
     6
1000
_NONE
1070
    41
1040
4.155
1070
    73
1070
     1
1070
    74
1070
     1
1070
   140
1040
8.4
1070
   141
1040
0.0
1070
   172
1070
     0
1070
   271
1070
     0
1070
   284
1070
     8
1070
   340
1005
36
1070
   343
1005
32
1002
}
  0
LINE
  5
3C
330
A
100
AcDbEntity
  8
PV
  6
Continuous
 62
     7
100
AcDbLine
 10
-133.887
 20
-239.8449999999999
 30
0.0
 11
-135.0
 21
-244.0
 31
0.0
  0
LINE
  5
3D
330
A
100
AcDbEntity
  8
PV
  6
Continuous
 62
     7
100
AcDbLine
 10
-135.0
 20
-244.0
 30
0.0
 11
-136.1129999999999
 21
-239.8449999999999
 31
0.0
  0
LINE
  5
3E
330
A
100
AcDbEntity
  8
PV
  6
Continuous
 62
     7
100
AcDbLine
 10
-135.0
 20
-244.0
 30
0.0
 11
-135.0
 21
-239.8449999999999
 31
0.0
  0
LINE
  5
3F
330
A
100
AcDbEntity
  8
PV
  6
Continuous
 62
     7
100
AcDbLine
 10
-136.1129999999999
 20
-148.155
 30
0.0
 11
-135.0
 21
-144.0
 31
0.0
  0
LINE
  5
40
330
A
100
AcDbEntity
  8
PV
  6
Continuous
 62
     7
100
AcDbLine
 10
-135.0
 20
-144.0
 30
0.0
 11
-133.887
 21
-148.155
 31
0.0
  0
LINE
  5
41
330
A
100
AcDbEntity
  8
PV
  6
Continuous
 62
     7
100
AcDbLine
 10
-135.0
 20
-144.0
 30
0.0
 11
-135.0
 21
-148.155
 31
0.0
  0
LINE
  5
42
330
A
100
AcDbEntity
  8
PV
  6
Continuous
 62
     7
100
AcDbLine
 10
-135.0
 20
-244.0
 30
0.0
 11
-135.0
 21
-144.0
 31
0.0
  0
LINE
  5
43
330
A
100
AcDbEntity
  8
PV
  6
Continuous
 62
     7
100
AcDbLine
 10
-75.17158600000001
 20
-244.0
 30
0.0
 11
-138.429
 21
-244.0
 31
0.0
  0
LINE
  5
44
330
A
100
AcDbEntity
  8
PV
  6
Continuous
 62
     7
100
AcDbLine
 10
-117.0789999999999
 20
-144.0
 30
0.0
 11
-138.429
 21
-144.0
 31
0.0
  0
MTEXT
  5
45
330
A
100
AcDbEntity
  8
PV
  6
Continuous
 62
     7
100
AcDbMText
 10
-145.1
 20
-194.0
 30
0.0
 40
8.4
 41
0.0
 71
     2
 72
     1
  1
\A1;100
 11
0.0
 21
1.0
 31
0.0
 73
     1
 44
1.0
  0
POINT
  5
46
330
A
100
AcDbEntity
  8
PV
  6
Continuous
 62
     7
100
AcDbPoint
 10
-70.75700000000001
 20
-244.0
 30
0.0
  0
POINT
  5
47
330
A
100
AcDbEntity
  8
PV
  6
Continuous
 62
     7
100
AcDbPoint
 10
-108.2689999999999
 20
-144.0
 30
0.0
  0
POINT
  5
48
330
A
100
AcDbEntity
  8
PV
  6
Continuous
 62
     7
100
AcDbPoint
 10
-135.0
 20
-144.0
 30
0.0
  0
LINE
  5
49
330
A
100
AcDbEntity
  8
PV
  6
Continuous
 62
     7
100
AcDbLine
 10
-2.411999999999999
 20
-274.887
 30
0.0
 11
1.743
 21
-276.0
 31
0.0
  0
LINE
  5
4A
330
A
100
AcDbEntity
  8
PV
  6
Continuous
 62
     7
100
AcDbLine
 10
1.743
 20
-276.0
 30
0.0
 11
-2.411999999999999
 21
-277.1129999999999
 31
0.0
  0
LINE
  5
4B
330
A
100
AcDbEntity
  8
PV
  6
Continuous
 62
     7
100
AcDbLine
 10
1.743
 20
-276.0
 30
0.0
 11
-2.411999999999999
 21
-276.0
 31
0.0
  0
LINE
  5
4C
330
A
100
AcDbEntity
  8
PV
  6
Continuous
 62
     7
100
AcDbLine
 10
-94.10200000000001
 20
-277.1129999999999
 30
0.0
 11
-98.25700000000001
 21
-276.0
 31
0.0
  0
LINE
  5
4D
330
A
100
AcDbEntity
  8
PV
  6
Continuous
 62
     7
100
AcDbLine
 10
-98.25700000000001
 20
-276.0
 30
0.0
 11
-94.10200000000001
 21
-274.887
 31
0.0
  0
LINE
  5
4E
330
A
100
AcDbEntity
  8
PV
  6
Continuous
 62
     7
100
AcDbLine
 10
-98.25700000000001
 20
-276.0
 30
0.0
 11
-94.10200000000001
 21
-276.0
 31
0.0
  0
LINE
  5
4F
330
A
100
AcDbEntity
  8
PV
  6
Continuous
 62
     7
100
AcDbLine
 10
1.743
 20
-276.0
 30
0.0
 11
-98.25700000000001
 21
-276.0
 31
0.0
  0
LINE
  5
50
330
A
100
AcDbEntity
  8
PV
  6
Continuous
 62
     7
100
AcDbLine
 10
1.743
 20
-252.4090839999999
 30
0.0
 11
1.743
 21
-279.429
 31
0.0
  0
LINE
  5
51
330
A
100
AcDbEntity
  8
PV
  6
Continuous
 62
     7
100
AcDbLine
 10
-98.25700000000001
 20
-219.5507309999999
 30
0.0
 11
-98.25700000000001
 21
-279.429
 31
0.0
  0
MTEXT
  5
52
330
A
100
AcDbEntity
  8
PV
  6
Continuous
 62
     7
100
AcDbMText
 10
-50.0
 20
-265.8999999999999
 30
0.0
 40
8.4
 41
0.0
 71
     2
 72
     1
  1
\A1;100
 73
     1
 44
1.0
  0
POINT
  5
53
330
A
100
AcDbEntity
  8
PV
  6
Continuous
 62
     7
100
AcDbPoint
 10
1.743
 20
-240.302
 30
0.0
  0
POINT
  5
54
330
A
100
AcDbEntity
  8
PV
  6
Continuous
 62
     7
100
AcDbPoint
 10
-98.25700000000001
 20
-216.5
 30
0.0
  0
POINT
  5
55
330
A
100
AcDbEntity
  8
PV
  6
Continuous
 62
     7
100
AcDbPoint
 10
-98.25700000000001
 20
-276.0
 30
0.0
  0
LINE
  5
56
330
A
100
AcDbEntity
  8
PV
  6
Continuous
 62
     7
100
AcDbLine
 10
52.588
 20
-185.3569999999999
 30
0.0
 11
56.743
 21
-186.47
 31
0.0
  0
LINE
  5
57
330
A
100
AcDbEntity
  8
PV
  6
Continuous
 62
     7
100
AcDbLine
 10
56.743
 20
-186.47
 30
0.0
 11
52.588
 21
-187.583
 31
0.0
  0
LINE
  5
58
330
A
100
AcDbEntity
  8
PV
  6
Continuous
 62
     7
100
AcDbLine
 10
56.743
 20
-186.47
 30
0.0
 11
52.588
 21
-186.47
 31
0.0
  0
LINE
  5
59
330
A
100
AcDbEntity
  8
PV
  6
Continuous
 62
     7
100
AcDbLine
 10
-49.10199999999999
 20
-187.583
 30
0.0
 11
-53.257
 21
-186.47
 31
0.0
  0
LINE
  5
5A
330
A
100
AcDbEntity
  8
PV
  6
Continuous
 62
     7
100
AcDbLine
 10
-53.257
 20
-186.47
 30
0.0
 11
-49.10199999999999
 21
-185.3569999999999
 31
0.0
  0
LINE
  5
5B
330
A
100
AcDbEntity
  8
PV
  6
Continuous
 62
     7
100
AcDbLine
 10
-53.257
 20
-186.47
 30
0.0
 11
-49.10199999999999
 21
-186.47
 31
0.0
  0
LINE
  5
5C
330
A
100
AcDbEntity
  8
PV
  6
Continuous
 62
     7
100
AcDbLine
 10
56.743
 20
-186.47
 30
0.0
 11
-53.257
 21
-186.47
 31
0.0
  0
MTEXT
  5
5D
330
A
100
AcDbEntity
  8
PV
  6
Continuous
 62
     7
100
AcDbMText
 10
25.003
 20
-176.37
 30
0.0
 40
8.4
 41
0.0
 71
     2
 72
     1
  1
\A1;\U+2205110
 73
     1
 44
1.0
  0
POINT
  5
5E
330
A
100
AcDbEntity
  8
PV
  6
Continuous
 62
     7
100
AcDbPoint
 10
56.743
 20
-197.5
 30
0.0
  0
POINT
  5
5F
330
A
100
AcDbEntity
  8
PV
  6
Continuous
 62
     7
100
AcDbPoint
 10
-53.257
 20
-182.482
 30
0.0
  0
POINT
  5
60
330
A
100
AcDbEntity
  8
PV
  6
Continuous
 62
     7
100
AcDbPoint
 10
-53.257
 20
-186.47
 30
0.0
  0
LINE
  5
61
330
A
100
AcDbEntity
  8
PV
  6
Continuous
 62
     7
100
AcDbLine
 10
-113.887
 20
-212.345
 30
0.0
 11
-115.0
 21
-216.5
 31
0.0
  0
LINE
  5
62
330
A
100
AcDbEntity
  8
PV
  6
Continuous
 62
     7
100
AcDbLine
 10
-115.0
 20
-216.5
 30
0.0
 11
-116.1129999999999
 21
-212.345
 31
0.0
  0
LINE
  5
63
330
A
100
AcDbEntity
  8
PV
  6
Continuous
 62
     7
100
AcDbLine
 10
-115.0
 20
-216.5
 30
0.0
 11
-115.0
 21
-212.345
 31
0.0
  0
LINE
  5
64
330
A
100
AcDbEntity
  8
PV
  6
Continuous
 62
     7
100
AcDbLine
 10
-116.1129999999999
 20
-75.655
 30
0.0
 11
-115.0
 21
-71.5
 31
0.0
  0
LINE
  5
65
330
A
100
AcDbEntity
  8
PV
  6
Continuous
 62
     7
100
AcDbLine
 10
-115.0
 20
-71.5
 30
0.0
 11
-113.887
 21
-75.655
 31
0.0
  0
LINE
  5
66
330
A
100
AcDbEntity
  8
PV
  6
Continuous
 62
     7
100
AcDbLine
 10
-115.0
 20
-71.5
 30
0.0
 11
-115.0
 21
-75.655
 31
0.0
  0
LINE
  5
67
330
A
100
AcDbEntity
  8
PV
  6
Continuous
 62
     7
100
AcDbLine
 10
-115.0
 20
-216.5
 30
0.0
 11
-115.0
 21
-71.5
 31
0.0
  0
LINE
  5
68
330
A
100
AcDbEntity
  8
PV
  6
Continuous
 62
     7
100
AcDbLine
 10
-102.067
 20
-216.5
 30
0.0
 11
-118.429
 21
-216.5
 31
0.0
  0
LINE
  5
69
330
A
100
AcDbEntity
  8
PV
  6
Continuous
 62
     7
100
AcDbLine
 10
-102.067
 20
-71.5
 30
0.0
 11
-118.429
 21
-71.5
 31
0.0
  0
MTEXT
  5
6A
330
A
100
AcDbEntity
  8
PV
  6
Continuous
 62
     7
100
AcDbMText
 10
-125.0999999999999
 20
-126.0
 30
0.0
 40
8.4
 41
0.0
 71
     2
 72
     1
  1
\A1;\U+2205145
 11
0.0
 21
1.0
 31
0.0
 73
     1
 44
1.0
  0
POINT
  5
6B
330
A
100
AcDbEntity
  8
PV
  6
Continuous
 62
     7
100
AcDbPoint
 10
-98.25700000000001
 20
-216.5
 30
0.0
  0
POINT
  5
6C
330
A
100
AcDbEntity
  8
PV
  6
Continuous
 62
     7
100
AcDbPoint
 10
-98.25700000000001
 20
-71.5
 30
0.0
  0
POINT
  5
6D
330
A
100
AcDbEntity
  8
PV
  6
Continuous
 62
     7
100
AcDbPoint
 10
-115.0
 20
-71.5
 30
0.0
  0
LINE
  5
6E
330
A
100
AcDbEntity
  8
PV
  6
Continuous
 62
     7
100
AcDbLine
 10
70.088
 20
-258.887
 30
0.0
 11
74.24299999999999
 21
-260.0
 31
0.0
  0
LINE
  5
6F
330
A
100
AcDbEntity
  8
PV
  6
Continuous
 62
     7
100
AcDbLine
 10
74.24299999999999
 20
-260.0
 30
0.0
 11
70.088
 21
-261.113
 31
0.0
  0
LINE
  5
70
330
A
100
AcDbEntity
  8
PV
  6
Continuous
 62
     7
100
AcDbLine
 10
74.24299999999999
 20
-260.0
 30
0.0
 11
70.088
 21
-260.0
 31
0.0
  0
LINE
  5
71
330
A
100
AcDbEntity
  8
PV
  6
Continuous
 62
     7
100
AcDbLine
 10
-66.602
 20
-261.113
 30
0.0
 11
-70.75700000000001
 21
-260.0
 31
0.0
  0
LINE
  5
72
330
A
100
AcDbEntity
  8
PV
  6
Continuous
 62
     7
100
AcDbLine
 10
-70.75700000000001
 20
-260.0
 30
0.0
 11
-66.602
 21
-258.887
 31
0.0
  0
LINE
  5
73
330
A
100
AcDbEntity
  8
PV
  6
Continuous
 62
     7
100
AcDbLine
 10
-70.75700000000001
 20
-260.0
 30
0.0
 11
-66.602
 21
-260.0
 31
0.0
  0
LINE
  5
74
330
A
100
AcDbEntity
  8
PV
  6
Continuous
 62
     7
100
AcDbLine
 10
74.24299999999999
 20
-260.0
 30
0.0
 11
-70.75700000000001
 21
-260.0
 31
0.0
  0
LINE
  5
75
330
A
100
AcDbEntity
  8
PV
  6
Continuous
 62
     7
100
AcDbLine
 10
74.24299999999999
 20
-247.8099999999999
 30
0.0
 11
74.24299999999999
 21
-263.429
 31
0.0
  0
LINE
  5
76
330
A
100
AcDbEntity
  8
PV
  6
Continuous
 62
     7
100
AcDbLine
 10
-70.75700000000001
 20
-247.8099999999999
 30
0.0
 11
-70.75700000000001
 21
-263.429
 31
0.0
  0
MTEXT
  5
77
330
A
100
AcDbEntity
  8
PV
  6
Continuous
 62
     7
100
AcDbMText
 10
35.0
 20
-249.9
 30
0.0
 40
8.4
 41
0.0
 71
     2
 72
     1
  1
\A1;\U+2205145
 73
     1
 44
1.0
  0
POINT
  5
78
330
A
100
AcDbEntity
  8
PV
  6
Continuous
 62
     7
100
AcDbPoint
 10
74.24299999999999
 20
-244.0
 30
0.0
  0
POINT
  5
79
330
A
100
AcDbEntity
  8
PV
  6
Continuous
 62
     7
100
AcDbPoint
 10
-70.75700000000001
 20
-244.0
 30
0.0
  0
POINT
  5
7A
330
A
100
AcDbEntity
  8
PV
  6
Continuous
 62
     7
100
AcDbPoint
 10
-70.75700000000001
 20
-260.0
 30
0.0
  0
LINE
  5
7B
330
A
100
AcDbEntity
  8
PV
  6
Continuous
 62
     7
100
AcDbLine
 10
118.89
 20
-31.655
 30
0.0
 11
120.0029999999999
 21
-27.5
 31
0.0
  0
LINE
  5
7C
330
A
100
AcDbEntity
  8
PV
  6
Continuous
 62
     7
100
AcDbLine
 10
120.0029999999999
 20
-27.5
 30
0.0
 11
121.116
 21
-31.655
 31
0.0
  0
LINE
  5
7D
330
A
100
AcDbEntity
  8
PV
  6
Continuous
 62
     7
100
AcDbLine
 10
120.0029999999999
 20
-27.5
 30
0.0
 11
120.0029999999999
 21
-31.655
 31
0.0
  0
LINE
  5
7E
330
A
100
AcDbEntity
  8
PV
  6
Continuous
 62
     7
100
AcDbLine
 10
121.116
 20
-239.8449999999999
 30
0.0
 11
120.0029999999999
 21
-244.0
 31
0.0
  0
LINE
  5
7F
330
A
100
AcDbEntity
  8
PV
  6
Continuous
 62
     7
100
AcDbLine
 10
120.0029999999999
 20
-244.0
 30
0.0
 11
118.89
 21
-239.8449999999999
 31
0.0
  0
LINE
  5
80
330
A
100
AcDbEntity
  8
PV
  6
Continuous
 62
     7
100
AcDbLine
 10
120.0029999999999
 20
-244.0
 30
0.0
 11
120.0029999999999
 21
-239.8449999999999
 31
0.0
  0
LINE
  5
81
330
A
100
AcDbEntity
  8
PV
  6
Continuous
 62
     7
100
AcDbLine
 10
120.0029999999999
 20
-27.5
 30
0.0
 11
120.0029999999999
 21
-244.0
 31
0.0
  0
LINE
  5
82
330
A
100
AcDbEntity
  8
PV
  6
Continuous
 62
     7
100
AcDbLine
 10
31.053
 20
-27.5
 30
0.0
 11
124.575
 21
-27.5
 31
0.0
  0
LINE
  5
83
330
A
100
AcDbEntity
  8
PV
  6
Continuous
 62
     7
100
AcDbLine
 10
78.05299999999999
 20
-244.0
 30
0.0
 11
124.575
 21
-244.0
 31
0.0
  0
MTEXT
  5
84
330
A
100
AcDbEntity
  8
PV
  6
Continuous
 62
     7
100
AcDbMText
 10
109.9029999999999
 20
-133.0
 30
0.0
 40
8.4
 41
0.0
 71
     2
 72
     1
  1
\A1;216.5～241.5
 11
0.0
 21
1.0
 31
0.0
 73
     1
 44
1.0
  0
POINT
  5
85
330
A
100
AcDbEntity
  8
PV
  6
Continuous
 62
     7
100
AcDbPoint
 10
27.243
 20
-27.5
 30
0.0
  0
POINT
  5
86
330
A
100
AcDbEntity
  8
PV
  6
Continuous
 62
     7
100
AcDbPoint
 10
74.24299999999999
 20
-244.0
 30
0.0
  0
POINT
  5
87
330
A
100
AcDbEntity
  8
PV
  6
Continuous
 62
     7
100
AcDbPoint
 10
120.0029999999999
 20
-244.0
 30
0.0
  0
LINE
  5
88
330
A
100
AcDbEntity
  8
PV
  6
Continuous
 62
     7
100
AcDbLine
 10
100.831
 20
-60.155
 30
0.0
 11
101.944
 21
-56.0
 31
0.0
  0
LINE
  5
89
330
A
100
AcDbEntity
  8
PV
  6
Continuous
 62
     7
100
AcDbLine
 10
101.944
 20
-56.0
 30
0.0
 11
103.0569999999999
 21
-60.155
 31
0.0
  0
LINE
  5
8A
330
A
100
AcDbEntity
  8
PV
  6
Continuous
 62
     7
100
AcDbLine
 10
101.944
 20
-56.0
 30
0.0
 11
101.944
 21
-60.155
 31
0.0
  0
LINE
  5
8B
330
A
100
AcDbEntity
  8
PV
  6
Continuous
 62
     7
100
AcDbLine
 10
103.0569999999999
 20
-239.8449999999999
 30
0.0
 11
101.944
 21
-244.0
 31
0.0
  0
LINE
  5
8C
330
A
100
AcDbEntity
  8
PV
  6
Continuous
 62
     7
100
AcDbLine
 10
101.944
 20
-244.0
 30
0.0
 11
100.831
 21
-239.8449999999999
 31
0.0
  0
LINE
  5
8D
330
A
100
AcDbEntity
  8
PV
  6
Continuous
 62
     7
100
AcDbLine
 10
101.944
 20
-244.0
 30
0.0
 11
101.944
 21
-239.8449999999999
 31
0.0
  0
LINE
  5
8E
330
A
100
AcDbEntity
  8
PV
  6
Continuous
 62
     7
100
AcDbLine
 10
101.944
 20
-56.0
 30
0.0
 11
101.944
 21
-244.0
 31
0.0
  0
MTEXT
  5
8F
330
A
100
AcDbEntity
  8
PV
  6
Continuous
 62
     7
100
AcDbMText
 10
91.844
 20
-150.0
 30
0.0
 40
8.4
 41
0.0
 71
     2
 72
     1
  1
\A1;188
 11
0.0
 21
1.0
 31
0.0
 73
     1
 44
1.0
  0
POINT
  5
90
330
A
100
AcDbEntity
  8
PV
  6
Continuous
 62
     7
100
AcDbPoint
 10
29.743
 20
-56.0
 30
0.0
  0
POINT
  5
91
330
A
100
AcDbEntity
  8
PV
  6
Continuous
 62
     7
100
AcDbPoint
 10
74.24299999999999
 20
-244.0
 30
0.0
  0
POINT
  5
92
330
A
100
AcDbEntity
  8
PV
  6
Continuous
 62
     7
100
AcDbPoint
 10
101.944
 20
-244.0
 30
0.0
  0
LINE
  5
93
330
A
100
AcDbEntity
  8
PV
  6
Continuous
 62
     7
100
AcDbLine
 10
100.831
 20
-31.655
 30
0.0
 11
101.944
 21
-27.5
 31
0.0
  0
LINE
  5
94
330
A
100
AcDbEntity
  8
PV
  6
Continuous
 62
     7
100
AcDbLine
 10
101.944
 20
-27.5
 30
0.0
 11
103.0569999999999
 21
-31.655
 31
0.0
  0
LINE
  5
95
330
A
100
AcDbEntity
  8
PV
  6
Continuous
 62
     7
100
AcDbLine
 10
101.944
 20
-27.5
 30
0.0
 11
101.944
 21
-31.655
 31
0.0
  0
LINE
  5
96
330
A
100
AcDbEntity
  8
PV
  6
Continuous
 62
     7
100
AcDbLine
 10
103.0569999999999
 20
-51.84499999999999
 30
0.0
 11
101.944
 21
-56.0
 31
0.0
  0
LINE
  5
97
330
A
100
AcDbEntity
  8
PV
  6
Continuous
 62
     7
100
AcDbLine
 10
101.944
 20
-56.0
 30
0.0
 11
100.831
 21
-51.84499999999999
 31
0.0
  0
LINE
  5
98
330
A
100
AcDbEntity
  8
PV
  6
Continuous
 62
     7
100
AcDbLine
 10
101.944
 20
-56.0
 30
0.0
 11
101.944
 21
-51.84499999999999
 31
0.0
  0
LINE
  5
99
330
A
100
AcDbEntity
  8
PV
  6
Continuous
 62
     7
100
AcDbLine
 10
101.944
 20
-27.5
 30
0.0
 11
101.944
 21
-56.0
 31
0.0
  0
LINE
  5
9A
330
A
100
AcDbEntity
  8
PV
  6
Continuous
 62
     7
100
AcDbLine
 10
101.944
 20
19.547
 30
0.0
 11
101.944
 21
-27.5
 31
0.0
  0
LINE
  5
9B
330
A
100
AcDbEntity
  8
PV
  6
Continuous
 62
     7
100
AcDbLine
 10
33.553
 20
-56.0
 30
0.0
 11
105.3729999999999
 21
-56.0
 31
0.0
  0
MTEXT
  5
9C
330
A
100
AcDbEntity
  8
PV
  6
Continuous
 62
     7
100
AcDbMText
 10
93.95009599999999
 20
-2.576652999999999
 30
0.0
 40
6.0
 41
0.0
 71
     2
 72
     1
  1
\A1;28.5～53.5
 11
0.0
 21
1.0
 31
0.0
 73
     1
 44
1.0
  0
POINT
  5
9D
330
A
100
AcDbEntity
  8
PV
  6
Continuous
 62
     7
100
AcDbPoint
 10
27.243
 20
-27.5
 30
0.0
  0
POINT
  5
9E
330
A
100
AcDbEntity
  8
PV
  6
Continuous
 62
     7
100
AcDbPoint
 10
29.743
 20
-56.0
 30
0.0
  0
POINT
  5
9F
330
A
100
AcDbEntity
  8
PV
  6
Continuous
 62
     7
100
AcDbPoint
 10
101.944
 20
-56.0
 30
0.0
  0
LINE
  5
A0
330
A
100
AcDbEntity
  8
PV
  6
Continuous
 62
     7
100
AcDbLine
 10
73.81699999999999
 20
-53.637
 30
0.0
 11
69.66199999999999
 21
-54.75
 31
0.0
  0
LINE
  5
A1
330
A
100
AcDbEntity
  8
PV
  6
Continuous
 62
     7
100
AcDbLine
 10
69.66199999999999
 20
-54.75
 30
0.0
 11
72.703
 21
-51.70799999999999
 31
0.0
  0
LINE
  5
A2
330
A
100
AcDbEntity
  8
PV
  6
Continuous
 62
     7
100
AcDbLine
 10
69.66199999999999
 20
-54.75
 30
0.0
 11
73.26
 21
-52.67199999999999
 31
0.0
  0
LINE
  5
A3
330
A
100
AcDbEntity
  8
PV
  6
Continuous
 62
     7
100
AcDbLine
 10
68.548
 20
-60.155
 30
0.0
 11
69.66199999999999
 21
-56.0
 31
0.0
  0
LINE
  5
A4
330
A
100
AcDbEntity
  8
PV
  6
Continuous
 62
     7
100
AcDbLine
 10
69.66199999999999
 20
-56.0
 30
0.0
 11
70.775
 21
-60.155
 31
0.0
  0
LINE
  5
A5
330
A
100
AcDbEntity
  8
PV
  6
Continuous
 62
     7
100
AcDbLine
 10
69.66199999999999
 20
-56.0
 30
0.0
 11
69.66199999999999
 21
-60.155
 31
0.0
  0
LINE
  5
A6
330
A
100
AcDbEntity
  8
PV
  6
Continuous
 62
     7
100
AcDbLine
 10
69.66199999999999
 20
-53.5
 30
0.0
 11
69.66199999999999
 21
-56.0
 31
0.0
  0
LINE
  5
A7
330
A
100
AcDbEntity
  8
PV
  6
Continuous
 62
     7
100
AcDbLine
 10
69.66199999999999
 20
-35.54999999999999
 30
0.0
 11
69.66199999999999
 21
-53.5
 31
0.0
  0
LINE
  5
A8
330
A
100
AcDbEntity
  8
PV
  6
Continuous
 62
     7
100
AcDbLine
 10
69.66199999999999
 20
-54.75
 30
0.0
 11
84.876
 21
-45.966
 31
0.0
  0
LINE
  5
A9
330
A
100
AcDbEntity
  8
PV
  6
Continuous
 62
     7
100
AcDbLine
 10
84.876
 20
-45.966
 30
0.0
 11
84.876
 21
14.805
 31
0.0
  0
LINE
  5
AA
330
A
100
AcDbEntity
  8
PV
  6
Continuous
 62
     7
100
AcDbLine
 10
69.66199999999999
 20
-56.0
 30
0.0
 11
69.66199999999999
 21
-65.52500000000001
 31
0.0
  0
MTEXT
  5
AB
330
A
100
AcDbEntity
  8
PV
  6
Continuous
 62
     7
100
AcDbMText
 10
76.913527
 20
-5.524312
 30
0.0
 40
6.0
 41
0.0
 71
     2
 72
     1
  1
\A1;2.5～27.5
 11
0.0
 21
1.0
 31
0.0
 73
     1
 44
1.0
  0
POINT
  5
AC
330
A
100
AcDbEntity
  8
PV
  6
Continuous
 62
     7
100
AcDbPoint
 10
31.743
 20
-53.5
 30
0.0
  0
POINT
  5
AD
330
A
100
AcDbEntity
  8
PV
  6
Continuous
 62
     7
100
AcDbPoint
 10
29.743
 20
-56.0
 30
0.0
  0
POINT
  5
AE
330
A
100
AcDbEntity
  8
PV
  6
Continuous
 62
     7
100
AcDbPoint
 10
69.66199999999999
 20
-56.0
 30
0.0
  0
LINE
  5
AF
330
A
100
AcDbEntity
  8
PV
  6
Continuous
 62
     7
100
AcDbLine
 10
-24.10199999999999
 20
2.444999999999999
 30
0.0
 11
-28.25699999999999
 21
3.558
 31
0.0
  0
LINE
  5
B0
330
A
100
AcDbEntity
  8
PV
  6
Continuous
 62
     7
100
AcDbLine
 10
-28.25699999999999
 20
3.558
 30
0.0
 11
-24.10199999999999
 21
4.671
 31
0.0
  0
LINE
  5
B1
330
A
100
AcDbEntity
  8
PV
  6
Continuous
 62
     7
100
AcDbLine
 10
-28.25699999999999
 20
3.558
 30
0.0
 11
-24.10199999999999
 21
3.558
 31
0.0
  0
LINE
  5
B2
330
A
100
AcDbEntity
  8
PV
  6
Continuous
 62
     7
100
AcDbLine
 10
27.588
 20
4.671
 30
0.0
 11
31.743
 21
3.558
 31
0.0
  0
LINE
  5
B3
330
A
100
AcDbEntity
  8
PV
  6
Continuous
 62
     7
100
AcDbLine
 10
31.743
 20
3.558
 30
0.0
 11
27.588
 21
2.444999999999999
 31
0.0
  0
LINE
  5
B4
330
A
100
AcDbEntity
  8
PV
  6
Continuous
 62
     7
100
AcDbLine
 10
31.743
 20
3.558
 30
0.0
 11
27.588
 21
3.558
 31
0.0
  0
LINE
  5
B5
330
A
100
AcDbEntity
  8
PV
  6
Continuous
 62
     7
100
AcDbLine
 10
-28.25699999999999
 20
3.558
 30
0.0
 11
31.743
 21
3.558
 31
0.0
  0
LINE
  5
B6
330
A
100
AcDbEntity
  8
PV
  6
Continuous
 62
     7
100
AcDbLine
 10
-28.25699999999999
 20
-44.69
 30
0.0
 11
-28.25699999999999
 21
8.13
 31
0.0
  0
LINE
  5
B7
330
A
100
AcDbEntity
  8
PV
  6
Continuous
 62
     7
100
AcDbLine
 10
31.743
 20
-44.69
 30
0.0
 11
31.743
 21
8.13
 31
0.0
  0
MTEXT
  5
B8
330
A
100
AcDbEntity
  8
PV
  6
Continuous
 62
     7
100
AcDbMText
 10
1.743
 20
13.658
 30
0.0
 40
8.4
 41
0.0
 71
     2
 72
     1
  1
\T1.016;\W1.008;\A1;\U+220560
 73
     1
 44
1.0
  0
POINT
  5
B9
330
A
100
AcDbEntity
  8
PV
  6
Continuous
 62
     7
100
AcDbPoint
 10
-28.25699999999999
 20
-48.5
 30
0.0
  0
POINT
  5
BA
330
A
100
AcDbEntity
  8
PV
  6
Continuous
 62
     7
100
AcDbPoint
 10
31.743
 20
-48.5
 30
0.0
  0
POINT
  5
BB
330
A
100
AcDbEntity
  8
PV
  6
Continuous
 62
     7
100
AcDbPoint
 10
31.743
 20
3.558
 30
0.0
  0
LINE
  5
BC
330
A
100
AcDbEntity
  8
PV
  6
Continuous
 62
     7
100
AcDbLine
 10
68.548
 20
-31.655
 30
0.0
 11
69.66199999999999
 21
-27.5
 31
0.0
  0
LINE
  5
BD
330
A
100
AcDbEntity
  8
PV
  6
Continuous
 62
     7
100
AcDbLine
 10
69.66199999999999
 20
-27.5
 30
0.0
 11
70.775
 21
-31.655
 31
0.0
  0
LINE
  5
BE
330
A
100
AcDbEntity
  8
PV
  6
Continuous
 62
     7
100
AcDbLine
 10
69.66199999999999
 20
-27.5
 30
0.0
 11
69.66199999999999
 21
-31.655
 31
0.0
  0
LINE
  5
BF
330
A
100
AcDbEntity
  8
PV
  6
Continuous
 62
     7
100
AcDbLine
 10
70.775
 20
-49.34499999999999
 30
0.0
 11
69.66199999999999
 21
-53.5
 31
0.0
  0
LINE
  5
C0
330
A
100
AcDbEntity
  8
PV
  6
Continuous
 62
     7
100
AcDbLine
 10
69.66199999999999
 20
-53.5
 30
0.0
 11
68.548
 21
-49.34499999999999
 31
0.0
  0
LINE
  5
C1
330
A
100
AcDbEntity
  8
PV
  6
Continuous
 62
     7
100
AcDbLine
 10
69.66199999999999
 20
-53.5
 30
0.0
 11
69.66199999999999
 21
-49.34499999999999
 31
0.0
  0
LINE
  5
C2
330
A
100
AcDbEntity
  8
PV
  6
Continuous
 62
     7
100
AcDbLine
 10
69.66199999999999
 20
-27.5
 30
0.0
 11
69.66199999999999
 21
-53.5
 31
0.0
  0
LINE
  5
C3
330
A
100
AcDbEntity
  8
PV
  6
Continuous
 62
     7
100
AcDbLine
 10
35.553
 20
-53.5
 30
0.0
 11
74.23399999999999
 21
-53.5
 31
0.0
  0
MTEXT
  5
C4
330
A
100
AcDbEntity
  8
PV
  6
Continuous
 62
     7
100
AcDbMText
 10
59.56199999999999
 20
-40.49999999999999
 30
0.0
 40
8.4
 41
0.0
 71
     2
 72
     1
  1
\W0.952;\A1;26
 11
0.0
 21
1.0
 31
0.0
 73
     1
 44
1.0
  0
POINT
  5
C5
330
A
100
AcDbEntity
  8
PV
  6
Continuous
 62
     7
100
AcDbPoint
 10
110.6659999999999
 20
-27.5
 30
0.0
  0
POINT
  5
C6
330
A
100
AcDbEntity
  8
PV
  6
Continuous
 62
     7
100
AcDbPoint
 10
31.743
 20
-53.5
 30
0.0
  0
POINT
  5
C7
330
A
100
AcDbEntity
  8
PV
  6
Continuous
 62
     7
100
AcDbPoint
 10
69.66199999999999
 20
-53.5
 30
0.0
  0
LINE
  5
C8
330
A
100
AcDbEntity
  8
PV
  6
Continuous
 62
     7
100
AcDbLine
 10
-25.51199999999999
 20
-42.5
 30
0.0
 11
-25.51199999999999
 21
-42.538
 31
0.0
  0
LINE
  5
C9
330
A
100
AcDbEntity
  8
PV
  6
Continuous
 62
     7
100
AcDbLine
 10
-25.51199999999999
 20
-42.538
 30
0.0
 11
-25.51199999999999
 21
-42.57699999999999
 31
0.0
  0
LINE
  5
CA
330
A
100
AcDbEntity
  8
PV
  6
Continuous
 62
     7
100
AcDbLine
 10
-25.51199999999999
 20
-42.57699999999999
 30
0.0
 11
-25.51199999999999
 21
-42.615
 31
0.0
  0
LINE
  5
CB
330
A
100
AcDbEntity
  8
PV
  6
Continuous
 62
     7
100
AcDbLine
 10
-25.51199999999999
 20
-42.615
 30
0.0
 11
-25.51099999999999
 21
-42.65399999999999
 31
0.0
  0
LINE
  5
CC
330
A
100
AcDbEntity
  8
PV
  6
Continuous
 62
     7
100
AcDbLine
 10
-25.51099999999999
 20
-42.65399999999999
 30
0.0
 11
-25.51099999999999
 21
-42.692
 31
0.0
  0
LINE
  5
CD
330
A
100
AcDbEntity
  8
PV
  6
Continuous
 62
     7
100
AcDbLine
 10
-25.51099999999999
 20
-42.692
 30
0.0
 11
-25.51
 21
-42.731
 31
0.0
  0
LINE
  5
CE
330
A
100
AcDbEntity
  8
PV
  6
Continuous
 62
     7
100
AcDbLine
 10
-25.51
 20
-42.731
 30
0.0
 11
-25.509
 21
-42.769
 31
0.0
  0
LINE
  5
CF
330
A
100
AcDbEntity
  8
PV
  6
Continuous
 62
     7
100
AcDbLine
 10
-25.509
 20
-42.769
 30
0.0
 11
-25.508
 21
-42.808
 31
0.0
  0
LINE
  5
D0
330
A
100
AcDbEntity
  8
PV
  6
Continuous
 62
     7
100
AcDbLine
 10
-25.508
 20
-42.808
 30
0.0
 11
-25.50699999999999
 21
-42.846
 31
0.0
  0
LINE
  5
D1
330
A
100
AcDbEntity
  8
PV
  6
Continuous
 62
     7
100
AcDbLine
 10
-25.50699999999999
 20
-42.846
 30
0.0
 11
-25.506
 21
-42.88499999999999
 31
0.0
  0
LINE
  5
D2
330
A
100
AcDbEntity
  8
PV
  6
Continuous
 62
     7
100
AcDbLine
 10
-25.506
 20
-42.88499999999999
 30
0.0
 11
-25.504
 21
-42.923
 31
0.0
  0
LINE
  5
D3
330
A
100
AcDbEntity
  8
PV
  6
Continuous
 62
     7
100
AcDbLine
 10
-25.504
 20
-42.923
 30
0.0
 11
-25.503
 21
-42.961
 31
0.0
  0
LINE
  5
D4
330
A
100
AcDbEntity
  8
PV
  6
Continuous
 62
     7
100
AcDbLine
 10
-25.503
 20
-42.961
 30
0.0
 11
-25.501
 21
-43.0
 31
0.0
  0
LINE
  5
D5
330
A
100
AcDbEntity
  8
PV
  6
Continuous
 62
     7
100
AcDbLine
 10
-25.501
 20
-43.0
 30
0.0
 11
-25.499
 21
-43.038
 31
0.0
  0
LINE
  5
D6
330
A
100
AcDbEntity
  8
PV
  6
Continuous
 62
     7
100
AcDbLine
 10
-25.499
 20
-43.038
 30
0.0
 11
-25.497
 21
-43.07699999999999
 31
0.0
  0
LINE
  5
D7
330
A
100
AcDbEntity
  8
PV
  6
Continuous
 62
     7
100
AcDbLine
 10
-25.497
 20
-43.07699999999999
 30
0.0
 11
-25.495
 21
-43.115
 31
0.0
  0
LINE
  5
D8
330
A
100
AcDbEntity
  8
PV
  6
Continuous
 62
     7
100
AcDbLine
 10
-25.495
 20
-43.115
 30
0.0
 11
-25.493
 21
-43.15399999999999
 31
0.0
  0
LINE
  5
D9
330
A
100
AcDbEntity
  8
PV
  6
Continuous
 62
     7
100
AcDbLine
 10
-25.493
 20
-43.15399999999999
 30
0.0
 11
-25.48999999999999
 21
-43.192
 31
0.0
  0
LINE
  5
DA
330
A
100
AcDbEntity
  8
PV
  6
Continuous
 62
     7
100
AcDbLine
 10
-25.48999999999999
 20
-43.192
 30
0.0
 11
-25.488
 21
-43.22999999999999
 31
0.0
  0
LINE
  5
DB
330
A
100
AcDbEntity
  8
PV
  6
Continuous
 62
     7
100
AcDbLine
 10
-25.488
 20
-43.22999999999999
 30
0.0
 11
-25.485
 21
-43.269
 31
0.0
  0
LINE
  5
DC
330
A
100
AcDbEntity
  8
PV
  6
Continuous
 62
     7
100
AcDbLine
 10
-25.485
 20
-43.269
 30
0.0
 11
-25.482
 21
-43.30699999999999
 31
0.0
  0
LINE
  5
DD
330
A
100
AcDbEntity
  8
PV
  6
Continuous
 62
     7
100
AcDbLine
 10
-25.482
 20
-43.30699999999999
 30
0.0
 11
-25.479
 21
-43.346
 31
0.0
  0
LINE
  5
DE
330
A
100
AcDbEntity
  8
PV
  6
Continuous
 62
     7
100
AcDbLine
 10
-25.479
 20
-43.346
 30
0.0
 11
-25.476
 21
-43.38399999999999
 31
0.0
  0
LINE
  5
DF
330
A
100
AcDbEntity
  8
PV
  6
Continuous
 62
     7
100
AcDbLine
 10
-25.476
 20
-43.38399999999999
 30
0.0
 11
-25.473
 21
-43.422
 31
0.0
  0
LINE
  5
E0
330
A
100
AcDbEntity
  8
PV
  6
Continuous
 62
     7
100
AcDbLine
 10
-25.473
 20
-43.422
 30
0.0
 11
-25.469
 21
-43.461
 31
0.0
  0
LINE
  5
E1
330
A
100
AcDbEntity
  8
PV
  6
Continuous
 62
     7
100
AcDbLine
 10
-25.469
 20
-43.461
 30
0.0
 11
-25.46599999999999
 21
-43.49899999999999
 31
0.0
  0
LINE
  5
E2
330
A
100
AcDbEntity
  8
PV
  6
Continuous
 62
     7
100
AcDbLine
 10
-25.46599999999999
 20
-43.49899999999999
 30
0.0
 11
-25.462
 21
-43.53699999999999
 31
0.0
  0
LINE
  5
E3
330
A
100
AcDbEntity
  8
PV
  6
Continuous
 62
     7
100
AcDbLine
 10
-25.462
 20
-43.53699999999999
 30
0.0
 11
-25.458
 21
-43.575
 31
0.0
  0
LINE
  5
E4
330
A
100
AcDbEntity
  8
PV
  6
Continuous
 62
     7
100
AcDbLine
 10
-25.458
 20
-43.575
 30
0.0
 11
-25.454
 21
-43.61399999999999
 31
0.0
  0
LINE
  5
E5
330
A
100
AcDbEntity
  8
PV
  6
Continuous
 62
     7
100
AcDbLine
 10
-25.454
 20
-43.61399999999999
 30
0.0
 11
-25.44999999999999
 21
-43.652
 31
0.0
  0
LINE
  5
E6
330
A
100
AcDbEntity
  8
PV
  6
Continuous
 62
     7
100
AcDbLine
 10
-25.44999999999999
 20
-43.652
 30
0.0
 11
-25.44599999999999
 21
-43.68999999999999
 31
0.0
  0
LINE
  5
E7
330
A
100
AcDbEntity
  8
PV
  6
Continuous
 62
     7
100
AcDbLine
 10
-25.44599999999999
 20
-43.68999999999999
 30
0.0
 11
-25.442
 21
-43.728
 31
0.0
  0
LINE
  5
E8
330
A
100
AcDbEntity
  8
PV
  6
Continuous
 62
     7
100
AcDbLine
 10
-25.442
 20
-43.728
 30
0.0
 11
-25.43699999999999
 21
-43.76699999999999
 31
0.0
  0
LINE
  5
E9
330
A
100
AcDbEntity
  8
PV
  6
Continuous
 62
     7
100
AcDbLine
 10
-25.43699999999999
 20
-43.76699999999999
 30
0.0
 11
-25.432
 21
-43.805
 31
0.0
  0
LINE
  5
EA
330
A
100
AcDbEntity
  8
PV
  6
Continuous
 62
     7
100
AcDbLine
 10
-25.432
 20
-43.805
 30
0.0
 11
-25.42699999999999
 21
-43.843
 31
0.0
  0
LINE
  5
EB
330
A
100
AcDbEntity
  8
PV
  6
Continuous
 62
     7
100
AcDbLine
 10
-25.42699999999999
 20
-43.843
 30
0.0
 11
-25.42199999999999
 21
-43.881
 31
0.0
  0
LINE
  5
EC
330
A
100
AcDbEntity
  8
PV
  6
Continuous
 62
     7
100
AcDbLine
 10
-25.42199999999999
 20
-43.881
 30
0.0
 11
-25.417
 21
-43.91899999999999
 31
0.0
  0
LINE
  5
ED
330
A
100
AcDbEntity
  8
PV
  6
Continuous
 62
     7
100
AcDbLine
 10
-25.417
 20
-43.91899999999999
 30
0.0
 11
-25.41199999999999
 21
-43.957
 31
0.0
  0
LINE
  5
EE
330
A
100
AcDbEntity
  8
PV
  6
Continuous
 62
     7
100
AcDbLine
 10
-25.41199999999999
 20
-43.957
 30
0.0
 11
-25.40699999999999
 21
-43.996
 31
0.0
  0
LINE
  5
EF
330
A
100
AcDbEntity
  8
PV
  6
Continuous
 62
     7
100
AcDbLine
 10
-25.40699999999999
 20
-43.996
 30
0.0
 11
-25.401
 21
-44.034
 31
0.0
  0
LINE
  5
F0
330
A
100
AcDbEntity
  8
PV
  6
Continuous
 62
     7
100
AcDbLine
 10
-25.401
 20
-44.034
 30
0.0
 11
-25.395
 21
-44.07199999999999
 31
0.0
  0
LINE
  5
F1
330
A
100
AcDbEntity
  8
PV
  6
Continuous
 62
     7
100
AcDbLine
 10
-25.395
 20
-44.07199999999999
 30
0.0
 11
-25.38899999999999
 21
-44.11
 31
0.0
  0
LINE
  5
F2
330
A
100
AcDbEntity
  8
PV
  6
Continuous
 62
     7
100
AcDbLine
 10
-25.38899999999999
 20
-44.11
 30
0.0
 11
-25.383
 21
-44.148
 31
0.0
  0
LINE
  5
F3
330
A
100
AcDbEntity
  8
PV
  6
Continuous
 62
     7
100
AcDbLine
 10
-25.383
 20
-44.148
 30
0.0
 11
-25.377
 21
-44.186
 31
0.0
  0
LINE
  5
F4
330
A
100
AcDbEntity
  8
PV
  6
Continuous
 62
     7
100
AcDbLine
 10
-25.377
 20
-44.186
 30
0.0
 11
-25.371
 21
-44.22399999999999
 31
0.0
  0
LINE
  5
F5
330
A
100
AcDbEntity
  8
PV
  6
Continuous
 62
     7
100
AcDbLine
 10
-25.371
 20
-44.22399999999999
 30
0.0
 11
-25.364
 21
-44.262
 31
0.0
  0
LINE
  5
F6
330
A
100
AcDbEntity
  8
PV
  6
Continuous
 62
     7
100
AcDbLine
 10
-25.364
 20
-44.262
 30
0.0
 11
-25.358
 21
-44.29899999999999
 31
0.0
  0
LINE
  5
F7
330
A
100
AcDbEntity
  8
PV
  6
Continuous
 62
     7
100
AcDbLine
 10
-25.358
 20
-44.29899999999999
 30
0.0
 11
-25.35099999999999
 21
-44.33699999999999
 31
0.0
  0
LINE
  5
F8
330
A
100
AcDbEntity
  8
PV
  6
Continuous
 62
     7
100
AcDbLine
 10
-25.35099999999999
 20
-44.33699999999999
 30
0.0
 11
-25.344
 21
-44.375
 31
0.0
  0
LINE
  5
F9
330
A
100
AcDbEntity
  8
PV
  6
Continuous
 62
     7
100
AcDbLine
 10
-25.344
 20
-44.375
 30
0.0
 11
-25.337
 21
-44.413
 31
0.0
  0
LINE
  5
FA
330
A
100
AcDbEntity
  8
PV
  6
Continuous
 62
     7
100
AcDbLine
 10
-25.337
 20
-44.413
 30
0.0
 11
-25.329
 21
-44.451
 31
0.0
  0
LINE
  5
FB
330
A
100
AcDbEntity
  8
PV
  6
Continuous
 62
     7
100
AcDbLine
 10
-25.329
 20
-44.451
 30
0.0
 11
-25.322
 21
-44.488
 31
0.0
  0
LINE
  5
FC
330
A
100
AcDbEntity
  8
PV
  6
Continuous
 62
     7
100
AcDbLine
 10
-25.322
 20
-44.488
 30
0.0
 11
-25.314
 21
-44.526
 31
0.0
  0
LINE
  5
FD
330
A
100
AcDbEntity
  8
PV
  6
Continuous
 62
     7
100
AcDbLine
 10
-25.314
 20
-44.526
 30
0.0
 11
-25.30699999999999
 21
-44.56399999999999
 31
0.0
  0
LINE
  5
FE
330
A
100
AcDbEntity
  8
PV
  6
Continuous
 62
     7
100
AcDbLine
 10
-25.30699999999999
 20
-44.56399999999999
 30
0.0
 11
-25.299
 21
-44.60199999999999
 31
0.0
  0
LINE
  5
FF
330
A
100
AcDbEntity
  8
PV
  6
Continuous
 62
     7
100
AcDbLine
 10
-25.299
 20
-44.60199999999999
 30
0.0
 11
-25.291
 21
-44.63899999999999
 31
0.0
  0
LINE
  5
100
330
A
100
AcDbEntity
  8
PV
  6
Continuous
 62
     7
100
AcDbLine
 10
-25.291
 20
-44.63899999999999
 30
0.0
 11
-25.282
 21
-44.67699999999999
 31
0.0
  0
LINE
  5
101
330
A
100
AcDbEntity
  8
PV
  6
Continuous
 62
     7
100
AcDbLine
 10
-25.282
 20
-44.67699999999999
 30
0.0
 11
-25.274
 21
-44.714
 31
0.0
  0
LINE
  5
102
330
A
100
AcDbEntity
  8
PV
  6
Continuous
 62
     7
100
AcDbLine
 10
-25.274
 20
-44.714
 30
0.0
 11
-25.265
 21
-44.752
 31
0.0
  0
LINE
  5
103
330
A
100
AcDbEntity
  8
PV
  6
Continuous
 62
     7
100
AcDbLine
 10
-25.265
 20
-44.752
 30
0.0
 11
-25.257
 21
-44.78899999999999
 31
0.0
  0
LINE
  5
104
330
A
100
AcDbEntity
  8
PV
  6
Continuous
 62
     7
100
AcDbLine
 10
-25.257
 20
-44.78899999999999
 30
0.0
 11
-25.248
 21
-44.827
 31
0.0
  0
LINE
  5
105
330
A
100
AcDbEntity
  8
PV
  6
Continuous
 62
     7
100
AcDbLine
 10
-25.248
 20
-44.827
 30
0.0
 11
-25.239
 21
-44.86399999999999
 31
0.0
  0
LINE
  5
106
330
A
100
AcDbEntity
  8
PV
  6
Continuous
 62
     7
100
AcDbLine
 10
-25.239
 20
-44.86399999999999
 30
0.0
 11
-25.22899999999999
 21
-44.901
 31
0.0
  0
LINE
  5
107
330
A
100
AcDbEntity
  8
PV
  6
Continuous
 62
     7
100
AcDbLine
 10
-25.22899999999999
 20
-44.901
 30
0.0
 11
-25.22
 21
-44.93899999999999
 31
0.0
  0
LINE
  5
108
330
A
100
AcDbEntity
  8
PV
  6
Continuous
 62
     7
100
AcDbLine
 10
-25.22
 20
-44.93899999999999
 30
0.0
 11
-25.21
 21
-44.97600000000001
 31
0.0
  0
LINE
  5
109
330
A
100
AcDbEntity
  8
PV
  6
Continuous
 62
     7
100
AcDbLine
 10
-25.21
 20
-44.97600000000001
 30
0.0
 11
-25.2
 21
-45.013
 31
0.0
  0
LINE
  5
10A
330
A
100
AcDbEntity
  8
PV
  6
Continuous
 62
     7
100
AcDbLine
 10
-25.2
 20
-45.013
 30
0.0
 11
-25.19
 21
-45.04999999999999
 31
0.0
  0
LINE
  5
10B
330
A
100
AcDbEntity
  8
PV
  6
Continuous
 62
     7
100
AcDbLine
 10
-25.19
 20
-45.04999999999999
 30
0.0
 11
-25.18
 21
-45.087
 31
0.0
  0
LINE
  5
10C
330
A
100
AcDbEntity
  8
PV
  6
Continuous
 62
     7
100
AcDbLine
 10
-25.18
 20
-45.087
 30
0.0
 11
-25.17
 21
-45.125
 31
0.0
  0
LINE
  5
10D
330
A
100
AcDbEntity
  8
PV
  6
Continuous
 62
     7
100
AcDbLine
 10
-25.17
 20
-45.125
 30
0.0
 11
-25.159
 21
-45.162
 31
0.0
  0
LINE
  5
10E
330
A
100
AcDbEntity
  8
PV
  6
Continuous
 62
     7
100
AcDbLine
 10
-25.159
 20
-45.162
 30
0.0
 11
-25.148
 21
-45.198
 31
0.0
  0
LINE
  5
10F
330
A
100
AcDbEntity
  8
PV
  6
Continuous
 62
     7
100
AcDbLine
 10
-25.148
 20
-45.198
 30
0.0
 11
-25.138
 21
-45.235
 31
0.0
  0
LINE
  5
110
330
A
100
AcDbEntity
  8
PV
  6
Continuous
 62
     7
100
AcDbLine
 10
-25.138
 20
-45.235
 30
0.0
 11
-25.12599999999999
 21
-45.27199999999999
 31
0.0
  0
LINE
  5
111
330
A
100
AcDbEntity
  8
PV
  6
Continuous
 62
     7
100
AcDbLine
 10
-25.12599999999999
 20
-45.27199999999999
 30
0.0
 11
-25.11499999999999
 21
-45.30899999999999
 31
0.0
  0
LINE
  5
112
330
A
100
AcDbEntity
  8
PV
  6
Continuous
 62
     7
100
AcDbLine
 10
-25.11499999999999
 20
-45.30899999999999
 30
0.0
 11
-25.104
 21
-45.346
 31
0.0
  0
LINE
  5
113
330
A
100
AcDbEntity
  8
PV
  6
Continuous
 62
     7
100
AcDbLine
 10
-25.104
 20
-45.346
 30
0.0
 11
-25.09199999999999
 21
-45.38199999999999
 31
0.0
  0
LINE
  5
114
330
A
100
AcDbEntity
  8
PV
  6
Continuous
 62
     7
100
AcDbLine
 10
-25.09199999999999
 20
-45.38199999999999
 30
0.0
 11
-25.08
 21
-45.419
 31
0.0
  0
LINE
  5
115
330
A
100
AcDbEntity
  8
PV
  6
Continuous
 62
     7
100
AcDbLine
 10
-25.08
 20
-45.419
 30
0.0
 11
-25.068
 21
-45.45499999999999
 31
0.0
  0
LINE
  5
116
330
A
100
AcDbEntity
  8
PV
  6
Continuous
 62
     7
100
AcDbLine
 10
-25.068
 20
-45.45499999999999
 30
0.0
 11
-25.05599999999999
 21
-45.49199999999999
 31
0.0
  0
LINE
  5
117
330
A
100
AcDbEntity
  8
PV
  6
Continuous
 62
     7
100
AcDbLine
 10
-25.05599999999999
 20
-45.49199999999999
 30
0.0
 11
-25.043
 21
-45.528
 31
0.0
  0
LINE
  5
118
330
A
100
AcDbEntity
  8
PV
  6
Continuous
 62
     7
100
AcDbLine
 10
-25.043
 20
-45.528
 30
0.0
 11
-25.03
 21
-45.56499999999999
 31
0.0
  0
LINE
  5
119
330
A
100
AcDbEntity
  8
PV
  6
Continuous
 62
     7
100
AcDbLine
 10
-25.03
 20
-45.56499999999999
 30
0.0
 11
-25.017
 21
-45.60100000000001
 31
0.0
  0
LINE
  5
11A
330
A
100
AcDbEntity
  8
PV
  6
Continuous
 62
     7
100
AcDbLine
 10
-25.017
 20
-45.60100000000001
 30
0.0
 11
-25.004
 21
-45.63699999999999
 31
0.0
  0
LINE
  5
11B
330
A
100
AcDbEntity
  8
PV
  6
Continuous
 62
     7
100
AcDbLine
 10
-25.004
 20
-45.63699999999999
 30
0.0
 11
-24.991
 21
-45.673
 31
0.0
  0
LINE
  5
11C
330
A
100
AcDbEntity
  8
PV
  6
Continuous
 62
     7
100
AcDbLine
 10
-24.991
 20
-45.673
 30
0.0
 11
-24.977
 21
-45.70899999999999
 31
0.0
  0
LINE
  5
11D
330
A
100
AcDbEntity
  8
PV
  6
Continuous
 62
     7
100
AcDbLine
 10
-24.977
 20
-45.70899999999999
 30
0.0
 11
-24.964
 21
-45.74499999999999
 31
0.0
  0
LINE
  5
11E
330
A
100
AcDbEntity
  8
PV
  6
Continuous
 62
     7
100
AcDbLine
 10
-24.964
 20
-45.74499999999999
 30
0.0
 11
-24.949
 21
-45.781
 31
0.0
  0
LINE
  5
11F
330
A
100
AcDbEntity
  8
PV
  6
Continuous
 62
     7
100
AcDbLine
 10
-24.949
 20
-45.781
 30
0.0
 11
-24.935
 21
-45.817
 31
0.0
  0
LINE
  5
120
330
A
100
AcDbEntity
  8
PV
  6
Continuous
 62
     7
100
AcDbLine
 10
-24.935
 20
-45.817
 30
0.0
 11
-24.921
 21
-45.85199999999999
 31
0.0
  0
LINE
  5
121
330
A
100
AcDbEntity
  8
PV
  6
Continuous
 62
     7
100
AcDbLine
 10
-24.921
 20
-45.85199999999999
 30
0.0
 11
-24.906
 21
-45.888
 31
0.0
  0
LINE
  5
122
330
A
100
AcDbEntity
  8
PV
  6
Continuous
 62
     7
100
AcDbLine
 10
-24.906
 20
-45.888
 30
0.0
 11
-24.891
 21
-45.923
 31
0.0
  0
LINE
  5
123
330
A
100
AcDbEntity
  8
PV
  6
Continuous
 62
     7
100
AcDbLine
 10
-24.891
 20
-45.923
 30
0.0
 11
-24.876
 21
-45.95899999999999
 31
0.0
  0
LINE
  5
124
330
A
100
AcDbEntity
  8
PV
  6
Continuous
 62
     7
100
AcDbLine
 10
-24.876
 20
-45.95899999999999
 30
0.0
 11
-24.86
 21
-45.994
 31
0.0
  0
LINE
  5
125
330
A
100
AcDbEntity
  8
PV
  6
Continuous
 62
     7
100
AcDbLine
 10
-24.86
 20
-45.994
 30
0.0
 11
-24.845
 21
-46.02899999999999
 31
0.0
  0
LINE
  5
126
330
A
100
AcDbEntity
  8
PV
  6
Continuous
 62
     7
100
AcDbLine
 10
-24.845
 20
-46.02899999999999
 30
0.0
 11
-24.829
 21
-46.06399999999999
 31
0.0
  0
LINE
  5
127
330
A
100
AcDbEntity
  8
PV
  6
Continuous
 62
     7
100
AcDbLine
 10
-24.829
 20
-46.06399999999999
 30
0.0
 11
-24.81199999999999
 21
-46.09899999999999
 31
0.0
  0
LINE
  5
128
330
A
100
AcDbEntity
  8
PV
  6
Continuous
 62
     7
100
AcDbLine
 10
-24.81199999999999
 20
-46.09899999999999
 30
0.0
 11
-24.796
 21
-46.13399999999999
 31
0.0
  0
LINE
  5
129
330
A
100
AcDbEntity
  8
PV
  6
Continuous
 62
     7
100
AcDbLine
 10
-24.796
 20
-46.13399999999999
 30
0.0
 11
-24.77899999999999
 21
-46.168
 31
0.0
  0
LINE
  5
12A
330
A
100
AcDbEntity
  8
PV
  6
Continuous
 62
     7
100
AcDbLine
 10
-24.77899999999999
 20
-46.168
 30
0.0
 11
-24.76199999999999
 21
-46.203
 31
0.0
  0
LINE
  5
12B
330
A
100
AcDbEntity
  8
PV
  6
Continuous
 62
     7
100
AcDbLine
 10
-24.76199999999999
 20
-46.203
 30
0.0
 11
-24.745
 21
-46.23699999999999
 31
0.0
  0
LINE
  5
12C
330
A
100
AcDbEntity
  8
PV
  6
Continuous
 62
     7
100
AcDbLine
 10
-24.745
 20
-46.23699999999999
 30
0.0
 11
-24.72699999999999
 21
-46.272
 31
0.0
  0
LINE
  5
12D
330
A
100
AcDbEntity
  8
PV
  6
Continuous
 62
     7
100
AcDbLine
 10
-24.72699999999999
 20
-46.272
 30
0.0
 11
-24.709
 21
-46.306
 31
0.0
  0
LINE
  5
12E
330
A
100
AcDbEntity
  8
PV
  6
Continuous
 62
     7
100
AcDbLine
 10
-24.709
 20
-46.306
 30
0.0
 11
-24.691
 21
-46.34
 31
0.0
  0
LINE
  5
12F
330
A
100
AcDbEntity
  8
PV
  6
Continuous
 62
     7
100
AcDbLine
 10
-24.691
 20
-46.34
 30
0.0
 11
-24.672
 21
-46.37399999999999
 31
0.0
  0
LINE
  5
130
330
A
100
AcDbEntity
  8
PV
  6
Continuous
 62
     7
100
AcDbLine
 10
-24.672
 20
-46.37399999999999
 30
0.0
 11
-24.654
 21
-46.40699999999999
 31
0.0
  0
LINE
  5
131
330
A
100
AcDbEntity
  8
PV
  6
Continuous
 62
     7
100
AcDbLine
 10
-24.654
 20
-46.40699999999999
 30
0.0
 11
-24.634
 21
-46.441
 31
0.0
  0
LINE
  5
132
330
A
100
AcDbEntity
  8
PV
  6
Continuous
 62
     7
100
AcDbLine
 10
-24.634
 20
-46.441
 30
0.0
 11
-24.615
 21
-46.474
 31
0.0
  0
LINE
  5
133
330
A
100
AcDbEntity
  8
PV
  6
Continuous
 62
     7
100
AcDbLine
 10
-24.615
 20
-46.474
 30
0.0
 11
-24.595
 21
-46.50699999999999
 31
0.0
  0
LINE
  5
134
330
A
100
AcDbEntity
  8
PV
  6
Continuous
 62
     7
100
AcDbLine
 10
-24.595
 20
-46.50699999999999
 30
0.0
 11
-24.575
 21
-46.53999999999999
 31
0.0
  0
LINE
  5
135
330
A
100
AcDbEntity
  8
PV
  6
Continuous
 62
     7
100
AcDbLine
 10
-24.575
 20
-46.53999999999999
 30
0.0
 11
-24.555
 21
-46.57199999999999
 31
0.0
  0
LINE
  5
136
330
A
100
AcDbEntity
  8
PV
  6
Continuous
 62
     7
100
AcDbLine
 10
-24.555
 20
-46.57199999999999
 30
0.0
 11
-24.534
 21
-46.60499999999999
 31
0.0
  0
LINE
  5
137
330
A
100
AcDbEntity
  8
PV
  6
Continuous
 62
     7
100
AcDbLine
 10
-24.534
 20
-46.60499999999999
 30
0.0
 11
-24.512
 21
-46.637
 31
0.0
  0
LINE
  5
138
330
A
100
AcDbEntity
  8
PV
  6
Continuous
 62
     7
100
AcDbLine
 10
-24.512
 20
-46.637
 30
0.0
 11
-24.491
 21
-46.669
 31
0.0
  0
LINE
  5
139
330
A
100
AcDbEntity
  8
PV
  6
Continuous
 62
     7
100
AcDbLine
 10
-24.491
 20
-46.669
 30
0.0
 11
-24.469
 21
-46.7
 31
0.0
  0
LINE
  5
13A
330
A
100
AcDbEntity
  8
PV
  6
Continuous
 62
     7
100
AcDbLine
 10
-24.469
 20
-46.7
 30
0.0
 11
-24.447
 21
-46.732
 31
0.0
  0
LINE
  5
13B
330
A
100
AcDbEntity
  8
PV
  6
Continuous
 62
     7
100
AcDbLine
 10
-24.447
 20
-46.732
 30
0.0
 11
-24.424
 21
-46.763
 31
0.0
  0
LINE
  5
13C
330
A
100
AcDbEntity
  8
PV
  6
Continuous
 62
     7
100
AcDbLine
 10
-24.424
 20
-46.763
 30
0.0
 11
-24.401
 21
-46.793
 31
0.0
  0
LINE
  5
13D
330
A
100
AcDbEntity
  8
PV
  6
Continuous
 62
     7
100
AcDbLine
 10
-24.401
 20
-46.793
 30
0.0
 11
-24.37699999999999
 21
-46.824
 31
0.0
  0
LINE
  5
13E
330
A
100
AcDbEntity
  8
PV
  6
Continuous
 62
     7
100
AcDbLine
 10
-24.37699999999999
 20
-46.824
 30
0.0
 11
-24.353
 21
-46.854
 31
0.0
  0
LINE
  5
13F
330
A
100
AcDbEntity
  8
PV
  6
Continuous
 62
     7
100
AcDbLine
 10
-24.353
 20
-46.854
 30
0.0
 11
-24.328
 21
-46.883
 31
0.0
  0
LINE
  5
140
330
A
100
AcDbEntity
  8
PV
  6
Continuous
 62
     7
100
AcDbLine
 10
27.815
 20
-46.883
 30
0.0
 11
27.84
 21
-46.854
 31
0.0
  0
LINE
  5
141
330
A
100
AcDbEntity
  8
PV
  6
Continuous
 62
     7
100
AcDbLine
 10
27.84
 20
-46.854
 30
0.0
 11
27.864
 21
-46.824
 31
0.0
  0
LINE
  5
142
330
A
100
AcDbEntity
  8
PV
  6
Continuous
 62
     7
100
AcDbLine
 10
27.864
 20
-46.824
 30
0.0
 11
27.888
 21
-46.793
 31
0.0
  0
LINE
  5
143
330
A
100
AcDbEntity
  8
PV
  6
Continuous
 62
     7
100
AcDbLine
 10
27.888
 20
-46.793
 30
0.0
 11
27.911
 21
-46.763
 31
0.0
  0
LINE
  5
144
330
A
100
AcDbEntity
  8
PV
  6
Continuous
 62
     7
100
AcDbLine
 10
27.911
 20
-46.763
 30
0.0
 11
27.933
 21
-46.732
 31
0.0
  0
LINE
  5
145
330
A
100
AcDbEntity
  8
PV
  6
Continuous
 62
     7
100
AcDbLine
 10
27.933
 20
-46.732
 30
0.0
 11
27.956
 21
-46.7
 31
0.0
  0
LINE
  5
146
330
A
100
AcDbEntity
  8
PV
  6
Continuous
 62
     7
100
AcDbLine
 10
27.956
 20
-46.7
 30
0.0
 11
27.978
 21
-46.669
 31
0.0
  0
LINE
  5
147
330
A
100
AcDbEntity
  8
PV
  6
Continuous
 62
     7
100
AcDbLine
 10
27.978
 20
-46.669
 30
0.0
 11
27.999
 21
-46.637
 31
0.0
  0
LINE
  5
148
330
A
100
AcDbEntity
  8
PV
  6
Continuous
 62
     7
100
AcDbLine
 10
27.999
 20
-46.637
 30
0.0
 11
28.021
 21
-46.60499999999999
 31
0.0
  0
LINE
  5
149
330
A
100
AcDbEntity
  8
PV
  6
Continuous
 62
     7
100
AcDbLine
 10
28.021
 20
-46.60499999999999
 30
0.0
 11
28.041
 21
-46.57199999999999
 31
0.0
  0
LINE
  5
14A
330
A
100
AcDbEntity
  8
PV
  6
Continuous
 62
     7
100
AcDbLine
 10
28.041
 20
-46.57199999999999
 30
0.0
 11
28.062
 21
-46.53999999999999
 31
0.0
  0
LINE
  5
14B
330
A
100
AcDbEntity
  8
PV
  6
Continuous
 62
     7
100
AcDbLine
 10
28.062
 20
-46.53999999999999
 30
0.0
 11
28.08199999999999
 21
-46.50699999999999
 31
0.0
  0
LINE
  5
14C
330
A
100
AcDbEntity
  8
PV
  6
Continuous
 62
     7
100
AcDbLine
 10
28.08199999999999
 20
-46.50699999999999
 30
0.0
 11
28.102
 21
-46.474
 31
0.0
  0
LINE
  5
14D
330
A
100
AcDbEntity
  8
PV
  6
Continuous
 62
     7
100
AcDbLine
 10
28.102
 20
-46.474
 30
0.0
 11
28.121
 21
-46.441
 31
0.0
  0
LINE
  5
14E
330
A
100
AcDbEntity
  8
PV
  6
Continuous
 62
     7
100
AcDbLine
 10
28.121
 20
-46.441
 30
0.0
 11
28.14
 21
-46.40699999999999
 31
0.0
  0
LINE
  5
14F
330
A
100
AcDbEntity
  8
PV
  6
Continuous
 62
     7
100
AcDbLine
 10
28.14
 20
-46.40699999999999
 30
0.0
 11
28.159
 21
-46.37399999999999
 31
0.0
  0
LINE
  5
150
330
A
100
AcDbEntity
  8
PV
  6
Continuous
 62
     7
100
AcDbLine
 10
28.159
 20
-46.37399999999999
 30
0.0
 11
28.178
 21
-46.34
 31
0.0
  0
LINE
  5
151
330
A
100
AcDbEntity
  8
PV
  6
Continuous
 62
     7
100
AcDbLine
 10
28.178
 20
-46.34
 30
0.0
 11
28.19599999999999
 21
-46.306
 31
0.0
  0
LINE
  5
152
330
A
100
AcDbEntity
  8
PV
  6
Continuous
 62
     7
100
AcDbLine
 10
28.19599999999999
 20
-46.306
 30
0.0
 11
28.214
 21
-46.272
 31
0.0
  0
LINE
  5
153
330
A
100
AcDbEntity
  8
PV
  6
Continuous
 62
     7
100
AcDbLine
 10
28.214
 20
-46.272
 30
0.0
 11
28.23199999999999
 21
-46.23699999999999
 31
0.0
  0
LINE
  5
154
330
A
100
AcDbEntity
  8
PV
  6
Continuous
 62
     7
100
AcDbLine
 10
28.23199999999999
 20
-46.23699999999999
 30
0.0
 11
28.249
 21
-46.203
 31
0.0
  0
LINE
  5
155
330
A
100
AcDbEntity
  8
PV
  6
Continuous
 62
     7
100
AcDbLine
 10
28.249
 20
-46.203
 30
0.0
 11
28.266
 21
-46.168
 31
0.0
  0
LINE
  5
156
330
A
100
AcDbEntity
  8
PV
  6
Continuous
 62
     7
100
AcDbLine
 10
28.266
 20
-46.168
 30
0.0
 11
28.283
 21
-46.13399999999999
 31
0.0
  0
LINE
  5
157
330
A
100
AcDbEntity
  8
PV
  6
Continuous
 62
     7
100
AcDbLine
 10
28.283
 20
-46.13399999999999
 30
0.0
 11
28.299
 21
-46.09899999999999
 31
0.0
  0
LINE
  5
158
330
A
100
AcDbEntity
  8
PV
  6
Continuous
 62
     7
100
AcDbLine
 10
28.299
 20
-46.09899999999999
 30
0.0
 11
28.315
 21
-46.06399999999999
 31
0.0
  0
LINE
  5
159
330
A
100
AcDbEntity
  8
PV
  6
Continuous
 62
     7
100
AcDbLine
 10
28.315
 20
-46.06399999999999
 30
0.0
 11
28.33099999999999
 21
-46.02899999999999
 31
0.0
  0
LINE
  5
15A
330
A
100
AcDbEntity
  8
PV
  6
Continuous
 62
     7
100
AcDbLine
 10
28.33099999999999
 20
-46.02899999999999
 30
0.0
 11
28.34699999999999
 21
-45.994
 31
0.0
  0
LINE
  5
15B
330
A
100
AcDbEntity
  8
PV
  6
Continuous
 62
     7
100
AcDbLine
 10
28.34699999999999
 20
-45.994
 30
0.0
 11
28.363
 21
-45.95899999999999
 31
0.0
  0
LINE
  5
15C
330
A
100
AcDbEntity
  8
PV
  6
Continuous
 62
     7
100
AcDbLine
 10
28.363
 20
-45.95899999999999
 30
0.0
 11
28.378
 21
-45.923
 31
0.0
  0
LINE
  5
15D
330
A
100
AcDbEntity
  8
PV
  6
Continuous
 62
     7
100
AcDbLine
 10
28.378
 20
-45.923
 30
0.0
 11
28.393
 21
-45.888
 31
0.0
  0
LINE
  5
15E
330
A
100
AcDbEntity
  8
PV
  6
Continuous
 62
     7
100
AcDbLine
 10
28.393
 20
-45.888
 30
0.0
 11
28.408
 21
-45.85199999999999
 31
0.0
  0
LINE
  5
15F
330
A
100
AcDbEntity
  8
PV
  6
Continuous
 62
     7
100
AcDbLine
 10
28.408
 20
-45.85199999999999
 30
0.0
 11
28.422
 21
-45.817
 31
0.0
  0
LINE
  5
160
330
A
100
AcDbEntity
  8
PV
  6
Continuous
 62
     7
100
AcDbLine
 10
28.422
 20
-45.817
 30
0.0
 11
28.436
 21
-45.781
 31
0.0
  0
LINE
  5
161
330
A
100
AcDbEntity
  8
PV
  6
Continuous
 62
     7
100
AcDbLine
 10
28.436
 20
-45.781
 30
0.0
 11
28.45
 21
-45.74499999999999
 31
0.0
  0
LINE
  5
162
330
A
100
AcDbEntity
  8
PV
  6
Continuous
 62
     7
100
AcDbLine
 10
28.45
 20
-45.74499999999999
 30
0.0
 11
28.464
 21
-45.70899999999999
 31
0.0
  0
LINE
  5
163
330
A
100
AcDbEntity
  8
PV
  6
Continuous
 62
     7
100
AcDbLine
 10
28.464
 20
-45.70899999999999
 30
0.0
 11
28.478
 21
-45.673
 31
0.0
  0
LINE
  5
164
330
A
100
AcDbEntity
  8
PV
  6
Continuous
 62
     7
100
AcDbLine
 10
28.478
 20
-45.673
 30
0.0
 11
28.49099999999999
 21
-45.63699999999999
 31
0.0
  0
LINE
  5
165
330
A
100
AcDbEntity
  8
PV
  6
Continuous
 62
     7
100
AcDbLine
 10
28.49099999999999
 20
-45.63699999999999
 30
0.0
 11
28.504
 21
-45.60100000000001
 31
0.0
  0
LINE
  5
166
330
A
100
AcDbEntity
  8
PV
  6
Continuous
 62
     7
100
AcDbLine
 10
28.504
 20
-45.60100000000001
 30
0.0
 11
28.517
 21
-45.56499999999999
 31
0.0
  0
LINE
  5
167
330
A
100
AcDbEntity
  8
PV
  6
Continuous
 62
     7
100
AcDbLine
 10
28.517
 20
-45.56499999999999
 30
0.0
 11
28.53
 21
-45.528
 31
0.0
  0
LINE
  5
168
330
A
100
AcDbEntity
  8
PV
  6
Continuous
 62
     7
100
AcDbLine
 10
28.53
 20
-45.528
 30
0.0
 11
28.542
 21
-45.49199999999999
 31
0.0
  0
LINE
  5
169
330
A
100
AcDbEntity
  8
PV
  6
Continuous
 62
     7
100
AcDbLine
 10
28.542
 20
-45.49199999999999
 30
0.0
 11
28.555
 21
-45.45499999999999
 31
0.0
  0
LINE
  5
16A
330
A
100
AcDbEntity
  8
PV
  6
Continuous
 62
     7
100
AcDbLine
 10
28.555
 20
-45.45499999999999
 30
0.0
 11
28.567
 21
-45.419
 31
0.0
  0
LINE
  5
16B
330
A
100
AcDbEntity
  8
PV
  6
Continuous
 62
     7
100
AcDbLine
 10
28.567
 20
-45.419
 30
0.0
 11
28.579
 21
-45.38199999999999
 31
0.0
  0
LINE
  5
16C
330
A
100
AcDbEntity
  8
PV
  6
Continuous
 62
     7
100
AcDbLine
 10
28.579
 20
-45.38199999999999
 30
0.0
 11
28.58999999999999
 21
-45.346
 31
0.0
  0
LINE
  5
16D
330
A
100
AcDbEntity
  8
PV
  6
Continuous
 62
     7
100
AcDbLine
 10
28.58999999999999
 20
-45.346
 30
0.0
 11
28.60199999999999
 21
-45.30899999999999
 31
0.0
  0
LINE
  5
16E
330
A
100
AcDbEntity
  8
PV
  6
Continuous
 62
     7
100
AcDbLine
 10
28.60199999999999
 20
-45.30899999999999
 30
0.0
 11
28.613
 21
-45.27199999999999
 31
0.0
  0
LINE
  5
16F
330
A
100
AcDbEntity
  8
PV
  6
Continuous
 62
     7
100
AcDbLine
 10
28.613
 20
-45.27199999999999
 30
0.0
 11
28.624
 21
-45.235
 31
0.0
  0
LINE
  5
170
330
A
100
AcDbEntity
  8
PV
  6
Continuous
 62
     7
100
AcDbLine
 10
28.624
 20
-45.235
 30
0.0
 11
28.635
 21
-45.198
 31
0.0
  0
LINE
  5
171
330
A
100
AcDbEntity
  8
PV
  6
Continuous
 62
     7
100
AcDbLine
 10
28.635
 20
-45.198
 30
0.0
 11
28.646
 21
-45.162
 31
0.0
  0
LINE
  5
172
330
A
100
AcDbEntity
  8
PV
  6
Continuous
 62
     7
100
AcDbLine
 10
28.646
 20
-45.162
 30
0.0
 11
28.657
 21
-45.125
 31
0.0
  0
LINE
  5
173
330
A
100
AcDbEntity
  8
PV
  6
Continuous
 62
     7
100
AcDbLine
 10
28.657
 20
-45.125
 30
0.0
 11
28.66699999999999
 21
-45.087
 31
0.0
  0
LINE
  5
174
330
A
100
AcDbEntity
  8
PV
  6
Continuous
 62
     7
100
AcDbLine
 10
28.66699999999999
 20
-45.087
 30
0.0
 11
28.677
 21
-45.04999999999999
 31
0.0
  0
LINE
  5
175
330
A
100
AcDbEntity
  8
PV
  6
Continuous
 62
     7
100
AcDbLine
 10
28.677
 20
-45.04999999999999
 30
0.0
 11
28.687
 21
-45.013
 31
0.0
  0
LINE
  5
176
330
A
100
AcDbEntity
  8
PV
  6
Continuous
 62
     7
100
AcDbLine
 10
28.687
 20
-45.013
 30
0.0
 11
28.69699999999999
 21
-44.97600000000001
 31
0.0
  0
LINE
  5
177
330
A
100
AcDbEntity
  8
PV
  6
Continuous
 62
     7
100
AcDbLine
 10
28.69699999999999
 20
-44.97600000000001
 30
0.0
 11
28.70699999999999
 21
-44.93899999999999
 31
0.0
  0
LINE
  5
178
330
A
100
AcDbEntity
  8
PV
  6
Continuous
 62
     7
100
AcDbLine
 10
28.70699999999999
 20
-44.93899999999999
 30
0.0
 11
28.71599999999999
 21
-44.901
 31
0.0
  0
LINE
  5
179
330
A
100
AcDbEntity
  8
PV
  6
Continuous
 62
     7
100
AcDbLine
 10
28.71599999999999
 20
-44.901
 30
0.0
 11
28.725
 21
-44.86399999999999
 31
0.0
  0
LINE
  5
17A
330
A
100
AcDbEntity
  8
PV
  6
Continuous
 62
     7
100
AcDbLine
 10
28.725
 20
-44.86399999999999
 30
0.0
 11
28.73499999999999
 21
-44.827
 31
0.0
  0
LINE
  5
17B
330
A
100
AcDbEntity
  8
PV
  6
Continuous
 62
     7
100
AcDbLine
 10
28.73499999999999
 20
-44.827
 30
0.0
 11
28.743
 21
-44.78899999999999
 31
0.0
  0
LINE
  5
17C
330
A
100
AcDbEntity
  8
PV
  6
Continuous
 62
     7
100
AcDbLine
 10
28.743
 20
-44.78899999999999
 30
0.0
 11
28.75199999999999
 21
-44.752
 31
0.0
  0
LINE
  5
17D
330
A
100
AcDbEntity
  8
PV
  6
Continuous
 62
     7
100
AcDbLine
 10
28.75199999999999
 20
-44.752
 30
0.0
 11
28.761
 21
-44.714
 31
0.0
  0
LINE
  5
17E
330
A
100
AcDbEntity
  8
PV
  6
Continuous
 62
     7
100
AcDbLine
 10
28.761
 20
-44.714
 30
0.0
 11
28.769
 21
-44.67699999999999
 31
0.0
  0
LINE
  5
17F
330
A
100
AcDbEntity
  8
PV
  6
Continuous
 62
     7
100
AcDbLine
 10
28.769
 20
-44.67699999999999
 30
0.0
 11
28.778
 21
-44.63899999999999
 31
0.0
  0
LINE
  5
180
330
A
100
AcDbEntity
  8
PV
  6
Continuous
 62
     7
100
AcDbLine
 10
28.778
 20
-44.63899999999999
 30
0.0
 11
28.786
 21
-44.60199999999999
 31
0.0
  0
LINE
  5
181
330
A
100
AcDbEntity
  8
PV
  6
Continuous
 62
     7
100
AcDbLine
 10
28.786
 20
-44.60199999999999
 30
0.0
 11
28.794
 21
-44.56399999999999
 31
0.0
  0
LINE
  5
182
330
A
100
AcDbEntity
  8
PV
  6
Continuous
 62
     7
100
AcDbLine
 10
28.794
 20
-44.56399999999999
 30
0.0
 11
28.801
 21
-44.526
 31
0.0
  0
LINE
  5
183
330
A
100
AcDbEntity
  8
PV
  6
Continuous
 62
     7
100
AcDbLine
 10
28.801
 20
-44.526
 30
0.0
 11
28.809
 21
-44.488
 31
0.0
  0
LINE
  5
184
330
A
100
AcDbEntity
  8
PV
  6
Continuous
 62
     7
100
AcDbLine
 10
28.809
 20
-44.488
 30
0.0
 11
28.816
 21
-44.451
 31
0.0
  0
LINE
  5
185
330
A
100
AcDbEntity
  8
PV
  6
Continuous
 62
     7
100
AcDbLine
 10
28.816
 20
-44.451
 30
0.0
 11
28.824
 21
-44.413
 31
0.0
  0
LINE
  5
186
330
A
100
AcDbEntity
  8
PV
  6
Continuous
 62
     7
100
AcDbLine
 10
28.824
 20
-44.413
 30
0.0
 11
28.831
 21
-44.375
 31
0.0
  0
LINE
  5
187
330
A
100
AcDbEntity
  8
PV
  6
Continuous
 62
     7
100
AcDbLine
 10
28.831
 20
-44.375
 30
0.0
 11
28.838
 21
-44.33699999999999
 31
0.0
  0
LINE
  5
188
330
A
100
AcDbEntity
  8
PV
  6
Continuous
 62
     7
100
AcDbLine
 10
28.838
 20
-44.33699999999999
 30
0.0
 11
28.845
 21
-44.29899999999999
 31
0.0
  0
LINE
  5
189
330
A
100
AcDbEntity
  8
PV
  6
Continuous
 62
     7
100
AcDbLine
 10
28.845
 20
-44.29899999999999
 30
0.0
 11
28.85099999999999
 21
-44.262
 31
0.0
  0
LINE
  5
18A
330
A
100
AcDbEntity
  8
PV
  6
Continuous
 62
     7
100
AcDbLine
 10
28.85099999999999
 20
-44.262
 30
0.0
 11
28.858
 21
-44.22399999999999
 31
0.0
  0
LINE
  5
18B
330
A
100
AcDbEntity
  8
PV
  6
Continuous
 62
     7
100
AcDbLine
 10
28.858
 20
-44.22399999999999
 30
0.0
 11
28.864
 21
-44.186
 31
0.0
  0
LINE
  5
18C
330
A
100
AcDbEntity
  8
PV
  6
Continuous
 62
     7
100
AcDbLine
 10
28.864
 20
-44.186
 30
0.0
 11
28.87
 21
-44.148
 31
0.0
  0
LINE
  5
18D
330
A
100
AcDbEntity
  8
PV
  6
Continuous
 62
     7
100
AcDbLine
 10
28.87
 20
-44.148
 30
0.0
 11
28.87599999999999
 21
-44.11
 31
0.0
  0
LINE
  5
18E
330
A
100
AcDbEntity
  8
PV
  6
Continuous
 62
     7
100
AcDbLine
 10
28.87599999999999
 20
-44.11
 30
0.0
 11
28.88199999999999
 21
-44.07199999999999
 31
0.0
  0
LINE
  5
18F
330
A
100
AcDbEntity
  8
PV
  6
Continuous
 62
     7
100
AcDbLine
 10
28.88199999999999
 20
-44.07199999999999
 30
0.0
 11
28.888
 21
-44.034
 31
0.0
  0
LINE
  5
190
330
A
100
AcDbEntity
  8
PV
  6
Continuous
 62
     7
100
AcDbLine
 10
28.888
 20
-44.034
 30
0.0
 11
28.894
 21
-43.996
 31
0.0
  0
LINE
  5
191
330
A
100
AcDbEntity
  8
PV
  6
Continuous
 62
     7
100
AcDbLine
 10
28.894
 20
-43.996
 30
0.0
 11
28.899
 21
-43.957
 31
0.0
  0
LINE
  5
192
330
A
100
AcDbEntity
  8
PV
  6
Continuous
 62
     7
100
AcDbLine
 10
28.899
 20
-43.957
 30
0.0
 11
28.90399999999999
 21
-43.91899999999999
 31
0.0
  0
LINE
  5
193
330
A
100
AcDbEntity
  8
PV
  6
Continuous
 62
     7
100
AcDbLine
 10
28.90399999999999
 20
-43.91899999999999
 30
0.0
 11
28.909
 21
-43.881
 31
0.0
  0
LINE
  5
194
330
A
100
AcDbEntity
  8
PV
  6
Continuous
 62
     7
100
AcDbLine
 10
28.909
 20
-43.881
 30
0.0
 11
28.914
 21
-43.843
 31
0.0
  0
LINE
  5
195
330
A
100
AcDbEntity
  8
PV
  6
Continuous
 62
     7
100
AcDbLine
 10
28.914
 20
-43.843
 30
0.0
 11
28.919
 21
-43.805
 31
0.0
  0
LINE
  5
196
330
A
100
AcDbEntity
  8
PV
  6
Continuous
 62
     7
100
AcDbLine
 10
28.919
 20
-43.805
 30
0.0
 11
28.924
 21
-43.76699999999999
 31
0.0
  0
LINE
  5
197
330
A
100
AcDbEntity
  8
PV
  6
Continuous
 62
     7
100
AcDbLine
 10
28.924
 20
-43.76699999999999
 30
0.0
 11
28.928
 21
-43.728
 31
0.0
  0
LINE
  5
198
330
A
100
AcDbEntity
  8
PV
  6
Continuous
 62
     7
100
AcDbLine
 10
28.928
 20
-43.728
 30
0.0
 11
28.933
 21
-43.68999999999999
 31
0.0
  0
LINE
  5
199
330
A
100
AcDbEntity
  8
PV
  6
Continuous
 62
     7
100
AcDbLine
 10
28.933
 20
-43.68999999999999
 30
0.0
 11
28.93699999999999
 21
-43.652
 31
0.0
  0
LINE
  5
19A
330
A
100
AcDbEntity
  8
PV
  6
Continuous
 62
     7
100
AcDbLine
 10
28.93699999999999
 20
-43.652
 30
0.0
 11
28.94099999999999
 21
-43.61399999999999
 31
0.0
  0
LINE
  5
19B
330
A
100
AcDbEntity
  8
PV
  6
Continuous
 62
     7
100
AcDbLine
 10
28.94099999999999
 20
-43.61399999999999
 30
0.0
 11
28.945
 21
-43.575
 31
0.0
  0
LINE
  5
19C
330
A
100
AcDbEntity
  8
PV
  6
Continuous
 62
     7
100
AcDbLine
 10
28.945
 20
-43.575
 30
0.0
 11
28.949
 21
-43.53699999999999
 31
0.0
  0
LINE
  5
19D
330
A
100
AcDbEntity
  8
PV
  6
Continuous
 62
     7
100
AcDbLine
 10
28.949
 20
-43.53699999999999
 30
0.0
 11
28.953
 21
-43.49899999999999
 31
0.0
  0
LINE
  5
19E
330
A
100
AcDbEntity
  8
PV
  6
Continuous
 62
     7
100
AcDbLine
 10
28.953
 20
-43.49899999999999
 30
0.0
 11
28.95599999999999
 21
-43.461
 31
0.0
  0
LINE
  5
19F
330
A
100
AcDbEntity
  8
PV
  6
Continuous
 62
     7
100
AcDbLine
 10
28.95599999999999
 20
-43.461
 30
0.0
 11
28.96
 21
-43.422
 31
0.0
  0
LINE
  5
1A0
330
A
100
AcDbEntity
  8
PV
  6
Continuous
 62
     7
100
AcDbLine
 10
28.96
 20
-43.422
 30
0.0
 11
28.963
 21
-43.38399999999999
 31
0.0
  0
LINE
  5
1A1
330
A
100
AcDbEntity
  8
PV
  6
Continuous
 62
     7
100
AcDbLine
 10
28.963
 20
-43.38399999999999
 30
0.0
 11
28.96599999999999
 21
-43.346
 31
0.0
  0
LINE
  5
1A2
330
A
100
AcDbEntity
  8
PV
  6
Continuous
 62
     7
100
AcDbLine
 10
28.96599999999999
 20
-43.346
 30
0.0
 11
28.969
 21
-43.30699999999999
 31
0.0
  0
LINE
  5
1A3
330
A
100
AcDbEntity
  8
PV
  6
Continuous
 62
     7
100
AcDbLine
 10
28.969
 20
-43.30699999999999
 30
0.0
 11
28.97199999999999
 21
-43.269
 31
0.0
  0
LINE
  5
1A4
330
A
100
AcDbEntity
  8
PV
  6
Continuous
 62
     7
100
AcDbLine
 10
28.97199999999999
 20
-43.269
 30
0.0
 11
28.974
 21
-43.22999999999999
 31
0.0
  0
LINE
  5
1A5
330
A
100
AcDbEntity
  8
PV
  6
Continuous
 62
     7
100
AcDbLine
 10
28.974
 20
-43.22999999999999
 30
0.0
 11
28.977
 21
-43.192
 31
0.0
  0
LINE
  5
1A6
330
A
100
AcDbEntity
  8
PV
  6
Continuous
 62
     7
100
AcDbLine
 10
28.977
 20
-43.192
 30
0.0
 11
28.97899999999999
 21
-43.15399999999999
 31
0.0
  0
LINE
  5
1A7
330
A
100
AcDbEntity
  8
PV
  6
Continuous
 62
     7
100
AcDbLine
 10
28.97899999999999
 20
-43.15399999999999
 30
0.0
 11
28.982
 21
-43.115
 31
0.0
  0
LINE
  5
1A8
330
A
100
AcDbEntity
  8
PV
  6
Continuous
 62
     7
100
AcDbLine
 10
28.982
 20
-43.115
 30
0.0
 11
28.984
 21
-43.07699999999999
 31
0.0
  0
LINE
  5
1A9
330
A
100
AcDbEntity
  8
PV
  6
Continuous
 62
     7
100
AcDbLine
 10
28.984
 20
-43.07699999999999
 30
0.0
 11
28.986
 21
-43.038
 31
0.0
  0
LINE
  5
1AA
330
A
100
AcDbEntity
  8
PV
  6
Continuous
 62
     7
100
AcDbLine
 10
28.986
 20
-43.038
 30
0.0
 11
28.988
 21
-43.0
 31
0.0
  0
LINE
  5
1AB
330
A
100
AcDbEntity
  8
PV
  6
Continuous
 62
     7
100
AcDbLine
 10
28.988
 20
-43.0
 30
0.0
 11
28.989
 21
-42.961
 31
0.0
  0
LINE
  5
1AC
330
A
100
AcDbEntity
  8
PV
  6
Continuous
 62
     7
100
AcDbLine
 10
28.989
 20
-42.961
 30
0.0
 11
28.991
 21
-42.923
 31
0.0
  0
LINE
  5
1AD
330
A
100
AcDbEntity
  8
PV
  6
Continuous
 62
     7
100
AcDbLine
 10
28.991
 20
-42.923
 30
0.0
 11
28.992
 21
-42.88499999999999
 31
0.0
  0
LINE
  5
1AE
330
A
100
AcDbEntity
  8
PV
  6
Continuous
 62
     7
100
AcDbLine
 10
28.992
 20
-42.88499999999999
 30
0.0
 11
28.99399999999999
 21
-42.846
 31
0.0
  0
LINE
  5
1AF
330
A
100
AcDbEntity
  8
PV
  6
Continuous
 62
     7
100
AcDbLine
 10
28.99399999999999
 20
-42.846
 30
0.0
 11
28.995
 21
-42.808
 31
0.0
  0
LINE
  5
1B0
330
A
100
AcDbEntity
  8
PV
  6
Continuous
 62
     7
100
AcDbLine
 10
28.995
 20
-42.808
 30
0.0
 11
28.99599999999999
 21
-42.769
 31
0.0
  0
LINE
  5
1B1
330
A
100
AcDbEntity
  8
PV
  6
Continuous
 62
     7
100
AcDbLine
 10
28.99599999999999
 20
-42.769
 30
0.0
 11
28.997
 21
-42.731
 31
0.0
  0
LINE
  5
1B2
330
A
100
AcDbEntity
  8
PV
  6
Continuous
 62
     7
100
AcDbLine
 10
28.997
 20
-42.731
 30
0.0
 11
28.998
 21
-42.692
 31
0.0
  0
LINE
  5
1B3
330
A
100
AcDbEntity
  8
PV
  6
Continuous
 62
     7
100
AcDbLine
 10
28.998
 20
-42.692
 30
0.0
 11
28.998
 21
-42.65399999999999
 31
0.0
  0
LINE
  5
1B4
330
A
100
AcDbEntity
  8
PV
  6
Continuous
 62
     7
100
AcDbLine
 10
28.998
 20
-42.65399999999999
 30
0.0
 11
28.999
 21
-42.615
 31
0.0
  0
LINE
  5
1B5
330
A
100
AcDbEntity
  8
PV
  6
Continuous
 62
     7
100
AcDbLine
 10
28.999
 20
-42.615
 30
0.0
 11
28.999
 21
-42.57699999999999
 31
0.0
  0
LINE
  5
1B6
330
A
100
AcDbEntity
  8
PV
  6
Continuous
 62
     7
100
AcDbLine
 10
28.999
 20
-42.57699999999999
 30
0.0
 11
28.999
 21
-42.538
 31
0.0
  0
LINE
  5
1B7
330
A
100
AcDbEntity
  8
PV
  6
Continuous
 62
     7
100
AcDbLine
 10
28.999
 20
-42.538
 30
0.0
 11
28.999
 21
-42.5
 31
0.0
  0
LINE
  5
1B8
330
A
100
AcDbEntity
  8
PV
  6
Continuous
 62
     7
100
AcDbLine
 10
-94.10200000000001
 20
200.33
 30
0.0
 11
-98.25700000000001
 21
201.4429999999999
 31
0.0
  0
LINE
  5
1B9
330
A
100
AcDbEntity
  8
PV
  6
Continuous
 62
     7
100
AcDbLine
 10
-98.25700000000001
 20
201.4429999999999
 30
0.0
 11
-94.10200000000001
 21
202.556
 31
0.0
  0
LINE
  5
1BA
330
A
100
AcDbEntity
  8
PV
  6
Continuous
 62
     7
100
AcDbLine
 10
-98.25700000000001
 20
201.4429999999999
 30
0.0
 11
-94.10200000000001
 21
201.4429999999999
 31
0.0
  0
LINE
  5
1BB
330
A
100
AcDbEntity
  8
PV
  6
Continuous
 62
     7
100
AcDbLine
 10
70.088
 20
202.556
 30
0.0
 11
74.24299999999999
 21
201.4429999999999
 31
0.0
  0
LINE
  5
1BC
330
A
100
AcDbEntity
  8
PV
  6
Continuous
 62
     7
100
AcDbLine
 10
74.24299999999999
 20
201.4429999999999
 30
0.0
 11
70.088
 21
200.33
 31
0.0
  0
LINE
  5
1BD
330
A
100
AcDbEntity
  8
PV
  6
Continuous
 62
     7
100
AcDbLine
 10
74.24299999999999
 20
201.4429999999999
 30
0.0
 11
70.088
 21
201.4429999999999
 31
0.0
  0
LINE
  5
1BE
330
A
100
AcDbEntity
  8
PV
  6
Continuous
 62
     7
100
AcDbLine
 10
-98.25700000000001
 20
201.4429999999999
 30
0.0
 11
74.24299999999999
 21
201.4429999999999
 31
0.0
  0
LINE
  5
1BF
330
A
100
AcDbEntity
  8
PV
  6
Continuous
 62
     7
100
AcDbLine
 10
-98.25700000000001
 20
193.749
 30
0.0
 11
-98.25700000000001
 21
204.872
 31
0.0
  0
LINE
  5
1C0
330
A
100
AcDbEntity
  8
PV
  6
Continuous
 62
     7
100
AcDbLine
 10
74.24299999999999
 20
121.249
 30
0.0
 11
74.24299999999999
 21
204.872
 31
0.0
  0
MTEXT
  5
1C1
330
A
100
AcDbEntity
  8
PV
  6
Continuous
 62
     7
100
AcDbMText
 10
-12.007
 20
211.5429999999999
 30
0.0
 40
8.4
 41
0.0
 71
     2
 72
     1
  1
\A1;172.5
 73
     1
 44
1.0
  0
POINT
  5
1C2
330
A
100
AcDbEntity
  8
PV
  6
Continuous
 62
     7
100
AcDbPoint
 10
-98.25700000000001
 20
189.939
 30
0.0
  0
POINT
  5
1C3
330
A
100
AcDbEntity
  8
PV
  6
Continuous
 62
     7
100
AcDbPoint
 10
74.24299999999999
 20
117.439
 30
0.0
  0
POINT
  5
1C4
330
A
100
AcDbEntity
  8
PV
  6
Continuous
 62
     7
100
AcDbPoint
 10
74.24299999999999
 20
201.4429999999999
 30
0.0
  0
LINE
  5
1C5
330
A
100
AcDbEntity
  8
PV
  6
Continuous
 62
     7
100
AcDbLine
 10
-174.322075
 20
65.67754100000001
 30
0.0
 11
-176.983412
 21
62.297416
 31
0.0
  0
LINE
  5
1C6
330
A
100
AcDbEntity
  8
PV
  6
Continuous
 62
     7
100
AcDbLine
 10
-176.983412
 20
62.297416
 30
0.0
 11
-176.369237
 21
66.55463199999999
 31
0.0
  0
LINE
  5
1C7
330
A
100
AcDbEntity
  8
PV
  6
Continuous
 62
     7
100
AcDbLine
 10
-176.983412
 20
62.297416
 30
0.0
 11
-175.345656
 21
66.116086
 31
0.0
  0
LINE
  5
1C8
330
A
100
AcDbEntity
  8
PV
  6
Continuous
 62
     7
100
AcDbLine
 10
-176.983412
 20
62.297416
 30
0.0
 11
-147.276522
 21
131.567261
 31
0.0
  0
LINE
  5
1C9
330
A
100
AcDbEntity
  8
PV
  6
Continuous
 62
     7
100
AcDbLine
 10
-147.276522
 20
131.567261
 30
0.0
 11
-119.938403
 21
195.312756
 31
0.0
  0
MTEXT
  5
1CA
330
A
100
AcDbEntity
  8
PV
  6
Continuous
 62
     7
100
AcDbMText
 10
-140.886458
 20
171.7052929999999
 30
0.0
 40
8.4
 41
0.0
 71
     2
 72
     1
  1
\A1;PCD 120
 11
0.3941450970919415
 21
0.9190482263942321
 31
0.0
 73
     1
 44
1.0
  0
POINT
  5
1CB
330
A
100
AcDbEntity
  8
PV
  6
Continuous
 62
     7
100
AcDbPoint
 10
-138.6179999999999
 20
121.879
 30
0.0
  0
POINT
  5
1CC
330
A
100
AcDbEntity
  8
PV
  6
Continuous
 62
     7
100
AcDbPoint
 10
-210.777
 20
100.11
 30
0.0
  0
POINT
  5
1CD
330
A
100
AcDbEntity
  8
PV
  6
Continuous
 62
     7
100
AcDbPoint
 10
-192.7599999999999
 20
154.6699999999999
 30
0.0
  0
LINE
  5
1CE
330
A
100
AcDbEntity
  8
PV
  6
Continuous
 62
     7
100
AcDbLine
 10
118.89
 20
168.284
 30
0.0
 11
120.0029999999999
 21
172.439
 31
0.0
  0
LINE
  5
1CF
330
A
100
AcDbEntity
  8
PV
  6
Continuous
 62
     7
100
AcDbLine
 10
120.0029999999999
 20
172.439
 30
0.0
 11
121.116
 21
168.284
 31
0.0
  0
LINE
  5
1D0
330
A
100
AcDbEntity
  8
PV
  6
Continuous
 62
     7
100
AcDbLine
 10
120.0029999999999
 20
172.439
 30
0.0
 11
120.0029999999999
 21
168.284
 31
0.0
  0
LINE
  5
1D1
330
A
100
AcDbEntity
  8
PV
  6
Continuous
 62
     7
100
AcDbLine
 10
121.116
 20
66.59399999999999
 30
0.0
 11
120.0029999999999
 21
62.439
 31
0.0
  0
LINE
  5
1D2
330
A
100
AcDbEntity
  8
PV
  6
Continuous
 62
     7
100
AcDbLine
 10
120.0029999999999
 20
62.439
 30
0.0
 11
118.89
 21
66.59399999999999
 31
0.0
  0
LINE
  5
1D3
330
A
100
AcDbEntity
  8
PV
  6
Continuous
 62
     7
100
AcDbLine
 10
120.0029999999999
 20
62.439
 30
0.0
 11
120.0029999999999
 21
66.59399999999999
 31
0.0
  0
LINE
  5
1D4
330
A
100
AcDbEntity
  8
PV
  6
Continuous
 62
     7
100
AcDbLine
 10
120.0029999999999
 20
172.439
 30
0.0
 11
120.0029999999999
 21
62.439
 31
0.0
  0
LINE
  5
1D5
330
A
100
AcDbEntity
  8
PV
  6
Continuous
 62
     7
100
AcDbLine
 10
53.553
 20
172.439
 30
0.0
 11
123.432
 21
172.439
 31
0.0
  0
LINE
  5
1D6
330
A
100
AcDbEntity
  8
PV
  6
Continuous
 62
     7
100
AcDbLine
 10
53.553
 20
62.439
 30
0.0
 11
123.432
 21
62.439
 31
0.0
  0
MTEXT
  5
1D7
330
A
100
AcDbEntity
  8
PV
  6
Continuous
 62
     7
100
AcDbMText
 10
108.9029999999999
 20
120.0
 30
0.0
 40
8.4
 41
0.0
 71
     2
 72
     1
  1
\A1;□110
 11
0.0
 21
1.0
 31
0.0
 73
     1
 44
1.0
  0
POINT
  5
1D8
330
A
100
AcDbEntity
  8
PV
  6
Continuous
 62
     7
100
AcDbPoint
 10
49.743
 20
172.439
 30
0.0
  0
POINT
  5
1D9
330
A
100
AcDbEntity
  8
PV
  6
Continuous
 62
     7
100
AcDbPoint
 10
49.743
 20
62.439
 30
0.0
  0
POINT
  5
1DA
330
A
100
AcDbEntity
  8
PV
  6
Continuous
 62
     7
100
AcDbPoint
 10
120.0029999999999
 20
62.439
 30
0.0
  0
CIRCLE
  5
1DB
330
A
100
AcDbEntity
  8
PV
  6
Continuous
 62
     7
100
AcDbCircle
 10
44.743
 20
74.43899999999999
 30
0.0
 40
6.961
  0
CIRCLE
  5
1DC
330
A
100
AcDbEntity
  8
PV
  6
Continuous
 62
     7
100
AcDbCircle
 10
44.743
 20
74.43899999999999
 30
0.0
 40
8.0
  0
LINE
  5
1DD
330
A
100
AcDbEntity
  8
PV
  6
Continuous
 62
     7
100
AcDbLine
 10
48.743
 20
72.04899999999999
 30
0.0
 11
44.743
 21
69.73899999999999
 31
0.0
  0
LINE
  5
1DE
330
A
100
AcDbEntity
  8
PV
  6
Continuous
 62
     7
100
AcDbLine
 10
44.743
 20
79.13899999999999
 30
0.0
 11
48.743
 21
76.82999999999999
 31
0.0
  0
LINE
  5
1DF
330
A
100
AcDbEntity
  8
PV
  6
Continuous
 62
     7
100
AcDbLine
 10
48.743
 20
76.82999999999999
 30
0.0
 11
48.743
 21
72.04899999999999
 31
0.0
  0
LINE
  5
1E0
330
A
100
AcDbEntity
  8
PV
  6
Continuous
 62
     7
100
AcDbLine
 10
40.743
 20
76.82999999999999
 30
0.0
 11
40.743
 21
72.04899999999999
 31
0.0
  0
LINE
  5
1E1
330
A
100
AcDbEntity
  8
PV
  6
Continuous
 62
     7
100
AcDbLine
 10
44.743
 20
69.73899999999999
 30
0.0
 11
40.743
 21
72.04899999999999
 31
0.0
  0
LINE
  5
1E2
330
A
100
AcDbEntity
  8
PV
  6
Continuous
 62
     7
100
AcDbLine
 10
40.743
 20
76.82999999999999
 30
0.0
 11
44.743
 21
79.13899999999999
 31
0.0
  0
CIRCLE
  5
1E3
330
A
100
AcDbEntity
  8
PV
  6
Continuous
 62
     7
100
AcDbCircle
 10
44.743
 20
160.4389999999999
 30
0.0
 40
6.961
  0
CIRCLE
  5
1E4
330
A
100
AcDbEntity
  8
PV
  6
Continuous
 62
     7
100
AcDbCircle
 10
44.743
 20
160.4389999999999
 30
0.0
 40
8.0
  0
LINE
  5
1E5
330
A
100
AcDbEntity
  8
PV
  6
Continuous
 62
     7
100
AcDbLine
 10
40.743
 20
158.049
 30
0.0
 11
44.743
 21
155.739
 31
0.0
  0
LINE
  5
1E6
330
A
100
AcDbEntity
  8
PV
  6
Continuous
 62
     7
100
AcDbLine
 10
44.743
 20
165.139
 30
0.0
 11
40.743
 21
162.83
 31
0.0
  0
LINE
  5
1E7
330
A
100
AcDbEntity
  8
PV
  6
Continuous
 62
     7
100
AcDbLine
 10
40.743
 20
162.83
 30
0.0
 11
40.743
 21
158.049
 31
0.0
  0
LINE
  5
1E8
330
A
100
AcDbEntity
  8
PV
  6
Continuous
 62
     7
100
AcDbLine
 10
48.743
 20
162.83
 30
0.0
 11
48.743
 21
158.049
 31
0.0
  0
LINE
  5
1E9
330
A
100
AcDbEntity
  8
PV
  6
Continuous
 62
     7
100
AcDbLine
 10
44.743
 20
155.739
 30
0.0
 11
48.743
 21
158.049
 31
0.0
  0
LINE
  5
1EA
330
A
100
AcDbEntity
  8
PV
  6
Continuous
 62
     7
100
AcDbLine
 10
48.743
 20
162.83
 30
0.0
 11
44.743
 21
165.139
 31
0.0
  0
CIRCLE
  5
1EB
330
A
100
AcDbEntity
  8
PV
  6
Continuous
 62
     7
100
AcDbCircle
 10
-41.257
 20
74.43899999999999
 30
0.0
 40
6.961
  0
CIRCLE
  5
1EC
330
A
100
AcDbEntity
  8
PV
  6
Continuous
 62
     7
100
AcDbCircle
 10
-41.257
 20
74.43899999999999
 30
0.0
 40
8.0
  0
LINE
  5
1ED
330
A
100
AcDbEntity
  8
PV
  6
Continuous
 62
     7
100
AcDbLine
 10
-45.25699999999999
 20
72.04899999999999
 30
0.0
 11
-41.257
 21
69.73899999999999
 31
0.0
  0
LINE
  5
1EE
330
A
100
AcDbEntity
  8
PV
  6
Continuous
 62
     7
100
AcDbLine
 10
-41.257
 20
79.13899999999999
 30
0.0
 11
-45.25699999999999
 21
76.82999999999999
 31
0.0
  0
LINE
  5
1EF
330
A
100
AcDbEntity
  8
PV
  6
Continuous
 62
     7
100
AcDbLine
 10
-45.25699999999999
 20
76.82999999999999
 30
0.0
 11
-45.25699999999999
 21
72.04899999999999
 31
0.0
  0
LINE
  5
1F0
330
A
100
AcDbEntity
  8
PV
  6
Continuous
 62
     7
100
AcDbLine
 10
-37.25699999999999
 20
76.82999999999999
 30
0.0
 11
-37.25699999999999
 21
72.04899999999999
 31
0.0
  0
LINE
  5
1F1
330
A
100
AcDbEntity
  8
PV
  6
Continuous
 62
     7
100
AcDbLine
 10
-41.257
 20
69.73899999999999
 30
0.0
 11
-37.25699999999999
 21
72.04899999999999
 31
0.0
  0
LINE
  5
1F2
330
A
100
AcDbEntity
  8
PV
  6
Continuous
 62
     7
100
AcDbLine
 10
-37.25699999999999
 20
76.82999999999999
 30
0.0
 11
-41.257
 21
79.13899999999999
 31
0.0
  0
CIRCLE
  5
1F3
330
A
100
AcDbEntity
  8
PV
  6
Continuous
 62
     7
100
AcDbCircle
 10
-41.257
 20
160.4389999999999
 30
0.0
 40
6.961
  0
CIRCLE
  5
1F4
330
A
100
AcDbEntity
  8
PV
  6
Continuous
 62
     7
100
AcDbCircle
 10
-41.257
 20
160.4389999999999
 30
0.0
 40
8.0
  0
LINE
  5
1F5
330
A
100
AcDbEntity
  8
PV
  6
Continuous
 62
     7
100
AcDbLine
 10
-45.25699999999999
 20
158.049
 30
0.0
 11
-41.257
 21
155.739
 31
0.0
  0
LINE
  5
1F6
330
A
100
AcDbEntity
  8
PV
  6
Continuous
 62
     7
100
AcDbLine
 10
-41.257
 20
165.139
 30
0.0
 11
-45.25699999999999
 21
162.83
 31
0.0
  0
LINE
  5
1F7
330
A
100
AcDbEntity
  8
PV
  6
Continuous
 62
     7
100
AcDbLine
 10
-45.25699999999999
 20
162.83
 30
0.0
 11
-45.25699999999999
 21
158.049
 31
0.0
  0
LINE
  5
1F8
330
A
100
AcDbEntity
  8
PV
  6
Continuous
 62
     7
100
AcDbLine
 10
-37.25699999999999
 20
162.83
 30
0.0
 11
-37.25699999999999
 21
158.049
 31
0.0
  0
LINE
  5
1F9
330
A
100
AcDbEntity
  8
PV
  6
Continuous
 62
     7
100
AcDbLine
 10
-41.257
 20
155.739
 30
0.0
 11
-37.25699999999999
 21
158.049
 31
0.0
  0
LINE
  5
1FA
330
A
100
AcDbEntity
  8
PV
  6
Continuous
 62
     7
100
AcDbLine
 10
-37.25699999999999
 20
162.83
 30
0.0
 11
-41.257
 21
165.139
 31
0.0
  0
SOLID
  5
1FB
330
A
100
AcDbEntity
  8
PV
  6
Continuous
 62
     7
100
AcDbTrace
 10
-11.388
 20
130.7839999999999
 30
0.0
 11
-10.94
 21
130.7839999999999
 31
0.0
 12
-11.388
 22
133.023
 32
0.0
 13
-10.94
 23
133.023
 33
0.0
  0
SOLID
  5
1FC
330
A
100
AcDbEntity
  8
PV
  6
Continuous
 62
     7
100
AcDbTrace
 10
-14.858
 20
130.7839999999999
 30
0.0
 11
-14.41
 21
130.7839999999999
 31
0.0
 12
-14.858
 22
133.023
 32
0.0
 13
-14.41
 23
133.023
 33
0.0
  0
SOLID
  5
1FD
330
A
100
AcDbEntity
  8
PV
  6
Continuous
 62
     7
100
AcDbTrace
 10
-0.9559999999999998
 20
136.2489999999999
 30
0.0
 11
0.594
 21
136.2489999999999
 31
0.0
 12
-0.9559999999999998
 22
139.799
 32
0.0
 13
0.594
 23
139.799
 33
0.0
  0
MTEXT
  5
1FE
330
A
100
AcDbEntity
  8
PV
  6
Continuous
 62
     7
100
AcDbMText
 10
8.775123999999999
 20
96.70581300000002
 30
0.0
 40
1.5
 41
0.0
 71
     2
 72
     1
  1
\W1.048;\A1;N
 11
0.9304177033247322
 21
0.3665008831366308
 31
0.0
 73
     1
 44
1.0
  0
MTEXT
  5
1FF
330
A
100
AcDbEntity
  8
PV
  6
Continuous
 62
     7
100
AcDbMText
 10
-0.8861559999999998
 20
95.74568799999999
 30
0.0
 40
1.5
 41
0.0
 71
     2
 72
     1
  1
\W0.905;\A1;E
 11
0.9969173391662902
 21
-0.0784590266929423
 31
0.0
 73
     1
 44
1.0
  0
MTEXT
  5
200
330
A
100
AcDbEntity
  8
PV
  6
Continuous
 62
     7
100
AcDbMText
 10
-2.314213999999999
 20
95.920714
 30
0.0
 40
1.5
 41
0.0
 71
     2
 72
     1
  1
\W0.952;\A1;S
 11
0.9862855482320082
 21
-0.1650479243998155
 31
0.0
 73
     1
 44
1.0
  0
MTEXT
  5
201
330
A
100
AcDbEntity
  8
PV
  6
Continuous
 62
     7
100
AcDbMText
 10
-3.722215
 20
96.22011100000001
 30
0.0
 40
1.5
 41
0.0
 71
     2
 72
     1
  1
\W1.048;\A1;O
 11
0.9681476639056603
 21
-0.2503799130801275
 31
0.0
 73
     1
 44
1.0
  0
MTEXT
  5
202
330
A
100
AcDbEntity
  8
PV
  6
Continuous
 62
     7
100
AcDbMText
 10
-5.098644999999999
 20
96.64098100000002
 30
0.0
 40
1.5
 41
0.0
 71
     2
 72
     1
  1
\W0.810;\A1;L
 11
0.9426413920776289
 21
-0.3338071388421012
 31
0.0
 73
     1
 44
1.0
  0
MTEXT
  5
203
330
A
100
AcDbEntity
  8
PV
  6
Continuous
 62
     7
100
AcDbMText
 10
-6.43398
 20
97.18047099999999
 30
0.0
 40
1.5
 41
0.0
 71
     2
 72
     1
  1
\A1;C
 11
0.909961315861277
 21
-0.4146931439462357
 31
0.0
 73
     1
 44
1.0
  0
MTEXT
  5
204
330
A
100
AcDbEntity
  8
PV
  6
Continuous
 62
     7
100
AcDbMText
 10
7.413988999999999
 20
96.237115
 30
0.0
 40
1.5
 41
0.0
 71
     2
 72
     1
  1
\W0.905;\A1;E
 11
0.9588198501244839
 21
0.2840149556049157
 31
0.0
 73
     1
 44
1.0
  0
MTEXT
  5
205
330
A
100
AcDbEntity
  8
PV
  6
Continuous
 62
     7
100
AcDbMText
 10
6.017473999999999
 20
95.88894399999999
 30
0.0
 40
1.5
 41
0.0
 71
     2
 72
     1
  1
\A1;P
 11
0.9799247035488139
 21
0.1993679396863229
 31
0.0
 73
     1
 44
1.0
  0
MTEXT
  5
206
330
A
100
AcDbEntity
  8
PV
  6
Continuous
 62
     7
100
AcDbMText
 10
4.596098
 20
95.66417900000001
 30
0.0
 40
1.5
 41
0.0
 71
     2
 72
     1
  1
\W1.048;\A1;O
 11
0.9935718815697162
 21
0.113202986506601
 31
0.0
 73
     1
 44
1.0
  0
MTEXT
  5
207
330
A
100
AcDbEntity
  8
PV
  6
Continuous
 62
     7
100
AcDbMText
 10
1.684
 20
105.164
 30
0.0
 40
2.0
 41
0.0
 71
     2
 72
     1
  1
\W0.930;\A1;METAL BELLOWS
 73
     1
 44
1.0
  0
MTEXT
  5
208
330
A
100
AcDbEntity
  8
PV
  6
Continuous
 62
     7
100
AcDbMText
 10
1.745999999999999
 20
110.226
 30
0.0
 40
2.0
 41
0.0
 71
     2
 72
     1
  1
\W0.925;\A1;HIGH VACUUM VALVES
 73
     1
 44
1.0
  0
LWPOLYLINE
  5
209
330
A
100
AcDbEntity
  8
PV
  6
Continuous
 62
     7
100
AcDbPolyline
 90
       94
 70
     0
 43
0.0
 10
24.111
 20
122.639
 10
24.109
 20
122.6429999999999
 10
24.09499999999999
 20
122.689
 10
24.078
 20
122.733
 10
24.06
 20
122.777
 10
24.039
 20
122.8199999999999
 10
24.01699999999999
 20
122.862
 10
23.99399999999999
 20
122.9029999999999
 10
23.968
 20
122.943
 10
23.94099999999999
 20
122.982
 10
23.91199999999999
 20
123.0199999999999
 10
23.88199999999999
 20
123.056
 10
23.85
 20
123.09
 10
23.81699999999999
 20
123.1229999999999
 10
23.783
 20
123.155
 10
23.747
 20
123.185
 10
23.70999999999999
 20
123.214
 10
23.67199999999999
 20
123.2399999999999
 10
23.633
 20
123.265
 10
23.593
 20
123.2879999999999
 10
23.55199999999999
 20
123.309
 10
23.51
 20
123.3289999999999
 10
23.46699999999999
 20
123.346
 10
23.424
 20
123.362
 10
23.38
 20
123.375
 10
23.335
 20
123.386
 10
23.29
 20
123.3959999999999
 10
23.245
 20
123.4029999999999
 10
23.19999999999999
 20
123.4079999999999
 10
23.15399999999999
 20
123.411
 10
23.10799999999999
 20
123.412
 10
23.062
 20
123.411
 10
23.016
 20
123.4079999999999
 10
22.97099999999999
 20
123.4029999999999
 10
22.92599999999999
 20
123.3959999999999
 10
22.881
 20
123.386
 10
22.83599999999999
 20
123.375
 10
22.79199999999999
 20
123.362
 10
22.749
 20
123.346
 10
22.70599999999999
 20
123.3289999999999
 10
22.664
 20
123.309
 10
22.623
 20
123.2879999999999
 10
22.583
 20
123.265
 10
22.54399999999999
 20
123.2399999999999
 10
22.50599999999999
 20
123.214
 10
22.469
 20
123.185
 10
22.433
 20
123.155
 10
22.399
 20
123.1229999999999
 10
22.366
 20
123.09
 10
22.334
 20
123.056
 10
22.304
 20
123.0199999999999
 10
22.275
 20
122.982
 10
22.248
 20
122.943
 10
22.22199999999999
 20
122.9029999999999
 10
22.199
 20
122.862
 10
22.177
 20
122.8199999999999
 10
22.15599999999999
 20
122.777
 10
22.138
 20
122.733
 10
22.12099999999999
 20
122.689
 10
22.107
 20
122.6429999999999
 10
22.094
 20
122.597
 10
22.083
 20
122.551
 10
22.074
 20
122.5029999999999
 10
22.06699999999999
 20
122.456
 10
22.06199999999999
 20
122.4079999999999
 10
22.059
 20
122.36
 10
22.058
 20
122.312
 10
22.059
 20
122.2639999999999
 10
22.06199999999999
 20
122.217
 10
22.06699999999999
 20
122.1689999999999
 10
22.074
 20
122.121
 10
22.083
 20
122.0739999999999
 10
22.094
 20
122.028
 10
22.107
 20
121.982
 10
22.12099999999999
 20
121.9359999999999
 10
22.138
 20
121.891
 10
22.15599999999999
 20
121.848
 10
22.177
 20
121.805
 10
22.199
 20
121.7619999999999
 10
22.22199999999999
 20
121.721
 10
22.248
 20
121.682
 10
22.275
 20
121.6429999999999
 10
22.304
 20
121.605
 10
22.334
 20
121.569
 10
22.366
 20
121.5349999999999
 10
22.399
 20
121.501
 10
22.433
 20
121.47
 10
22.469
 20
121.4399999999999
 10
22.50599999999999
 20
121.411
 10
22.54399999999999
 20
121.385
 10
22.583
 20
121.36
 10
22.623
 20
121.337
 10
22.664
 20
121.316
 10
22.69199999999999
 20
121.3019999999999
  0
LWPOLYLINE
  5
20A
330
A
100
AcDbEntity
  8
PV
  6
Continuous
 62
     7
100
AcDbPolyline
 90
       94
 70
     0
 43
0.0
 10
21.705
 20
120.289
 10
21.70699999999999
 20
120.2839999999999
 10
21.72099999999999
 20
120.2389999999999
 10
21.738
 20
120.194
 10
21.756
 20
120.15
 10
21.77699999999999
 20
120.107
 10
21.79899999999999
 20
120.0649999999999
 10
21.82199999999999
 20
120.0239999999999
 10
21.848
 20
119.984
 10
21.875
 20
119.9459999999999
 10
21.90399999999999
 20
119.9079999999999
 10
21.934
 20
119.872
 10
21.96599999999999
 20
119.837
 10
21.999
 20
119.8039999999999
 10
22.033
 20
119.7729999999999
 10
22.069
 20
119.7429999999999
 10
22.10599999999999
 20
119.714
 10
22.144
 20
119.6879999999999
 10
22.183
 20
119.663
 10
22.223
 20
119.64
 10
22.26399999999999
 20
119.618
 10
22.30599999999999
 20
119.5989999999999
 10
22.349
 20
119.582
 10
22.39199999999999
 20
119.5659999999999
 10
22.436
 20
119.5529999999999
 10
22.48099999999999
 20
119.541
 10
22.526
 20
119.532
 10
22.57099999999999
 20
119.525
 10
22.616
 20
119.5189999999999
 10
22.66199999999999
 20
119.516
 10
22.708
 20
119.5149999999999
 10
22.754
 20
119.516
 10
22.799
 20
119.5189999999999
 10
22.84499999999999
 20
119.525
 10
22.89
 20
119.532
 10
22.93499999999999
 20
119.541
 10
22.98
 20
119.5529999999999
 10
23.024
 20
119.5659999999999
 10
23.06699999999999
 20
119.582
 10
23.10999999999999
 20
119.5989999999999
 10
23.15199999999999
 20
119.618
 10
23.193
 20
119.64
 10
23.233
 20
119.663
 10
23.27199999999999
 20
119.6879999999999
 10
23.30999999999999
 20
119.714
 10
23.34699999999999
 20
119.7429999999999
 10
23.383
 20
119.7729999999999
 10
23.41699999999999
 20
119.8039999999999
 10
23.45
 20
119.837
 10
23.48199999999999
 20
119.872
 10
23.51199999999999
 20
119.9079999999999
 10
23.541
 20
119.9459999999999
 10
23.568
 20
119.984
 10
23.594
 20
120.0239999999999
 10
23.61699999999999
 20
120.0649999999999
 10
23.639
 20
120.107
 10
23.66
 20
120.15
 10
23.678
 20
120.194
 10
23.69499999999999
 20
120.2389999999999
 10
23.709
 20
120.2839999999999
 10
23.72199999999999
 20
120.331
 10
23.73299999999999
 20
120.377
 10
23.74199999999999
 20
120.4239999999999
 10
23.749
 20
120.472
 10
23.754
 20
120.5189999999999
 10
23.75699999999999
 20
120.567
 10
23.758
 20
120.615
 10
23.75699999999999
 20
120.663
 10
23.754
 20
120.7109999999999
 10
23.749
 20
120.7589999999999
 10
23.74199999999999
 20
120.8059999999999
 10
23.73299999999999
 20
120.8529999999999
 10
23.72199999999999
 20
120.9
 10
23.709
 20
120.9459999999999
 10
23.69499999999999
 20
120.991
 10
23.678
 20
121.036
 10
23.66
 20
121.08
 10
23.639
 20
121.123
 10
23.61699999999999
 20
121.165
 10
23.594
 20
121.206
 10
23.568
 20
121.246
 10
23.541
 20
121.2849999999999
 10
23.51199999999999
 20
121.3219999999999
 10
23.48199999999999
 20
121.3579999999999
 10
23.45
 20
121.3929999999999
 10
23.41699999999999
 20
121.426
 10
23.383
 20
121.4579999999999
 10
23.34699999999999
 20
121.4879999999999
 10
23.30999999999999
 20
121.516
 10
23.27199999999999
 20
121.543
 10
23.233
 20
121.568
 10
23.193
 20
121.591
 10
23.15199999999999
 20
121.612
 10
23.124
 20
121.625
  0
LWPOLYLINE
  5
20B
330
A
100
AcDbEntity
  8
PV
  6
Continuous
 62
     7
100
AcDbPolyline
 90
       26
 70
     0
 43
0.0
 10
-8.573999999999999
 20
122.1279999999999
 10
-8.574999999999999
 20
122.131
 10
-8.599999999999999
 20
122.207
 10
-8.627
 20
122.282
 10
-8.657
 20
122.355
 10
-8.691
 20
122.427
 10
-8.726
 20
122.496
 10
-8.765
 20
122.564
 10
-8.806
 20
122.6289999999999
 10
-8.849999999999999
 20
122.693
 10
-8.896
 20
122.7529999999999
 10
-8.945
 20
122.812
 10
-8.996
 20
122.8679999999999
 10
-9.048999999999999
 20
122.921
 10
-9.103999999999999
 20
122.971
 10
-9.162
 20
123.0179999999999
 10
-9.221
 20
123.062
 10
-9.282
 20
123.1039999999999
 10
-9.343999999999999
 20
123.142
 10
-9.407999999999999
 20
123.177
 10
-9.474
 20
123.208
 10
-9.539999999999999
 20
123.236
 10
-9.607999999999998
 20
123.261
 10
-9.676999999999999
 20
123.282
 10
-9.746999999999999
 20
123.3
 10
-9.817
 20
123.3149999999999
  0
LWPOLYLINE
  5
20C
330
A
100
AcDbEntity
  8
PV
  6
Continuous
 62
     7
100
AcDbPolyline
 90
      113
 70
     0
 43
0.0
 10
-9.817
 20
123.3149999999999
 10
-9.888999999999999
 20
123.3249999999999
 10
-9.96
 20
123.332
 10
-10.032
 20
123.336
 10
-10.105
 20
123.336
 10
-10.177
 20
123.332
 10
-10.249
 20
123.3249999999999
 10
-10.321
 20
123.3139999999999
 10
-10.39299999999999
 20
123.3
 10
-10.46399999999999
 20
123.282
 10
-10.535
 20
123.26
 10
-10.60499999999999
 20
123.235
 10
-10.674
 20
123.2069999999999
 10
-10.742
 20
123.1749999999999
 10
-10.809
 20
123.141
 10
-10.875
 20
123.102
 10
-10.939
 20
123.061
 10
-11.002
 20
123.017
 10
-11.06299999999999
 20
122.9689999999999
 10
-11.122
 20
122.919
 10
-11.18
 20
122.866
 10
-11.23599999999999
 20
122.8099999999999
 10
-11.289
 20
122.751
 10
-11.34099999999999
 20
122.69
 10
-11.39
 20
122.627
 10
-11.43599999999999
 20
122.562
 10
-11.481
 20
122.4939999999999
 10
-11.522
 20
122.4239999999999
 10
-11.561
 20
122.353
 10
-11.59799999999999
 20
122.279
 10
-11.632
 20
122.204
 10
-11.662
 20
122.1279999999999
 10
-11.69
 20
122.0509999999999
 10
-11.71499999999999
 20
121.972
 10
-11.73699999999999
 20
121.892
 10
-11.75599999999999
 20
121.811
 10
-11.772
 20
121.73
 10
-11.785
 20
121.648
 10
-11.79499999999999
 20
121.5659999999999
 10
-11.80099999999999
 20
121.4829999999999
 10
-11.805
 20
121.401
 10
-11.805
 20
121.3179999999999
 10
-11.80199999999999
 20
121.236
 10
-11.79599999999999
 20
121.154
 10
-11.787
 20
121.0729999999999
 10
-11.77499999999999
 20
120.992
 10
-11.759
 20
120.912
 10
-11.74099999999999
 20
120.8339999999999
 10
-11.72
 20
120.7559999999999
 10
-11.69499999999999
 20
120.68
 10
-11.668
 20
120.605
 10
-11.637
 20
120.532
 10
-11.604
 20
120.4599999999999
 10
-11.568
 20
120.391
 10
-11.53
 20
120.323
 10
-11.488
 20
120.257
 10
-11.445
 20
120.194
 10
-11.39799999999999
 20
120.133
 10
-11.35
 20
120.0749999999999
 10
-11.299
 20
120.0189999999999
 10
-11.24599999999999
 20
119.966
 10
-11.18999999999999
 20
119.916
 10
-11.13299999999999
 20
119.869
 10
-11.074
 20
119.8239999999999
 10
-11.01299999999999
 20
119.7829999999999
 10
-10.95099999999999
 20
119.745
 10
-10.887
 20
119.71
 10
-10.821
 20
119.679
 10
-10.754
 20
119.65
 10
-10.687
 20
119.626
 10
-10.618
 20
119.6039999999999
 10
-10.54799999999999
 20
119.5869999999999
 10
-10.477
 20
119.572
 10
-10.40599999999999
 20
119.562
 10
-10.334
 20
119.554
 10
-10.262
 20
119.551
 10
-10.18999999999999
 20
119.551
 10
-10.118
 20
119.555
 10
-10.04499999999999
 20
119.562
 10
-9.972999999999998
 20
119.5729999999999
 10
-9.902000000000001
 20
119.5869999999999
 10
-9.83
 20
119.605
 10
-9.759999999999999
 20
119.627
 10
-9.689999999999999
 20
119.651
 10
-9.621
 20
119.68
 10
-9.552999999999999
 20
119.711
 10
-9.486
 20
119.746
 10
-9.419999999999999
 20
119.785
 10
-9.355999999999999
 20
119.826
 10
-9.292999999999999
 20
119.87
 10
-9.232000000000001
 20
119.9179999999999
 10
-9.172
 20
119.9679999999999
 10
-9.115
 20
120.0209999999999
 10
-9.058999999999999
 20
120.077
 10
-9.006
 20
120.135
 10
-8.954
 20
120.1959999999999
 10
-8.904999999999999
 20
120.26
 10
-8.857999999999998
 20
120.325
 10
-8.814
 20
120.3929999999999
 10
-8.772
 20
120.4629999999999
 10
-8.732999999999998
 20
120.5339999999999
 10
-8.697
 20
120.607
 10
-8.663
 20
120.682
 10
-8.631999999999999
 20
120.7589999999999
 10
-8.603999999999999
 20
120.836
 10
-8.579
 20
120.915
 10
-8.557
 20
120.995
 10
-8.538
 20
121.076
 10
-8.522
 20
121.157
 10
-8.509999999999999
 20
121.2389999999999
 10
-8.5
 20
121.3209999999999
 10
-8.493
 20
121.404
 10
-8.490999999999999
 20
121.4429999999999
  0
ARC
  5
20D
330
A
100
AcDbEntity
  8
PV
  6
Continuous
 62
     7
100
AcDbCircle
 10
3.118999999999999
 20
111.995
 30
0.0
 40
17.25
100
AcDbArc
 50
298.4734849999999
 51
311.660234
  0
ARC
  5
20E
330
A
100
AcDbEntity
  8
PV
  6
Continuous
 62
     7
100
AcDbCircle
 10
0.125
 20
112.232
 30
0.0
 40
17.25
100
AcDbArc
 50
228.339771
 51
242.636245
  0
ARC
  5
20F
330
A
100
AcDbEntity
  8
PV
  6
Continuous
 62
   254
100
AcDbCircle
 10
17.381
 20
131.9039999999999
 30
0.0
 40
1.118999999999999
100
AcDbArc
 50
359.999996
 51
90.00003000000001
  0
ARC
  5
210
330
A
100
AcDbEntity
  8
PV
  6
Continuous
 62
   254
100
AcDbCircle
 10
17.381
 20
131.9039999999999
 30
0.0
 40
0.6720000000000001
100
AcDbArc
 50
359.999996
 51
90.00003000000001
  0
ARC
  5
211
330
A
100
AcDbEntity
  8
PV
  6
Continuous
 62
   254
100
AcDbCircle
 10
9.320999999999999
 20
131.9039999999999
 30
0.0
 40
1.118999999999999
100
AcDbArc
 50
359.999996
 51
89.999975
  0
ARC
  5
212
330
A
100
AcDbEntity
  8
PV
  6
Continuous
 62
   254
100
AcDbCircle
 10
9.320999999999999
 20
131.9039999999999
 30
0.0
 40
0.6720000000000001
100
AcDbArc
 50
359.999996
 51
89.999975
  0
ARC
  5
213
330
A
100
AcDbEntity
  8
PV
  6
Continuous
 62
   254
100
AcDbCircle
 10
9.097000000000001
 20
131.9039999999999
 30
0.0
 40
0.6720000000000001
100
AcDbArc
 50
179.999978
 51
270.000001
  0
ARC
  5
214
330
A
100
AcDbEntity
  8
PV
  6
Continuous
 62
   254
100
AcDbCircle
 10
9.097000000000001
 20
131.9039999999999
 30
0.0
 40
1.118999999999999
100
AcDbArc
 50
179.999978
 51
270.000001
  0
ARC
  5
215
330
A
100
AcDbEntity
  8
PV
  6
Continuous
 62
   254
100
AcDbCircle
 10
-3.887999999999999
 20
131.9039999999999
 30
0.0
 40
1.118999999999999
100
AcDbArc
 50
179.999978
 51
270.000001
  0
ARC
  5
216
330
A
100
AcDbEntity
  8
PV
  6
Continuous
 62
   254
100
AcDbCircle
 10
-3.887999999999999
 20
131.9039999999999
 30
0.0
 40
0.6720000000000001
100
AcDbArc
 50
179.999978
 51
270.000001
  0
ARC
  5
217
330
A
100
AcDbEntity
  8
PV
  6
Continuous
 62
   254
100
AcDbCircle
 10
-3.663999999999999
 20
131.9039999999999
 30
0.0
 40
0.6720000000000001
100
AcDbArc
 50
359.999996
 51
89.999975
  0
ARC
  5
218
330
A
100
AcDbEntity
  8
PV
  6
Continuous
 62
   254
100
AcDbCircle
 10
-3.663999999999999
 20
131.9039999999999
 30
0.0
 40
1.118999999999999
100
AcDbArc
 50
359.999996
 51
89.999975
  0
ARC
  5
219
330
A
100
AcDbEntity
  8
PV
  6
Continuous
 62
   254
100
AcDbCircle
 10
-12.395
 20
132.3509999999999
 30
0.0
 40
0.6720000000000001
100
AcDbArc
 50
359.999996
 51
89.999975
  0
ARC
  5
21A
330
A
100
AcDbEntity
  8
PV
  6
Continuous
 62
   254
100
AcDbCircle
 10
-12.395
 20
132.3509999999999
 30
0.0
 40
0.224
100
AcDbArc
 50
359.999996
 51
89.999975
  0
ARC
  5
21B
330
A
100
AcDbEntity
  8
PV
  6
Continuous
 62
   254
100
AcDbCircle
 10
6.747
 20
131.9039999999999
 30
0.0
 40
0.6720000000000001
100
AcDbArc
 50
89.999975
 51
270.000001
  0
ARC
  5
21C
330
A
100
AcDbEntity
  8
PV
  6
Continuous
 62
   254
100
AcDbCircle
 10
6.747
 20
131.9039999999999
 30
0.0
 40
1.118999999999999
100
AcDbArc
 50
89.999975
 51
270.000001
  0
ARC
  5
21D
330
A
100
AcDbEntity
  8
PV
  6
Continuous
 62
   254
100
AcDbCircle
 10
17.381
 20
131.9039999999999
 30
0.0
 40
0.6720000000000001
100
AcDbArc
 50
270.0000109999999
 51
359.999996
  0
ARC
  5
21E
330
A
100
AcDbEntity
  8
PV
  6
Continuous
 62
   254
100
AcDbCircle
 10
17.381
 20
131.9039999999999
 30
0.0
 40
1.118999999999999
100
AcDbArc
 50
270.0000109999999
 51
359.999996
  0
ARC
  5
21F
330
A
100
AcDbEntity
  8
PV
  6
Continuous
 62
   254
100
AcDbCircle
 10
12.79099999999999
 20
131.68
 30
0.0
 40
0.448
100
AcDbArc
 50
179.999978
 51
270.000001
  0
ARC
  5
220
330
A
100
AcDbEntity
  8
PV
  6
Continuous
 62
   254
100
AcDbCircle
 10
12.79099999999999
 20
131.68
 30
0.0
 40
0.8959999999999999
100
AcDbArc
 50
179.999978
 51
270.000001
  0
CIRCLE
  5
221
330
A
100
AcDbEntity
  8
PV
  6
Continuous
 62
   254
100
AcDbCircle
 10
10.665
 20
131.064
 30
0.0
 40
0.28
  0
ARC
  5
222
330
A
100
AcDbEntity
  8
PV
  6
Continuous
 62
   254
100
AcDbCircle
 10
11.38099999999999
 20
131.064
 30
0.0
 40
0.28
100
AcDbArc
 50
319.9999189999999
 51
241.536827
  0
ARC
  5
223
330
A
100
AcDbEntity
  8
PV
  6
Continuous
 62
   254
100
AcDbCircle
 10
-3.663999999999999
 20
131.9039999999999
 30
0.0
 40
0.6720000000000001
100
AcDbArc
 50
270.0000109999999
 51
359.999996
  0
ARC
  5
224
330
A
100
AcDbEntity
  8
PV
  6
Continuous
 62
   254
100
AcDbCircle
 10
-3.887999999999999
 20
131.9039999999999
 30
0.0
 40
0.6720000000000001
100
AcDbArc
 50
89.999975
 51
179.99995
  0
ARC
  5
225
330
A
100
AcDbEntity
  8
PV
  6
Continuous
 62
   254
100
AcDbCircle
 10
-3.663999999999999
 20
131.9039999999999
 30
0.0
 40
1.118999999999999
100
AcDbArc
 50
270.0000109999999
 51
359.999996
  0
ARC
  5
226
330
A
100
AcDbEntity
  8
PV
  6
Continuous
 62
   254
100
AcDbCircle
 10
-3.887999999999999
 20
131.9039999999999
 30
0.0
 40
1.118999999999999
100
AcDbArc
 50
89.999975
 51
179.99995
  0
ARC
  5
227
330
A
100
AcDbEntity
  8
PV
  6
Continuous
 62
   254
100
AcDbCircle
 10
3.612
 20
132.016
 30
0.0
 40
0.5600000000000001
100
AcDbArc
 50
359.999996
 51
89.999975
  0
ARC
  5
228
330
A
100
AcDbEntity
  8
PV
  6
Continuous
 62
   254
100
AcDbCircle
 10
3.388999999999999
 20
132.016
 30
0.0
 40
0.5600000000000001
100
AcDbArc
 50
89.999975
 51
179.99995
  0
ARC
  5
229
330
A
100
AcDbEntity
  8
PV
  6
Continuous
 62
   254
100
AcDbCircle
 10
3.612
 20
132.016
 30
0.0
 40
1.007
100
AcDbArc
 50
359.999996
 51
89.999975
  0
ARC
  5
22A
330
A
100
AcDbEntity
  8
PV
  6
Continuous
 62
   254
100
AcDbCircle
 10
3.388999999999999
 20
132.016
 30
0.0
 40
1.007
100
AcDbArc
 50
89.999975
 51
179.99995
  0
ARC
  5
22B
330
A
100
AcDbEntity
  8
PV
  6
Continuous
 62
   254
100
AcDbCircle
 10
-9.597000000000001
 20
131.9039999999999
 30
0.0
 40
0.6720000000000001
100
AcDbArc
 50
199.471211
 51
270.0000109999999
  0
ARC
  5
22C
330
A
100
AcDbEntity
  8
PV
  6
Continuous
 62
   254
100
AcDbCircle
 10
-9.597000000000001
 20
131.9039999999999
 30
0.0
 40
0.6720000000000001
100
AcDbArc
 50
89.999975
 51
160.528775
  0
ARC
  5
22D
330
A
100
AcDbEntity
  8
PV
  6
Continuous
 62
   254
100
AcDbCircle
 10
-9.597000000000001
 20
131.9039999999999
 30
0.0
 40
1.118999999999999
100
AcDbArc
 50
89.999975
 51
270.000001
  0
ARC
  5
22E
330
A
100
AcDbEntity
  8
PV
  6
Continuous
 62
   254
100
AcDbCircle
 10
9.320999999999999
 20
131.9039999999999
 30
0.0
 40
0.6720000000000001
100
AcDbArc
 50
270.0000109999999
 51
359.999996
  0
ARC
  5
22F
330
A
100
AcDbEntity
  8
PV
  6
Continuous
 62
   254
100
AcDbCircle
 10
9.097000000000001
 20
131.9039999999999
 30
0.0
 40
0.6720000000000001
100
AcDbArc
 50
89.999975
 51
179.99995
  0
ARC
  5
230
330
A
100
AcDbEntity
  8
PV
  6
Continuous
 62
   254
100
AcDbCircle
 10
9.320999999999999
 20
131.9039999999999
 30
0.0
 40
1.118999999999999
100
AcDbArc
 50
270.0000109999999
 51
359.999996
  0
ARC
  5
231
330
A
100
AcDbEntity
  8
PV
  6
Continuous
 62
   254
100
AcDbCircle
 10
9.097000000000001
 20
131.9039999999999
 30
0.0
 40
1.118999999999999
100
AcDbArc
 50
89.999975
 51
179.99995
  0
ARC
  5
232
330
A
100
AcDbEntity
  8
PV
  6
Continuous
 62
   254
100
AcDbCircle
 10
1.038
 20
131.9039999999999
 30
0.0
 40
0.6720000000000001
100
AcDbArc
 50
199.471211
 51
270.0000109999999
  0
ARC
  5
233
330
A
100
AcDbEntity
  8
PV
  6
Continuous
 62
   254
100
AcDbCircle
 10
1.038
 20
131.9039999999999
 30
0.0
 40
0.6720000000000001
100
AcDbArc
 50
89.999975
 51
160.528775
  0
ARC
  5
234
330
A
100
AcDbEntity
  8
PV
  6
Continuous
 62
   254
100
AcDbCircle
 10
1.038
 20
131.9039999999999
 30
0.0
 40
1.118999999999999
100
AcDbArc
 50
89.999975
 51
270.000001
  0
ARC
  5
235
330
A
100
AcDbEntity
  8
PV
  6
Continuous
 62
   254
100
AcDbCircle
 10
-12.395
 20
132.3509999999999
 30
0.0
 40
0.224
100
AcDbArc
 50
270.0000109999999
 51
359.999996
  0
ARC
  5
236
330
A
100
AcDbEntity
  8
PV
  6
Continuous
 62
   254
100
AcDbCircle
 10
-12.395
 20
132.3509999999999
 30
0.0
 40
0.6720000000000001
100
AcDbArc
 50
273.7218359999999
 51
359.999996
  0
ARC
  5
237
330
A
100
AcDbEntity
  8
PV
  6
Continuous
 62
     7
100
AcDbCircle
 10
7.144
 20
138.024
 30
0.0
 40
1.0
100
AcDbArc
 50
269.9999969999999
 51
90.00000300000001
  0
ARC
  5
238
330
A
100
AcDbEntity
  8
PV
  6
Continuous
 62
     7
100
AcDbCircle
 10
7.144
 20
138.024
 30
0.0
 40
1.0
100
AcDbArc
 50
90.00000300000001
 51
270.000001
  0
ARC
  5
239
330
A
100
AcDbEntity
  8
PV
  6
Continuous
 62
     7
100
AcDbCircle
 10
5.618999999999999
 20
138.024
 30
0.0
 40
1.774999999999999
100
AcDbArc
 50
34.225552
 51
325.774451
  0
ARC
  5
23A
330
A
100
AcDbEntity
  8
PV
  6
Continuous
 62
     7
100
AcDbCircle
 10
2.369
 20
138.024
 30
0.0
 40
0.975
100
AcDbArc
 50
269.9999969999999
 51
90.00000300000001
  0
ARC
  5
23B
330
A
100
AcDbEntity
  8
PV
  6
Continuous
 62
     7
100
AcDbCircle
 10
2.369
 20
138.024
 30
0.0
 40
0.975
100
AcDbArc
 50
90.00000300000001
 51
270.000001
  0
ARC
  5
23C
330
A
100
AcDbEntity
  8
PV
  6
Continuous
 62
     7
100
AcDbCircle
 10
2.369
 20
138.024
 30
0.0
 40
1.774999999999999
100
AcDbArc
 50
90.00000300000001
 51
270.000001
  0
ARC
  5
23D
330
A
100
AcDbEntity
  8
PV
  6
Continuous
 62
     7
100
AcDbCircle
 10
-2.591
 20
138.849
 30
0.0
 40
0.95
100
AcDbArc
 50
179.9999949999999
 51
0.0
  0
ARC
  5
23E
330
A
100
AcDbEntity
  8
PV
  6
Continuous
 62
     7
100
AcDbCircle
 10
-2.591
 20
138.849
 30
0.0
 40
0.95
100
AcDbArc
 50
0.0
 51
180.000005
  0
CIRCLE
  5
23F
330
A
100
AcDbEntity
  8
PV
  6
Continuous
 62
     7
100
AcDbCircle
 10
1.743
 20
117.439
 30
0.0
 40
25.0
  0
LINE
  5
240
330
A
100
AcDbEntity
  8
PV
  6
Continuous
 62
     7
100
AcDbLine
 10
-9.230999999999999
 20
98.22200000000002
 30
0.0
 11
-11.34099999999999
 21
99.344
 31
0.0
  0
LINE
  5
241
330
A
100
AcDbEntity
  8
PV
  6
Continuous
 62
     7
100
AcDbLine
 10
-9.863999999999998
 20
97.46500000000001
 30
0.0
 11
-11.34099999999999
 21
99.344
 31
0.0
  0
LINE
  5
242
330
A
100
AcDbEntity
  8
PV
  6
Continuous
 62
     7
100
AcDbLine
 10
13.10799999999999
 20
97.229
 30
0.0
 11
14.585
 21
99.108
 31
0.0
  0
LINE
  5
243
330
A
100
AcDbEntity
  8
PV
  6
Continuous
 62
     7
100
AcDbLine
 10
12.475
 20
97.986
 30
0.0
 11
14.585
 21
99.108
 31
0.0
  0
LINE
  5
244
330
A
100
AcDbEntity
  8
PV
  6
Continuous
 62
   254
100
AcDbLine
 10
-3.887999999999999
 20
132.5749999999999
 30
0.0
 11
-3.663999999999999
 21
132.5749999999999
 31
0.0
  0
LINE
  5
245
330
A
100
AcDbEntity
  8
PV
  6
Continuous
 62
   254
100
AcDbLine
 10
16.597
 20
131.9039999999999
 30
0.0
 11
16.597
 21
131.2319999999999
 31
0.0
  0
LINE
  5
246
330
A
100
AcDbEntity
  8
PV
  6
Continuous
 62
   254
100
AcDbLine
 10
16.15
 20
131.9039999999999
 30
0.0
 11
16.15
 21
130.7839999999999
 31
0.0
  0
LINE
  5
247
330
A
100
AcDbEntity
  8
PV
  6
Continuous
 62
   254
100
AcDbLine
 10
-13.514
 20
132.3509999999999
 30
0.0
 11
-13.514
 21
132.127
 31
0.0
  0
LINE
  5
248
330
A
100
AcDbEntity
  8
PV
  6
Continuous
 62
   254
100
AcDbLine
 10
-13.962
 20
132.3509999999999
 30
0.0
 11
-13.962
 21
130.7839999999999
 31
0.0
  0
LINE
  5
249
330
A
100
AcDbEntity
  8
PV
  6
Continuous
 62
   254
100
AcDbLine
 10
16.597
 20
132.5749999999999
 30
0.0
 11
16.597
 21
131.9039999999999
 31
0.0
  0
LINE
  5
24A
330
A
100
AcDbEntity
  8
PV
  6
Continuous
 62
   254
100
AcDbLine
 10
16.597
 20
131.2319999999999
 30
0.0
 11
17.381
 21
131.2319999999999
 31
0.0
  0
LINE
  5
24B
330
A
100
AcDbEntity
  8
PV
  6
Continuous
 62
   254
100
AcDbLine
 10
16.15
 20
133.023
 30
0.0
 11
16.15
 21
131.9039999999999
 31
0.0
  0
LINE
  5
24C
330
A
100
AcDbEntity
  8
PV
  6
Continuous
 62
   254
100
AcDbLine
 10
14.583
 20
130.7839999999999
 30
0.0
 11
15.03
 21
130.7839999999999
 31
0.0
  0
LINE
  5
24D
330
A
100
AcDbEntity
  8
PV
  6
Continuous
 62
   254
100
AcDbLine
 10
15.03
 20
132.5749999999999
 30
0.0
 11
15.926
 21
132.5749999999999
 31
0.0
  0
LINE
  5
24E
330
A
100
AcDbEntity
  8
PV
  6
Continuous
 62
   254
100
AcDbLine
 10
16.15
 20
133.023
 30
0.0
 11
17.381
 21
133.023
 31
0.0
  0
LINE
  5
24F
330
A
100
AcDbEntity
  8
PV
  6
Continuous
 62
   254
100
AcDbLine
 10
16.597
 20
132.5749999999999
 30
0.0
 11
17.381
 21
132.5749999999999
 31
0.0
  0
LINE
  5
250
330
A
100
AcDbEntity
  8
PV
  6
Continuous
 62
   254
100
AcDbLine
 10
14.583
 20
132.5749999999999
 30
0.0
 11
14.583
 21
130.7839999999999
 31
0.0
  0
LINE
  5
251
330
A
100
AcDbEntity
  8
PV
  6
Continuous
 62
   254
100
AcDbLine
 10
15.03
 20
132.5749999999999
 30
0.0
 11
15.03
 21
130.7839999999999
 31
0.0
  0
LINE
  5
252
330
A
100
AcDbEntity
  8
PV
  6
Continuous
 62
   254
100
AcDbLine
 10
13.687
 20
132.5749999999999
 30
0.0
 11
14.583
 21
132.5749999999999
 31
0.0
  0
LINE
  5
253
330
A
100
AcDbEntity
  8
PV
  6
Continuous
 62
   254
100
AcDbLine
 10
15.926
 20
133.023
 30
0.0
 11
15.926
 21
132.5749999999999
 31
0.0
  0
LINE
  5
254
330
A
100
AcDbEntity
  8
PV
  6
Continuous
 62
   254
100
AcDbLine
 10
13.687
 20
133.023
 30
0.0
 11
13.687
 21
132.5749999999999
 31
0.0
  0
LINE
  5
255
330
A
100
AcDbEntity
  8
PV
  6
Continuous
 62
   254
100
AcDbLine
 10
13.687
 20
133.023
 30
0.0
 11
15.926
 21
133.023
 31
0.0
  0
LINE
  5
256
330
A
100
AcDbEntity
  8
PV
  6
Continuous
 62
   254
100
AcDbLine
 10
11.89599999999999
 20
133.023
 30
0.0
 11
12.344
 21
133.023
 31
0.0
  0
LINE
  5
257
330
A
100
AcDbEntity
  8
PV
  6
Continuous
 62
   254
100
AcDbLine
 10
16.15
 20
130.7839999999999
 30
0.0
 11
17.381
 21
130.7839999999999
 31
0.0
  0
LINE
  5
258
330
A
100
AcDbEntity
  8
PV
  6
Continuous
 62
   254
100
AcDbLine
 10
12.79099999999999
 20
131.2319999999999
 30
0.0
 11
13.91099999999999
 21
131.2319999999999
 31
0.0
  0
LINE
  5
259
330
A
100
AcDbEntity
  8
PV
  6
Continuous
 62
   254
100
AcDbLine
 10
12.344
 20
133.023
 30
0.0
 11
12.344
 21
131.68
 31
0.0
  0
LINE
  5
25A
330
A
100
AcDbEntity
  8
PV
  6
Continuous
 62
   254
100
AcDbLine
 10
13.91099999999999
 20
131.2319999999999
 30
0.0
 11
13.91099999999999
 21
130.7839999999999
 31
0.0
  0
LINE
  5
25B
330
A
100
AcDbEntity
  8
PV
  6
Continuous
 62
   254
100
AcDbLine
 10
11.89599999999999
 20
133.023
 30
0.0
 11
11.89599999999999
 21
131.68
 31
0.0
  0
LINE
  5
25C
330
A
100
AcDbEntity
  8
PV
  6
Continuous
 62
   254
100
AcDbLine
 10
11.058
 20
130.592
 30
0.0
 11
11.22999999999999
 21
130.4479999999999
 31
0.0
  0
LINE
  5
25D
330
A
100
AcDbEntity
  8
PV
  6
Continuous
 62
   254
100
AcDbLine
 10
11.058
 20
130.592
 30
0.0
 11
11.248
 21
130.8179999999999
 31
0.0
  0
LINE
  5
25E
330
A
100
AcDbEntity
  8
PV
  6
Continuous
 62
   254
100
AcDbLine
 10
11.22999999999999
 20
130.4479999999999
 30
0.0
 11
11.595
 21
130.8839999999999
 31
0.0
  0
LINE
  5
25F
330
A
100
AcDbEntity
  8
PV
  6
Continuous
 62
   254
100
AcDbLine
 10
-3.887999999999999
 20
131.2319999999999
 30
0.0
 11
-3.663999999999999
 21
131.2319999999999
 31
0.0
  0
LINE
  5
260
330
A
100
AcDbEntity
  8
PV
  6
Continuous
 62
   254
100
AcDbLine
 10
-3.887999999999999
 20
133.023
 30
0.0
 11
-3.663999999999999
 21
133.023
 31
0.0
  0
LINE
  5
261
330
A
100
AcDbEntity
  8
PV
  6
Continuous
 62
   254
100
AcDbLine
 10
-3.887999999999999
 20
130.7839999999999
 30
0.0
 11
-3.663999999999999
 21
130.7839999999999
 31
0.0
  0
LINE
  5
262
330
A
100
AcDbEntity
  8
PV
  6
Continuous
 62
   254
100
AcDbLine
 10
4.171999999999999
 20
130.7839999999999
 30
0.0
 11
4.62
 21
130.7839999999999
 31
0.0
  0
LINE
  5
263
330
A
100
AcDbEntity
  8
PV
  6
Continuous
 62
   254
100
AcDbLine
 10
4.171999999999999
 20
132.016
 30
0.0
 11
4.171999999999999
 21
130.7839999999999
 31
0.0
  0
LINE
  5
264
330
A
100
AcDbEntity
  8
PV
  6
Continuous
 62
   254
100
AcDbLine
 10
2.828999999999999
 20
132.016
 30
0.0
 11
2.828999999999999
 21
130.7839999999999
 31
0.0
  0
LINE
  5
265
330
A
100
AcDbEntity
  8
PV
  6
Continuous
 62
   254
100
AcDbLine
 10
3.388999999999999
 20
132.5749999999999
 30
0.0
 11
3.612
 21
132.5749999999999
 31
0.0
  0
LINE
  5
266
330
A
100
AcDbEntity
  8
PV
  6
Continuous
 62
   254
100
AcDbLine
 10
4.62
 20
132.016
 30
0.0
 11
4.62
 21
130.7839999999999
 31
0.0
  0
LINE
  5
267
330
A
100
AcDbEntity
  8
PV
  6
Continuous
 62
   254
100
AcDbLine
 10
2.380999999999999
 20
132.016
 30
0.0
 11
2.380999999999999
 21
130.7839999999999
 31
0.0
  0
LINE
  5
268
330
A
100
AcDbEntity
  8
PV
  6
Continuous
 62
   254
100
AcDbLine
 10
3.388999999999999
 20
133.023
 30
0.0
 11
3.612
 21
133.023
 31
0.0
  0
LINE
  5
269
330
A
100
AcDbEntity
  8
PV
  6
Continuous
 62
   254
100
AcDbLine
 10
2.383999999999999
 20
130.7839999999999
 30
0.0
 11
2.828999999999999
 21
130.7839999999999
 31
0.0
  0
LINE
  5
26A
330
A
100
AcDbEntity
  8
PV
  6
Continuous
 62
   254
100
AcDbLine
 10
12.79099999999999
 20
130.7839999999999
 30
0.0
 11
13.91099999999999
 21
130.7839999999999
 31
0.0
  0
LINE
  5
26B
330
A
100
AcDbEntity
  8
PV
  6
Continuous
 62
   254
100
AcDbLine
 10
7.866
 20
132.5749999999999
 30
0.0
 11
7.866
 21
133.023
 31
0.0
  0
LINE
  5
26C
330
A
100
AcDbEntity
  8
PV
  6
Continuous
 62
   254
100
AcDbLine
 10
6.747
 20
132.5749999999999
 30
0.0
 11
7.866
 21
132.5749999999999
 31
0.0
  0
LINE
  5
26D
330
A
100
AcDbEntity
  8
PV
  6
Continuous
 62
   254
100
AcDbLine
 10
6.747
 20
131.2319999999999
 30
0.0
 11
7.866
 21
131.2319999999999
 31
0.0
  0
LINE
  5
26E
330
A
100
AcDbEntity
  8
PV
  6
Continuous
 62
   254
100
AcDbLine
 10
6.747
 20
133.023
 30
0.0
 11
7.866
 21
133.023
 31
0.0
  0
LINE
  5
26F
330
A
100
AcDbEntity
  8
PV
  6
Continuous
 62
   254
100
AcDbLine
 10
6.747
 20
130.7839999999999
 30
0.0
 11
7.866
 21
130.7839999999999
 31
0.0
  0
LINE
  5
270
330
A
100
AcDbEntity
  8
PV
  6
Continuous
 62
   254
100
AcDbLine
 10
-8.589
 20
131.2319999999999
 30
0.0
 11
-8.589
 21
130.7839999999999
 31
0.0
  0
LINE
  5
271
330
A
100
AcDbEntity
  8
PV
  6
Continuous
 62
   254
100
AcDbLine
 10
-8.589
 20
132.127
 30
0.0
 11
-8.589
 21
131.68
 31
0.0
  0
LINE
  5
272
330
A
100
AcDbEntity
  8
PV
  6
Continuous
 62
   254
100
AcDbLine
 10
-9.597000000000001
 20
131.2319999999999
 30
0.0
 11
-8.589
 21
131.2319999999999
 31
0.0
  0
LINE
  5
273
330
A
100
AcDbEntity
  8
PV
  6
Continuous
 62
   254
100
AcDbLine
 10
-10.23
 20
132.127
 30
0.0
 11
-8.589
 21
132.127
 31
0.0
  0
LINE
  5
274
330
A
100
AcDbEntity
  8
PV
  6
Continuous
 62
   254
100
AcDbLine
 10
-10.23
 20
131.68
 30
0.0
 11
-8.589
 21
131.68
 31
0.0
  0
LINE
  5
275
330
A
100
AcDbEntity
  8
PV
  6
Continuous
 62
   254
100
AcDbLine
 10
-9.597000000000001
 20
130.7839999999999
 30
0.0
 11
-8.589
 21
130.7839999999999
 31
0.0
  0
LINE
  5
276
330
A
100
AcDbEntity
  8
PV
  6
Continuous
 62
   254
100
AcDbLine
 10
-9.597000000000001
 20
133.023
 30
0.0
 11
-8.589
 21
133.023
 31
0.0
  0
LINE
  5
277
330
A
100
AcDbEntity
  8
PV
  6
Continuous
 62
   254
100
AcDbLine
 10
-8.589
 20
133.023
 30
0.0
 11
-8.589
 21
132.5749999999999
 31
0.0
  0
LINE
  5
278
330
A
100
AcDbEntity
  8
PV
  6
Continuous
 62
   254
100
AcDbLine
 10
-5.412
 20
130.7839999999999
 30
0.0
 11
-4.894999999999999
 21
130.7839999999999
 31
0.0
  0
LINE
  5
279
330
A
100
AcDbEntity
  8
PV
  6
Continuous
 62
   254
100
AcDbLine
 10
-5.676
 20
133.023
 30
0.0
 11
-4.894999999999999
 21
133.023
 31
0.0
  0
LINE
  5
27A
330
A
100
AcDbEntity
  8
PV
  6
Continuous
 62
   254
100
AcDbLine
 10
-6.797999999999999
 20
131.6899999999999
 30
0.0
 11
-6.797999999999999
 21
130.7839999999999
 31
0.0
  0
LINE
  5
27B
330
A
100
AcDbEntity
  8
PV
  6
Continuous
 62
   254
100
AcDbLine
 10
-6.184
 20
132.121
 30
0.0
 11
-6.797999999999999
 21
131.6899999999999
 31
0.0
  0
LINE
  5
27C
330
A
100
AcDbEntity
  8
PV
  6
Continuous
 62
   254
100
AcDbLine
 10
-5.412
 20
130.7839999999999
 30
0.0
 11
-6.184
 21
132.121
 31
0.0
  0
LINE
  5
27D
330
A
100
AcDbEntity
  8
PV
  6
Continuous
 62
   254
100
AcDbLine
 10
-5.676
 20
133.023
 30
0.0
 11
-6.797999999999999
 21
132.237
 31
0.0
  0
LINE
  5
27E
330
A
100
AcDbEntity
  8
PV
  6
Continuous
 62
   254
100
AcDbLine
 10
-4.894999999999999
 20
133.023
 30
0.0
 11
-5.815999999999999
 21
132.3779999999999
 31
0.0
  0
LINE
  5
27F
330
A
100
AcDbEntity
  8
PV
  6
Continuous
 62
   254
100
AcDbLine
 10
-4.894999999999999
 20
130.7839999999999
 30
0.0
 11
-5.815999999999999
 21
132.3779999999999
 31
0.0
  0
LINE
  5
280
330
A
100
AcDbEntity
  8
PV
  6
Continuous
 62
   254
100
AcDbLine
 10
-6.797999999999999
 20
133.023
 30
0.0
 11
-6.797999999999999
 21
132.237
 31
0.0
  0
LINE
  5
281
330
A
100
AcDbEntity
  8
PV
  6
Continuous
 62
   254
100
AcDbLine
 10
-7.246
 20
133.023
 30
0.0
 11
-7.246
 21
130.7839999999999
 31
0.0
  0
LINE
  5
282
330
A
100
AcDbEntity
  8
PV
  6
Continuous
 62
   254
100
AcDbLine
 10
-7.246
 20
130.7839999999999
 30
0.0
 11
-6.797999999999999
 21
130.7839999999999
 31
0.0
  0
LINE
  5
283
330
A
100
AcDbEntity
  8
PV
  6
Continuous
 62
   254
100
AcDbLine
 10
-7.246
 20
133.023
 30
0.0
 11
-6.797999999999999
 21
133.023
 31
0.0
  0
LINE
  5
284
330
A
100
AcDbEntity
  8
PV
  6
Continuous
 62
   254
100
AcDbLine
 10
9.097000000000001
 20
132.5749999999999
 30
0.0
 11
9.320999999999999
 21
132.5749999999999
 31
0.0
  0
LINE
  5
285
330
A
100
AcDbEntity
  8
PV
  6
Continuous
 62
   254
100
AcDbLine
 10
9.097000000000001
 20
131.2319999999999
 30
0.0
 11
9.320999999999999
 21
131.2319999999999
 31
0.0
  0
LINE
  5
286
330
A
100
AcDbEntity
  8
PV
  6
Continuous
 62
   254
100
AcDbLine
 10
7.866
 20
130.787
 30
0.0
 11
7.866
 21
131.2319999999999
 31
0.0
  0
LINE
  5
287
330
A
100
AcDbEntity
  8
PV
  6
Continuous
 62
   254
100
AcDbLine
 10
9.097000000000001
 20
133.023
 30
0.0
 11
9.320999999999999
 21
133.023
 31
0.0
  0
LINE
  5
288
330
A
100
AcDbEntity
  8
PV
  6
Continuous
 62
   254
100
AcDbLine
 10
9.097000000000001
 20
130.7839999999999
 30
0.0
 11
9.320999999999999
 21
130.7839999999999
 31
0.0
  0
LINE
  5
289
330
A
100
AcDbEntity
  8
PV
  6
Continuous
 62
   254
100
AcDbLine
 10
-0.487
 20
130.7839999999999
 30
0.0
 11
0.03
 21
130.7839999999999
 31
0.0
  0
LINE
  5
28A
330
A
100
AcDbEntity
  8
PV
  6
Continuous
 62
   254
100
AcDbLine
 10
-0.75
 20
133.023
 30
0.0
 11
0.03
 21
133.023
 31
0.0
  0
LINE
  5
28B
330
A
100
AcDbEntity
  8
PV
  6
Continuous
 62
   254
100
AcDbLine
 10
-1.873
 20
131.6899999999999
 30
0.0
 11
-1.873
 21
130.7839999999999
 31
0.0
  0
LINE
  5
28C
330
A
100
AcDbEntity
  8
PV
  6
Continuous
 62
   254
100
AcDbLine
 10
-1.258
 20
132.121
 30
0.0
 11
-1.873
 21
131.6899999999999
 31
0.0
  0
LINE
  5
28D
330
A
100
AcDbEntity
  8
PV
  6
Continuous
 62
   254
100
AcDbLine
 10
-0.487
 20
130.7839999999999
 30
0.0
 11
-1.258
 21
132.121
 31
0.0
  0
LINE
  5
28E
330
A
100
AcDbEntity
  8
PV
  6
Continuous
 62
   254
100
AcDbLine
 10
-0.75
 20
133.023
 30
0.0
 11
-1.873
 21
132.237
 31
0.0
  0
LINE
  5
28F
330
A
100
AcDbEntity
  8
PV
  6
Continuous
 62
   254
100
AcDbLine
 10
0.03
 20
133.023
 30
0.0
 11
-0.89
 21
132.3779999999999
 31
0.0
  0
LINE
  5
290
330
A
100
AcDbEntity
  8
PV
  6
Continuous
 62
   254
100
AcDbLine
 10
0.03
 20
130.7839999999999
 30
0.0
 11
-0.89
 21
132.3779999999999
 31
0.0
  0
LINE
  5
291
330
A
100
AcDbEntity
  8
PV
  6
Continuous
 62
   254
100
AcDbLine
 10
-12.27
 20
130.7839999999999
 30
0.0
 11
-12.897
 21
131.68
 31
0.0
  0
LINE
  5
292
330
A
100
AcDbEntity
  8
PV
  6
Continuous
 62
   254
100
AcDbLine
 10
-11.72299999999999
 20
130.7839999999999
 30
0.0
 11
-12.351
 21
131.681
 31
0.0
  0
LINE
  5
293
330
A
100
AcDbEntity
  8
PV
  6
Continuous
 62
   254
100
AcDbLine
 10
-1.873
 20
133.023
 30
0.0
 11
-1.873
 21
132.237
 31
0.0
  0
LINE
  5
294
330
A
100
AcDbEntity
  8
PV
  6
Continuous
 62
   254
100
AcDbLine
 10
-2.319999999999999
 20
133.023
 30
0.0
 11
-2.319999999999999
 21
130.7839999999999
 31
0.0
  0
LINE
  5
295
330
A
100
AcDbEntity
  8
PV
  6
Continuous
 62
   254
100
AcDbLine
 10
2.044999999999999
 20
131.2319999999999
 30
0.0
 11
2.044999999999999
 21
130.7839999999999
 31
0.0
  0
LINE
  5
296
330
A
100
AcDbEntity
  8
PV
  6
Continuous
 62
   254
100
AcDbLine
 10
2.044999999999999
 20
132.127
 30
0.0
 11
2.044999999999999
 21
131.68
 31
0.0
  0
LINE
  5
297
330
A
100
AcDbEntity
  8
PV
  6
Continuous
 62
   254
100
AcDbLine
 10
1.038
 20
132.5749999999999
 30
0.0
 11
2.044999999999999
 21
132.5749999999999
 31
0.0
  0
LINE
  5
298
330
A
100
AcDbEntity
  8
PV
  6
Continuous
 62
   254
100
AcDbLine
 10
1.038
 20
131.2319999999999
 30
0.0
 11
2.044999999999999
 21
131.2319999999999
 31
0.0
  0
LINE
  5
299
330
A
100
AcDbEntity
  8
PV
  6
Continuous
 62
   254
100
AcDbLine
 10
0.4050000000000001
 20
132.127
 30
0.0
 11
2.044999999999999
 21
132.127
 31
0.0
  0
LINE
  5
29A
330
A
100
AcDbEntity
  8
PV
  6
Continuous
 62
   254
100
AcDbLine
 10
0.4050000000000001
 20
131.68
 30
0.0
 11
2.044999999999999
 21
131.68
 31
0.0
  0
LINE
  5
29B
330
A
100
AcDbEntity
  8
PV
  6
Continuous
 62
   254
100
AcDbLine
 10
-2.319999999999999
 20
130.7839999999999
 30
0.0
 11
-1.873
 21
130.7839999999999
 31
0.0
  0
LINE
  5
29C
330
A
100
AcDbEntity
  8
PV
  6
Continuous
 62
   254
100
AcDbLine
 10
-2.319999999999999
 20
133.023
 30
0.0
 11
-1.873
 21
133.023
 31
0.0
  0
LINE
  5
29D
330
A
100
AcDbEntity
  8
PV
  6
Continuous
 62
   254
100
AcDbLine
 10
1.038
 20
130.7839999999999
 30
0.0
 11
2.044999999999999
 21
130.7839999999999
 31
0.0
  0
LINE
  5
29E
330
A
100
AcDbEntity
  8
PV
  6
Continuous
 62
   254
100
AcDbLine
 10
1.038
 20
133.023
 30
0.0
 11
2.044999999999999
 21
133.023
 31
0.0
  0
LINE
  5
29F
330
A
100
AcDbEntity
  8
PV
  6
Continuous
 62
   254
100
AcDbLine
 10
-10.94
 20
133.023
 30
0.0
 11
-10.94
 21
130.7839999999999
 31
0.0
  0
LINE
  5
2A0
330
A
100
AcDbEntity
  8
PV
  6
Continuous
 62
   254
100
AcDbLine
 10
-11.388
 20
133.023
 30
0.0
 11
-11.388
 21
130.7839999999999
 31
0.0
  0
LINE
  5
2A1
330
A
100
AcDbEntity
  8
PV
  6
Continuous
 62
   254
100
AcDbLine
 10
-11.388
 20
130.7839999999999
 30
0.0
 11
-10.94
 21
130.7839999999999
 31
0.0
  0
LINE
  5
2A2
330
A
100
AcDbEntity
  8
PV
  6
Continuous
 62
   254
100
AcDbLine
 10
-11.388
 20
133.023
 30
0.0
 11
-10.94
 21
133.023
 31
0.0
  0
LINE
  5
2A3
330
A
100
AcDbEntity
  8
PV
  6
Continuous
 62
   254
100
AcDbLine
 10
-12.27
 20
130.7839999999999
 30
0.0
 11
-11.72299999999999
 21
130.7839999999999
 31
0.0
  0
LINE
  5
2A4
330
A
100
AcDbEntity
  8
PV
  6
Continuous
 62
   254
100
AcDbLine
 10
-13.514
 20
131.68
 30
0.0
 11
-13.514
 21
130.7839999999999
 31
0.0
  0
LINE
  5
2A5
330
A
100
AcDbEntity
  8
PV
  6
Continuous
 62
   254
100
AcDbLine
 10
-13.962
 20
133.023
 30
0.0
 11
-12.395
 21
133.023
 31
0.0
  0
LINE
  5
2A6
330
A
100
AcDbEntity
  8
PV
  6
Continuous
 62
   254
100
AcDbLine
 10
-13.962
 20
130.7839999999999
 30
0.0
 11
-13.514
 21
130.7839999999999
 31
0.0
  0
LINE
  5
2A7
330
A
100
AcDbEntity
  8
PV
  6
Continuous
 62
   254
100
AcDbLine
 10
-12.395
 20
132.127
 30
0.0
 11
-13.514
 21
132.127
 31
0.0
  0
LINE
  5
2A8
330
A
100
AcDbEntity
  8
PV
  6
Continuous
 62
   254
100
AcDbLine
 10
-12.395
 20
132.5749999999999
 30
0.0
 11
-13.514
 21
132.5749999999999
 31
0.0
  0
LINE
  5
2A9
330
A
100
AcDbEntity
  8
PV
  6
Continuous
 62
   254
100
AcDbLine
 10
-13.514
 20
131.68
 30
0.0
 11
-12.897
 21
131.68
 31
0.0
  0
LINE
  5
2AA
330
A
100
AcDbEntity
  8
PV
  6
Continuous
 62
   254
100
AcDbLine
 10
2.044999999999999
 20
133.023
 30
0.0
 11
2.044999999999999
 21
132.5749999999999
 31
0.0
  0
LINE
  5
2AB
330
A
100
AcDbEntity
  8
PV
  6
Continuous
 62
   254
100
AcDbLine
 10
-13.514
 20
132.5749999999999
 30
0.0
 11
-13.514
 21
132.3509999999999
 31
0.0
  0
LINE
  5
2AC
330
A
100
AcDbEntity
  8
PV
  6
Continuous
 62
   254
100
AcDbLine
 10
-13.962
 20
133.023
 30
0.0
 11
-13.962
 21
132.3509999999999
 31
0.0
  0
LINE
  5
2AD
330
A
100
AcDbEntity
  8
PV
  6
Continuous
 62
   254
100
AcDbLine
 10
-14.41
 20
133.023
 30
0.0
 11
-14.41
 21
130.7839999999999
 31
0.0
  0
LINE
  5
2AE
330
A
100
AcDbEntity
  8
PV
  6
Continuous
 62
   254
100
AcDbLine
 10
-14.858
 20
133.023
 30
0.0
 11
-14.858
 21
130.7839999999999
 31
0.0
  0
LINE
  5
2AF
330
A
100
AcDbEntity
  8
PV
  6
Continuous
 62
   254
100
AcDbLine
 10
-14.858
 20
130.7839999999999
 30
0.0
 11
-14.41
 21
130.7839999999999
 31
0.0
  0
LINE
  5
2B0
330
A
100
AcDbEntity
  8
PV
  6
Continuous
 62
   254
100
AcDbLine
 10
-14.858
 20
133.023
 30
0.0
 11
-14.41
 21
133.023
 31
0.0
  0
LINE
  5
2B1
330
A
100
AcDbEntity
  8
PV
  6
Continuous
 62
   254
100
AcDbLine
 10
-9.597000000000001
 20
132.5749999999999
 30
0.0
 11
-8.589
 21
132.5749999999999
 31
0.0
  0
LINE
  5
2B2
330
A
100
AcDbEntity
  8
PV
  6
Continuous
 62
     7
100
AcDbLine
 10
2.369
 20
138.999
 30
0.0
 11
2.369
 21
137.0489999999999
 31
0.0
  0
LINE
  5
2B3
330
A
100
AcDbEntity
  8
PV
  6
Continuous
 62
     7
100
AcDbLine
 10
2.369
 20
137.0489999999999
 30
0.0
 11
2.369
 21
136.2489999999999
 31
0.0
  0
LINE
  5
2B4
330
A
100
AcDbEntity
  8
PV
  6
Continuous
 62
     7
100
AcDbLine
 10
7.144
 20
139.024
 30
0.0
 11
7.144
 21
137.024
 31
0.0
  0
LINE
  5
2B5
330
A
100
AcDbEntity
  8
PV
  6
Continuous
 62
     7
100
AcDbLine
 10
2.369
 20
139.799
 30
0.0
 11
2.369
 21
138.999
 31
0.0
  0
LINE
  5
2B6
330
A
100
AcDbEntity
  8
PV
  6
Continuous
 62
     7
100
AcDbLine
 10
-0.9559999999999998
 20
136.2489999999999
 30
0.0
 11
0.594
 21
136.2489999999999
 31
0.0
  0
LINE
  5
2B7
330
A
100
AcDbEntity
  8
PV
  6
Continuous
 62
     7
100
AcDbLine
 10
-0.9559999999999998
 20
139.799
 30
0.0
 11
0.594
 21
139.799
 31
0.0
  0
LINE
  5
2B8
330
A
100
AcDbEntity
  8
PV
  6
Continuous
 62
     7
100
AcDbLine
 10
-0.9559999999999998
 20
139.799
 30
0.0
 11
-0.9559999999999998
 21
136.2489999999999
 31
0.0
  0
LINE
  5
2B9
330
A
100
AcDbEntity
  8
PV
  6
Continuous
 62
     7
100
AcDbLine
 10
-3.541
 20
136.2489999999999
 30
0.0
 11
-1.641
 21
136.2489999999999
 31
0.0
  0
LINE
  5
2BA
330
A
100
AcDbEntity
  8
PV
  6
Continuous
 62
     7
100
AcDbLine
 10
-1.641
 20
138.849
 30
0.0
 11
-1.641
 21
136.2489999999999
 31
0.0
  0
LINE
  5
2BB
330
A
100
AcDbEntity
  8
PV
  6
Continuous
 62
     7
100
AcDbLine
 10
-3.541
 20
138.849
 30
0.0
 11
-3.541
 21
136.2489999999999
 31
0.0
  0
LINE
  5
2BC
330
A
100
AcDbEntity
  8
PV
  6
Continuous
 62
     7
100
AcDbLine
 10
-3.541
 20
138.849
 30
0.0
 11
-1.641
 21
138.849
 31
0.0
  0
LINE
  5
2BD
330
A
100
AcDbEntity
  8
PV
  6
Continuous
 62
     7
100
AcDbLine
 10
0.594
 20
139.799
 30
0.0
 11
0.594
 21
136.2489999999999
 31
0.0
  0
LINE
  5
2BE
330
A
100
AcDbEntity
  8
PV
  6
Continuous
 62
   254
100
AcDbLine
 10
-7.165
 20
132.2429999999999
 30
0.0
 11
-6.866
 21
132.2429999999999
 31
0.0
  0
LINE
  5
2BF
330
A
100
AcDbEntity
  8
PV
  6
Continuous
 62
     7
100
AcDbLine
 10
23.394
 20
129.939
 30
0.0
 11
-19.907
 21
129.939
 31
0.0
  0
LINE
  5
2C0
330
A
100
AcDbEntity
  8
PV
  6
Continuous
 62
     7
100
AcDbLine
 10
22.73
 20
121.682
 30
0.0
 11
23.123
 21
121.626
 31
0.0
  0
LINE
  5
2C1
330
A
100
AcDbEntity
  8
PV
  6
Continuous
 62
     7
100
AcDbLine
 10
22.693
 20
121.3019999999999
 30
0.0
 11
23.092
 21
121.242
 31
0.0
  0
LINE
  5
2C2
330
A
100
AcDbEntity
  8
PV
  6
Continuous
 62
     7
100
AcDbLine
 10
24.11
 20
122.6399999999999
 30
0.0
 11
23.795
 21
122.458
 31
0.0
  0
LINE
  5
2C3
330
A
100
AcDbEntity
  8
PV
  6
Continuous
 62
     7
100
AcDbLine
 10
21.70599999999999
 20
120.2879999999999
 30
0.0
 11
22.021
 21
120.47
 31
0.0
  0
LINE
  5
2C4
330
A
100
AcDbEntity
  8
PV
  6
Continuous
 62
     7
100
AcDbLine
 10
5.123999999999999
 20
123.343
 30
0.0
 11
5.533999999999999
 21
123.343
 31
0.0
  0
LINE
  5
2C5
330
A
100
AcDbEntity
  8
PV
  6
Continuous
 62
     7
100
AcDbLine
 10
2.998
 20
123.343
 30
0.0
 11
3.668
 21
119.5429999999999
 31
0.0
  0
LINE
  5
2C6
330
A
100
AcDbEntity
  8
PV
  6
Continuous
 62
     7
100
AcDbLine
 10
3.393
 20
123.343
 30
0.0
 11
3.958
 21
120.141
 31
0.0
  0
LINE
  5
2C7
330
A
100
AcDbEntity
  8
PV
  6
Continuous
 62
     7
100
AcDbLine
 10
3.958
 20
120.141
 30
0.0
 11
5.123999999999999
 21
123.343
 31
0.0
  0
LINE
  5
2C8
330
A
100
AcDbEntity
  8
PV
  6
Continuous
 62
     7
100
AcDbLine
 10
4.150999999999999
 20
119.5429999999999
 30
0.0
 11
5.533999999999999
 21
123.343
 31
0.0
  0
LINE
  5
2C9
330
A
100
AcDbEntity
  8
PV
  6
Continuous
 62
     7
100
AcDbLine
 10
2.998
 20
123.343
 30
0.0
 11
3.393
 21
123.343
 31
0.0
  0
LINE
  5
2CA
330
A
100
AcDbEntity
  8
PV
  6
Continuous
 62
     7
100
AcDbLine
 10
3.668
 20
119.5429999999999
 30
0.0
 11
4.150999999999999
 21
119.5429999999999
 31
0.0
  0
LINE
  5
2CB
330
A
100
AcDbEntity
  8
PV
  6
Continuous
 62
     7
100
AcDbLine
 10
16.374
 20
123.343
 30
0.0
 11
16.784
 21
123.343
 31
0.0
  0
LINE
  5
2CC
330
A
100
AcDbEntity
  8
PV
  6
Continuous
 62
     7
100
AcDbLine
 10
14.248
 20
123.343
 30
0.0
 11
14.918
 21
119.5429999999999
 31
0.0
  0
LINE
  5
2CD
330
A
100
AcDbEntity
  8
PV
  6
Continuous
 62
     7
100
AcDbLine
 10
14.64299999999999
 20
123.343
 30
0.0
 11
15.208
 21
120.141
 31
0.0
  0
LINE
  5
2CE
330
A
100
AcDbEntity
  8
PV
  6
Continuous
 62
     7
100
AcDbLine
 10
15.208
 20
120.141
 30
0.0
 11
16.374
 21
123.343
 31
0.0
  0
LINE
  5
2CF
330
A
100
AcDbEntity
  8
PV
  6
Continuous
 62
     7
100
AcDbLine
 10
15.40099999999999
 20
119.5429999999999
 30
0.0
 11
16.784
 21
123.343
 31
0.0
  0
LINE
  5
2D0
330
A
100
AcDbEntity
  8
PV
  6
Continuous
 62
     7
100
AcDbLine
 10
14.248
 20
123.343
 30
0.0
 11
14.64299999999999
 21
123.343
 31
0.0
  0
LINE
  5
2D1
330
A
100
AcDbEntity
  8
PV
  6
Continuous
 62
     7
100
AcDbLine
 10
14.918
 20
119.5429999999999
 30
0.0
 11
15.40099999999999
 21
119.5429999999999
 31
0.0
  0
LINE
  5
2D2
330
A
100
AcDbEntity
  8
PV
  6
Continuous
 62
     7
100
AcDbLine
 10
18.82099999999999
 20
121.631
 30
0.0
 11
19.04899999999999
 21
122.9249999999999
 31
0.0
  0
LINE
  5
2D3
330
A
100
AcDbEntity
  8
PV
  6
Continuous
 62
     7
100
AcDbLine
 10
20.436
 20
122.9249999999999
 30
0.0
 11
20.51
 21
123.343
 31
0.0
  0
LINE
  5
2D4
330
A
100
AcDbEntity
  8
PV
  6
Continuous
 62
     7
100
AcDbLine
 10
20.139
 20
121.238
 30
0.0
 11
20.20799999999999
 21
121.631
 31
0.0
  0
LINE
  5
2D5
330
A
100
AcDbEntity
  8
PV
  6
Continuous
 62
     7
100
AcDbLine
 10
18.521
 20
119.93
 30
0.0
 11
18.75199999999999
 21
121.238
 31
0.0
  0
LINE
  5
2D6
330
A
100
AcDbEntity
  8
PV
  6
Continuous
 62
     7
100
AcDbLine
 10
18.521
 20
119.93
 30
0.0
 11
19.908
 21
119.93
 31
0.0
  0
LINE
  5
2D7
330
A
100
AcDbEntity
  8
PV
  6
Continuous
 62
     7
100
AcDbLine
 10
19.04899999999999
 20
122.9249999999999
 30
0.0
 11
20.436
 21
122.9249999999999
 31
0.0
  0
LINE
  5
2D8
330
A
100
AcDbEntity
  8
PV
  6
Continuous
 62
     7
100
AcDbLine
 10
18.82099999999999
 20
121.631
 30
0.0
 11
20.20799999999999
 21
121.631
 31
0.0
  0
LINE
  5
2D9
330
A
100
AcDbEntity
  8
PV
  6
Continuous
 62
     7
100
AcDbLine
 10
18.75199999999999
 20
121.238
 30
0.0
 11
20.139
 21
121.238
 31
0.0
  0
LINE
  5
2DA
330
A
100
AcDbEntity
  8
PV
  6
Continuous
 62
     7
100
AcDbLine
 10
19.83999999999999
 20
119.5429999999999
 30
0.0
 11
19.908
 21
119.93
 31
0.0
  0
LINE
  5
2DB
330
A
100
AcDbEntity
  8
PV
  6
Continuous
 62
     7
100
AcDbLine
 10
18.062
 20
119.5429999999999
 30
0.0
 11
18.73199999999999
 21
123.343
 31
0.0
  0
LINE
  5
2DC
330
A
100
AcDbEntity
  8
PV
  6
Continuous
 62
     7
100
AcDbLine
 10
11.186
 20
119.9479999999999
 30
0.0
 11
12.849
 21
119.9479999999999
 31
0.0
  0
LINE
  5
2DD
330
A
100
AcDbEntity
  8
PV
  6
Continuous
 62
     7
100
AcDbLine
 10
11.186
 20
119.9479999999999
 30
0.0
 11
11.785
 21
123.343
 31
0.0
  0
LINE
  5
2DE
330
A
100
AcDbEntity
  8
PV
  6
Continuous
 62
     7
100
AcDbLine
 10
10.719
 20
119.5429999999999
 30
0.0
 11
11.389
 21
123.343
 31
0.0
  0
LINE
  5
2DF
330
A
100
AcDbEntity
  8
PV
  6
Continuous
 62
     7
100
AcDbLine
 10
12.778
 20
119.5429999999999
 30
0.0
 11
12.849
 21
119.9479999999999
 31
0.0
  0
LINE
  5
2E0
330
A
100
AcDbEntity
  8
PV
  6
Continuous
 62
     7
100
AcDbLine
 10
18.062
 20
119.5429999999999
 30
0.0
 11
19.83999999999999
 21
119.5429999999999
 31
0.0
  0
LINE
  5
2E1
330
A
100
AcDbEntity
  8
PV
  6
Continuous
 62
     7
100
AcDbLine
 10
18.73199999999999
 20
123.343
 30
0.0
 11
20.51
 21
123.343
 31
0.0
  0
LINE
  5
2E2
330
A
100
AcDbEntity
  8
PV
  6
Continuous
 62
     7
100
AcDbLine
 10
11.389
 20
123.343
 30
0.0
 11
11.785
 21
123.343
 31
0.0
  0
LINE
  5
2E3
330
A
100
AcDbEntity
  8
PV
  6
Continuous
 62
     7
100
AcDbLine
 10
10.719
 20
119.5429999999999
 30
0.0
 11
12.778
 21
119.5429999999999
 31
0.0
  0
LINE
  5
2E4
330
A
100
AcDbEntity
  8
PV
  6
Continuous
 62
     7
100
AcDbLine
 10
8.647999999999999
 20
120.35
 30
0.0
 11
8.863999999999998
 21
119.5429999999999
 31
0.0
  0
LINE
  5
2E5
330
A
100
AcDbEntity
  8
PV
  6
Continuous
 62
     7
100
AcDbLine
 10
7.283999999999999
 20
120.745
 30
0.0
 11
8.009
 21
122.736
 31
0.0
  0
LINE
  5
2E6
330
A
100
AcDbEntity
  8
PV
  6
Continuous
 62
     7
100
AcDbLine
 10
7.283999999999999
 20
120.745
 30
0.0
 11
8.541999999999999
 21
120.745
 31
0.0
  0
LINE
  5
2E7
330
A
100
AcDbEntity
  8
PV
  6
Continuous
 62
     7
100
AcDbLine
 10
7.139999999999999
 20
120.35
 30
0.0
 11
8.647999999999999
 21
120.35
 31
0.0
  0
LINE
  5
2E8
330
A
100
AcDbEntity
  8
PV
  6
Continuous
 62
     7
100
AcDbLine
 10
8.863999999999998
 20
119.5429999999999
 30
0.0
 11
9.257999999999999
 21
119.5429999999999
 31
0.0
  0
LINE
  5
2E9
330
A
100
AcDbEntity
  8
PV
  6
Continuous
 62
     7
100
AcDbLine
 10
8.009
 20
122.736
 30
0.0
 11
8.541999999999999
 21
120.745
 31
0.0
  0
LINE
  5
2EA
330
A
100
AcDbEntity
  8
PV
  6
Continuous
 62
     7
100
AcDbLine
 10
8.24
 20
123.343
 30
0.0
 11
9.257999999999999
 21
119.5429999999999
 31
0.0
  0
LINE
  5
2EB
330
A
100
AcDbEntity
  8
PV
  6
Continuous
 62
     7
100
AcDbLine
 10
6.847
 20
119.5429999999999
 30
0.0
 11
7.139999999999999
 21
120.35
 31
0.0
  0
LINE
  5
2EC
330
A
100
AcDbEntity
  8
PV
  6
Continuous
 62
     7
100
AcDbLine
 10
6.442
 20
119.5429999999999
 30
0.0
 11
7.825
 21
123.343
 31
0.0
  0
LINE
  5
2ED
330
A
100
AcDbEntity
  8
PV
  6
Continuous
 62
     7
100
AcDbLine
 10
7.825
 20
123.343
 30
0.0
 11
8.24
 21
123.343
 31
0.0
  0
LINE
  5
2EE
330
A
100
AcDbEntity
  8
PV
  6
Continuous
 62
     7
100
AcDbLine
 10
6.442
 20
119.5429999999999
 30
0.0
 11
6.847
 21
119.5429999999999
 31
0.0
  0
LINE
  5
2EF
330
A
100
AcDbEntity
  8
PV
  6
Continuous
 62
     7
100
AcDbLine
 10
-2.479
 20
121.631
 30
0.0
 11
-2.250999999999999
 21
122.9249999999999
 31
0.0
  0
LINE
  5
2F0
330
A
100
AcDbEntity
  8
PV
  6
Continuous
 62
     7
100
AcDbLine
 10
-0.864
 20
122.9249999999999
 30
0.0
 11
-0.7900000000000001
 21
123.343
 31
0.0
  0
LINE
  5
2F1
330
A
100
AcDbEntity
  8
PV
  6
Continuous
 62
     7
100
AcDbLine
 10
-1.161
 20
121.238
 30
0.0
 11
-1.092
 21
121.631
 31
0.0
  0
LINE
  5
2F2
330
A
100
AcDbEntity
  8
PV
  6
Continuous
 62
     7
100
AcDbLine
 10
-2.778999999999999
 20
119.93
 30
0.0
 11
-2.548
 21
121.238
 31
0.0
  0
LINE
  5
2F3
330
A
100
AcDbEntity
  8
PV
  6
Continuous
 62
     7
100
AcDbLine
 10
-2.778999999999999
 20
119.93
 30
0.0
 11
-1.391999999999999
 21
119.93
 31
0.0
  0
LINE
  5
2F4
330
A
100
AcDbEntity
  8
PV
  6
Continuous
 62
     7
100
AcDbLine
 10
-2.250999999999999
 20
122.9249999999999
 30
0.0
 11
-0.864
 21
122.9249999999999
 31
0.0
  0
LINE
  5
2F5
330
A
100
AcDbEntity
  8
PV
  6
Continuous
 62
     7
100
AcDbLine
 10
-2.479
 20
121.631
 30
0.0
 11
-1.092
 21
121.631
 31
0.0
  0
LINE
  5
2F6
330
A
100
AcDbEntity
  8
PV
  6
Continuous
 62
     7
100
AcDbLine
 10
-2.548
 20
121.238
 30
0.0
 11
-1.161
 21
121.238
 31
0.0
  0
LINE
  5
2F7
330
A
100
AcDbEntity
  8
PV
  6
Continuous
 62
     7
100
AcDbLine
 10
-1.459999999999999
 20
119.5429999999999
 30
0.0
 11
-1.391999999999999
 21
119.93
 31
0.0
  0
LINE
  5
2F8
330
A
100
AcDbEntity
  8
PV
  6
Continuous
 62
     7
100
AcDbLine
 10
-3.237999999999999
 20
119.5429999999999
 30
0.0
 11
-2.568
 21
123.343
 31
0.0
  0
LINE
  5
2F9
330
A
100
AcDbEntity
  8
PV
  6
Continuous
 62
     7
100
AcDbLine
 10
-3.237999999999999
 20
119.5429999999999
 30
0.0
 11
-1.459999999999999
 21
119.5429999999999
 31
0.0
  0
LINE
  5
2FA
330
A
100
AcDbEntity
  8
PV
  6
Continuous
 62
     7
100
AcDbLine
 10
-2.568
 20
123.343
 30
0.0
 11
-0.7900000000000001
 21
123.343
 31
0.0
  0
LINE
  5
2FB
330
A
100
AcDbEntity
  8
PV
  6
Continuous
 62
     7
100
AcDbLine
 10
-6.613999999999999
 20
119.9479999999999
 30
0.0
 11
-4.951
 21
119.9479999999999
 31
0.0
  0
LINE
  5
2FC
330
A
100
AcDbEntity
  8
PV
  6
Continuous
 62
     7
100
AcDbLine
 10
-6.613999999999999
 20
119.9479999999999
 30
0.0
 11
-6.014999999999999
 21
123.343
 31
0.0
  0
LINE
  5
2FD
330
A
100
AcDbEntity
  8
PV
  6
Continuous
 62
     7
100
AcDbLine
 10
-7.081
 20
119.5429999999999
 30
0.0
 11
-6.411
 21
123.343
 31
0.0
  0
LINE
  5
2FE
330
A
100
AcDbEntity
  8
PV
  6
Continuous
 62
     7
100
AcDbLine
 10
-5.022
 20
119.5429999999999
 30
0.0
 11
-4.951
 21
119.9479999999999
 31
0.0
  0
LINE
  5
2FF
330
A
100
AcDbEntity
  8
PV
  6
Continuous
 62
     7
100
AcDbLine
 10
-6.411
 20
123.343
 30
0.0
 11
-6.014999999999999
 21
123.343
 31
0.0
  0
LINE
  5
300
330
A
100
AcDbEntity
  8
PV
  6
Continuous
 62
     7
100
AcDbLine
 10
-7.081
 20
119.5429999999999
 30
0.0
 11
-5.022
 21
119.5429999999999
 31
0.0
  0
LINE
  5
301
330
A
100
AcDbEntity
  8
PV
  6
Continuous
 62
     7
100
AcDbLine
 10
-18.652
 20
120.35
 30
0.0
 11
-18.436
 21
119.5429999999999
 31
0.0
  0
LINE
  5
302
330
A
100
AcDbEntity
  8
PV
  6
Continuous
 62
     7
100
AcDbLine
 10
-20.01599999999999
 20
120.745
 30
0.0
 11
-19.291
 21
122.736
 31
0.0
  0
LINE
  5
303
330
A
100
AcDbEntity
  8
PV
  6
Continuous
 62
     7
100
AcDbLine
 10
-20.01599999999999
 20
120.745
 30
0.0
 11
-18.75799999999999
 21
120.745
 31
0.0
  0
LINE
  5
304
330
A
100
AcDbEntity
  8
PV
  6
Continuous
 62
     7
100
AcDbLine
 10
-20.16
 20
120.35
 30
0.0
 11
-18.652
 21
120.35
 31
0.0
  0
LINE
  5
305
330
A
100
AcDbEntity
  8
PV
  6
Continuous
 62
     7
100
AcDbLine
 10
-18.436
 20
119.5429999999999
 30
0.0
 11
-18.042
 21
119.5429999999999
 31
0.0
  0
LINE
  5
306
330
A
100
AcDbEntity
  8
PV
  6
Continuous
 62
     7
100
AcDbLine
 10
-19.291
 20
122.736
 30
0.0
 11
-18.75799999999999
 21
120.745
 31
0.0
  0
LINE
  5
307
330
A
100
AcDbEntity
  8
PV
  6
Continuous
 62
     7
100
AcDbLine
 10
-19.05999999999999
 20
123.343
 30
0.0
 11
-18.042
 21
119.5429999999999
 31
0.0
  0
LINE
  5
308
330
A
100
AcDbEntity
  8
PV
  6
Continuous
 62
     7
100
AcDbLine
 10
-20.453
 20
119.5429999999999
 30
0.0
 11
-20.16
 21
120.35
 31
0.0
  0
LINE
  5
309
330
A
100
AcDbEntity
  8
PV
  6
Continuous
 62
     7
100
AcDbLine
 10
-20.858
 20
119.5429999999999
 30
0.0
 11
-19.475
 21
123.343
 31
0.0
  0
LINE
  5
30A
330
A
100
AcDbEntity
  8
PV
  6
Continuous
 62
     7
100
AcDbLine
 10
-19.475
 20
123.343
 30
0.0
 11
-19.05999999999999
 21
123.343
 31
0.0
  0
LINE
  5
30B
330
A
100
AcDbEntity
  8
PV
  6
Continuous
 62
     7
100
AcDbLine
 10
-20.858
 20
119.5429999999999
 30
0.0
 11
-20.453
 21
119.5429999999999
 31
0.0
  0
LINE
  5
30C
330
A
100
AcDbEntity
  8
PV
  6
Continuous
 62
     7
100
AcDbLine
 10
-9.708999999999999
 20
121.0629999999999
 30
0.0
 11
-8.952999999999999
 21
121.0629999999999
 31
0.0
  0
LINE
  5
30D
330
A
100
AcDbEntity
  8
PV
  6
Continuous
 62
     7
100
AcDbLine
 10
-9.708999999999999
 20
121.0629999999999
 30
0.0
 11
-9.642000000000001
 21
121.4429999999999
 31
0.0
  0
LINE
  5
30E
330
A
100
AcDbEntity
  8
PV
  6
Continuous
 62
     7
100
AcDbLine
 10
-8.951
 20
121.9899999999999
 30
0.0
 11
-8.573999999999999
 21
122.1279999999999
 31
0.0
  0
LINE
  5
30F
330
A
100
AcDbEntity
  8
PV
  6
Continuous
 62
     7
100
AcDbLine
 10
-9.642000000000001
 20
121.4429999999999
 30
0.0
 11
-8.490999999999999
 21
121.4429999999999
 31
0.0
  0
LINE
  5
310
330
A
100
AcDbEntity
  8
PV
  6
Continuous
 62
     7
100
AcDbLine
 10
-13.46
 20
123.343
 30
0.0
 11
-13.073
 21
123.343
 31
0.0
  0
LINE
  5
311
330
A
100
AcDbEntity
  8
PV
  6
Continuous
 62
     7
100
AcDbLine
 10
-14.14
 20
119.5429999999999
 30
0.0
 11
-13.743
 21
119.5429999999999
 31
0.0
  0
LINE
  5
312
330
A
100
AcDbEntity
  8
PV
  6
Continuous
 62
     7
100
AcDbLine
 10
-15.318
 20
123.343
 30
0.0
 11
-14.005
 21
120.25
 31
0.0
  0
LINE
  5
313
330
A
100
AcDbEntity
  8
PV
  6
Continuous
 62
     7
100
AcDbLine
 10
-15.402
 20
122.517
 30
0.0
 11
-14.14
 21
119.5429999999999
 31
0.0
  0
LINE
  5
314
330
A
100
AcDbEntity
  8
PV
  6
Continuous
 62
     7
100
AcDbLine
 10
-16.327
 20
119.5429999999999
 30
0.0
 11
-15.657
 21
123.343
 31
0.0
  0
LINE
  5
315
330
A
100
AcDbEntity
  8
PV
  6
Continuous
 62
     7
100
AcDbLine
 10
-15.92699999999999
 20
119.5429999999999
 30
0.0
 11
-15.402
 21
122.517
 31
0.0
  0
LINE
  5
316
330
A
100
AcDbEntity
  8
PV
  6
Continuous
 62
     7
100
AcDbLine
 10
-14.005
 20
120.25
 30
0.0
 11
-13.46
 21
123.343
 31
0.0
  0
LINE
  5
317
330
A
100
AcDbEntity
  8
PV
  6
Continuous
 62
     7
100
AcDbLine
 10
-13.743
 20
119.5429999999999
 30
0.0
 11
-13.073
 21
123.343
 31
0.0
  0
LINE
  5
318
330
A
100
AcDbEntity
  8
PV
  6
Continuous
 62
     7
100
AcDbLine
 10
-15.657
 20
123.343
 30
0.0
 11
-15.318
 21
123.343
 31
0.0
  0
LINE
  5
319
330
A
100
AcDbEntity
  8
PV
  6
Continuous
 62
     7
100
AcDbLine
 10
-16.327
 20
119.5429999999999
 30
0.0
 11
-15.92699999999999
 21
119.5429999999999
 31
0.0
  0
LWPOLYLINE
  5
31A
330
A
100
AcDbEntity
  8
PV
  6
Continuous
 62
     7
100
AcDbPolyline
 90
       73
 70
     0
 43
0.0
 10
-26.712
 20
-42.5
 10
-26.71
 20
-42.762
 10
-26.701
 20
-43.023
 10
-26.68699999999999
 20
-43.283
 10
-26.667
 20
-43.542
 10
-26.64099999999999
 20
-43.799
 10
-26.61
 20
-44.053
 10
-26.574
 20
-44.30399999999999
 10
-26.531
 20
-44.552
 10
-26.484
 20
-44.796
 10
-26.431
 20
-45.036
 10
-26.373
 20
-45.27
 10
-26.31
 20
-45.49999999999999
 10
-26.243
 20
-45.724
 10
-26.17
 20
-45.941
 10
-26.09199999999999
 20
-46.153
 10
-26.011
 20
-46.35699999999999
 10
-25.924
 20
-46.55399999999999
 10
-25.834
 20
-46.743
 10
-25.739
 20
-46.924
 10
-25.64099999999999
 20
-47.096
 10
-25.539
 20
-47.25999999999999
 10
-25.433
 20
-47.415
 10
-25.324
 20
-47.56
 10
-25.212
 20
-47.696
 10
-25.098
 20
-47.82199999999999
 10
-24.98
 20
-47.938
 10
-24.86
 20
-48.043
 10
-24.738
 20
-48.138
 10
-24.615
 20
-48.222
 10
-24.489
 20
-48.29600000000001
 10
-24.36199999999999
 20
-48.358
 10
-24.233
 20
-48.409
 10
-24.104
 20
-48.44899999999999
 10
-23.974
 20
-48.47699999999999
 10
-23.843
 20
-48.494
 10
-23.71199999999999
 20
-48.5
 10
-23.58199999999999
 20
-48.494
 10
-23.45099999999999
 20
-48.47699999999999
 10
-23.321
 20
-48.44899999999999
 10
-23.191
 20
-48.409
 10
-23.063
 20
-48.358
 10
-22.936
 20
-48.29600000000001
 10
-22.81
 20
-48.222
 10
-22.686
 20
-48.138
 10
-22.564
 20
-48.043
 10
-22.44499999999999
 20
-47.938
 10
-22.32699999999999
 20
-47.82199999999999
 10
-22.212
 20
-47.696
 10
-22.1
 20
-47.56
 10
-21.99199999999999
 20
-47.415
 10
-21.886
 20
-47.25999999999999
 10
-21.784
 20
-47.096
 10
-21.686
 20
-46.924
 10
-21.591
 20
-46.743
 10
-21.50099999999999
 20
-46.55399999999999
 10
-21.414
 20
-46.35699999999999
 10
-21.33199999999999
 20
-46.153
 10
-21.255
 20
-45.941
 10
-21.18199999999999
 20
-45.724
 10
-21.114
 20
-45.49999999999999
 10
-21.05099999999999
 20
-45.27
 10
-20.993
 20
-45.036
 10
-20.941
 20
-44.796
 10
-20.893
 20
-44.552
 10
-20.851
 20
-44.30399999999999
 10
-20.815
 20
-44.053
 10
-20.783
 20
-43.799
 10
-20.758
 20
-43.542
 10
-20.738
 20
-43.283
 10
-20.724
 20
-43.023
 10
-20.71499999999999
 20
-42.762
 10
-20.712
 20
-42.5
  0
LWPOLYLINE
  5
31B
330
A
100
AcDbEntity
  8
PV
  6
Continuous
 62
     7
100
AcDbPolyline
 90
       73
 70
     0
 43
0.0
 10
24.199
 20
-42.5
 10
24.20199999999999
 20
-42.762
 10
24.211
 20
-43.023
 10
24.225
 20
-43.283
 10
24.245
 20
-43.542
 10
24.27
 20
-43.799
 10
24.302
 20
-44.053
 10
24.338
 20
-44.30399999999999
 10
24.38
 20
-44.552
 10
24.428
 20
-44.796
 10
24.48
 20
-45.036
 10
24.538
 20
-45.27
 10
24.601
 20
-45.49999999999999
 10
24.669
 20
-45.724
 10
24.74199999999999
 20
-45.941
 10
24.819
 20
-46.153
 10
24.90099999999999
 20
-46.35699999999999
 10
24.98699999999999
 20
-46.55399999999999
 10
25.078
 20
-46.743
 10
25.173
 20
-46.924
 10
25.271
 20
-47.096
 10
25.373
 20
-47.25999999999999
 10
25.479
 20
-47.415
 10
25.58699999999999
 20
-47.56
 10
25.699
 20
-47.696
 10
25.814
 20
-47.82199999999999
 10
25.93099999999999
 20
-47.938
 10
26.051
 20
-48.043
 10
26.173
 20
-48.138
 10
26.29699999999999
 20
-48.222
 10
26.423
 20
-48.29600000000001
 10
26.55
 20
-48.358
 10
26.678
 20
-48.409
 10
26.808
 20
-48.44899999999999
 10
26.938
 20
-48.47699999999999
 10
27.068
 20
-48.494
 10
27.199
 20
-48.5
 10
27.33
 20
-48.494
 10
27.461
 20
-48.47699999999999
 10
27.591
 20
-48.44899999999999
 10
27.72
 20
-48.409
 10
27.849
 20
-48.358
 10
27.976
 20
-48.29600000000001
 10
28.101
 20
-48.222
 10
28.225
 20
-48.138
 10
28.34699999999999
 20
-48.043
 10
28.467
 20
-47.938
 10
28.585
 20
-47.82199999999999
 10
28.699
 20
-47.696
 10
28.81099999999999
 20
-47.56
 10
28.92
 20
-47.415
 10
29.02599999999999
 20
-47.25999999999999
 10
29.128
 20
-47.096
 10
29.226
 20
-46.924
 10
29.321
 20
-46.743
 10
29.411
 20
-46.55399999999999
 10
29.49699999999999
 20
-46.35699999999999
 10
29.579
 20
-46.153
 10
29.657
 20
-45.941
 10
29.729
 20
-45.724
 10
29.79699999999999
 20
-45.49999999999999
 10
29.86
 20
-45.27
 10
29.918
 20
-45.036
 10
29.971
 20
-44.796
 10
30.018
 20
-44.552
 10
30.06
 20
-44.30399999999999
 10
30.097
 20
-44.053
 10
30.128
 20
-43.799
 10
30.154
 20
-43.542
 10
30.174
 20
-43.283
 10
30.188
 20
-43.023
 10
30.196
 20
-42.762
 10
30.199
 20
-42.5
  0
ARC
  5
31C
330
A
100
AcDbEntity
  8
PV
  6
Continuous
 62
     7
100
AcDbCircle
 10
1.743
 20
117.439
 30
0.0
 40
72.5
100
AcDbArc
 50
229.342743
 51
310.657252
  0
ARC
  5
31D
330
A
100
AcDbEntity
  8
PV
  6
Continuous
 62
     7
100
AcDbCircle
 10
1.743
 20
117.439
 30
0.0
 40
72.5
100
AcDbArc
 50
49.342762
 51
130.6572429999999
  0
ARC
  5
31E
330
A
100
AcDbEntity
  8
PV
  6
Continuous
 62
     7
100
AcDbCircle
 10
1.743
 20
117.439
 30
0.0
 40
72.5
100
AcDbArc
 50
139.3427439999999
 51
148.2504989999999
  0
ARC
  5
31F
330
A
100
AcDbEntity
  8
PV
  6
Continuous
 62
     7
100
AcDbCircle
 10
34.743
 20
-56.0
 30
0.0
 40
5.0
100
AcDbArc
 50
180.000009
 51
269.9999969999999
  0
ARC
  5
320
330
A
100
AcDbEntity
  8
PV
  6
Continuous
 62
     7
100
AcDbCircle
 10
-31.257
 20
-56.0
 30
0.0
 40
5.0
100
AcDbArc
 50
269.9999969999999
 51
0.0
  0
ARC
  5
321
330
A
100
AcDbEntity
  8
PV
  6
Continuous
 62
     7
100
AcDbCircle
 10
-25.335
 20
-30.5
 30
0.0
 40
2.0
100
AcDbArc
 50
90.00000300000001
 51
177.7093919999999
  0
ARC
  5
322
330
A
100
AcDbEntity
  8
PV
  6
Continuous
 62
     7
100
AcDbCircle
 10
-23.75699999999999
 20
-28.5
 30
0.0
 40
1.0
100
AcDbArc
 50
90.00000300000001
 51
180.000005
  0
ARC
  5
323
330
A
100
AcDbEntity
  8
PV
  6
Continuous
 62
     7
100
AcDbCircle
 10
27.243
 20
-28.5
 30
0.0
 40
1.0
100
AcDbArc
 50
0.0
 51
90.00000300000001
  0
ARC
  5
324
330
A
100
AcDbEntity
  8
PV
  6
Continuous
 62
     7
100
AcDbCircle
 10
28.822
 20
-30.5
 30
0.0
 40
2.0
100
AcDbArc
 50
2.29061
 51
90.00000300000001
  0
ARC
  5
325
330
A
100
AcDbEntity
  8
PV
  6
Continuous
 62
     7
100
AcDbCircle
 10
1.743
 20
-42.5
 30
0.0
 40
6.0
100
AcDbArc
 50
269.9999969999999
 51
0.0
  0
ARC
  5
326
330
A
100
AcDbEntity
  8
PV
  6
Continuous
 62
     7
100
AcDbCircle
 10
1.743
 20
-42.5
 30
0.0
 40
6.0
100
AcDbArc
 50
179.9999909999999
 51
270.000001
  0
ARC
  5
328
330
A
100
AcDbEntity
  8
PV
  6
PHANTOM
 62
     7
100
AcDbCircle
 10
28.822
 20
-5.5
 30
0.0
 40
2.0
100
AcDbArc
 50
2.29061
 51
90.00000300000001
  0
ARC
  5
329
330
A
100
AcDbEntity
  8
PV
  6
PHANTOM
 62
     7
100
AcDbCircle
 10
-25.335
 20
-5.5
 30
0.0
 40
2.0
100
AcDbArc
 50
90.00000300000001
 51
177.7093919999999
  0
ARC
  5
32A
330
A
100
AcDbEntity
  8
PV
  6
PHANTOM
 62
     7
100
AcDbCircle
 10
-23.75699999999999
 20
-3.5
 30
0.0
 40
1.0
100
AcDbArc
 50
90.00000300000001
 51
180.000005
  0
ARC
  5
32B
330
A
100
AcDbEntity
  8
PV
  6
PHANTOM
 62
     7
100
AcDbCircle
 10
27.243
 20
-3.5
 30
0.0
 40
1.0
100
AcDbArc
 50
0.0
 51
90.00000300000001
  0
ARC
  5
32C
330
A
100
AcDbEntity
  8
PV
  6
Continuous
 62
     7
100
AcDbCircle
 10
-86.80100000000001
 20
-144.0
 30
0.0
 40
50.8
100
AcDbArc
 50
311.324257
 51
48.675743
  0
ARC
  5
32D
330
A
100
AcDbEntity
  8
PV
  6
Continuous
 62
     7
100
AcDbCircle
 10
1.743
 20
117.439
 30
0.0
 40
72.5
100
AcDbArc
 50
211.749501
 51
220.657256
  0
ARC
  5
32E
330
A
100
AcDbEntity
  8
PV
  6
Continuous
 62
     7
100
AcDbCircle
 10
1.743
 20
117.439
 30
0.0
 40
72.5
100
AcDbArc
 50
319.342749
 51
40.657251
  0
CIRCLE
  5
32F
330
A
100
AcDbEntity
  8
PV
  6
Continuous
 62
     7
100
AcDbCircle
 10
-195.76
 20
159.866
 30
0.0
 40
6.0
  0
CIRCLE
  5
330
330
A
100
AcDbEntity
  8
PV
  6
Continuous
 62
     7
100
AcDbCircle
 10
-195.76
 20
75.013
 30
0.0
 40
6.0
  0
ARC
  5
332
330
A
100
AcDbEntity
  8
PV
  6
CENTER
 62
     7
100
AcDbCircle
 10
-153.334
 20
117.439
 30
0.0
 40
60.0
100
AcDbArc
 50
89.99998199999998
 51
270.000001
  0
CIRCLE
  5
333
330
A
100
AcDbEntity
  8
PV
  6
Continuous
 62
     7
100
AcDbCircle
 10
44.743
 20
160.4389999999999
 30
0.0
 40
9.0
  0
ARC
  5
334
330
A
100
AcDbEntity
  8
PV
  6
Continuous
 62
     7
100
AcDbCircle
 10
1.743
 20
117.439
 30
0.0
 40
73.0
100
AcDbArc
 50
41.11209
 51
48.887909
  0
CIRCLE
  5
335
330
A
100
AcDbEntity
  8
PV
  6
Continuous
 62
     7
100
AcDbCircle
 10
44.743
 20
74.43899999999999
 30
0.0
 40
9.0
  0
ARC
  5
336
330
A
100
AcDbEntity
  8
PV
  6
Continuous
 62
     7
100
AcDbCircle
 10
1.743
 20
117.439
 30
0.0
 40
73.0
100
AcDbArc
 50
311.112091
 51
318.88791
  0
ARC
  5
337
330
A
100
AcDbEntity
  8
PV
  6
Continuous
 62
     7
100
AcDbCircle
 10
1.743
 20
117.439
 30
0.0
 40
73.0
100
AcDbArc
 50
221.1120919999999
 51
228.8879069999999
  0
CIRCLE
  5
338
330
A
100
AcDbEntity
  8
PV
  6
Continuous
 62
     7
100
AcDbCircle
 10
-41.257
 20
74.43899999999999
 30
0.0
 40
9.0
  0
ARC
  5
339
330
A
100
AcDbEntity
  8
PV
  6
Continuous
 62
     7
100
AcDbCircle
 10
1.743
 20
117.439
 30
0.0
 40
73.0
100
AcDbArc
 50
131.1120929999999
 51
138.887908
  0
CIRCLE
  5
33A
330
A
100
AcDbEntity
  8
PV
  6
Continuous
 62
     7
100
AcDbCircle
 10
-41.257
 20
160.4389999999999
 30
0.0
 40
9.0
  0
ARC
  5
33B
330
A
100
AcDbEntity
  8
PV
  6
Continuous
 62
   254
100
AcDbCircle
 10
-25.688
 20
126.926
 30
0.0
 40
0.5
100
AcDbArc
 50
239.999997
 51
329.9999989999999
  0
ARC
  5
33C
330
A
100
AcDbEntity
  8
PV
  6
Continuous
 62
   254
100
AcDbCircle
 10
-20.188
 20
136.453
 30
0.0
 40
0.5
100
AcDbArc
 50
329.9999989999999
 51
60.000002
  0
ARC
  5
33D
330
A
100
AcDbEntity
  8
PV
  6
Continuous
 62
   254
100
AcDbCircle
 10
-20.188
 20
98.426
 30
0.0
 40
0.5
100
AcDbArc
 50
299.999998
 51
30.000001
  0
ARC
  5
33E
330
A
100
AcDbEntity
  8
PV
  6
Continuous
 62
   254
100
AcDbCircle
 10
1.743
 20
117.439
 30
0.0
 40
29.0
100
AcDbArc
 50
101.908915
 51
138.091084
  0
ARC
  5
33F
330
A
100
AcDbEntity
  8
PV
  6
Continuous
 62
   254
100
AcDbCircle
 10
-3.756999999999999
 20
145.9389999999999
 30
0.0
 40
0.5
100
AcDbArc
 50
179.9999909999999
 51
270.000001
  0
ARC
  5
340
330
A
100
AcDbEntity
  8
PV
  6
Continuous
 62
   254
100
AcDbCircle
 10
7.242999999999999
 20
145.9389999999999
 30
0.0
 40
0.5
100
AcDbArc
 50
269.9999969999999
 51
0.0
  0
ARC
  5
341
330
A
100
AcDbEntity
  8
PV
  6
Continuous
 62
   254
100
AcDbCircle
 10
1.743
 20
117.439
 30
0.0
 40
29.0
100
AcDbArc
 50
41.908914
 51
78.091083
  0
ARC
  5
342
330
A
100
AcDbEntity
  8
PV
  6
Continuous
 62
   254
100
AcDbCircle
 10
23.675
 20
136.453
 30
0.0
 40
0.5
100
AcDbArc
 50
120.0000029999999
 51
209.999999
  0
ARC
  5
343
330
A
100
AcDbEntity
  8
PV
  6
Continuous
 62
   254
100
AcDbCircle
 10
29.175
 20
126.926
 30
0.0
 40
0.5
100
AcDbArc
 50
210.0000029999999
 51
299.999998
  0
ARC
  5
344
330
A
100
AcDbEntity
  8
PV
  6
Continuous
 62
   254
100
AcDbCircle
 10
1.743
 20
117.439
 30
0.0
 40
29.0
100
AcDbArc
 50
341.908914
 51
18.09108599999999
  0
ARC
  5
345
330
A
100
AcDbEntity
  8
PV
  6
Continuous
 62
   254
100
AcDbCircle
 10
29.175
 20
107.9529999999999
 30
0.0
 40
0.5
100
AcDbArc
 50
60.000002
 51
149.999997
  0
ARC
  5
346
330
A
100
AcDbEntity
  8
PV
  6
Continuous
 62
   254
100
AcDbCircle
 10
1.743
 20
117.439
 30
0.0
 40
29.0
100
AcDbArc
 50
161.90891
 51
198.091086
  0
ARC
  5
347
330
A
100
AcDbEntity
  8
PV
  6
Continuous
 62
   254
100
AcDbCircle
 10
23.675
 20
98.426
 30
0.0
 40
0.5
100
AcDbArc
 50
149.999997
 51
240.0000069999999
  0
CIRCLE
  5
348
330
A
100
AcDbEntity
  8
PV
  6
Continuous
 62
   254
100
AcDbCircle
 10
1.743
 20
117.439
 30
0.0
 40
30.0
  0
ARC
  5
349
330
A
100
AcDbEntity
  8
PV
  6
Continuous
 62
   254
100
AcDbCircle
 10
1.743
 20
117.439
 30
0.0
 40
29.0
100
AcDbArc
 50
221.908916
 51
258.059454
  0
ARC
  5
34A
330
A
100
AcDbEntity
  8
PV
  6
Continuous
 62
   254
100
AcDbCircle
 10
7.242999999999999
 20
88.939
 30
0.0
 40
0.5
100
AcDbArc
 50
0.0
 51
90.00000300000001
  0
ARC
  5
34B
330
A
100
AcDbEntity
  8
PV
  6
Continuous
 62
   254
100
AcDbCircle
 10
-3.756999999999999
 20
88.939
 30
0.0
 40
0.5
100
AcDbArc
 50
90.00000300000001
 51
180.000005
  0
CIRCLE
  5
34C
330
A
100
AcDbEntity
  8
PV
  6
Continuous
 62
   254
100
AcDbCircle
 10
1.743
 20
117.439
 30
0.0
 40
26.5
  0
ARC
  5
34D
330
A
100
AcDbEntity
  8
PV
  6
Continuous
 62
   254
100
AcDbCircle
 10
1.743
 20
117.439
 30
0.0
 40
29.0
100
AcDbArc
 50
281.9405409999999
 51
318.0910859999999
  0
ARC
  5
34E
330
A
100
AcDbEntity
  8
PV
  6
Continuous
 62
   254
100
AcDbCircle
 10
-25.688
 20
107.9529999999999
 30
0.0
 40
0.5
100
AcDbArc
 50
30.000001
 51
120.0000029999999
  0
LINE
  5
350
330
A
100
AcDbEntity
  8
PV
  6
DASHED
 62
     7
100
AcDbLine
 10
-95.257
 20
164.939
 30
0.0
 11
-98.25700000000001
 21
164.939
 31
0.0
  0
LINE
  5
351
330
A
100
AcDbEntity
  8
PV
  6
DASHED
 62
     7
100
AcDbLine
 10
-95.257
 20
159.9389999999999
 30
0.0
 11
-98.25700000000001
 21
159.9389999999999
 31
0.0
  0
LINE
  5
352
330
A
100
AcDbEntity
  8
PV
  6
DASHED
 62
     7
100
AcDbLine
 10
-95.257
 20
69.939
 30
0.0
 11
-95.257
 21
74.939
 31
0.0
  0
LINE
  5
353
330
A
100
AcDbEntity
  8
PV
  6
DASHED
 62
     7
100
AcDbLine
 10
-95.257
 20
69.939
 30
0.0
 11
-98.25700000000001
 21
69.939
 31
0.0
  0
LINE
  5
354
330
A
100
AcDbEntity
  8
PV
  6
DASHED
 62
     7
100
AcDbLine
 10
-95.257
 20
74.939
 30
0.0
 11
-98.25700000000001
 21
74.939
 31
0.0
  0
LINE
  5
355
330
A
100
AcDbEntity
  8
PV
  6
DASHED
 62
     7
100
AcDbLine
 10
-95.257
 20
164.939
 30
0.0
 11
-95.257
 21
159.9389999999999
 31
0.0
  0
LINE
  5
356
330
A
100
AcDbEntity
  8
PV
  6
DASHED
 62
     7
100
AcDbLine
 10
-95.257
 20
-191.5
 30
0.0
 11
-95.257
 21
-186.5
 31
0.0
  0
LINE
  5
357
330
A
100
AcDbEntity
  8
PV
  6
DASHED
 62
     7
100
AcDbLine
 10
-95.257
 20
-191.5
 30
0.0
 11
-98.25700000000001
 21
-191.5
 31
0.0
  0
LINE
  5
358
330
A
100
AcDbEntity
  8
PV
  6
DASHED
 62
     7
100
AcDbLine
 10
-95.257
 20
-186.5
 30
0.0
 11
-98.25700000000001
 21
-186.5
 31
0.0
  0
LINE
  5
359
330
A
100
AcDbEntity
  8
PV
  6
DASHED
 62
     7
100
AcDbLine
 10
-95.257
 20
-96.5
 30
0.0
 11
-95.257
 21
-101.5
 31
0.0
  0
LINE
  5
35A
330
A
100
AcDbEntity
  8
PV
  6
DASHED
 62
     7
100
AcDbLine
 10
-95.257
 20
-96.5
 30
0.0
 11
-98.25700000000001
 21
-96.5
 31
0.0
  0
LINE
  5
35B
330
A
100
AcDbEntity
  8
PV
  6
DASHED
 62
     7
100
AcDbLine
 10
-95.257
 20
-101.5
 30
0.0
 11
-98.25700000000001
 21
-101.5
 31
0.0
  0
LINE
  5
35C
330
A
100
AcDbEntity
  8
PV
  6
Continuous
 62
     7
100
AcDbLine
 10
48.915
 20
-61.0
 30
0.0
 11
49.743
 21
-63.0
 31
0.0
  0
LINE
  5
35D
330
A
100
AcDbEntity
  8
PV
  6
Continuous
 62
     7
100
AcDbLine
 10
56.743
 20
-63.0
 30
0.0
 11
-53.257
 21
-63.0
 31
0.0
  0
LINE
  5
35E
330
A
100
AcDbEntity
  8
PV
  6
Continuous
 62
     7
100
AcDbLine
 10
-45.428
 20
-61.0
 30
0.0
 11
-46.257
 21
-63.0
 31
0.0
  0
LINE
  5
35F
330
A
100
AcDbEntity
  8
PV
  6
Continuous
 62
     7
100
AcDbLine
 10
-51.257
 20
-61.0
 30
0.0
 11
-53.257
 21
-63.0
 31
0.0
  0
LINE
  5
360
330
A
100
AcDbEntity
  8
PV
  6
Continuous
 62
     7
100
AcDbLine
 10
49.743
 20
-63.0
 30
0.0
 11
49.743
 21
-99.0
 31
0.0
  0
LINE
  5
361
330
A
100
AcDbEntity
  8
PV
  6
Continuous
 62
     7
100
AcDbLine
 10
-46.257
 20
-63.0
 30
0.0
 11
-46.257
 21
-99.0
 31
0.0
  0
LINE
  5
362
330
A
100
AcDbEntity
  8
PV
  6
Continuous
 62
     7
100
AcDbLine
 10
56.743
 20
-189.4999999999999
 30
0.0
 11
-53.257
 21
-189.4999999999999
 31
0.0
  0
LINE
  5
363
330
A
100
AcDbEntity
  8
PV
  6
Continuous
 62
     7
100
AcDbLine
 10
46.743
 20
-199.5
 30
0.0
 11
56.743
 21
-189.4999999999999
 31
0.0
  0
LINE
  5
364
330
A
100
AcDbEntity
  8
PV
  6
Continuous
 62
     7
100
AcDbLine
 10
-53.257
 20
-189.4999999999999
 30
0.0
 11
-43.257
 21
-199.5
 31
0.0
  0
LINE
  5
365
330
A
100
AcDbEntity
  8
PV
  6
CENTER
 62
     7
100
AcDbLine
 10
61.743
 20
-249.833
 30
0.0
 11
61.743
 21
-224.0
 31
0.0
  0
LINE
  5
366
330
A
100
AcDbEntity
  8
PV
  6
CENTER
 62
     7
100
AcDbLine
 10
-58.257
 20
-250.167
 30
0.0
 11
-58.257
 21
-224.0
 31
0.0
  0
LINE
  5
367
330
A
100
AcDbEntity
  8
PV
  6
Continuous
 62
     7
100
AcDbLine
 10
74.24299999999999
 20
-244.0
 30
0.0
 11
74.24299999999999
 21
-234.0
 31
0.0
  0
LINE
  5
368
330
A
100
AcDbEntity
  8
PV
  6
Continuous
 62
     7
100
AcDbLine
 10
-70.75700000000001
 20
-244.0
 30
0.0
 11
-70.75700000000001
 21
-234.0
 31
0.0
  0
LINE
  5
369
330
A
100
AcDbEntity
  8
PV
  6
Continuous
 62
     7
100
AcDbLine
 10
-70.75700000000001
 20
-244.0
 30
0.0
 11
74.24299999999999
 21
-244.0
 31
0.0
  0
LINE
  5
36A
330
A
100
AcDbEntity
  8
PV
  6
Continuous
 62
     7
100
AcDbLine
 10
-70.75700000000001
 20
-234.0
 30
0.0
 11
74.24299999999999
 21
-234.0
 31
0.0
  0
LINE
  5
36B
330
A
100
AcDbEntity
  8
PV
  6
Continuous
 62
     7
100
AcDbLine
 10
-88.25700000000001
 20
-71.5
 30
0.0
 11
-88.25700000000001
 21
-216.5
 31
0.0
  0
LINE
  5
36C
330
A
100
AcDbEntity
  8
PV
  6
Continuous
 62
     7
100
AcDbLine
 10
-98.25700000000001
 20
-216.5
 30
0.0
 11
-88.25700000000001
 21
-216.5
 31
0.0
  0
LINE
  5
36D
330
A
100
AcDbEntity
  8
PV
  6
Continuous
 62
     7
100
AcDbLine
 10
-98.25700000000001
 20
-71.5
 30
0.0
 11
-98.25700000000001
 21
-216.5
 31
0.0
  0
LINE
  5
36E
330
A
100
AcDbEntity
  8
PV
  6
Continuous
 62
     7
100
AcDbLine
 10
-98.25700000000001
 20
-71.5
 30
0.0
 11
-88.25700000000001
 21
-71.5
 31
0.0
  0
LINE
  5
36F
330
A
100
AcDbEntity
  8
PV
  6
Continuous
 62
     7
100
AcDbLine
 10
-53.257
 20
-105.8499999999999
 30
0.0
 11
-88.25700000000001
 21
-105.8499999999999
 31
0.0
  0
LINE
  5
370
330
A
100
AcDbEntity
  8
PV
  6
CENTER
 62
     7
100
AcDbLine
 10
-108.243
 20
-204.0
 30
0.0
 11
-78.243
 21
-204.0
 31
0.0
  0
LINE
  5
371
330
A
100
AcDbEntity
  8
PV
  6
CENTER
 62
     7
100
AcDbLine
 10
-108.243
 20
-84.0
 30
0.0
 11
-78.243
 21
-84.0
 31
0.0
  0
LINE
  5
372
330
A
100
AcDbEntity
  8
PV
  6
Continuous
 62
     7
100
AcDbLine
 10
-36.40699999999999
 20
-199.5
 30
0.0
 11
-36.40699999999999
 21
-234.0
 31
0.0
  0
LINE
  5
373
330
A
100
AcDbEntity
  8
PV
  6
Continuous
 62
     7
100
AcDbLine
 10
39.893
 20
-199.5
 30
0.0
 11
39.893
 21
-234.0
 31
0.0
  0
LINE
  5
374
330
A
100
AcDbEntity
  8
PV
  6
Continuous
 62
     7
100
AcDbLine
 10
-53.258
 20
-182.15
 30
0.0
 11
-88.25700000000001
 21
-182.15
 31
0.0
  0
LINE
  5
375
330
A
100
AcDbEntity
  8
PV
  6
Continuous
 62
     7
100
AcDbLine
 10
-53.257
 20
-63.0
 30
0.0
 11
-53.257
 21
-105.8499999999999
 31
0.0
  0
LINE
  5
376
330
A
100
AcDbEntity
  8
PV
  6
Continuous
 62
     7
100
AcDbLine
 10
-53.257
 20
-99.0
 30
0.0
 11
56.65
 21
-99.0
 31
0.0
  0
LINE
  5
377
330
A
100
AcDbEntity
  8
PV
  6
Continuous
 62
     7
100
AcDbLine
 10
56.184
 20
-77.5
 30
0.0
 11
-53.338
 21
-77.5
 31
0.0
  0
LINE
  5
378
330
A
100
AcDbEntity
  8
PV
  6
Continuous
 62
     7
100
AcDbLine
 10
46.743
 20
-199.5
 30
0.0
 11
-43.257
 21
-199.5
 31
0.0
  0
LINE
  5
379
330
A
100
AcDbEntity
  8
PV
  6
Continuous
 62
     7
100
AcDbLine
 10
-53.257
 20
-182.482
 30
0.0
 11
-53.257
 21
-189.4999999999999
 31
0.0
  0
LINE
  5
37A
330
A
100
AcDbEntity
  8
PV
  6
Continuous
 62
     7
100
AcDbLine
 10
56.743
 20
-63.0
 30
0.0
 11
56.743
 21
-189.4999999999999
 31
0.0
  0
LINE
  5
37B
330
A
100
AcDbEntity
  8
PV
  6
Continuous
 62
     7
100
AcDbLine
 10
54.743
 20
-61.0
 30
0.0
 11
56.743
 21
-63.0
 31
0.0
  0
LINE
  5
37C
330
A
100
AcDbEntity
  8
PV
  6
Continuous
 62
     7
100
AcDbLine
 10
1.678
 20
-56.0
 30
0.0
 11
29.743
 21
-56.0
 31
0.0
  0
LINE
  5
37D
330
A
100
AcDbEntity
  8
PV
  6
Continuous
 62
     7
100
AcDbLine
 10
1.678
 20
-56.0
 30
0.0
 11
-26.257
 21
-56.0
 31
0.0
  0
LINE
  5
37E
330
A
100
AcDbEntity
  8
PV
  6
Continuous
 62
     7
100
AcDbLine
 10
54.743
 20
-61.0
 30
0.0
 11
-51.257
 21
-61.0
 31
0.0
  0
LINE
  5
37F
330
A
100
AcDbEntity
  8
PV
  6
CENTER
 62
     7
100
AcDbLine
 10
44.743
 20
-52.961
 30
0.0
 11
44.743
 21
-105.0
 31
0.0
  0
LINE
  5
380
330
A
100
AcDbEntity
  8
PV
  6
CENTER
 62
     7
100
AcDbLine
 10
-41.257
 20
-52.961
 30
0.0
 11
-41.257
 21
-108.0559999999999
 31
0.0
  0
LINE
  5
381
330
A
100
AcDbEntity
  8
PV
  6
Continuous
 62
     7
100
AcDbLine
 10
-23.75699999999999
 20
-27.5
 30
0.0
 11
27.243
 21
-27.5
 31
0.0
  0
LINE
  5
382
330
A
100
AcDbEntity
  8
PV
  6
Continuous
 62
     7
100
AcDbLine
 10
-25.335
 20
-28.5
 30
0.0
 11
28.822
 21
-28.5
 31
0.0
  0
LINE
  5
383
330
A
100
AcDbEntity
  8
PV
  6
Continuous
 62
     7
100
AcDbLine
 10
30.82
 20
-30.42
 30
0.0
 11
31.743
 21
-53.5
 31
0.0
  0
LINE
  5
384
330
A
100
AcDbEntity
  8
PV
  6
Continuous
 62
     7
100
AcDbLine
 10
-28.25699999999999
 20
-53.5
 30
0.0
 11
-27.333
 21
-30.42
 31
0.0
  0
LINE
  5
385
330
A
100
AcDbEntity
  8
PV
  6
Continuous
 62
     7
100
AcDbLine
 10
-28.25699999999999
 20
-53.5
 30
0.0
 11
31.743
 21
-53.5
 31
0.0
  0
LINE
  5
386
330
A
100
AcDbEntity
  8
PV
  6
Continuous
 62
     7
100
AcDbLine
 10
27.816
 20
-46.883
 30
0.0
 11
26.57099999999999
 21
-48.367
 31
0.0
  0
LINE
  5
387
330
A
100
AcDbEntity
  8
PV
  6
Continuous
 62
     7
100
AcDbLine
 10
28.999
 20
-28.5
 30
0.0
 11
28.999
 21
-42.5
 31
0.0
  0
LINE
  5
388
330
A
100
AcDbEntity
  8
PV
  6
Continuous
 62
     7
100
AcDbLine
 10
30.199
 20
-29.05
 30
0.0
 11
30.199
 21
-42.5
 31
0.0
  0
LINE
  5
389
330
A
100
AcDbEntity
  8
PV
  6
Continuous
 62
     7
100
AcDbLine
 10
24.199
 20
-28.5
 30
0.0
 11
24.199
 21
-42.5
 31
0.0
  0
LINE
  5
38A
330
A
100
AcDbEntity
  8
PV
  6
Continuous
 62
     7
100
AcDbLine
 10
-24.329
 20
-46.883
 30
0.0
 11
-23.084
 21
-48.367
 31
0.0
  0
LINE
  5
38B
330
A
100
AcDbEntity
  8
PV
  6
Continuous
 62
     7
100
AcDbLine
 10
-25.51199999999999
 20
-28.5
 30
0.0
 11
-25.51199999999999
 21
-42.5
 31
0.0
  0
LINE
  5
38C
330
A
100
AcDbEntity
  8
PV
  6
Continuous
 62
     7
100
AcDbLine
 10
-26.712
 20
-29.05
 30
0.0
 11
-26.712
 21
-42.5
 31
0.0
  0
LINE
  5
38D
330
A
100
AcDbEntity
  8
PV
  6
Continuous
 62
     7
100
AcDbLine
 10
-20.712
 20
-28.5
 30
0.0
 11
-20.712
 21
-42.5
 31
0.0
  0
LINE
  5
38E
330
A
100
AcDbEntity
  8
PV
  6
DASHED
 62
     7
100
AcDbLine
 10
-23.25699999999999
 20
-27.8
 30
0.0
 11
26.743
 21
-27.8
 31
0.0
  0
LINE
  5
38F
330
A
100
AcDbEntity
  8
PV
  6
PHANTOM
 62
     7
100
AcDbLine
 10
-23.75699999999999
 20
-2.5
 30
0.0
 11
27.243
 21
-2.5
 31
0.0
  0
LINE
  5
390
330
A
100
AcDbEntity
  8
PV
  6
DASHED
 62
     7
100
AcDbLine
 10
-23.25699999999999
 20
-27.5
 30
0.0
 11
-23.25699999999999
 21
-27.8
 31
0.0
  0
LINE
  5
391
330
A
100
AcDbEntity
  8
PV
  6
DASHED
 62
     7
100
AcDbLine
 10
26.743
 20
-27.5
 30
0.0
 11
26.743
 21
-27.8
 31
0.0
  0
LINE
  5
392
330
A
100
AcDbEntity
  8
PV
  6
Continuous
 62
     7
100
AcDbLine
 10
-23.75699999999999
 20
-27.5
 30
0.0
 11
27.243
 21
-27.5
 31
0.0
  0
LINE
  5
393
330
A
100
AcDbEntity
  8
PV
  6
Continuous
 62
     7
100
AcDbLine
 10
7.742999999999999
 20
-28.5
 30
0.0
 11
7.742999999999999
 21
-42.5
 31
0.0
  0
LINE
  5
394
330
A
100
AcDbEntity
  8
PV
  6
Continuous
 62
     7
100
AcDbLine
 10
-4.256999999999999
 20
-28.5
 30
0.0
 11
-4.256999999999999
 21
-42.5
 31
0.0
  0
LINE
  5
395
330
A
100
AcDbEntity
  8
PV
  6
PHANTOM
 62
     7
100
AcDbLine
 10
30.82
 20
-5.419999999999999
 30
0.0
 11
31.743
 21
-28.5
 31
0.0
  0
LINE
  5
396
330
A
100
AcDbEntity
  8
PV
  6
PHANTOM
 62
     7
100
AcDbLine
 10
-28.25699999999999
 20
-28.5
 30
0.0
 11
-27.333
 21
-5.419999999999999
 31
0.0
  0
LINE
  5
397
330
A
100
AcDbEntity
  8
PV
  6
PHANTOM
 62
     7
100
AcDbLine
 10
-25.335
 20
-3.5
 30
0.0
 11
28.822
 21
-3.5
 31
0.0
  0
LINE
  5
398
330
A
100
AcDbEntity
  8
PV
  6
PHANTOM
 62
     7
100
AcDbLine
 10
-28.25699999999999
 20
-28.5
 30
0.0
 11
31.743
 21
-28.5
 31
0.0
  0
LINE
  5
399
330
A
100
AcDbEntity
  8
PV
  6
Continuous
 62
     7
100
AcDbLine
 10
-2.256999999999999
 20
-53.5
 30
0.0
 11
-2.256999999999999
 21
-56.0
 31
0.0
  0
LINE
  5
39A
330
A
100
AcDbEntity
  8
PV
  6
Continuous
 62
     7
100
AcDbLine
 10
5.742999999999999
 20
-53.5
 30
0.0
 11
5.742999999999999
 21
-56.0
 31
0.0
  0
LINE
  5
39B
330
A
100
AcDbEntity
  8
PV
  6
CENTER
 62
     7
100
AcDbLine
 10
1.743
 20
3.029999999999999
 30
0.0
 11
1.743
 21
-248.3017899999999
 31
0.0
  0
LINE
  5
39C
330
A
100
AcDbEntity
  8
PV
  6
CENTER
 62
     7
100
AcDbLine
 10
-25.293
 20
-144.0
 30
0.0
 11
-107.589
 21
-144.0
 31
0.0
  0
LINE
  5
39D
330
A
100
AcDbEntity
  8
PV
  6
CENTER
 62
     7
100
AcDbLine
 10
-110.0
 20
57.439
 30
0.0
 11
-75.0
 21
57.439
 31
0.0
  0
LINE
  5
39E
330
A
100
AcDbEntity
  8
PV
  6
CENTER
 62
     7
100
AcDbLine
 10
-108.122
 20
177.439
 30
0.0
 11
-75.0
 21
177.439
 31
0.0
  0
LINE
  5
39F
330
A
100
AcDbEntity
  8
PV
  6
Continuous
 62
     7
100
AcDbLine
 10
-88.25700000000001
 20
117.439
 30
0.0
 11
-88.25700000000001
 21
44.93899999999999
 31
0.0
  0
LINE
  5
3A0
330
A
100
AcDbEntity
  8
PV
  6
Continuous
 62
     7
100
AcDbLine
 10
-98.25700000000001
 20
44.93899999999999
 30
0.0
 11
-88.25700000000001
 21
44.93899999999999
 31
0.0
  0
LINE
  5
3A1
330
A
100
AcDbEntity
  8
PV
  6
Continuous
 62
     7
100
AcDbLine
 10
-98.25700000000001
 20
189.939
 30
0.0
 11
-88.25700000000001
 21
189.939
 31
0.0
  0
LINE
  5
3A2
330
A
100
AcDbEntity
  8
PV
  6
Continuous
 62
     7
100
AcDbLine
 10
-98.25700000000001
 20
189.939
 30
0.0
 11
-98.25700000000001
 21
44.93899999999999
 31
0.0
  0
LINE
  5
3A3
330
A
100
AcDbEntity
  8
PV
  6
Continuous
 62
     7
100
AcDbLine
 10
-88.25700000000001
 20
189.939
 30
0.0
 11
-88.25700000000001
 21
117.439
 31
0.0
  0
LINE
  5
3A4
330
A
100
AcDbEntity
  8
PV
  6
Continuous
 62
     7
100
AcDbLine
 10
-53.325
 20
79.289
 30
0.0
 11
-88.25700000000001
 21
79.289
 31
0.0
  0
LINE
  5
3A5
330
A
100
AcDbEntity
  8
PV
  6
Continuous
 62
     7
100
AcDbLine
 10
-53.257
 20
155.5889999999999
 30
0.0
 11
-88.25700000000001
 21
155.5889999999999
 31
0.0
  0
LINE
  5
3A6
330
A
100
AcDbEntity
  8
PV
  6
Continuous
 62
     7
100
AcDbLine
 10
-53.493
 20
155.5889999999999
 30
0.0
 11
-81.82300000000001
 21
155.5889999999999
 31
0.0
  0
LINE
  5
3A7
330
A
100
AcDbEntity
  8
PV
  6
CENTER
 62
     7
100
AcDbLine
 10
-188.689
 20
152.7949999999999
 30
0.0
 11
-202.8309999999999
 21
166.937
 31
0.0
  0
LINE
  5
3A8
330
A
100
AcDbEntity
  8
PV
  6
CENTER
 62
     7
100
AcDbLine
 10
-188.689
 20
82.08400000000001
 30
0.0
 11
-207.167
 21
63.606
 31
0.0
  0
LINE
  5
3A9
330
A
100
AcDbEntity
  8
PV
  6
CENTER
 62
     7
100
AcDbLine
 10
-222.652
 20
117.439
 30
0.0
 11
-143.334
 21
117.439
 31
0.0
  0
LINE
  5
3AA
330
A
100
AcDbEntity
  8
PV
  6
CENTER
 62
     7
100
AcDbLine
 10
-153.334
 20
187.233
 30
0.0
 11
-153.334
 21
46.527
 31
0.0
  0
LINE
  5
3AB
330
A
100
AcDbEntity
  8
PV
  6
CENTER
 62
     7
100
AcDbLine
 10
44.743
 20
171.43
 30
0.0
 11
44.743
 21
148.744
 31
0.0
  0
LINE
  5
3AC
330
A
100
AcDbEntity
  8
PV
  6
CENTER
 62
     7
100
AcDbLine
 10
33.974
 20
160.4389999999999
 30
0.0
 11
55.865
 21
160.4389999999999
 31
0.0
  0
LINE
  5
3AD
330
A
100
AcDbEntity
  8
PV
  6
CENTER
 62
     7
100
AcDbLine
 10
44.743
 20
87.001
 30
0.0
 11
44.743
 21
63.688
 31
0.0
  0
LINE
  5
3AE
330
A
100
AcDbEntity
  8
PV
  6
CENTER
 62
     7
100
AcDbLine
 10
31.904
 20
74.43899999999999
 30
0.0
 11
56.161
 21
74.43899999999999
 31
0.0
  0
LINE
  5
3AF
330
A
100
AcDbEntity
  8
PV
  6
Continuous
 62
     7
100
AcDbLine
 10
56.743
 20
165.439
 30
0.0
 11
56.743
 21
69.43899999999999
 31
0.0
  0
LINE
  5
3B0
330
A
100
AcDbEntity
  8
PV
  6
Continuous
 62
     7
100
AcDbLine
 10
49.743
 20
62.439
 30
0.0
 11
-46.257
 21
62.439
 31
0.0
  0
LINE
  5
3B1
330
A
100
AcDbEntity
  8
PV
  6
CENTER
 62
     7
100
AcDbLine
 10
-41.257
 20
86.41
 30
0.0
 11
-41.257
 21
63.04
 31
0.0
  0
LINE
  5
3B2
330
A
100
AcDbEntity
  8
PV
  6
CENTER
 62
     7
100
AcDbLine
 10
-52.61600000000001
 20
74.43899999999999
 30
0.0
 11
-29.838
 21
74.43899999999999
 31
0.0
  0
LINE
  5
3B3
330
A
100
AcDbEntity
  8
PV
  6
Continuous
 62
     7
100
AcDbLine
 10
-53.257
 20
165.439
 30
0.0
 11
-53.257
 21
69.43899999999999
 31
0.0
  0
LINE
  5
3B4
330
A
100
AcDbEntity
  8
PV
  6
Continuous
 62
     7
100
AcDbLine
 10
49.743
 20
172.439
 30
0.0
 11
-46.257
 21
172.439
 31
0.0
  0
LINE
  5
3B5
330
A
100
AcDbEntity
  8
PV
  6
CENTER
 62
     7
100
AcDbLine
 10
-41.257
 20
171.5859999999999
 30
0.0
 11
-41.257
 21
149.335
 31
0.0
  0
LINE
  5
3B6
330
A
100
AcDbEntity
  8
PV
  6
CENTER
 62
     7
100
AcDbLine
 10
-51.894
 20
160.4389999999999
 30
0.0
 11
-29.838
 21
160.4389999999999
 31
0.0
  0
LINE
  5
3B7
330
A
100
AcDbEntity
  8
PV
  6
Continuous
 62
   254
100
AcDbLine
 10
-25.255
 20
108.2029999999999
 30
0.0
 11
-19.755
 21
98.67600000000001
 31
0.0
  0
LINE
  5
3B8
330
A
100
AcDbEntity
  8
PV
  6
Continuous
 62
   254
100
AcDbLine
 10
-19.938
 20
97.993
 30
0.0
 11
-20.712
 21
97.54600000000001
 31
0.0
  0
LINE
  5
3B9
330
A
100
AcDbEntity
  8
PV
  6
Continuous
 62
   254
100
AcDbLine
 10
-25.938
 20
126.4929999999999
 30
0.0
 11
-26.712
 21
126.94
 31
0.0
  0
LINE
  5
3BA
330
A
100
AcDbEntity
  8
PV
  6
Continuous
 62
   254
100
AcDbLine
 10
-25.938
 20
108.386
 30
0.0
 11
-26.712
 21
107.9389999999999
 31
0.0
  0
LINE
  5
3BB
330
A
100
AcDbEntity
  8
PV
  6
Continuous
 62
   254
100
AcDbLine
 10
-19.755
 20
136.203
 30
0.0
 11
-25.255
 21
126.676
 31
0.0
  0
LINE
  5
3BC
330
A
100
AcDbEntity
  8
PV
  6
Continuous
 62
   254
100
AcDbLine
 10
-19.938
 20
136.8859999999999
 30
0.0
 11
-20.712
 21
137.3329999999999
 31
0.0
  0
LINE
  5
3BD
330
A
100
AcDbEntity
  8
PV
  6
Continuous
 62
   254
100
AcDbLine
 10
-4.256999999999999
 20
145.9389999999999
 30
0.0
 11
-4.256999999999999
 21
146.8329999999999
 31
0.0
  0
LINE
  5
3BE
330
A
100
AcDbEntity
  8
PV
  6
Continuous
 62
   254
100
AcDbLine
 10
7.742999999999999
 20
145.9389999999999
 30
0.0
 11
7.742999999999999
 21
146.8329999999999
 31
0.0
  0
LINE
  5
3BF
330
A
100
AcDbEntity
  8
PV
  6
Continuous
 62
   254
100
AcDbLine
 10
7.242999999999999
 20
145.4389999999999
 30
0.0
 11
-3.756999999999999
 21
145.4389999999999
 31
0.0
  0
LINE
  5
3C0
330
A
100
AcDbEntity
  8
PV
  6
Continuous
 62
   254
100
AcDbLine
 10
23.425
 20
136.8859999999999
 30
0.0
 11
24.199
 21
137.3329999999999
 31
0.0
  0
LINE
  5
3C1
330
A
100
AcDbEntity
  8
PV
  6
Continuous
 62
   254
100
AcDbLine
 10
28.742
 20
126.676
 30
0.0
 11
23.24199999999999
 21
136.203
 31
0.0
  0
LINE
  5
3C2
330
A
100
AcDbEntity
  8
PV
  6
Continuous
 62
   254
100
AcDbLine
 10
29.425
 20
126.4929999999999
 30
0.0
 11
30.199
 21
126.94
 31
0.0
  0
LINE
  5
3C3
330
A
100
AcDbEntity
  8
PV
  6
Continuous
 62
   254
100
AcDbLine
 10
29.425
 20
108.386
 30
0.0
 11
30.199
 21
107.9389999999999
 31
0.0
  0
LINE
  5
3C4
330
A
100
AcDbEntity
  8
PV
  6
Continuous
 62
   254
100
AcDbLine
 10
23.24199999999999
 20
98.67600000000001
 30
0.0
 11
28.742
 21
108.2029999999999
 31
0.0
  0
LINE
  5
3C5
330
A
100
AcDbEntity
  8
PV
  6
Continuous
 62
   254
100
AcDbLine
 10
23.425
 20
97.993
 30
0.0
 11
24.199
 21
97.54600000000001
 31
0.0
  0
LINE
  5
3C6
330
A
100
AcDbEntity
  8
PV
  6
Continuous
 62
   254
100
AcDbLine
 10
7.742999999999999
 20
88.939
 30
0.0
 11
7.742999999999999
 21
88.046
 31
0.0
  0
LINE
  5
3C7
330
A
100
AcDbEntity
  8
PV
  6
Continuous
 62
   254
100
AcDbLine
 10
-3.756999999999999
 20
89.43899999999999
 30
0.0
 11
7.242999999999999
 21
89.43899999999999
 31
0.0
  0
LINE
  5
3C8
330
A
100
AcDbEntity
  8
PV
  6
Continuous
 62
   254
100
AcDbLine
 10
-4.256999999999999
 20
88.939
 30
0.0
 11
-4.256999999999999
 21
88.046
 31
0.0
  0
LINE
  5
3C9
330
A
100
AcDbEntity
  8
PV
  6
CENTER
 62
     7
100
AcDbLine
 10
1.743
 20
177.02
 30
0.0
 11
1.743
 21
59.85899999999999
 31
0.0
  0
LINE
  5
3CA
330
A
100
AcDbEntity
  8
PV
  6
CENTER
 62
     7
100
AcDbLine
 10
-111.515
 20
117.439
 30
0.0
 11
62.36299999999999
 21
117.439
 31
0.0
  0
POINT
  5
3CB
330
A
100
AcDbEntity
  8
PV
  6
Continuous
 62
     7
100
AcDbPoint
 10
-95.257
 20
159.9389999999999
 30
0.0
  0
POINT
  5
3CC
330
A
100
AcDbEntity
  8
PV
  6
Continuous
 62
     7
100
AcDbPoint
 10
-95.257
 20
164.939
 30
0.0
  0
POINT
  5
3CD
330
A
100
AcDbEntity
  8
PV
  6
Continuous
 62
     7
100
AcDbPoint
 10
-95.257
 20
74.939
 30
0.0
  0
POINT
  5
3CE
330
A
100
AcDbEntity
  8
PV
  6
Continuous
 62
     7
100
AcDbPoint
 10
-95.257
 20
69.939
 30
0.0
  0
POINT
  5
3CF
330
A
100
AcDbEntity
  8
PV
  6
Continuous
 62
     7
100
AcDbPoint
 10
-95.257
 20
-186.5
 30
0.0
  0
POINT
  5
3D0
330
A
100
AcDbEntity
  8
PV
  6
Continuous
 62
     7
100
AcDbPoint
 10
-95.257
 20
-191.5
 30
0.0
  0
POINT
  5
3D1
330
A
100
AcDbEntity
  8
PV
  6
Continuous
 62
     7
100
AcDbPoint
 10
-95.257
 20
-101.5
 30
0.0
  0
POINT
  5
3D2
330
A
100
AcDbEntity
  8
PV
  6
Continuous
 62
     7
100
AcDbPoint
 10
-95.257
 20
-96.5
 30
0.0
  0
POINT
  5
3D3
330
A
100
AcDbEntity
  8
PV
  6
Continuous
 62
     7
100
AcDbPoint
 10
-53.257
 20
-182.15
 30
0.0
  0
POINT
  5
3D4
330
A
100
AcDbEntity
  8
PV
  6
Continuous
 62
     7
100
AcDbPoint
 10
-53.257
 20
-182.15
 30
0.0
  0
ENDSEC
  0
SECTION
  2
OBJECTS
  0
DICTIONARY
  5
19
330
0
100
AcDbDictionary
281
     1
  3
ACAD_GROUP
350
1A
  3
ACAD_LAYOUT
350
1E
  3
ACAD_MLINESTYLE
350
1B
  3
ACAD_PLOTSETTINGS
350
22
  3
ACAD_PLOTSTYLENAME
350
1F
  0
DICTIONARY
  5
1A
102
{ACAD_REACTORS
330
19
102
}
330
19
100
AcDbDictionary
281
     1
  0
DICTIONARY
  5
1E
102
{ACAD_REACTORS
330
19
102
}
330
19
100
AcDbDictionary
281
     1
  3
Layout1
350
21
  3
Model
350
20
  0
DICTIONARY
  5
1B
102
{ACAD_REACTORS
330
19
102
}
330
19
100
AcDbDictionary
281
     1
  3
Standard
350
1C
  0
DICTIONARY
  5
22
102
{ACAD_REACTORS
330
19
102
}
330
19
100
AcDbDictionary
281
     1
  0
ACDBDICTIONARYWDFLT
  5
1F
102
{ACAD_REACTORS
330
19
102
}
330
19
100
AcDbDictionary
281
     1
  3
Normal
350
1D
100
AcDbDictionaryWithDefault
340
1D
  0
LAYOUT
  5
21
102
{ACAD_REACTORS
330
1E
102
}
330
1E
100
AcDbPlotSettings
  1

  2

  4

  6

 40
0.0
 41
0.0
 42
0.0
 43
0.0
 44
0.0
 45
0.0
 46
0.0
 47
0.0
 48
0.0
 49
0.0
140
0.0
141
0.0
142
1.0
143
1.0
 70
     0
 72
     0
 73
     0
 74
     0
  7

 75
     0
147
1.0
148
0.0
149
0.0
100
AcDbLayout
  1
Layout1
 70
     0
 71
     1
 10
0.0
 20
0.0
 11
12.0
 21
9.0
 12
0.0
 22
0.0
 32
0.0
 14
1.000000000000000E+20
 24
1.000000000000000E+20
 34
1.000000000000000E+20
 15
-1.000000000000000E+20
 25
-1.000000000000000E+20
 35
-1.000000000000000E+20
146
0.0
 13
0.0
 23
0.0
 33
0.0
 16
1.0
 26
0.0
 36
0.0
 17
0.0
 27
1.0
 37
0.0
 76
     0
330
B
  0
LAYOUT
  5
20
102
{ACAD_REACTORS
330
1E
102
}
330
1E
100
AcDbPlotSettings
  1

  2
Adobe PDF
  4
A4
  6

 40
3.174999952316284
 41
3.174999952316284
 42
3.175003051757812
 43
3.17498779296875
 44
209.9098358154297
 45
297.0318298339843
 46
0.0
 47
3.95
 48
0.0
 49
0.0
140
0.0
141
0.0
142
1.0
143
1.746132093404684
 70
 11284
 72
     1
 73
     0
 74
     2
  7

 75
     0
147
0.5726943590219205
148
230.8673569999999
149
279.429
100
AcDbLayout
  1
Model
 70
     0
 71
     0
 10
0.0
 20
0.0
 11
0.0
 21
0.0
 12
0.0
 22
0.0
 32
0.0
 14
0.0
 24
0.0
 34
0.0
 15
0.0
 25
0.0
 35
0.0
146
0.0
 13
0.0
 23
0.0
 33
0.0
 16
0.0
 26
0.0
 36
0.0
 17
0.0
 27
0.0
 37
0.0
 76
     0
330
A
  0
MLINESTYLE
  5
1C
102
{ACAD_REACTORS
330
1B
102
}
330
1B
100
AcDbMlineStyle
  2
STANDARD
 70
     0
  3

 62
     0
 51
90.0
 52
90.0
 71
     2
 49
0.5
 62
   256
  6
BYLAYER
 49
-0.5
 62
   256
  6
BYLAYER
  0
ACDBPLACEHOLDER
  5
1D
102
{ACAD_REACTORS
330
1F
102
}
330
1F
  0
ENDSEC
  0
EOF
