  0
SECTION
  2
HEADER
  9
$ACADVER
  1
AC1015
  9
$ACADMAINTVER
 70
    10
  9
$DWGCODEPAGE
  3
ANSI_932
  9
$INSBASE
 10
0.0
 20
0.0
 30
0.0
  9
$EXTMIN
 10
-243.7662619428301
 20
-258.199556247162
 30
-0.0015258207003583
  9
$EXTMAX
 10
289.1782644243953
 20
248.8172204830127
 30
0.0000000349246037
  9
$LIMMIN
 10
-243.75
 20
-258.184
  9
$LIMMAX
 10
289.162
 20
251.602
  9
$ORTHOMODE
 70
     0
  9
$REGENMODE
 70
     1
  9
$FILLMODE
 70
     1
  9
$QTEXTMODE
 70
     0
  9
$MIRRTEXT
 70
     1
  9
$LTSCALE
 40
0.3
  9
$ATTMODE
 70
     1
  9
$TEXTSIZE
 40
3.2
  9
$TRACEWID
 40
0.05
  9
$TEXTSTYLE
  7
MX_NOTE_STANDARD
  9
$CLAYER
  8
0
  9
$CELTYPE
  6
CONTINUOUS
  9
$CECOLOR
 62
   256
  9
$CELTSCALE
 40
1.0
  9
$DISPSILH
 70
     0
  9
$DIMSCALE
 40
1.0
  9
$DIMASZ
 40
2.5
  9
$DIMEXO
 40
2.54
  9
$DIMDLI
 40
3.75
  9
$DIMRND
 40
0.0
  9
$DIMDLE
 40
0.0
  9
$DIMEXE
 40
2.286
  9
$DIMTP
 40
0.0
  9
$DIMTM
 40
0.0
  9
$DIMTXT
 40
3.2
  9
$DIMCEN
 40
2.5
  9
$DIMTSZ
 40
0.0
  9
$DIMTOL
 70
     0
  9
$DIMLIM
 70
     0
  9
$DIMTIH
 70
     0
  9
$DIMTOH
 70
     0
  9
$DIMSE1
 70
     0
  9
$DIMSE2
 70
     0
  9
$DIMTAD
 70
     1
  9
$DIMZIN
 70
     8
  9
$DIMBLK
  1

  9
$DIMASO
 70
     1
  9
$DIMSHO
 70
     1
  9
$DIMPOST
  1

  9
$DIMAPOST
  1

  9
$DIMALT
 70
     0
  9
$DIMALTD
 70
     4
  9
$DIMALTF
 40
0.03937
  9
$DIMLFAC
 40
1.0
  9
$DIMTOFL
 70
     1
  9
$DIMTVP
 40
0.0
  9
$DIMTIX
 70
     0
  9
$DIMSOXD
 70
     0
  9
$DIMSAH
 70
     1
  9
$DIMBLK1
  1
OPEN30
  9
$DIMBLK2
  1
OPEN30
  9
$DIMSTYLE
  2
MXDIMSTYLE
  9
$DIMCLRD
 70
     0
  9
$DIMCLRE
 70
     0
  9
$DIMCLRT
 70
     0
  9
$DIMTFAC
 40
1.0
  9
$DIMGAP
 40
1.0
  9
$DIMJUST
 70
     0
  9
$DIMSD1
 70
     0
  9
$DIMSD2
 70
     0
  9
$DIMTOLJ
 70
     0
  9
$DIMTZIN
 70
     0
  9
$DIMALTZ
 70
     0
  9
$DIMALTTZ
 70
     0
  9
$DIMUPT
 70
     1
  9
$DIMDEC
 70
     2
  9
$DIMTDEC
 70
     2
  9
$DIMALTU
 70
     2
  9
$DIMALTTD
 70
     4
  9
$DIMTXSTY
  7
MX_NOTE_STANDARD
  9
$DIMAUNIT
 70
     0
  9
$DIMADEC
 70
     0
  9
$DIMALTRND
 40
0.0
  9
$DIMAZIN
 70
     0
  9
$DIMDSEP
 70
    46
  9
$DIMATFIT
 70
     3
  9
$DIMFRAC
 70
     0
  9
$DIMLDRBLK
  1
OPEN30
  9
$DIMLUNIT
 70
     2
  9
$DIMLWD
 70
    -2
  9
$DIMLWE
 70
    -2
  9
$DIMTMOVE
 70
     0
  9
$LUNITS
 70
     2
  9
$LUPREC
 70
     4
  9
$SKETCHINC
 40
0.1
  9
$FILLETRAD
 40
0.0
  9
$AUNITS
 70
     0
  9
$AUPREC
 70
     0
  9
$MENU
  1
acad
  9
$ELEVATION
 40
0.0
  9
$PELEVATION
 40
0.0
  9
$THICKNESS
 40
0.0
  9
$LIMCHECK
 70
     0
  9
$CHAMFERA
 40
0.0
  9
$CHAMFERB
 40
0.0
  9
$CHAMFERC
 40
0.0
  9
$CHAMFERD
 40
0.0
  9
$SKPOLY
 70
     0
  9
$TDCREATE
 40
2455289.620771076
  9
$TDUCREATE
 40
2455289.245771076
  9
$TDUPDATE
 40
2455289.646388159
  9
$TDUUPDATE
 40
2455289.271388159
  9
$TDINDWG
 40
0.0256179745
  9
$TDUSRTIMER
 40
0.0256179745
  9
$USRTIMER
 70
     1
  9
$ANGBASE
 50
0.0
  9
$ANGDIR
 70
     0
  9
$PDMODE
 70
     0
  9
$PDSIZE
 40
0.0
  9
$PLINEWID
 40
0.0
  9
$SPLFRAME
 70
     0
  9
$SPLINETYPE
 70
     6
  9
$SPLINESEGS
 70
     8
  9
$HANDSEED
  5
2BD
  9
$SURFTAB1
 70
     6
  9
$SURFTAB2
 70
     6
  9
$SURFTYPE
 70
     6
  9
$SURFU
 70
     6
  9
$SURFV
 70
     6
  9
$UCSBASE
  2

  9
$UCSNAME
  2

  9
$UCSORG
 10
0.0
 20
0.0
 30
0.0
  9
$UCSXDIR
 10
1.0
 20
0.0
 30
0.0
  9
$UCSYDIR
 10
0.0
 20
1.0
 30
0.0
  9
$UCSORTHOREF
  2

  9
$UCSORTHOVIEW
 70
     0
  9
$UCSORGTOP
 10
0.0
 20
0.0
 30
0.0
  9
$UCSORGBOTTOM
 10
0.0
 20
0.0
 30
0.0
  9
$UCSORGLEFT
 10
0.0
 20
0.0
 30
0.0
  9
$UCSORGRIGHT
 10
0.0
 20
0.0
 30
0.0
  9
$UCSORGFRONT
 10
0.0
 20
0.0
 30
0.0
  9
$UCSORGBACK
 10
0.0
 20
0.0
 30
0.0
  9
$PUCSBASE
  2

  9
$PUCSNAME
  2

  9
$PUCSORG
 10
0.0
 20
0.0
 30
0.0
  9
$PUCSXDIR
 10
1.0
 20
0.0
 30
0.0
  9
$PUCSYDIR
 10
0.0
 20
1.0
 30
0.0
  9
$PUCSORTHOREF
  2

  9
$PUCSORTHOVIEW
 70
     0
  9
$PUCSORGTOP
 10
0.0
 20
0.0
 30
0.0
  9
$PUCSORGBOTTOM
 10
0.0
 20
0.0
 30
0.0
  9
$PUCSORGLEFT
 10
0.0
 20
0.0
 30
0.0
  9
$PUCSORGRIGHT
 10
0.0
 20
0.0
 30
0.0
  9
$PUCSORGFRONT
 10
0.0
 20
0.0
 30
0.0
  9
$PUCSORGBACK
 10
0.0
 20
0.0
 30
0.0
  9
$USERI1
 70
     0
  9
$USERI2
 70
     0
  9
$USERI3
 70
     0
  9
$USERI4
 70
     0
  9
$USERI5
 70
     0
  9
$USERR1
 40
0.0
  9
$USERR2
 40
0.0
  9
$USERR3
 40
0.0
  9
$USERR4
 40
0.0
  9
$USERR5
 40
0.0
  9
$WORLDVIEW
 70
     1
  9
$SHADEDGE
 70
     3
  9
$SHADEDIF
 70
    70
  9
$TILEMODE
 70
     1
  9
$MAXACTVP
 70
    16
  9
$PINSBASE
 10
0.0
 20
0.0
 30
0.0
  9
$PLIMCHECK
 70
     0
  9
$PEXTMIN
 10
1.000000000000000E+20
 20
1.000000000000000E+20
 30
1.000000000000000E+20
  9
$PEXTMAX
 10
-1.000000000000000E+20
 20
-1.000000000000000E+20
 30
-1.000000000000000E+20
  9
$PLIMMIN
 10
0.0
 20
0.0
  9
$PLIMMAX
 10
12.0
 20
9.0
  9
$UNITMODE
 70
     0
  9
$VISRETAIN
 70
     0
  9
$PLINEGEN
 70
     1
  9
$PSLTSCALE
 70
     0
  9
$TREEDEPTH
 70
  3020
  9
$CMLSTYLE
  2
Standard
  9
$CMLJUST
 70
     0
  9
$CMLSCALE
 40
1.0
  9
$PROXYGRAPHICS
 70
     0
  9
$MEASUREMENT
 70
     1
  9
$CELWEIGHT
370
     0
  9
$ENDCAPS
280
     0
  9
$JOINSTYLE
280
     0
  9
$LWDISPLAY
290
     0
  9
$INSUNITS
 70
     0
  9
$HYPERLINKBASE
  1

  9
$STYLESHEET
  1

  9
$XEDIT
290
     1
  9
$CEPSNTYPE
380
     0
  9
$PSTYLEMODE
290
     1
  9
$FINGERPRINTGUID
  2

  9
$VERSIONGUID
  2
{39F512CD-CD55-4D9C-80EF-5427DEE0A977}
  9
$EXTNAMES
290
     1
  9
$PSVPSCALE
 40
0.0
  9
$OLESTARTUP
290
     0
  0
ENDSEC
  0
SECTION
  2
CLASSES
  0
CLASS
  1
LWPOLYLINE
  2
AcDbPolyline
  3
AutoCAD 2000
 90
    32768
280
     0
281
     1
  0
CLASS
  1
IMAGE
  2
AcDbRasterImage
  3
ISM
 90
    32895
280
     0
281
     1
  0
CLASS
  1
OLE2FRAME
  2
AcDbOle2Frame
  3
AutoCAD 2000
 90
    32768
280
     0
281
     1
  0
CLASS
  1
HATCH
  2
AcDbHatch
  3
AutoCAD 2000
 90
    32768
280
     0
281
     1
  0
CLASS
  1
DICTIONARYVAR
  2
AcDbDictionaryVar
  3
AutoCAD 2000
 90
    32768
280
     0
281
     0
  0
CLASS
  1
RASTERVARIABLES
  2
AcDbRasterVariables
  3
ISM
 90
    32768
280
     0
281
     0
  0
CLASS
  1
IMAGEDEF
  2
AcDbRasterImageDef
  3
ISM
 90
    32768
280
     0
281
     0
  0
CLASS
  1
IMAGEDEF_REACTOR
  2
AcDbRasterImageDefReactor
  3
ISM
 90
    32769
280
     0
281
     0
  0
CLASS
  1
IDBUFFER
  2
AcDbIdBuffer
  3
AutoCAD 2000
 90
    32768
280
     0
281
     0
  0
CLASS
  1
SPATIAL_FILTER
  2
AcDbSpatialFilter
  3
AutoCAD 2000
 90
    32768
280
     0
281
     0
  0
CLASS
  1
XRECORD
  2
AcDbXrecord
  3
AutoCAD 2000
 90
    32768
280
     0
281
     0
  0
CLASS
  1
SORTENTSTABLE
  2
AcDbSortentsTable
  3
AutoCAD 2000
 90
    32768
280
     0
281
     0
  0
CLASS
  1
LAYER_INDEX
  2
AcDbLayerIndex
  3
AutoCAD 2000
 90
    32768
280
     0
281
     0
  0
CLASS
  1
SPATIAL_INDEX
  2
AcDbSpatialIndex
  3
AutoCAD 2000
 90
    32768
280
     0
281
     0
  0
CLASS
  1
OBJECT_PTR
  2
CAseDLPNTableRecord
  3
"ASE-LPNTableRecord"
 90
    32769
280
     0
281
     0
  0
CLASS
  1
LAYOUT
  2
AcDbLayout
  3
AutoCAD 2000
 90
        0
280
     0
281
     0
  0
CLASS
  1
PLOTSETTINGS
  2
AcDbPlotSettings
  3
AutoCAD 2000
 90
    32768
280
     0
281
     0
  0
CLASS
  1
ACDBDICTIONARYWDFLT
  2
AcDbDictionaryWithDefault
  3
AutoCAD 2000
 90
        0
280
     0
281
     0
  0
CLASS
  1
ACDBPLACEHOLDER
  2
AcDbPlaceHolder
  3
AutoCAD 2000
 90
        0
280
     0
281
     0
  0
ENDSEC
  0
SECTION
  2
TABLES
  0
TABLE
  2
VPORT
  5
7
330
0
100
AcDbSymbolTable
 70
     2
  0
VPORT
  5
2BC
330
7
100
AcDbSymbolTableRecord
100
AcDbViewportTableRecord
  2
*Active
 70
     0
 10
0.0
 20
0.0
 11
1.0
 21
1.0
 12
67.14810968017514
 22
-3.709366163565562
 13
0.0
 23
0.0
 14
1.0
 24
1.0
 15
0.0
 25
0.0
 16
0.0
 26
0.0
 36
1.0
 17
0.0
 27
0.0
 37
0.0
 40
581.4264309571576
 41
1.535714285714285
 42
50.0
 43
0.0
 44
0.0
 50
0.0
 51
0.0
 71
     0
 72
   100
 73
     1
 74
     1
 75
     0
 76
     0
 77
     0
 78
     0
281
     0
 65
     0
110
0.0
120
0.0
130
0.0
111
1.0
121
0.0
131
0.0
112
0.0
122
1.0
132
0.0
 79
     0
146
0.0
  0
ENDTAB
  0
TABLE
  2
LTYPE
  5
4
330
0
100
AcDbSymbolTable
 70
     2
  0
LTYPE
  5
11
330
4
100
AcDbSymbolTableRecord
100
AcDbLinetypeTableRecord
  2
BYBLOCK
 70
     0
  3

 72
    65
 73
     0
 40
0.0
  0
LTYPE
  5
12
330
4
100
AcDbSymbolTableRecord
100
AcDbLinetypeTableRecord
  2
BYLAYER
 70
     0
  3

 72
    65
 73
     0
 40
0.0
  0
LTYPE
  5
13
330
4
100
AcDbSymbolTableRecord
100
AcDbLinetypeTableRecord
  2
CONTINUOUS
 70
     0
  3
Solid line
 72
    65
 73
     0
 40
0.0
  0
LTYPE
  5
224
330
4
100
AcDbSymbolTableRecord
100
AcDbLinetypeTableRecord
  2
CENTER
 70
     0
  3
Center ____ _ ____ _ ____ _ ____ _ ____ _ ____
 72
    65
 73
     4
 40
50.8
 49
31.75
 74
     0
 49
-6.349999999999999
 74
     0
 49
6.349999999999999
 74
     0
 49
-6.349999999999999
 74
     0
  0
ENDTAB
  0
TABLE
  2
LAYER
  5
2
330
0
100
AcDbSymbolTable
 70
     5
  0
LAYER
  5
14
330
2
100
AcDbSymbolTableRecord
100
AcDbLayerTableRecord
  2
0
 70
     0
 62
     7
  6
CONTINUOUS
370
    -3
390
1D
  0
LAYER
  5
23
330
2
100
AcDbSymbolTableRecord
100
AcDbLayerTableRecord
  2
CV
 70
     0
 62
     7
  6
CONTINUOUS
370
    -3
390
1D
  0
LAYER
  5
24
330
2
100
AcDbSymbolTableRecord
100
AcDbLayerTableRecord
  2
DEFPOINTS
 70
     0
 62
     7
  6
CONTINUOUS
290
     0
370
    -3
390
1D
  0
LAYER
  5
25
330
2
100
AcDbSymbolTableRecord
100
AcDbLayerTableRecord
  2
PV
 70
     0
 62
     7
  6
CONTINUOUS
370
    -3
390
1D
  0
LAYER
  5
26
330
2
100
AcDbSymbolTableRecord
100
AcDbLayerTableRecord
  2
WV
 70
     0
 62
     7
  6
CONTINUOUS
370
    -3
390
1D
  0
ENDTAB
  0
TABLE
  2
STYLE
  5
3
330
0
100
AcDbSymbolTable
 70
     3
  0
STYLE
  5
17
330
3
100
AcDbSymbolTableRecord
100
AcDbTextStyleTableRecord
  2
MX_NOTE_STANDARD
 70
     0
 40
0.0
 41
1.0
 50
0.0
 71
     0
 42
3.2
  3
txt.shx
  4
extfont.shx
  0
STYLE
  5
3A
330
3
100
AcDbSymbolTableRecord
100
AcDbTextStyleTableRecord
  2
MX_DIMTXSTY_2
 70
     0
 40
0.0
 41
0.9
 50
0.0
 71
     0
 42
3.2
  3
txt.shx
  4
extfont.shx
  0
STYLE
  5
2B8
330
3
100
AcDbSymbolTableRecord
100
AcDbTextStyleTableRecord
  2
Standard
 70
     0
 40
0.0
 41
1.0
 50
0.0
 71
     0
 42
0.2
  3

  4

  0
ENDTAB
  0
TABLE
  2
VIEW
  5
5
330
0
100
AcDbSymbolTable
 70
     0
  0
ENDTAB
  0
TABLE
  2
UCS
  5
6
330
0
100
AcDbSymbolTable
 70
     0
  0
ENDTAB
  0
TABLE
  2
APPID
  5
8
330
0
100
AcDbSymbolTable
 70
     1
  0
APPID
  5
16
330
8
100
AcDbSymbolTableRecord
100
AcDbRegAppTableRecord
  2
ACAD
 70
     0
  0
ENDTAB
  0
TABLE
  2
DIMSTYLE
  5
9
330
0
100
AcDbSymbolTable
 70
     1
100
AcDbDimStyleTable
 71
     0
  0
DIMSTYLE
105
18
102
{ACAD_REACTORS
330
3F
102
}
330
9
100
AcDbSymbolTableRecord
100
AcDbDimStyleTableRecord
  2
MXDIMSTYLE
 70
     0
 41
2.5
 42
2.54
 43
3.75
 44
2.286
 73
     0
 74
     0
 77
     1
 78
     8
140
3.2
141
2.5
143
0.03937
147
1.0
171
     4
172
     1
173
     1
271
     2
272
     2
274
     4
283
     0
288
     1
340
17
341
27
343
27
344
27
  0
ENDTAB
  0
TABLE
  2
BLOCK_RECORD
  5
1
330
0
100
AcDbSymbolTable
 70
     3
  0
BLOCK_RECORD
  5
A
330
1
100
AcDbSymbolTableRecord
100
AcDbBlockTableRecord
  2
*MODEL_SPACE
340
20
  0
BLOCK_RECORD
  5
B
330
1
100
AcDbSymbolTableRecord
100
AcDbBlockTableRecord
  2
*PAPER_SPACE
340
21
  0
BLOCK_RECORD
  5
27
330
1
100
AcDbSymbolTableRecord
100
AcDbBlockTableRecord
  2
_OPEN30
340
0
102
{BLKREFS
331
35
102
}
  0
BLOCK_RECORD
  5
30
330
1
100
AcDbSymbolTableRecord
100
AcDbBlockTableRecord
  2
*D1
340
0
  0
BLOCK_RECORD
  5
36
330
1
100
AcDbSymbolTableRecord
100
AcDbBlockTableRecord
  2
_NONE
340
0
  0
ENDTAB
  0
ENDSEC
  0
SECTION
  2
BLOCKS
  0
BLOCK
  5
D
330
A
100
AcDbEntity
  8
0
100
AcDbBlockBegin
  2
*MODEL_SPACE
 70
     0
 10
0.0
 20
0.0
 30
0.0
  3
*MODEL_SPACE
  1

  0
ENDBLK
  5
E
330
A
100
AcDbEntity
  8
0
100
AcDbBlockEnd
  0
BLOCK
  5
F
330
B
100
AcDbEntity
 67
     1
  8
0
100
AcDbBlockBegin
  2
*PAPER_SPACE
 70
     0
 10
0.0
 20
0.0
 30
0.0
  3
*PAPER_SPACE
  1

  0
ENDBLK
  5
10
330
B
100
AcDbEntity
 67
     1
  8
0
100
AcDbBlockEnd
  0
BLOCK
  5
28
330
27
100
AcDbEntity
  8
0
  6
ByBlock
 62
     0
370
    -2
100
AcDbBlockBegin
  2
_OPEN30
 70
     2
 10
0.0
 20
0.0
 30
0.0
  3
_OPEN30
  1

  0
LINE
  5
29
330
27
100
AcDbEntity
  8
0
  6
ByBlock
 62
     0
370
    -2
100
AcDbLine
 10
-1.0
 20
0.267949
 30
0.0
 11
0.0
 21
0.0
 31
0.0
  0
LINE
  5
2A
330
27
100
AcDbEntity
  8
0
  6
ByBlock
 62
     0
370
    -2
100
AcDbLine
 10
0.0
 20
0.0
 30
0.0
 11
-1.0
 21
-0.267949
 31
0.0
  0
LINE
  5
2B
330
27
100
AcDbEntity
  8
0
  6
ByBlock
 62
     0
370
    -2
100
AcDbLine
 10
0.0
 20
0.0
 30
0.0
 11
-1.0
 21
0.0
 31
0.0
  0
ENDBLK
  5
2C
330
27
100
AcDbEntity
  8
0
  6
ByBlock
 62
     0
370
    -2
100
AcDbBlockEnd
  0
BLOCK
  5
31
330
30
100
AcDbEntity
  8
0
  6
ByBlock
 62
     0
370
    -2
100
AcDbBlockBegin
  2
*D1
 70
     1
 10
0.0
 20
0.0
 30
0.0
  3
*D1
  1

  0
LINE
  5
32
330
30
100
AcDbEntity
  8
0
  6
Continuous
 62
     7
100
AcDbLine
 10
-216.0520399999999
 20
191.221786
 30
0.0
 11
-205.399147
 21
230.302193
 31
0.0
  0
LINE
  5
33
330
30
100
AcDbEntity
  8
0
  6
Continuous
 62
     7
100
AcDbLine
 10
-205.399147
 20
230.302193
 30
0.0
 11
-120.623602
 21
230.302193
 31
0.0
  0
LINE
  5
34
330
30
100
AcDbEntity
  8
0
  6
Continuous
 62
     7
100
AcDbLine
 10
-216.0520399999999
 20
191.221786
 30
0.0
 11
-214.3820319999999
 21
197.348251
 31
0.0
  0
INSERT
  5
35
330
30
100
AcDbEntity
  8
0
  6
Continuous
 62
     7
100
AcDbBlockReference
  2
_OPEN30
 10
-216.0520399999999
 20
191.221786
 30
0.0
 41
2.77
 42
2.77
 43
2.77
 50
254.75225
  0
MTEXT
  5
3B
330
30
100
AcDbEntity
  8
0
  6
Continuous
 62
     7
100
AcDbMText
 10
-161.699604
 20
235.5021929999999
 30
0.0
 40
8.4
 41
0.0
 71
     5
 72
     1
  1
\A1;4-12キリ（等配）
  7
MX_DIMTXSTY_2
 73
     1
 44
0.9
  0
POINT
  5
3C
330
30
100
AcDbEntity
  8
DEFPOINTS
  6
Continuous
 62
     0
100
AcDbPoint
 10
-216.0520399999999
 20
191.221786
 30
0.0
  0
POINT
  5
3D
330
30
100
AcDbEntity
  8
DEFPOINTS
  6
Continuous
 62
     0
100
AcDbPoint
 10
-219.20796
 20
179.6442139999999
 30
0.0
  0
ENDBLK
  5
3E
330
30
100
AcDbEntity
  8
0
  6
ByBlock
 62
     0
370
    -2
100
AcDbBlockEnd
  0
BLOCK
  5
37
330
36
100
AcDbEntity
  8
0
  6
ByBlock
 62
     0
370
    -2
100
AcDbBlockBegin
  2
_NONE
 70
     2
 10
0.0
 20
0.0
 30
0.0
  3
_NONE
  1

  0
CIRCLE
  5
38
330
36
100
AcDbEntity
  8
0
  6
ByBlock
 62
     0
370
    -2
100
AcDbCircle
 10
0.0
 20
0.0
 30
0.0
 40
0.25
  0
ENDBLK
  5
39
330
36
100
AcDbEntity
  8
0
  6
ByBlock
 62
     0
370
    -2
100
AcDbBlockEnd
  0
ENDSEC
  0
SECTION
  2
ENTITIES
  0
LEADER
  5
2D
330
A
100
AcDbEntity
  8
0
  6
Continuous
 62
     7
100
AcDbLeader
  3
MXDIMSTYLE
 74
     0
 76
     2
 10
198.874
 20
11.0
 30
0.0
 10
230.407293
 20
78.980355
 30
0.0
1001
ACAD
1000
DSTYLE
1002
{
1070
    41
1040
2.77
1002
}
  0
MTEXT
  5
2E
330
A
100
AcDbEntity
  8
0
  6
Continuous
 62
     7
100
AcDbMText
 10
236.4133379999999
 20
86.28035500000001
 30
0.0
 40
8.4
 41
0.0
 71
     4
 72
     1
  1
\W1.139;\A1;Rc 1/8
 73
     1
 44
0.9
  0
LEADER
  5
2F
330
A
100
AcDbEntity
  8
0
  6
Continuous
 62
     7
100
AcDbLeader
  3
MXDIMSTYLE
 74
     0
 76
     3
 10
198.874
 20
-34.5
 30
0.0
 10
230.407293
 20
78.980355
 30
0.0
 10
286.8133359999999
 20
78.980355
 30
0.0
1001
ACAD
1000
DSTYLE
1002
{
1070
    41
1040
2.77
1002
}
  0
DIMENSION
  5
3F
330
A
100
AcDbEntity
  8
0
  6
Continuous
 62
     7
100
AcDbDimension
  2
*D1
 10
-219.20796
 20
179.6442139999999
 30
0.0
 11
-161.699604
 21
230.302193
 31
0.0
 70
   131
  1
4-<>
 71
     5
 41
0.9
 42
12.0
  3
MXDIMSTYLE
100
AcDbDiametricDimension
 15
-216.0520399999999
 25
191.221786
 35
0.0
 40
0.0
1001
ACAD
1000
DSTYLE
1002
{
1070
     6
1000
_NONE
1070
    41
1040
2.77
1070
    73
1070
     1
1070
    74
1070
     1
1070
   140
1040
8.4
1070
   141
1040
0.0
1070
   172
1070
     0
1070
   271
1070
     0
1070
   284
1070
     8
1070
   340
1005
3A
1070
   343
1005
36
1002
}
  0
LINE
  5
40
330
A
100
AcDbEntity
  8
PV
  6
Continuous
 62
     7
100
AcDbLine
 10
110.7179999999999
 20
193.8509999999999
 30
0.0
 11
111.832
 21
198.0059999999999
 31
0.0
  0
LINE
  5
41
330
A
100
AcDbEntity
  8
PV
  6
Continuous
 62
     7
100
AcDbLine
 10
111.832
 20
198.0059999999999
 30
0.0
 11
112.945
 21
193.8509999999999
 31
0.0
  0
LINE
  5
42
330
A
100
AcDbEntity
  8
PV
  6
Continuous
 62
     7
100
AcDbLine
 10
111.832
 20
198.0059999999999
 30
0.0
 11
111.832
 21
193.8509999999999
 31
0.0
  0
LINE
  5
43
330
A
100
AcDbEntity
  8
PV
  6
Continuous
 62
     7
100
AcDbLine
 10
112.945
 20
92.161
 30
0.0
 11
111.832
 21
88.00600000000001
 31
0.0
  0
LINE
  5
44
330
A
100
AcDbEntity
  8
PV
  6
Continuous
 62
     7
100
AcDbLine
 10
111.832
 20
88.00600000000001
 30
0.0
 11
110.7179999999999
 21
92.161
 31
0.0
  0
LINE
  5
45
330
A
100
AcDbEntity
  8
PV
  6
Continuous
 62
     7
100
AcDbLine
 10
111.832
 20
88.00600000000001
 30
0.0
 11
111.832
 21
92.161
 31
0.0
  0
LINE
  5
46
330
A
100
AcDbEntity
  8
PV
  6
Continuous
 62
     7
100
AcDbLine
 10
111.832
 20
198.0059999999999
 30
0.0
 11
111.832
 21
88.00600000000001
 31
0.0
  0
LINE
  5
47
330
A
100
AcDbEntity
  8
PV
  6
Continuous
 62
     7
100
AcDbLine
 10
50.684
 20
198.0059999999999
 30
0.0
 11
115.261
 21
198.0059999999999
 31
0.0
  0
LINE
  5
48
330
A
100
AcDbEntity
  8
PV
  6
Continuous
 62
     7
100
AcDbLine
 10
50.684
 20
88.00600000000001
 30
0.0
 11
115.261
 21
88.00600000000001
 31
0.0
  0
MTEXT
  5
49
330
A
100
AcDbEntity
  8
PV
  6
Continuous
 62
     7
100
AcDbMText
 10
101.732
 20
143.006
 30
0.0
 40
8.4
 41
0.0
 71
     2
 72
     1
  1
\A1;□110
 11
0.0
 21
1.0
 31
0.0
 73
     1
 44
1.0
  0
POINT
  5
4A
330
A
100
AcDbEntity
  8
PV
  6
Continuous
 62
     7
100
AcDbPoint
 10
46.87399999999999
 20
198.0059999999999
 30
0.0
  0
POINT
  5
4B
330
A
100
AcDbEntity
  8
PV
  6
Continuous
 62
     7
100
AcDbPoint
 10
46.87399999999999
 20
88.00600000000001
 30
0.0
  0
POINT
  5
4C
330
A
100
AcDbEntity
  8
PV
  6
Continuous
 62
     7
100
AcDbPoint
 10
111.832
 20
88.00600000000001
 30
0.0
  0
SOLID
  5
4D
330
A
100
AcDbEntity
  8
PV
  6
Continuous
 62
     7
100
AcDbTrace
 10
-20.954
 20
170.7069999999999
 30
0.0
 11
-20.277
 21
170.7069999999999
 31
0.0
 12
-20.954
 22
174.0879999999999
 32
0.0
 13
-20.277
 23
174.0879999999999
 33
0.0
  0
SOLID
  5
4E
330
A
100
AcDbEntity
  8
PV
  6
Continuous
 62
     7
100
AcDbTrace
 10
-26.194
 20
170.7069999999999
 30
0.0
 11
-25.517
 21
170.7069999999999
 31
0.0
 12
-26.194
 22
174.0879999999999
 32
0.0
 13
-25.517
 23
174.0879999999999
 33
0.0
  0
SOLID
  5
4F
330
A
100
AcDbEntity
  8
PV
  6
Continuous
 62
     7
100
AcDbTrace
 10
-5.202999999999999
 20
178.959
 30
0.0
 11
-2.862
 21
178.959
 31
0.0
 12
-5.202999999999999
 22
184.319
 32
0.0
 13
-2.862
 23
184.319
 33
0.0
  0
MTEXT
  5
50
330
A
100
AcDbEntity
  8
PV
  6
Continuous
 62
     7
100
AcDbMText
 10
-1.675
 20
110.1115
 30
0.0
 40
2.265
 41
0.0
 71
     2
 72
     1
  1
\W0.980;\A1;MADE IN JAPAN
 73
     1
 44
1.0
  0
MTEXT
  5
51
330
A
100
AcDbEntity
  8
PV
  6
Continuous
 62
     7
100
AcDbMText
 10
-0.5770000000000001
 20
121.111
 30
0.0
 40
3.926
 41
0.0
 71
     2
 72
     1
  1
\W0.930;\A1;METAL BELLOWS
 73
     1
 44
1.0
  0
MTEXT
  5
52
330
A
100
AcDbEntity
  8
PV
  6
Continuous
 62
     7
100
AcDbMText
 10
-1.120999999999999
 20
131.057
 30
0.0
 40
3.926
 41
0.0
 71
     2
 72
     1
  1
\W0.925;\A1;HIGH VACUUM VALVES
 73
     1
 44
1.0
  0
CIRCLE
  5
53
330
A
100
AcDbEntity
  8
PV
  6
Continuous
 62
     7
100
AcDbCircle
 10
-1.125999999999999
 20
143.006
 30
0.0
 40
47.188
  0
CIRCLE
  5
54
330
A
100
AcDbEntity
  8
PV
  6
Continuous
 62
     7
100
AcDbCircle
 10
-1.125999999999999
 20
143.006
 30
0.0
 40
47.56499999999999
  0
ARC
  5
55
330
A
100
AcDbEntity
  8
PV
  6
Continuous
 62
   254
100
AcDbCircle
 10
22.48699999999999
 20
172.397
 30
0.0
 40
1.689999999999999
100
AcDbArc
 50
359.999996
 51
90.00003000000001
  0
ARC
  5
56
330
A
100
AcDbEntity
  8
PV
  6
Continuous
 62
   254
100
AcDbCircle
 10
22.48699999999999
 20
172.397
 30
0.0
 40
1.014
100
AcDbArc
 50
359.999996
 51
90.00003000000001
  0
ARC
  5
57
330
A
100
AcDbEntity
  8
PV
  6
Continuous
 62
   254
100
AcDbCircle
 10
10.317
 20
172.397
 30
0.0
 40
1.689999999999999
100
AcDbArc
 50
359.999996
 51
89.999975
  0
ARC
  5
58
330
A
100
AcDbEntity
  8
PV
  6
Continuous
 62
   254
100
AcDbCircle
 10
10.317
 20
172.397
 30
0.0
 40
1.014
100
AcDbArc
 50
359.999996
 51
89.999975
  0
ARC
  5
59
330
A
100
AcDbEntity
  8
PV
  6
Continuous
 62
   254
100
AcDbCircle
 10
9.978999999999999
 20
172.397
 30
0.0
 40
1.014
100
AcDbArc
 50
179.999978
 51
270.000001
  0
ARC
  5
5A
330
A
100
AcDbEntity
  8
PV
  6
Continuous
 62
   254
100
AcDbCircle
 10
9.978999999999999
 20
172.397
 30
0.0
 40
1.689999999999999
100
AcDbArc
 50
179.999978
 51
270.000001
  0
ARC
  5
5B
330
A
100
AcDbEntity
  8
PV
  6
Continuous
 62
   254
100
AcDbCircle
 10
-9.628999999999999
 20
172.397
 30
0.0
 40
1.689999999999999
100
AcDbArc
 50
179.999978
 51
270.000001
  0
ARC
  5
5C
330
A
100
AcDbEntity
  8
PV
  6
Continuous
 62
   254
100
AcDbCircle
 10
-9.628999999999999
 20
172.397
 30
0.0
 40
1.014
100
AcDbArc
 50
179.999978
 51
270.000001
  0
ARC
  5
5D
330
A
100
AcDbEntity
  8
PV
  6
Continuous
 62
   254
100
AcDbCircle
 10
-9.291
 20
172.397
 30
0.0
 40
1.014
100
AcDbArc
 50
359.999996
 51
89.999975
  0
ARC
  5
5E
330
A
100
AcDbEntity
  8
PV
  6
Continuous
 62
   254
100
AcDbCircle
 10
-9.291
 20
172.397
 30
0.0
 40
1.689999999999999
100
AcDbArc
 50
359.999996
 51
89.999975
  0
ARC
  5
5F
330
A
100
AcDbEntity
  8
PV
  6
Continuous
 62
   254
100
AcDbCircle
 10
-22.475
 20
173.0729999999999
 30
0.0
 40
1.014
100
AcDbArc
 50
359.999996
 51
89.999975
  0
ARC
  5
60
330
A
100
AcDbEntity
  8
PV
  6
Continuous
 62
   254
100
AcDbCircle
 10
-22.475
 20
173.0729999999999
 30
0.0
 40
0.338
100
AcDbArc
 50
359.999996
 51
89.999975
  0
ARC
  5
61
330
A
100
AcDbEntity
  8
PV
  6
Continuous
 62
   254
100
AcDbCircle
 10
6.428999999999999
 20
172.397
 30
0.0
 40
1.014
100
AcDbArc
 50
89.999975
 51
270.000001
  0
ARC
  5
62
330
A
100
AcDbEntity
  8
PV
  6
Continuous
 62
   254
100
AcDbCircle
 10
6.428999999999999
 20
172.397
 30
0.0
 40
1.689999999999999
100
AcDbArc
 50
89.999975
 51
270.000001
  0
ARC
  5
63
330
A
100
AcDbEntity
  8
PV
  6
Continuous
 62
   254
100
AcDbCircle
 10
22.48699999999999
 20
172.397
 30
0.0
 40
1.014
100
AcDbArc
 50
270.0000109999999
 51
359.999996
  0
ARC
  5
64
330
A
100
AcDbEntity
  8
PV
  6
Continuous
 62
   254
100
AcDbCircle
 10
22.48699999999999
 20
172.397
 30
0.0
 40
1.689999999999999
100
AcDbArc
 50
270.0000109999999
 51
359.999996
  0
ARC
  5
65
330
A
100
AcDbEntity
  8
PV
  6
Continuous
 62
   254
100
AcDbCircle
 10
15.557
 20
172.059
 30
0.0
 40
0.676
100
AcDbArc
 50
179.999978
 51
270.000001
  0
ARC
  5
66
330
A
100
AcDbEntity
  8
PV
  6
Continuous
 62
   254
100
AcDbCircle
 10
15.557
 20
172.059
 30
0.0
 40
1.351999999999999
100
AcDbArc
 50
179.999978
 51
270.000001
  0
CIRCLE
  5
67
330
A
100
AcDbEntity
  8
PV
  6
Continuous
 62
   254
100
AcDbCircle
 10
12.345
 20
171.13
 30
0.0
 40
0.423
  0
ARC
  5
68
330
A
100
AcDbEntity
  8
PV
  6
Continuous
 62
   254
100
AcDbCircle
 10
13.427
 20
171.13
 30
0.0
 40
0.423
100
AcDbArc
 50
319.9999189999999
 51
241.536827
  0
ARC
  5
69
330
A
100
AcDbEntity
  8
PV
  6
Continuous
 62
   254
100
AcDbCircle
 10
-9.291
 20
172.397
 30
0.0
 40
1.014
100
AcDbArc
 50
270.0000109999999
 51
359.999996
  0
ARC
  5
6A
330
A
100
AcDbEntity
  8
PV
  6
Continuous
 62
   254
100
AcDbCircle
 10
-9.628999999999999
 20
172.397
 30
0.0
 40
1.014
100
AcDbArc
 50
89.999975
 51
179.99995
  0
ARC
  5
6B
330
A
100
AcDbEntity
  8
PV
  6
Continuous
 62
   254
100
AcDbCircle
 10
-9.291
 20
172.397
 30
0.0
 40
1.689999999999999
100
AcDbArc
 50
270.0000109999999
 51
359.999996
  0
ARC
  5
6C
330
A
100
AcDbEntity
  8
PV
  6
Continuous
 62
   254
100
AcDbCircle
 10
-9.628999999999999
 20
172.397
 30
0.0
 40
1.689999999999999
100
AcDbArc
 50
89.999975
 51
179.99995
  0
ARC
  5
6D
330
A
100
AcDbEntity
  8
PV
  6
Continuous
 62
   254
100
AcDbCircle
 10
1.695999999999999
 20
172.5659999999999
 30
0.0
 40
0.8449999999999999
100
AcDbArc
 50
359.999996
 51
89.999975
  0
ARC
  5
6E
330
A
100
AcDbEntity
  8
PV
  6
Continuous
 62
   254
100
AcDbCircle
 10
1.358
 20
172.5659999999999
 30
0.0
 40
0.8449999999999999
100
AcDbArc
 50
89.999975
 51
179.99995
  0
ARC
  5
6F
330
A
100
AcDbEntity
  8
PV
  6
Continuous
 62
   254
100
AcDbCircle
 10
1.695999999999999
 20
172.5659999999999
 30
0.0
 40
1.520999999999999
100
AcDbArc
 50
359.999996
 51
89.999975
  0
ARC
  5
70
330
A
100
AcDbEntity
  8
PV
  6
Continuous
 62
   254
100
AcDbCircle
 10
1.358
 20
172.5659999999999
 30
0.0
 40
1.520999999999999
100
AcDbArc
 50
89.999975
 51
179.99995
  0
ARC
  5
71
330
A
100
AcDbEntity
  8
PV
  6
Continuous
 62
   254
100
AcDbCircle
 10
-18.249
 20
172.397
 30
0.0
 40
1.014
100
AcDbArc
 50
199.471211
 51
270.0000109999999
  0
ARC
  5
72
330
A
100
AcDbEntity
  8
PV
  6
Continuous
 62
   254
100
AcDbCircle
 10
-18.249
 20
172.397
 30
0.0
 40
1.014
100
AcDbArc
 50
89.999975
 51
160.528775
  0
ARC
  5
73
330
A
100
AcDbEntity
  8
PV
  6
Continuous
 62
   254
100
AcDbCircle
 10
-18.249
 20
172.397
 30
0.0
 40
1.689999999999999
100
AcDbArc
 50
89.999975
 51
270.000001
  0
ARC
  5
74
330
A
100
AcDbEntity
  8
PV
  6
Continuous
 62
   254
100
AcDbCircle
 10
10.317
 20
172.397
 30
0.0
 40
1.014
100
AcDbArc
 50
270.0000109999999
 51
359.999996
  0
ARC
  5
75
330
A
100
AcDbEntity
  8
PV
  6
Continuous
 62
   254
100
AcDbCircle
 10
9.978999999999999
 20
172.397
 30
0.0
 40
1.014
100
AcDbArc
 50
89.999975
 51
179.99995
  0
ARC
  5
76
330
A
100
AcDbEntity
  8
PV
  6
Continuous
 62
   254
100
AcDbCircle
 10
10.317
 20
172.397
 30
0.0
 40
1.689999999999999
100
AcDbArc
 50
270.0000109999999
 51
359.999996
  0
ARC
  5
77
330
A
100
AcDbEntity
  8
PV
  6
Continuous
 62
   254
100
AcDbCircle
 10
9.978999999999999
 20
172.397
 30
0.0
 40
1.689999999999999
100
AcDbArc
 50
89.999975
 51
179.99995
  0
ARC
  5
78
330
A
100
AcDbEntity
  8
PV
  6
Continuous
 62
   254
100
AcDbCircle
 10
-2.190999999999999
 20
172.397
 30
0.0
 40
1.014
100
AcDbArc
 50
199.471211
 51
270.0000109999999
  0
ARC
  5
79
330
A
100
AcDbEntity
  8
PV
  6
Continuous
 62
   254
100
AcDbCircle
 10
-2.190999999999999
 20
172.397
 30
0.0
 40
1.014
100
AcDbArc
 50
89.999975
 51
160.528775
  0
ARC
  5
7A
330
A
100
AcDbEntity
  8
PV
  6
Continuous
 62
   254
100
AcDbCircle
 10
-2.190999999999999
 20
172.397
 30
0.0
 40
1.689999999999999
100
AcDbArc
 50
89.999975
 51
270.000001
  0
ARC
  5
7B
330
A
100
AcDbEntity
  8
PV
  6
Continuous
 62
   254
100
AcDbCircle
 10
-22.475
 20
173.0729999999999
 30
0.0
 40
0.338
100
AcDbArc
 50
270.0000109999999
 51
359.999996
  0
ARC
  5
7C
330
A
100
AcDbEntity
  8
PV
  6
Continuous
 62
   254
100
AcDbCircle
 10
-22.475
 20
173.0729999999999
 30
0.0
 40
1.014
100
AcDbArc
 50
273.7218359999999
 51
359.999996
  0
ARC
  5
7D
330
A
100
AcDbEntity
  8
PV
  6
Continuous
 62
     7
100
AcDbCircle
 10
7.028999999999999
 20
181.639
 30
0.0
 40
1.509999999999999
100
AcDbArc
 50
269.9999969999999
 51
90.00000300000001
  0
ARC
  5
7E
330
A
100
AcDbEntity
  8
PV
  6
Continuous
 62
     7
100
AcDbCircle
 10
7.028999999999999
 20
181.639
 30
0.0
 40
1.509999999999999
100
AcDbArc
 50
90.00000300000001
 51
270.000001
  0
ARC
  5
7F
330
A
100
AcDbEntity
  8
PV
  6
Continuous
 62
     7
100
AcDbCircle
 10
4.725999999999999
 20
181.639
 30
0.0
 40
2.68
100
AcDbArc
 50
34.225552
 51
325.774451
  0
ARC
  5
80
330
A
100
AcDbEntity
  8
PV
  6
Continuous
 62
     7
100
AcDbCircle
 10
-0.182
 20
181.639
 30
0.0
 40
1.471999999999999
100
AcDbArc
 50
269.9999969999999
 51
90.00000300000001
  0
ARC
  5
81
330
A
100
AcDbEntity
  8
PV
  6
Continuous
 62
     7
100
AcDbCircle
 10
-0.182
 20
181.639
 30
0.0
 40
1.471999999999999
100
AcDbArc
 50
90.00000300000001
 51
270.000001
  0
ARC
  5
82
330
A
100
AcDbEntity
  8
PV
  6
Continuous
 62
     7
100
AcDbCircle
 10
-0.182
 20
181.639
 30
0.0
 40
2.68
100
AcDbArc
 50
90.00000300000001
 51
270.000001
  0
ARC
  5
83
330
A
100
AcDbEntity
  8
PV
  6
Continuous
 62
     7
100
AcDbCircle
 10
-7.671
 20
182.8849999999999
 30
0.0
 40
1.435
100
AcDbArc
 50
179.9999909999999
 51
0.00001
  0
ARC
  5
84
330
A
100
AcDbEntity
  8
PV
  6
Continuous
 62
     7
100
AcDbCircle
 10
-7.671
 20
182.8849999999999
 30
0.0
 40
1.435
100
AcDbArc
 50
0.0
 51
180.000005
  0
LINE
  5
85
330
A
100
AcDbEntity
  8
PV
  6
Continuous
 62
   254
100
AcDbLine
 10
-9.628999999999999
 20
173.4109999999999
 30
0.0
 11
-9.291
 21
173.4109999999999
 31
0.0
  0
LINE
  5
86
330
A
100
AcDbEntity
  8
PV
  6
Continuous
 62
   254
100
AcDbLine
 10
21.304
 20
172.397
 30
0.0
 11
21.304
 21
171.3829999999999
 31
0.0
  0
LINE
  5
87
330
A
100
AcDbEntity
  8
PV
  6
Continuous
 62
   254
100
AcDbLine
 10
20.628
 20
172.397
 30
0.0
 11
20.628
 21
170.7069999999999
 31
0.0
  0
LINE
  5
88
330
A
100
AcDbEntity
  8
PV
  6
Continuous
 62
   254
100
AcDbLine
 10
-24.165
 20
173.0729999999999
 30
0.0
 11
-24.165
 21
172.735
 31
0.0
  0
LINE
  5
89
330
A
100
AcDbEntity
  8
PV
  6
Continuous
 62
   254
100
AcDbLine
 10
-24.84099999999999
 20
173.0729999999999
 30
0.0
 11
-24.84099999999999
 21
170.7069999999999
 31
0.0
  0
LINE
  5
8A
330
A
100
AcDbEntity
  8
PV
  6
Continuous
 62
   254
100
AcDbLine
 10
21.304
 20
173.4109999999999
 30
0.0
 11
21.304
 21
172.397
 31
0.0
  0
LINE
  5
8B
330
A
100
AcDbEntity
  8
PV
  6
Continuous
 62
   254
100
AcDbLine
 10
21.304
 20
171.3829999999999
 30
0.0
 11
22.48699999999999
 21
171.3829999999999
 31
0.0
  0
LINE
  5
8C
330
A
100
AcDbEntity
  8
PV
  6
Continuous
 62
   254
100
AcDbLine
 10
20.628
 20
174.0879999999999
 30
0.0
 11
20.628
 21
172.397
 31
0.0
  0
LINE
  5
8D
330
A
100
AcDbEntity
  8
PV
  6
Continuous
 62
   254
100
AcDbLine
 10
18.261
 20
170.7069999999999
 30
0.0
 11
18.937
 21
170.7069999999999
 31
0.0
  0
LINE
  5
8E
330
A
100
AcDbEntity
  8
PV
  6
Continuous
 62
   254
100
AcDbLine
 10
18.937
 20
173.4109999999999
 30
0.0
 11
20.28999999999999
 21
173.4109999999999
 31
0.0
  0
LINE
  5
8F
330
A
100
AcDbEntity
  8
PV
  6
Continuous
 62
   254
100
AcDbLine
 10
20.628
 20
174.0879999999999
 30
0.0
 11
22.48699999999999
 21
174.0879999999999
 31
0.0
  0
LINE
  5
90
330
A
100
AcDbEntity
  8
PV
  6
Continuous
 62
   254
100
AcDbLine
 10
21.304
 20
173.4109999999999
 30
0.0
 11
22.48699999999999
 21
173.4109999999999
 31
0.0
  0
LINE
  5
91
330
A
100
AcDbEntity
  8
PV
  6
Continuous
 62
   254
100
AcDbLine
 10
18.261
 20
173.4109999999999
 30
0.0
 11
18.261
 21
170.7069999999999
 31
0.0
  0
LINE
  5
92
330
A
100
AcDbEntity
  8
PV
  6
Continuous
 62
   254
100
AcDbLine
 10
18.937
 20
173.4109999999999
 30
0.0
 11
18.937
 21
170.7069999999999
 31
0.0
  0
LINE
  5
93
330
A
100
AcDbEntity
  8
PV
  6
Continuous
 62
   254
100
AcDbLine
 10
16.909
 20
173.4109999999999
 30
0.0
 11
18.261
 21
173.4109999999999
 31
0.0
  0
LINE
  5
94
330
A
100
AcDbEntity
  8
PV
  6
Continuous
 62
   254
100
AcDbLine
 10
20.28999999999999
 20
174.0879999999999
 30
0.0
 11
20.28999999999999
 21
173.4109999999999
 31
0.0
  0
LINE
  5
95
330
A
100
AcDbEntity
  8
PV
  6
Continuous
 62
   254
100
AcDbLine
 10
16.909
 20
174.0879999999999
 30
0.0
 11
16.909
 21
173.4109999999999
 31
0.0
  0
LINE
  5
96
330
A
100
AcDbEntity
  8
PV
  6
Continuous
 62
   254
100
AcDbLine
 10
16.909
 20
174.0879999999999
 30
0.0
 11
20.28999999999999
 21
174.0879999999999
 31
0.0
  0
LINE
  5
97
330
A
100
AcDbEntity
  8
PV
  6
Continuous
 62
   254
100
AcDbLine
 10
14.205
 20
174.0879999999999
 30
0.0
 11
14.881
 21
174.0879999999999
 31
0.0
  0
LINE
  5
98
330
A
100
AcDbEntity
  8
PV
  6
Continuous
 62
   254
100
AcDbLine
 10
20.628
 20
170.7069999999999
 30
0.0
 11
22.48699999999999
 21
170.7069999999999
 31
0.0
  0
LINE
  5
99
330
A
100
AcDbEntity
  8
PV
  6
Continuous
 62
   254
100
AcDbLine
 10
15.557
 20
171.3829999999999
 30
0.0
 11
17.247
 21
171.3829999999999
 31
0.0
  0
LINE
  5
9A
330
A
100
AcDbEntity
  8
PV
  6
Continuous
 62
   254
100
AcDbLine
 10
14.881
 20
174.0879999999999
 30
0.0
 11
14.881
 21
172.059
 31
0.0
  0
LINE
  5
9B
330
A
100
AcDbEntity
  8
PV
  6
Continuous
 62
   254
100
AcDbLine
 10
17.247
 20
171.3829999999999
 30
0.0
 11
17.247
 21
170.7069999999999
 31
0.0
  0
LINE
  5
9C
330
A
100
AcDbEntity
  8
PV
  6
Continuous
 62
   254
100
AcDbLine
 10
14.205
 20
174.0879999999999
 30
0.0
 11
14.205
 21
172.059
 31
0.0
  0
LINE
  5
9D
330
A
100
AcDbEntity
  8
PV
  6
Continuous
 62
   254
100
AcDbLine
 10
12.94
 20
170.4169999999999
 30
0.0
 11
13.199
 21
170.1999999999999
 31
0.0
  0
LINE
  5
9E
330
A
100
AcDbEntity
  8
PV
  6
Continuous
 62
   254
100
AcDbLine
 10
12.94
 20
170.4169999999999
 30
0.0
 11
13.22599999999999
 21
170.7579999999999
 31
0.0
  0
LINE
  5
9F
330
A
100
AcDbEntity
  8
PV
  6
Continuous
 62
   254
100
AcDbLine
 10
13.199
 20
170.1999999999999
 30
0.0
 11
13.75099999999999
 21
170.8579999999999
 31
0.0
  0
LINE
  5
A0
330
A
100
AcDbEntity
  8
PV
  6
Continuous
 62
   254
100
AcDbLine
 10
-9.628999999999999
 20
171.3829999999999
 30
0.0
 11
-9.291
 21
171.3829999999999
 31
0.0
  0
LINE
  5
A1
330
A
100
AcDbEntity
  8
PV
  6
Continuous
 62
   254
100
AcDbLine
 10
-9.628999999999999
 20
174.0879999999999
 30
0.0
 11
-9.291
 21
174.0879999999999
 31
0.0
  0
LINE
  5
A2
330
A
100
AcDbEntity
  8
PV
  6
Continuous
 62
   254
100
AcDbLine
 10
-9.628999999999999
 20
170.7069999999999
 30
0.0
 11
-9.291
 21
170.7069999999999
 31
0.0
  0
LINE
  5
A3
330
A
100
AcDbEntity
  8
PV
  6
Continuous
 62
   254
100
AcDbLine
 10
2.541999999999999
 20
170.7069999999999
 30
0.0
 11
3.217999999999999
 21
170.7069999999999
 31
0.0
  0
LINE
  5
A4
330
A
100
AcDbEntity
  8
PV
  6
Continuous
 62
   254
100
AcDbLine
 10
2.541999999999999
 20
172.5659999999999
 30
0.0
 11
2.541999999999999
 21
170.7069999999999
 31
0.0
  0
LINE
  5
A5
330
A
100
AcDbEntity
  8
PV
  6
Continuous
 62
   254
100
AcDbLine
 10
0.513
 20
172.5659999999999
 30
0.0
 11
0.513
 21
170.7069999999999
 31
0.0
  0
LINE
  5
A6
330
A
100
AcDbEntity
  8
PV
  6
Continuous
 62
   254
100
AcDbLine
 10
1.358
 20
173.4109999999999
 30
0.0
 11
1.695999999999999
 21
173.4109999999999
 31
0.0
  0
LINE
  5
A7
330
A
100
AcDbEntity
  8
PV
  6
Continuous
 62
   254
100
AcDbLine
 10
3.217999999999999
 20
172.5659999999999
 30
0.0
 11
3.217999999999999
 21
170.7069999999999
 31
0.0
  0
LINE
  5
A8
330
A
100
AcDbEntity
  8
PV
  6
Continuous
 62
   254
100
AcDbLine
 10
-0.163
 20
172.5659999999999
 30
0.0
 11
-0.163
 21
170.7069999999999
 31
0.0
  0
LINE
  5
A9
330
A
100
AcDbEntity
  8
PV
  6
Continuous
 62
   254
100
AcDbLine
 10
1.358
 20
174.0879999999999
 30
0.0
 11
1.695999999999999
 21
174.0879999999999
 31
0.0
  0
LINE
  5
AA
330
A
100
AcDbEntity
  8
PV
  6
Continuous
 62
   254
100
AcDbLine
 10
-0.159
 20
170.7069999999999
 30
0.0
 11
0.513
 21
170.7069999999999
 31
0.0
  0
LINE
  5
AB
330
A
100
AcDbEntity
  8
PV
  6
Continuous
 62
   254
100
AcDbLine
 10
15.557
 20
170.7069999999999
 30
0.0
 11
17.247
 21
170.7069999999999
 31
0.0
  0
LINE
  5
AC
330
A
100
AcDbEntity
  8
PV
  6
Continuous
 62
   254
100
AcDbLine
 10
8.119999999999999
 20
173.4109999999999
 30
0.0
 11
8.119999999999999
 21
174.0879999999999
 31
0.0
  0
LINE
  5
AD
330
A
100
AcDbEntity
  8
PV
  6
Continuous
 62
   254
100
AcDbLine
 10
6.428999999999999
 20
173.4109999999999
 30
0.0
 11
8.119999999999999
 21
173.4109999999999
 31
0.0
  0
LINE
  5
AE
330
A
100
AcDbEntity
  8
PV
  6
Continuous
 62
   254
100
AcDbLine
 10
6.428999999999999
 20
171.3829999999999
 30
0.0
 11
8.119999999999999
 21
171.3829999999999
 31
0.0
  0
LINE
  5
AF
330
A
100
AcDbEntity
  8
PV
  6
Continuous
 62
   254
100
AcDbLine
 10
6.428999999999999
 20
174.0879999999999
 30
0.0
 11
8.119999999999999
 21
174.0879999999999
 31
0.0
  0
LINE
  5
B0
330
A
100
AcDbEntity
  8
PV
  6
Continuous
 62
   254
100
AcDbLine
 10
6.428999999999999
 20
170.7069999999999
 30
0.0
 11
8.119999999999999
 21
170.7069999999999
 31
0.0
  0
LINE
  5
B1
330
A
100
AcDbEntity
  8
PV
  6
Continuous
 62
   254
100
AcDbLine
 10
-16.72799999999999
 20
171.3829999999999
 30
0.0
 11
-16.72799999999999
 21
170.7069999999999
 31
0.0
  0
LINE
  5
B2
330
A
100
AcDbEntity
  8
PV
  6
Continuous
 62
   254
100
AcDbLine
 10
-16.72799999999999
 20
172.735
 30
0.0
 11
-16.72799999999999
 21
172.059
 31
0.0
  0
LINE
  5
B3
330
A
100
AcDbEntity
  8
PV
  6
Continuous
 62
   254
100
AcDbLine
 10
-18.249
 20
171.3829999999999
 30
0.0
 11
-16.72799999999999
 21
171.3829999999999
 31
0.0
  0
LINE
  5
B4
330
A
100
AcDbEntity
  8
PV
  6
Continuous
 62
   254
100
AcDbLine
 10
-19.20499999999999
 20
172.735
 30
0.0
 11
-16.72799999999999
 21
172.735
 31
0.0
  0
LINE
  5
B5
330
A
100
AcDbEntity
  8
PV
  6
Continuous
 62
   254
100
AcDbLine
 10
-19.20499999999999
 20
172.059
 30
0.0
 11
-16.72799999999999
 21
172.059
 31
0.0
  0
LINE
  5
B6
330
A
100
AcDbEntity
  8
PV
  6
Continuous
 62
   254
100
AcDbLine
 10
-18.249
 20
170.7069999999999
 30
0.0
 11
-16.72799999999999
 21
170.7069999999999
 31
0.0
  0
LINE
  5
B7
330
A
100
AcDbEntity
  8
PV
  6
Continuous
 62
   254
100
AcDbLine
 10
-18.249
 20
174.0879999999999
 30
0.0
 11
-16.72799999999999
 21
174.0879999999999
 31
0.0
  0
LINE
  5
B8
330
A
100
AcDbEntity
  8
PV
  6
Continuous
 62
   254
100
AcDbLine
 10
-16.72799999999999
 20
174.0879999999999
 30
0.0
 11
-16.72799999999999
 21
173.4109999999999
 31
0.0
  0
LINE
  5
B9
330
A
100
AcDbEntity
  8
PV
  6
Continuous
 62
   254
100
AcDbLine
 10
-11.931
 20
170.7069999999999
 30
0.0
 11
-11.14999999999999
 21
170.7069999999999
 31
0.0
  0
LINE
  5
BA
330
A
100
AcDbEntity
  8
PV
  6
Continuous
 62
   254
100
AcDbLine
 10
-12.329
 20
174.0879999999999
 30
0.0
 11
-11.14999999999999
 21
174.0879999999999
 31
0.0
  0
LINE
  5
BB
330
A
100
AcDbEntity
  8
PV
  6
Continuous
 62
   254
100
AcDbLine
 10
-14.023
 20
172.076
 30
0.0
 11
-14.023
 21
170.7069999999999
 31
0.0
  0
LINE
  5
BC
330
A
100
AcDbEntity
  8
PV
  6
Continuous
 62
   254
100
AcDbLine
 10
-13.09599999999999
 20
172.7249999999999
 30
0.0
 11
-14.023
 21
172.076
 31
0.0
  0
LINE
  5
BD
330
A
100
AcDbEntity
  8
PV
  6
Continuous
 62
   254
100
AcDbLine
 10
-11.931
 20
170.7069999999999
 30
0.0
 11
-13.09599999999999
 21
172.7249999999999
 31
0.0
  0
LINE
  5
BE
330
A
100
AcDbEntity
  8
PV
  6
Continuous
 62
   254
100
AcDbLine
 10
-12.329
 20
174.0879999999999
 30
0.0
 11
-14.023
 21
172.9009999999999
 31
0.0
  0
LINE
  5
BF
330
A
100
AcDbEntity
  8
PV
  6
Continuous
 62
   254
100
AcDbLine
 10
-11.14999999999999
 20
174.0879999999999
 30
0.0
 11
-12.54
 21
173.114
 31
0.0
  0
LINE
  5
C0
330
A
100
AcDbEntity
  8
PV
  6
Continuous
 62
   254
100
AcDbLine
 10
-11.14999999999999
 20
170.7069999999999
 30
0.0
 11
-12.54
 21
173.114
 31
0.0
  0
LINE
  5
C1
330
A
100
AcDbEntity
  8
PV
  6
Continuous
 62
   254
100
AcDbLine
 10
-14.023
 20
174.0879999999999
 30
0.0
 11
-14.023
 21
172.9009999999999
 31
0.0
  0
LINE
  5
C2
330
A
100
AcDbEntity
  8
PV
  6
Continuous
 62
   254
100
AcDbLine
 10
-14.699
 20
174.0879999999999
 30
0.0
 11
-14.699
 21
170.7069999999999
 31
0.0
  0
LINE
  5
C3
330
A
100
AcDbEntity
  8
PV
  6
Continuous
 62
   254
100
AcDbLine
 10
-14.699
 20
170.7069999999999
 30
0.0
 11
-14.023
 21
170.7069999999999
 31
0.0
  0
LINE
  5
C4
330
A
100
AcDbEntity
  8
PV
  6
Continuous
 62
   254
100
AcDbLine
 10
-14.699
 20
174.0879999999999
 30
0.0
 11
-14.023
 21
174.0879999999999
 31
0.0
  0
LINE
  5
C5
330
A
100
AcDbEntity
  8
PV
  6
Continuous
 62
   254
100
AcDbLine
 10
9.978999999999999
 20
173.4109999999999
 30
0.0
 11
10.317
 21
173.4109999999999
 31
0.0
  0
LINE
  5
C6
330
A
100
AcDbEntity
  8
PV
  6
Continuous
 62
   254
100
AcDbLine
 10
9.978999999999999
 20
171.3829999999999
 30
0.0
 11
10.317
 21
171.3829999999999
 31
0.0
  0
LINE
  5
C7
330
A
100
AcDbEntity
  8
PV
  6
Continuous
 62
   254
100
AcDbLine
 10
8.119999999999999
 20
170.7109999999999
 30
0.0
 11
8.119999999999999
 21
171.3829999999999
 31
0.0
  0
LINE
  5
C8
330
A
100
AcDbEntity
  8
PV
  6
Continuous
 62
   254
100
AcDbLine
 10
9.978999999999999
 20
174.0879999999999
 30
0.0
 11
10.317
 21
174.0879999999999
 31
0.0
  0
LINE
  5
C9
330
A
100
AcDbEntity
  8
PV
  6
Continuous
 62
   254
100
AcDbLine
 10
9.978999999999999
 20
170.7069999999999
 30
0.0
 11
10.317
 21
170.7069999999999
 31
0.0
  0
LINE
  5
CA
330
A
100
AcDbEntity
  8
PV
  6
Continuous
 62
   254
100
AcDbLine
 10
-4.493
 20
170.7069999999999
 30
0.0
 11
-3.713
 21
170.7069999999999
 31
0.0
  0
LINE
  5
CB
330
A
100
AcDbEntity
  8
PV
  6
Continuous
 62
   254
100
AcDbLine
 10
-4.891
 20
174.0879999999999
 30
0.0
 11
-3.713
 21
174.0879999999999
 31
0.0
  0
LINE
  5
CC
330
A
100
AcDbEntity
  8
PV
  6
Continuous
 62
   254
100
AcDbLine
 10
-6.586
 20
172.076
 30
0.0
 11
-6.586
 21
170.7069999999999
 31
0.0
  0
LINE
  5
CD
330
A
100
AcDbEntity
  8
PV
  6
Continuous
 62
   254
100
AcDbLine
 10
-5.657999999999999
 20
172.7249999999999
 30
0.0
 11
-6.586
 21
172.076
 31
0.0
  0
LINE
  5
CE
330
A
100
AcDbEntity
  8
PV
  6
Continuous
 62
   254
100
AcDbLine
 10
-4.493
 20
170.7069999999999
 30
0.0
 11
-5.657999999999999
 21
172.7249999999999
 31
0.0
  0
LINE
  5
CF
330
A
100
AcDbEntity
  8
PV
  6
Continuous
 62
   254
100
AcDbLine
 10
-4.891
 20
174.0879999999999
 30
0.0
 11
-6.586
 21
172.9009999999999
 31
0.0
  0
LINE
  5
D0
330
A
100
AcDbEntity
  8
PV
  6
Continuous
 62
   254
100
AcDbLine
 10
-3.713
 20
174.0879999999999
 30
0.0
 11
-5.102
 21
173.114
 31
0.0
  0
LINE
  5
D1
330
A
100
AcDbEntity
  8
PV
  6
Continuous
 62
   254
100
AcDbLine
 10
-3.713
 20
170.7069999999999
 30
0.0
 11
-5.102
 21
173.114
 31
0.0
  0
LINE
  5
D2
330
A
100
AcDbEntity
  8
PV
  6
Continuous
 62
   254
100
AcDbLine
 10
-22.28599999999999
 20
170.7069999999999
 30
0.0
 11
-23.233
 21
172.059
 31
0.0
  0
LINE
  5
D3
330
A
100
AcDbEntity
  8
PV
  6
Continuous
 62
   254
100
AcDbLine
 10
-21.461
 20
170.7069999999999
 30
0.0
 11
-22.409
 21
172.0609999999999
 31
0.0
  0
LINE
  5
D4
330
A
100
AcDbEntity
  8
PV
  6
Continuous
 62
   254
100
AcDbLine
 10
-6.586
 20
174.0879999999999
 30
0.0
 11
-6.586
 21
172.9009999999999
 31
0.0
  0
LINE
  5
D5
330
A
100
AcDbEntity
  8
PV
  6
Continuous
 62
   254
100
AcDbLine
 10
-7.262
 20
174.0879999999999
 30
0.0
 11
-7.262
 21
170.7069999999999
 31
0.0
  0
LINE
  5
D6
330
A
100
AcDbEntity
  8
PV
  6
Continuous
 62
   254
100
AcDbLine
 10
-0.6700000000000001
 20
171.3829999999999
 30
0.0
 11
-0.6700000000000001
 21
170.7069999999999
 31
0.0
  0
LINE
  5
D7
330
A
100
AcDbEntity
  8
PV
  6
Continuous
 62
   254
100
AcDbLine
 10
-0.6700000000000001
 20
172.735
 30
0.0
 11
-0.6700000000000001
 21
172.059
 31
0.0
  0
LINE
  5
D8
330
A
100
AcDbEntity
  8
PV
  6
Continuous
 62
   254
100
AcDbLine
 10
-2.190999999999999
 20
173.4109999999999
 30
0.0
 11
-0.6700000000000001
 21
173.4109999999999
 31
0.0
  0
LINE
  5
D9
330
A
100
AcDbEntity
  8
PV
  6
Continuous
 62
   254
100
AcDbLine
 10
-2.190999999999999
 20
171.3829999999999
 30
0.0
 11
-0.6700000000000001
 21
171.3829999999999
 31
0.0
  0
LINE
  5
DA
330
A
100
AcDbEntity
  8
PV
  6
Continuous
 62
   254
100
AcDbLine
 10
-3.146999999999999
 20
172.735
 30
0.0
 11
-0.6700000000000001
 21
172.735
 31
0.0
  0
LINE
  5
DB
330
A
100
AcDbEntity
  8
PV
  6
Continuous
 62
   254
100
AcDbLine
 10
-3.146999999999999
 20
172.059
 30
0.0
 11
-0.6700000000000001
 21
172.059
 31
0.0
  0
LINE
  5
DC
330
A
100
AcDbEntity
  8
PV
  6
Continuous
 62
   254
100
AcDbLine
 10
-7.262
 20
170.7069999999999
 30
0.0
 11
-6.586
 21
170.7069999999999
 31
0.0
  0
LINE
  5
DD
330
A
100
AcDbEntity
  8
PV
  6
Continuous
 62
   254
100
AcDbLine
 10
-7.262
 20
174.0879999999999
 30
0.0
 11
-6.586
 21
174.0879999999999
 31
0.0
  0
LINE
  5
DE
330
A
100
AcDbEntity
  8
PV
  6
Continuous
 62
   254
100
AcDbLine
 10
-2.190999999999999
 20
170.7069999999999
 30
0.0
 11
-0.6700000000000001
 21
170.7069999999999
 31
0.0
  0
LINE
  5
DF
330
A
100
AcDbEntity
  8
PV
  6
Continuous
 62
   254
100
AcDbLine
 10
-2.190999999999999
 20
174.0879999999999
 30
0.0
 11
-0.6700000000000001
 21
174.0879999999999
 31
0.0
  0
LINE
  5
E0
330
A
100
AcDbEntity
  8
PV
  6
Continuous
 62
   254
100
AcDbLine
 10
-20.277
 20
174.0879999999999
 30
0.0
 11
-20.277
 21
170.7069999999999
 31
0.0
  0
LINE
  5
E1
330
A
100
AcDbEntity
  8
PV
  6
Continuous
 62
   254
100
AcDbLine
 10
-20.954
 20
174.0879999999999
 30
0.0
 11
-20.954
 21
170.7069999999999
 31
0.0
  0
LINE
  5
E2
330
A
100
AcDbEntity
  8
PV
  6
Continuous
 62
   254
100
AcDbLine
 10
-20.954
 20
170.7069999999999
 30
0.0
 11
-20.277
 21
170.7069999999999
 31
0.0
  0
LINE
  5
E3
330
A
100
AcDbEntity
  8
PV
  6
Continuous
 62
   254
100
AcDbLine
 10
-20.954
 20
174.0879999999999
 30
0.0
 11
-20.277
 21
174.0879999999999
 31
0.0
  0
LINE
  5
E4
330
A
100
AcDbEntity
  8
PV
  6
Continuous
 62
   254
100
AcDbLine
 10
-22.28599999999999
 20
170.7069999999999
 30
0.0
 11
-21.461
 21
170.7069999999999
 31
0.0
  0
LINE
  5
E5
330
A
100
AcDbEntity
  8
PV
  6
Continuous
 62
   254
100
AcDbLine
 10
-24.165
 20
172.059
 30
0.0
 11
-24.165
 21
170.7069999999999
 31
0.0
  0
LINE
  5
E6
330
A
100
AcDbEntity
  8
PV
  6
Continuous
 62
   254
100
AcDbLine
 10
-24.84099999999999
 20
174.0879999999999
 30
0.0
 11
-22.475
 21
174.0879999999999
 31
0.0
  0
LINE
  5
E7
330
A
100
AcDbEntity
  8
PV
  6
Continuous
 62
   254
100
AcDbLine
 10
-24.84099999999999
 20
170.7069999999999
 30
0.0
 11
-24.165
 21
170.7069999999999
 31
0.0
  0
LINE
  5
E8
330
A
100
AcDbEntity
  8
PV
  6
Continuous
 62
   254
100
AcDbLine
 10
-22.475
 20
172.735
 30
0.0
 11
-24.165
 21
172.735
 31
0.0
  0
LINE
  5
E9
330
A
100
AcDbEntity
  8
PV
  6
Continuous
 62
   254
100
AcDbLine
 10
-22.475
 20
173.4109999999999
 30
0.0
 11
-24.165
 21
173.4109999999999
 31
0.0
  0
LINE
  5
EA
330
A
100
AcDbEntity
  8
PV
  6
Continuous
 62
   254
100
AcDbLine
 10
-24.165
 20
172.059
 30
0.0
 11
-23.233
 21
172.059
 31
0.0
  0
LINE
  5
EB
330
A
100
AcDbEntity
  8
PV
  6
Continuous
 62
   254
100
AcDbLine
 10
-0.6700000000000001
 20
174.0879999999999
 30
0.0
 11
-0.6700000000000001
 21
173.4109999999999
 31
0.0
  0
LINE
  5
EC
330
A
100
AcDbEntity
  8
PV
  6
Continuous
 62
   254
100
AcDbLine
 10
-24.165
 20
173.4109999999999
 30
0.0
 11
-24.165
 21
173.0729999999999
 31
0.0
  0
LINE
  5
ED
330
A
100
AcDbEntity
  8
PV
  6
Continuous
 62
   254
100
AcDbLine
 10
-24.84099999999999
 20
174.0879999999999
 30
0.0
 11
-24.84099999999999
 21
173.0729999999999
 31
0.0
  0
LINE
  5
EE
330
A
100
AcDbEntity
  8
PV
  6
Continuous
 62
   254
100
AcDbLine
 10
-25.517
 20
174.0879999999999
 30
0.0
 11
-25.517
 21
170.7069999999999
 31
0.0
  0
LINE
  5
EF
330
A
100
AcDbEntity
  8
PV
  6
Continuous
 62
   254
100
AcDbLine
 10
-26.194
 20
174.0879999999999
 30
0.0
 11
-26.194
 21
170.7069999999999
 31
0.0
  0
LINE
  5
F0
330
A
100
AcDbEntity
  8
PV
  6
Continuous
 62
   254
100
AcDbLine
 10
-26.194
 20
170.7069999999999
 30
0.0
 11
-25.517
 21
170.7069999999999
 31
0.0
  0
LINE
  5
F1
330
A
100
AcDbEntity
  8
PV
  6
Continuous
 62
   254
100
AcDbLine
 10
-26.194
 20
174.0879999999999
 30
0.0
 11
-25.517
 21
174.0879999999999
 31
0.0
  0
LINE
  5
F2
330
A
100
AcDbEntity
  8
PV
  6
Continuous
 62
   254
100
AcDbLine
 10
-18.249
 20
173.4109999999999
 30
0.0
 11
-16.72799999999999
 21
173.4109999999999
 31
0.0
  0
LINE
  5
F3
330
A
100
AcDbEntity
  8
PV
  6
Continuous
 62
     7
100
AcDbLine
 10
-0.182
 20
183.1109999999999
 30
0.0
 11
-0.182
 21
180.167
 31
0.0
  0
LINE
  5
F4
330
A
100
AcDbEntity
  8
PV
  6
Continuous
 62
     7
100
AcDbLine
 10
-0.182
 20
180.167
 30
0.0
 11
-0.182
 21
178.959
 31
0.0
  0
LINE
  5
F5
330
A
100
AcDbEntity
  8
PV
  6
Continuous
 62
     7
100
AcDbLine
 10
7.028999999999999
 20
183.149
 30
0.0
 11
7.028999999999999
 21
180.129
 31
0.0
  0
LINE
  5
F6
330
A
100
AcDbEntity
  8
PV
  6
Continuous
 62
     7
100
AcDbLine
 10
-0.182
 20
184.319
 30
0.0
 11
-0.182
 21
183.1109999999999
 31
0.0
  0
LINE
  5
F7
330
A
100
AcDbEntity
  8
PV
  6
Continuous
 62
     7
100
AcDbLine
 10
-5.202999999999999
 20
178.959
 30
0.0
 11
-2.862
 21
178.959
 31
0.0
  0
LINE
  5
F8
330
A
100
AcDbEntity
  8
PV
  6
Continuous
 62
     7
100
AcDbLine
 10
-5.202999999999999
 20
184.319
 30
0.0
 11
-2.862
 21
184.319
 31
0.0
  0
LINE
  5
F9
330
A
100
AcDbEntity
  8
PV
  6
Continuous
 62
     7
100
AcDbLine
 10
-5.202999999999999
 20
184.319
 30
0.0
 11
-5.202999999999999
 21
178.959
 31
0.0
  0
LINE
  5
FA
330
A
100
AcDbEntity
  8
PV
  6
Continuous
 62
     7
100
AcDbLine
 10
-9.105
 20
178.959
 30
0.0
 11
-6.236
 21
178.959
 31
0.0
  0
LINE
  5
FB
330
A
100
AcDbEntity
  8
PV
  6
Continuous
 62
     7
100
AcDbLine
 10
-6.236
 20
182.8849999999999
 30
0.0
 11
-6.236
 21
178.959
 31
0.0
  0
LINE
  5
FC
330
A
100
AcDbEntity
  8
PV
  6
Continuous
 62
     7
100
AcDbLine
 10
-9.105
 20
182.8849999999999
 30
0.0
 11
-9.105
 21
178.959
 31
0.0
  0
LINE
  5
FD
330
A
100
AcDbEntity
  8
PV
  6
Continuous
 62
     7
100
AcDbLine
 10
-9.105
 20
182.8849999999999
 30
0.0
 11
-6.236
 21
182.8849999999999
 31
0.0
  0
LINE
  5
FE
330
A
100
AcDbEntity
  8
PV
  6
Continuous
 62
     7
100
AcDbLine
 10
-2.862
 20
184.319
 30
0.0
 11
-2.862
 21
178.959
 31
0.0
  0
LINE
  5
FF
330
A
100
AcDbEntity
  8
PV
  6
Continuous
 62
   254
100
AcDbLine
 10
-14.57699999999999
 20
172.91
 30
0.0
 11
-14.127
 21
172.91
 31
0.0
  0
LINE
  5
100
330
A
100
AcDbEntity
  8
PV
  6
Continuous
 62
     7
100
AcDbLine
 10
37.969
 20
169.4309999999999
 30
0.0
 11
-40.22
 21
169.4309999999999
 31
0.0
  0
LWPOLYLINE
  5
101
330
A
100
AcDbEntity
  8
PV
  6
Continuous
 62
     7
100
AcDbPolyline
 90
       94
 70
     0
 43
0.0
 10
39.404
 20
153.9379999999999
 10
39.40099999999999
 20
153.946
 10
39.375
 20
154.0279999999999
 10
39.34499999999999
 20
154.109
 10
39.311
 20
154.1889999999999
 10
39.274
 20
154.267
 10
39.235
 20
154.3429999999999
 10
39.191
 20
154.417
 10
39.145
 20
154.49
 10
39.09599999999999
 20
154.56
 10
39.044
 20
154.6279999999999
 10
38.99
 20
154.6929999999999
 10
38.93199999999999
 20
154.756
 10
38.87199999999999
 20
154.816
 10
38.81
 20
154.8729999999999
 10
38.74499999999999
 20
154.9279999999999
 10
38.678
 20
154.9789999999999
 10
38.609
 20
155.027
 10
38.538
 20
155.072
 10
38.465
 20
155.114
 10
38.391
 20
155.1529999999999
 10
38.315
 20
155.1879999999999
 10
38.238
 20
155.2189999999999
 10
38.159
 20
155.247
 10
38.079
 20
155.272
 10
37.999
 20
155.292
 10
37.917
 20
155.309
 10
37.835
 20
155.322
 10
37.753
 20
155.332
 10
37.67
 20
155.3379999999999
 10
37.58699999999999
 20
155.34
 10
37.50399999999999
 20
155.3379999999999
 10
37.421
 20
155.332
 10
37.338
 20
155.322
 10
37.256
 20
155.309
 10
37.17499999999999
 20
155.292
 10
37.094
 20
155.272
 10
37.015
 20
155.247
 10
36.93599999999999
 20
155.2189999999999
 10
36.859
 20
155.1879999999999
 10
36.783
 20
155.1529999999999
 10
36.70799999999999
 20
155.114
 10
36.63599999999999
 20
155.072
 10
36.56499999999999
 20
155.027
 10
36.496
 20
154.9789999999999
 10
36.429
 20
154.9279999999999
 10
36.364
 20
154.8729999999999
 10
36.301
 20
154.816
 10
36.241
 20
154.756
 10
36.18399999999999
 20
154.6929999999999
 10
36.12899999999999
 20
154.6279999999999
 10
36.07699999999999
 20
154.56
 10
36.028
 20
154.49
 10
35.982
 20
154.417
 10
35.939
 20
154.3429999999999
 10
35.899
 20
154.267
 10
35.86199999999999
 20
154.1889999999999
 10
35.829
 20
154.109
 10
35.799
 20
154.0279999999999
 10
35.77199999999999
 20
153.946
 10
35.749
 20
153.8619999999999
 10
35.729
 20
153.7779999999999
 10
35.713
 20
153.692
 10
35.701
 20
153.6059999999999
 10
35.691
 20
153.52
 10
35.68599999999999
 20
153.4329999999999
 10
35.684
 20
153.346
 10
35.68599999999999
 20
153.2589999999999
 10
35.691
 20
153.173
 10
35.701
 20
153.086
 10
35.713
 20
153.0
 10
35.729
 20
152.915
 10
35.749
 20
152.83
 10
35.77199999999999
 20
152.747
 10
35.799
 20
152.665
 10
35.829
 20
152.584
 10
35.86199999999999
 20
152.5039999999999
 10
35.899
 20
152.426
 10
35.939
 20
152.35
 10
35.982
 20
152.275
 10
36.028
 20
152.2029999999999
 10
36.07699999999999
 20
152.1329999999999
 10
36.12899999999999
 20
152.065
 10
36.18399999999999
 20
152.0
 10
36.241
 20
151.937
 10
36.301
 20
151.877
 10
36.364
 20
151.8189999999999
 10
36.429
 20
151.7649999999999
 10
36.496
 20
151.7139999999999
 10
36.56499999999999
 20
151.665
 10
36.63599999999999
 20
151.6199999999999
 10
36.70799999999999
 20
151.578
 10
36.783
 20
151.5399999999999
 10
36.833
 20
151.5159999999999
  0
LWPOLYLINE
  5
102
330
A
100
AcDbEntity
  8
PV
  6
Continuous
 62
     7
100
AcDbPolyline
 90
       94
 70
     0
 43
0.0
 10
35.045
 20
149.679
 10
35.04699999999999
 20
149.672
 10
35.074
 20
149.5889999999999
 10
35.104
 20
149.5079999999999
 10
35.138
 20
149.429
 10
35.174
 20
149.351
 10
35.21399999999999
 20
149.2739999999999
 10
35.257
 20
149.1999999999999
 10
35.304
 20
149.1279999999999
 10
35.353
 20
149.058
 10
35.405
 20
148.99
 10
35.459
 20
148.924
 10
35.51699999999999
 20
148.862
 10
35.577
 20
148.801
 10
35.639
 20
148.744
 10
35.704
 20
148.69
 10
35.771
 20
148.638
 10
35.84
 20
148.5899999999999
 10
35.911
 20
148.5449999999999
 10
35.983
 20
148.5029999999999
 10
36.058
 20
148.465
 10
36.134
 20
148.43
 10
36.211
 20
148.398
 10
36.29
 20
148.3699999999999
 10
36.37
 20
148.346
 10
36.45
 20
148.3249999999999
 10
36.532
 20
148.3079999999999
 10
36.614
 20
148.2949999999999
 10
36.69599999999999
 20
148.285
 10
36.779
 20
148.28
 10
36.86199999999999
 20
148.2779999999999
 10
36.945
 20
148.28
 10
37.02799999999999
 20
148.285
 10
37.11
 20
148.2949999999999
 10
37.192
 20
148.3079999999999
 10
37.274
 20
148.3249999999999
 10
37.354
 20
148.346
 10
37.43399999999999
 20
148.3699999999999
 10
37.513
 20
148.398
 10
37.59
 20
148.43
 10
37.66599999999999
 20
148.465
 10
37.741
 20
148.5029999999999
 10
37.813
 20
148.5449999999999
 10
37.884
 20
148.5899999999999
 10
37.953
 20
148.638
 10
38.02
 20
148.69
 10
38.085
 20
148.744
 10
38.147
 20
148.801
 10
38.207
 20
148.862
 10
38.265
 20
148.924
 10
38.319
 20
148.99
 10
38.371
 20
149.058
 10
38.421
 20
149.1279999999999
 10
38.467
 20
149.1999999999999
 10
38.50999999999999
 20
149.2739999999999
 10
38.55
 20
149.351
 10
38.586
 20
149.429
 10
38.62
 20
149.5079999999999
 10
38.65
 20
149.5889999999999
 10
38.677
 20
149.672
 10
38.7
 20
149.7549999999999
 10
38.71999999999999
 20
149.84
 10
38.73599999999999
 20
149.925
 10
38.748
 20
150.011
 10
38.757
 20
150.097
 10
38.763
 20
150.184
 10
38.765
 20
150.271
 10
38.763
 20
150.358
 10
38.757
 20
150.445
 10
38.748
 20
150.531
 10
38.73599999999999
 20
150.617
 10
38.71999999999999
 20
150.7019999999999
 10
38.7
 20
150.787
 10
38.677
 20
150.87
 10
38.65
 20
150.9529999999999
 10
38.62
 20
151.034
 10
38.586
 20
151.113
 10
38.55
 20
151.191
 10
38.50999999999999
 20
151.268
 10
38.467
 20
151.342
 10
38.421
 20
151.4139999999999
 10
38.371
 20
151.484
 10
38.319
 20
151.552
 10
38.265
 20
151.618
 10
38.207
 20
151.68
 10
38.147
 20
151.741
 10
38.085
 20
151.798
 10
38.02
 20
151.852
 10
37.953
 20
151.9039999999999
 10
37.884
 20
151.9519999999999
 10
37.813
 20
151.997
 10
37.741
 20
152.0389999999999
 10
37.66599999999999
 20
152.0769999999999
 10
37.615
 20
152.1009999999999
  0
LWPOLYLINE
  5
103
330
A
100
AcDbEntity
  8
PV
  6
Continuous
 62
     7
100
AcDbPolyline
 90
       26
 70
     0
 43
0.0
 10
-19.82199999999999
 20
153.012
 10
-19.823
 20
153.017
 10
-19.867
 20
153.155
 10
-19.917
 20
153.291
 10
-19.972
 20
153.424
 10
-20.032
 20
153.553
 10
-20.097
 20
153.679
 10
-20.167
 20
153.802
 10
-20.24199999999999
 20
153.9209999999999
 10
-20.32099999999999
 20
154.035
 10
-20.405
 20
154.145
 10
-20.493
 20
154.251
 10
-20.58599999999999
 20
154.352
 10
-20.682
 20
154.4479999999999
 10
-20.78199999999999
 20
154.5389999999999
 10
-20.886
 20
154.625
 10
-20.993
 20
154.705
 10
-21.103
 20
154.78
 10
-21.21599999999999
 20
154.8489999999999
 10
-21.33199999999999
 20
154.912
 10
-21.451
 20
154.969
 10
-21.572
 20
155.02
 10
-21.695
 20
155.065
 10
-21.81999999999999
 20
155.1039999999999
 10
-21.94599999999999
 20
155.136
 10
-22.074
 20
155.1619999999999
  0
LWPOLYLINE
  5
104
330
A
100
AcDbEntity
  8
PV
  6
Continuous
 62
     7
100
AcDbPolyline
 90
      113
 70
     0
 43
0.0
 10
-22.074
 20
155.1619999999999
 10
-22.203
 20
155.182
 10
-22.333
 20
155.1939999999999
 10
-22.463
 20
155.2009999999999
 10
-22.594
 20
155.2009999999999
 10
-22.726
 20
155.1939999999999
 10
-22.856
 20
155.181
 10
-22.98699999999999
 20
155.161
 10
-23.11699999999999
 20
155.135
 10
-23.24599999999999
 20
155.1029999999999
 10
-23.374
 20
155.064
 10
-23.50099999999999
 20
155.019
 10
-23.626
 20
154.967
 10
-23.75
 20
154.9099999999999
 10
-23.87099999999999
 20
154.847
 10
-23.99
 20
154.7779999999999
 10
-24.107
 20
154.703
 10
-24.22
 20
154.622
 10
-24.331
 20
154.536
 10
-24.439
 20
154.4449999999999
 10
-24.543
 20
154.349
 10
-24.644
 20
154.2479999999999
 10
-24.74099999999999
 20
154.142
 10
-24.834
 20
154.031
 10
-24.923
 20
153.917
 10
-25.008
 20
153.798
 10
-25.088
 20
153.675
 10
-25.163
 20
153.549
 10
-25.234
 20
153.4189999999999
 10
-25.3
 20
153.286
 10
-25.361
 20
153.151
 10
-25.417
 20
153.012
 10
-25.468
 20
152.872
 10
-25.513
 20
152.7289999999999
 10
-25.553
 20
152.584
 10
-25.58699999999999
 20
152.4379999999999
 10
-25.616
 20
152.2909999999999
 10
-25.64
 20
152.1419999999999
 10
-25.65699999999999
 20
151.993
 10
-25.669
 20
151.844
 10
-25.675
 20
151.6939999999999
 10
-25.676
 20
151.5449999999999
 10
-25.67099999999999
 20
151.396
 10
-25.66
 20
151.247
 10
-25.643
 20
151.0999999999999
 10
-25.621
 20
150.954
 10
-25.593
 20
150.8089999999999
 10
-25.56
 20
150.6669999999999
 10
-25.521
 20
150.5259999999999
 10
-25.476
 20
150.388
 10
-25.42699999999999
 20
150.252
 10
-25.372
 20
150.12
 10
-25.312
 20
149.99
 10
-25.247
 20
149.8639999999999
 10
-25.177
 20
149.741
 10
-25.10199999999999
 20
149.6229999999999
 10
-25.022
 20
149.5079999999999
 10
-24.939
 20
149.398
 10
-24.85
 20
149.2919999999999
 10
-24.758
 20
149.191
 10
-24.662
 20
149.0949999999999
 10
-24.56199999999999
 20
149.004
 10
-24.458
 20
148.918
 10
-24.351
 20
148.838
 10
-24.241
 20
148.763
 10
-24.127
 20
148.6939999999999
 10
-24.011
 20
148.631
 10
-23.89299999999999
 20
148.5739999999999
 10
-23.77199999999999
 20
148.523
 10
-23.649
 20
148.4779999999999
 10
-23.524
 20
148.4389999999999
 10
-23.398
 20
148.407
 10
-23.26999999999999
 20
148.381
 10
-23.14099999999999
 20
148.3619999999999
 10
-23.01099999999999
 20
148.3489999999999
 10
-22.87999999999999
 20
148.342
 10
-22.749
 20
148.343
 10
-22.618
 20
148.3489999999999
 10
-22.48699999999999
 20
148.3619999999999
 10
-22.357
 20
148.382
 10
-22.22699999999999
 20
148.4079999999999
 10
-22.09699999999999
 20
148.441
 10
-21.969
 20
148.4789999999999
 10
-21.843
 20
148.525
 10
-21.71699999999999
 20
148.5759999999999
 10
-21.594
 20
148.6329999999999
 10
-21.473
 20
148.697
 10
-21.354
 20
148.7659999999999
 10
-21.23699999999999
 20
148.841
 10
-21.123
 20
148.9209999999999
 10
-21.013
 20
149.007
 10
-20.905
 20
149.0979999999999
 10
-20.80099999999999
 20
149.1949999999999
 10
-20.69999999999999
 20
149.2959999999999
 10
-20.603
 20
149.402
 10
-20.51
 20
149.512
 10
-20.421
 20
149.627
 10
-20.33599999999999
 20
149.746
 10
-20.256
 20
149.868
 10
-20.18
 20
149.995
 10
-20.11
 20
150.1239999999999
 10
-20.04399999999999
 20
150.257
 10
-19.983
 20
150.3929999999999
 10
-19.927
 20
150.531
 10
-19.87599999999999
 20
150.672
 10
-19.831
 20
150.814
 10
-19.791
 20
150.959
 10
-19.756
 20
151.105
 10
-19.72799999999999
 20
151.252
 10
-19.704
 20
151.401
 10
-19.687
 20
151.55
 10
-19.675
 20
151.6989999999999
 10
-19.671
 20
151.771
  0
LINE
  5
105
330
A
100
AcDbEntity
  8
PV
  6
Continuous
 62
     7
100
AcDbLine
 10
36.902
 20
152.204
 30
0.0
 11
37.614
 21
152.102
 31
0.0
  0
LINE
  5
106
330
A
100
AcDbEntity
  8
PV
  6
Continuous
 62
     7
100
AcDbLine
 10
36.835
 20
151.515
 30
0.0
 11
37.558
 21
151.406
 31
0.0
  0
LINE
  5
107
330
A
100
AcDbEntity
  8
PV
  6
Continuous
 62
     7
100
AcDbLine
 10
39.403
 20
153.94
 30
0.0
 11
38.83099999999999
 21
153.609
 31
0.0
  0
LINE
  5
108
330
A
100
AcDbEntity
  8
PV
  6
Continuous
 62
     7
100
AcDbLine
 10
35.04599999999999
 20
149.678
 30
0.0
 11
35.617
 21
150.0079999999999
 31
0.0
  0
LINE
  5
109
330
A
100
AcDbEntity
  8
PV
  6
Continuous
 62
     7
100
AcDbLine
 10
4.998999999999999
 20
155.214
 30
0.0
 11
5.742999999999999
 21
155.214
 31
0.0
  0
LINE
  5
10A
330
A
100
AcDbEntity
  8
PV
  6
Continuous
 62
     7
100
AcDbLine
 10
1.147
 20
155.214
 30
0.0
 11
2.360999999999999
 21
148.329
 31
0.0
  0
LINE
  5
10B
330
A
100
AcDbEntity
  8
PV
  6
Continuous
 62
     7
100
AcDbLine
 10
1.864
 20
155.214
 30
0.0
 11
2.887
 21
149.412
 31
0.0
  0
LINE
  5
10C
330
A
100
AcDbEntity
  8
PV
  6
Continuous
 62
     7
100
AcDbLine
 10
2.887
 20
149.412
 30
0.0
 11
4.998999999999999
 21
155.214
 31
0.0
  0
LINE
  5
10D
330
A
100
AcDbEntity
  8
PV
  6
Continuous
 62
     7
100
AcDbLine
 10
3.237
 20
148.329
 30
0.0
 11
5.742999999999999
 21
155.214
 31
0.0
  0
LINE
  5
10E
330
A
100
AcDbEntity
  8
PV
  6
Continuous
 62
     7
100
AcDbLine
 10
1.147
 20
155.214
 30
0.0
 11
1.864
 21
155.214
 31
0.0
  0
LINE
  5
10F
330
A
100
AcDbEntity
  8
PV
  6
Continuous
 62
     7
100
AcDbLine
 10
2.360999999999999
 20
148.329
 30
0.0
 11
3.237
 21
148.329
 31
0.0
  0
LINE
  5
110
330
A
100
AcDbEntity
  8
PV
  6
Continuous
 62
     7
100
AcDbLine
 10
25.384
 20
155.214
 30
0.0
 11
26.128
 21
155.214
 31
0.0
  0
LINE
  5
111
330
A
100
AcDbEntity
  8
PV
  6
Continuous
 62
     7
100
AcDbLine
 10
21.53199999999999
 20
155.214
 30
0.0
 11
22.74599999999999
 21
148.329
 31
0.0
  0
LINE
  5
112
330
A
100
AcDbEntity
  8
PV
  6
Continuous
 62
     7
100
AcDbLine
 10
22.249
 20
155.214
 30
0.0
 11
23.27199999999999
 21
149.412
 31
0.0
  0
LINE
  5
113
330
A
100
AcDbEntity
  8
PV
  6
Continuous
 62
     7
100
AcDbLine
 10
23.27199999999999
 20
149.412
 30
0.0
 11
25.384
 21
155.214
 31
0.0
  0
LINE
  5
114
330
A
100
AcDbEntity
  8
PV
  6
Continuous
 62
     7
100
AcDbLine
 10
23.622
 20
148.329
 30
0.0
 11
26.128
 21
155.214
 31
0.0
  0
LINE
  5
115
330
A
100
AcDbEntity
  8
PV
  6
Continuous
 62
     7
100
AcDbLine
 10
21.53199999999999
 20
155.214
 30
0.0
 11
22.249
 21
155.214
 31
0.0
  0
LINE
  5
116
330
A
100
AcDbEntity
  8
PV
  6
Continuous
 62
     7
100
AcDbLine
 10
22.74599999999999
 20
148.329
 30
0.0
 11
23.622
 21
148.329
 31
0.0
  0
LINE
  5
117
330
A
100
AcDbEntity
  8
PV
  6
Continuous
 62
     7
100
AcDbLine
 10
29.818
 20
152.111
 30
0.0
 11
30.232
 21
154.457
 31
0.0
  0
LINE
  5
118
330
A
100
AcDbEntity
  8
PV
  6
Continuous
 62
     7
100
AcDbLine
 10
32.74499999999999
 20
154.457
 30
0.0
 11
32.879
 21
155.214
 31
0.0
  0
LINE
  5
119
330
A
100
AcDbEntity
  8
PV
  6
Continuous
 62
     7
100
AcDbLine
 10
32.20599999999999
 20
151.4
 30
0.0
 11
32.332
 21
152.111
 31
0.0
  0
LINE
  5
11A
330
A
100
AcDbEntity
  8
PV
  6
Continuous
 62
     7
100
AcDbLine
 10
29.275
 20
149.0299999999999
 30
0.0
 11
29.693
 21
151.4
 31
0.0
  0
LINE
  5
11B
330
A
100
AcDbEntity
  8
PV
  6
Continuous
 62
     7
100
AcDbLine
 10
29.275
 20
149.0299999999999
 30
0.0
 11
31.788
 21
149.0299999999999
 31
0.0
  0
LINE
  5
11C
330
A
100
AcDbEntity
  8
PV
  6
Continuous
 62
     7
100
AcDbLine
 10
30.232
 20
154.457
 30
0.0
 11
32.74499999999999
 21
154.457
 31
0.0
  0
LINE
  5
11D
330
A
100
AcDbEntity
  8
PV
  6
Continuous
 62
     7
100
AcDbLine
 10
29.818
 20
152.111
 30
0.0
 11
32.332
 21
152.111
 31
0.0
  0
LINE
  5
11E
330
A
100
AcDbEntity
  8
PV
  6
Continuous
 62
     7
100
AcDbLine
 10
29.693
 20
151.4
 30
0.0
 11
32.20599999999999
 21
151.4
 31
0.0
  0
LINE
  5
11F
330
A
100
AcDbEntity
  8
PV
  6
Continuous
 62
     7
100
AcDbLine
 10
31.665
 20
148.329
 30
0.0
 11
31.788
 21
149.0299999999999
 31
0.0
  0
LINE
  5
120
330
A
100
AcDbEntity
  8
PV
  6
Continuous
 62
     7
100
AcDbLine
 10
28.444
 20
148.329
 30
0.0
 11
29.658
 21
155.214
 31
0.0
  0
LINE
  5
121
330
A
100
AcDbEntity
  8
PV
  6
Continuous
 62
     7
100
AcDbLine
 10
15.984
 20
149.061
 30
0.0
 11
18.997
 21
149.061
 31
0.0
  0
LINE
  5
122
330
A
100
AcDbEntity
  8
PV
  6
Continuous
 62
     7
100
AcDbLine
 10
15.984
 20
149.061
 30
0.0
 11
17.069
 21
155.214
 31
0.0
  0
LINE
  5
123
330
A
100
AcDbEntity
  8
PV
  6
Continuous
 62
     7
100
AcDbLine
 10
15.13799999999999
 20
148.329
 30
0.0
 11
16.352
 21
155.214
 31
0.0
  0
LINE
  5
124
330
A
100
AcDbEntity
  8
PV
  6
Continuous
 62
     7
100
AcDbLine
 10
18.868
 20
148.329
 30
0.0
 11
18.997
 21
149.061
 31
0.0
  0
LINE
  5
125
330
A
100
AcDbEntity
  8
PV
  6
Continuous
 62
     7
100
AcDbLine
 10
28.444
 20
148.329
 30
0.0
 11
31.665
 21
148.329
 31
0.0
  0
LINE
  5
126
330
A
100
AcDbEntity
  8
PV
  6
Continuous
 62
     7
100
AcDbLine
 10
29.658
 20
155.214
 30
0.0
 11
32.879
 21
155.214
 31
0.0
  0
LINE
  5
127
330
A
100
AcDbEntity
  8
PV
  6
Continuous
 62
     7
100
AcDbLine
 10
16.352
 20
155.214
 30
0.0
 11
17.069
 21
155.214
 31
0.0
  0
LINE
  5
128
330
A
100
AcDbEntity
  8
PV
  6
Continuous
 62
     7
100
AcDbLine
 10
15.13799999999999
 20
148.329
 30
0.0
 11
18.868
 21
148.329
 31
0.0
  0
LINE
  5
129
330
A
100
AcDbEntity
  8
PV
  6
Continuous
 62
     7
100
AcDbLine
 10
11.386
 20
149.79
 30
0.0
 11
11.777
 21
148.329
 31
0.0
  0
LINE
  5
12A
330
A
100
AcDbEntity
  8
PV
  6
Continuous
 62
     7
100
AcDbLine
 10
8.913999999999999
 20
150.507
 30
0.0
 11
10.227
 21
154.115
 31
0.0
  0
LINE
  5
12B
330
A
100
AcDbEntity
  8
PV
  6
Continuous
 62
     7
100
AcDbLine
 10
8.913999999999999
 20
150.507
 30
0.0
 11
11.194
 21
150.507
 31
0.0
  0
LINE
  5
12C
330
A
100
AcDbEntity
  8
PV
  6
Continuous
 62
     7
100
AcDbLine
 10
8.652999999999998
 20
149.79
 30
0.0
 11
11.386
 21
149.79
 31
0.0
  0
LINE
  5
12D
330
A
100
AcDbEntity
  8
PV
  6
Continuous
 62
     7
100
AcDbLine
 10
11.777
 20
148.329
 30
0.0
 11
12.49
 21
148.329
 31
0.0
  0
LINE
  5
12E
330
A
100
AcDbEntity
  8
PV
  6
Continuous
 62
     7
100
AcDbLine
 10
10.227
 20
154.115
 30
0.0
 11
11.194
 21
150.507
 31
0.0
  0
LINE
  5
12F
330
A
100
AcDbEntity
  8
PV
  6
Continuous
 62
     7
100
AcDbLine
 10
10.645
 20
155.214
 30
0.0
 11
12.49
 21
148.329
 31
0.0
  0
LINE
  5
130
330
A
100
AcDbEntity
  8
PV
  6
Continuous
 62
     7
100
AcDbLine
 10
8.121
 20
148.329
 30
0.0
 11
8.652999999999998
 21
149.79
 31
0.0
  0
LINE
  5
131
330
A
100
AcDbEntity
  8
PV
  6
Continuous
 62
     7
100
AcDbLine
 10
7.387999999999999
 20
148.329
 30
0.0
 11
9.894999999999999
 21
155.214
 31
0.0
  0
LINE
  5
132
330
A
100
AcDbEntity
  8
PV
  6
Continuous
 62
     7
100
AcDbLine
 10
9.894999999999999
 20
155.214
 30
0.0
 11
10.645
 21
155.214
 31
0.0
  0
LINE
  5
133
330
A
100
AcDbEntity
  8
PV
  6
Continuous
 62
     7
100
AcDbLine
 10
7.387999999999999
 20
148.329
 30
0.0
 11
8.121
 21
148.329
 31
0.0
  0
LINE
  5
134
330
A
100
AcDbEntity
  8
PV
  6
Continuous
 62
     7
100
AcDbLine
 10
-8.777000000000001
 20
152.111
 30
0.0
 11
-8.362999999999999
 21
154.457
 31
0.0
  0
LINE
  5
135
330
A
100
AcDbEntity
  8
PV
  6
Continuous
 62
     7
100
AcDbLine
 10
-5.849999999999999
 20
154.457
 30
0.0
 11
-5.717
 21
155.214
 31
0.0
  0
LINE
  5
136
330
A
100
AcDbEntity
  8
PV
  6
Continuous
 62
     7
100
AcDbLine
 10
-6.388999999999999
 20
151.4
 30
0.0
 11
-6.263999999999999
 21
152.111
 31
0.0
  0
LINE
  5
137
330
A
100
AcDbEntity
  8
PV
  6
Continuous
 62
     7
100
AcDbLine
 10
-9.32
 20
149.0299999999999
 30
0.0
 11
-8.902999999999998
 21
151.4
 31
0.0
  0
LINE
  5
138
330
A
100
AcDbEntity
  8
PV
  6
Continuous
 62
     7
100
AcDbLine
 10
-9.32
 20
149.0299999999999
 30
0.0
 11
-6.807
 21
149.0299999999999
 31
0.0
  0
LINE
  5
139
330
A
100
AcDbEntity
  8
PV
  6
Continuous
 62
     7
100
AcDbLine
 10
-8.363999999999998
 20
154.457
 30
0.0
 11
-5.849999999999999
 21
154.457
 31
0.0
  0
LINE
  5
13A
330
A
100
AcDbEntity
  8
PV
  6
Continuous
 62
     7
100
AcDbLine
 10
-8.777000000000001
 20
152.111
 30
0.0
 11
-6.263999999999999
 21
152.111
 31
0.0
  0
LINE
  5
13B
330
A
100
AcDbEntity
  8
PV
  6
Continuous
 62
     7
100
AcDbLine
 10
-8.902999999999998
 20
151.4
 30
0.0
 11
-6.388999999999999
 21
151.4
 31
0.0
  0
LINE
  5
13C
330
A
100
AcDbEntity
  8
PV
  6
Continuous
 62
     7
100
AcDbLine
 10
-6.931
 20
148.329
 30
0.0
 11
-6.807
 21
149.0299999999999
 31
0.0
  0
LINE
  5
13D
330
A
100
AcDbEntity
  8
PV
  6
Continuous
 62
     7
100
AcDbLine
 10
-10.152
 20
148.329
 30
0.0
 11
-8.937999999999998
 21
155.214
 31
0.0
  0
LINE
  5
13E
330
A
100
AcDbEntity
  8
PV
  6
Continuous
 62
     7
100
AcDbLine
 10
-10.152
 20
148.329
 30
0.0
 11
-6.931
 21
148.329
 31
0.0
  0
LINE
  5
13F
330
A
100
AcDbEntity
  8
PV
  6
Continuous
 62
     7
100
AcDbLine
 10
-8.937999999999998
 20
155.214
 30
0.0
 11
-5.717
 21
155.214
 31
0.0
  0
LINE
  5
140
330
A
100
AcDbEntity
  8
PV
  6
Continuous
 62
     7
100
AcDbLine
 10
-16.269
 20
149.061
 30
0.0
 11
-13.25599999999999
 21
149.061
 31
0.0
  0
LINE
  5
141
330
A
100
AcDbEntity
  8
PV
  6
Continuous
 62
     7
100
AcDbLine
 10
-16.269
 20
149.061
 30
0.0
 11
-15.184
 21
155.214
 31
0.0
  0
LINE
  5
142
330
A
100
AcDbEntity
  8
PV
  6
Continuous
 62
     7
100
AcDbLine
 10
-17.11599999999999
 20
148.329
 30
0.0
 11
-15.902
 21
155.214
 31
0.0
  0
LINE
  5
143
330
A
100
AcDbEntity
  8
PV
  6
Continuous
 62
     7
100
AcDbLine
 10
-13.385
 20
148.329
 30
0.0
 11
-13.25599999999999
 21
149.061
 31
0.0
  0
LINE
  5
144
330
A
100
AcDbEntity
  8
PV
  6
Continuous
 62
     7
100
AcDbLine
 10
-15.902
 20
155.214
 30
0.0
 11
-15.184
 21
155.214
 31
0.0
  0
LINE
  5
145
330
A
100
AcDbEntity
  8
PV
  6
Continuous
 62
     7
100
AcDbLine
 10
-17.11599999999999
 20
148.329
 30
0.0
 11
-13.385
 21
148.329
 31
0.0
  0
LINE
  5
146
330
A
100
AcDbEntity
  8
PV
  6
Continuous
 62
     7
100
AcDbLine
 10
-38.082
 20
149.79
 30
0.0
 11
-37.69
 21
148.329
 31
0.0
  0
LINE
  5
147
330
A
100
AcDbEntity
  8
PV
  6
Continuous
 62
     7
100
AcDbLine
 10
-40.554
 20
150.507
 30
0.0
 11
-39.241
 21
154.115
 31
0.0
  0
LINE
  5
148
330
A
100
AcDbEntity
  8
PV
  6
Continuous
 62
     7
100
AcDbLine
 10
-40.554
 20
150.507
 30
0.0
 11
-38.274
 21
150.507
 31
0.0
  0
LINE
  5
149
330
A
100
AcDbEntity
  8
PV
  6
Continuous
 62
     7
100
AcDbLine
 10
-40.814
 20
149.79
 30
0.0
 11
-38.082
 21
149.79
 31
0.0
  0
LINE
  5
14A
330
A
100
AcDbEntity
  8
PV
  6
Continuous
 62
     7
100
AcDbLine
 10
-37.69
 20
148.329
 30
0.0
 11
-36.97699999999999
 21
148.329
 31
0.0
  0
LINE
  5
14B
330
A
100
AcDbEntity
  8
PV
  6
Continuous
 62
     7
100
AcDbLine
 10
-39.241
 20
154.115
 30
0.0
 11
-38.274
 21
150.507
 31
0.0
  0
LINE
  5
14C
330
A
100
AcDbEntity
  8
PV
  6
Continuous
 62
     7
100
AcDbLine
 10
-38.82199999999999
 20
155.214
 30
0.0
 11
-36.97699999999999
 21
148.329
 31
0.0
  0
LINE
  5
14D
330
A
100
AcDbEntity
  8
PV
  6
Continuous
 62
     7
100
AcDbLine
 10
-41.346
 20
148.329
 30
0.0
 11
-40.814
 21
149.79
 31
0.0
  0
LINE
  5
14E
330
A
100
AcDbEntity
  8
PV
  6
Continuous
 62
     7
100
AcDbLine
 10
-42.07899999999999
 20
148.329
 30
0.0
 11
-39.573
 21
155.214
 31
0.0
  0
LINE
  5
14F
330
A
100
AcDbEntity
  8
PV
  6
Continuous
 62
     7
100
AcDbLine
 10
-39.573
 20
155.214
 30
0.0
 11
-38.82199999999999
 21
155.214
 31
0.0
  0
LINE
  5
150
330
A
100
AcDbEntity
  8
PV
  6
Continuous
 62
     7
100
AcDbLine
 10
-42.07899999999999
 20
148.329
 30
0.0
 11
-41.346
 21
148.329
 31
0.0
  0
LINE
  5
151
330
A
100
AcDbEntity
  8
PV
  6
Continuous
 62
     7
100
AcDbLine
 10
-21.878
 20
151.083
 30
0.0
 11
-20.508
 21
151.083
 31
0.0
  0
LINE
  5
152
330
A
100
AcDbEntity
  8
PV
  6
Continuous
 62
     7
100
AcDbLine
 10
-21.878
 20
151.083
 30
0.0
 11
-21.75699999999999
 21
151.772
 31
0.0
  0
LINE
  5
153
330
A
100
AcDbEntity
  8
PV
  6
Continuous
 62
     7
100
AcDbLine
 10
-20.504
 20
152.763
 30
0.0
 11
-19.82099999999999
 21
153.011
 31
0.0
  0
LINE
  5
154
330
A
100
AcDbEntity
  8
PV
  6
Continuous
 62
     7
100
AcDbLine
 10
-21.75699999999999
 20
151.772
 30
0.0
 11
-19.671
 21
151.772
 31
0.0
  0
LINE
  5
155
330
A
100
AcDbEntity
  8
PV
  6
Continuous
 62
     7
100
AcDbLine
 10
-28.675
 20
155.214
 30
0.0
 11
-27.973
 21
155.214
 31
0.0
  0
LINE
  5
156
330
A
100
AcDbEntity
  8
PV
  6
Continuous
 62
     7
100
AcDbLine
 10
-29.906
 20
148.329
 30
0.0
 11
-29.18699999999999
 21
148.329
 31
0.0
  0
LINE
  5
157
330
A
100
AcDbEntity
  8
PV
  6
Continuous
 62
     7
100
AcDbLine
 10
-32.042
 20
155.214
 30
0.0
 11
-29.663
 21
149.61
 31
0.0
  0
LINE
  5
158
330
A
100
AcDbEntity
  8
PV
  6
Continuous
 62
     7
100
AcDbLine
 10
-32.194
 20
153.718
 30
0.0
 11
-29.906
 21
148.329
 31
0.0
  0
LINE
  5
159
330
A
100
AcDbEntity
  8
PV
  6
Continuous
 62
     7
100
AcDbLine
 10
-33.869
 20
148.329
 30
0.0
 11
-32.655
 21
155.214
 31
0.0
  0
LINE
  5
15A
330
A
100
AcDbEntity
  8
PV
  6
Continuous
 62
     7
100
AcDbLine
 10
-33.144
 20
148.329
 30
0.0
 11
-32.194
 21
153.718
 31
0.0
  0
LINE
  5
15B
330
A
100
AcDbEntity
  8
PV
  6
Continuous
 62
     7
100
AcDbLine
 10
-29.663
 20
149.61
 30
0.0
 11
-28.675
 21
155.214
 31
0.0
  0
LINE
  5
15C
330
A
100
AcDbEntity
  8
PV
  6
Continuous
 62
     7
100
AcDbLine
 10
-29.18699999999999
 20
148.329
 30
0.0
 11
-27.973
 21
155.214
 31
0.0
  0
LINE
  5
15D
330
A
100
AcDbEntity
  8
PV
  6
Continuous
 62
     7
100
AcDbLine
 10
-32.655
 20
155.214
 30
0.0
 11
-32.042
 21
155.214
 31
0.0
  0
LINE
  5
15E
330
A
100
AcDbEntity
  8
PV
  6
Continuous
 62
     7
100
AcDbLine
 10
-33.869
 20
148.329
 30
0.0
 11
-33.144
 21
148.329
 31
0.0
  0
LINE
  5
15F
330
A
100
AcDbEntity
  8
PV
  6
Continuous
 62
     7
100
AcDbLine
 10
284.6199999999999
 20
-38.655
 30
0.0
 11
285.733
 21
-34.5
 31
0.0
  0
LINE
  5
160
330
A
100
AcDbEntity
  8
PV
  6
Continuous
 62
     7
100
AcDbLine
 10
285.733
 20
-34.5
 30
0.0
 11
286.846
 21
-38.655
 31
0.0
  0
LINE
  5
161
330
A
100
AcDbEntity
  8
PV
  6
Continuous
 62
     7
100
AcDbLine
 10
285.733
 20
-34.5
 30
0.0
 11
285.733
 21
-38.655
 31
0.0
  0
LINE
  5
162
330
A
100
AcDbEntity
  8
PV
  6
Continuous
 62
     7
100
AcDbLine
 10
286.846
 20
-205.845
 30
0.0
 11
285.733
 21
-210.0
 31
0.0
  0
LINE
  5
163
330
A
100
AcDbEntity
  8
PV
  6
Continuous
 62
     7
100
AcDbLine
 10
285.733
 20
-210.0
 30
0.0
 11
284.6199999999999
 21
-205.845
 31
0.0
  0
LINE
  5
164
330
A
100
AcDbEntity
  8
PV
  6
Continuous
 62
     7
100
AcDbLine
 10
285.733
 20
-210.0
 30
0.0
 11
285.733
 21
-205.845
 31
0.0
  0
LINE
  5
165
330
A
100
AcDbEntity
  8
PV
  6
Continuous
 62
     7
100
AcDbLine
 10
285.733
 20
-34.5
 30
0.0
 11
285.733
 21
-210.0
 31
0.0
  0
LINE
  5
166
330
A
100
AcDbEntity
  8
PV
  6
Continuous
 62
     7
100
AcDbLine
 10
213.446
 20
-34.5
 30
0.0
 11
289.162
 21
-34.5
 31
0.0
  0
LINE
  5
167
330
A
100
AcDbEntity
  8
PV
  6
Continuous
 62
     7
100
AcDbLine
 10
275.184
 20
-210.0
 30
0.0
 11
289.162
 21
-210.0
 31
0.0
  0
MTEXT
  5
168
330
A
100
AcDbEntity
  8
PV
  6
Continuous
 62
     7
100
AcDbMText
 10
275.6329999999999
 20
-122.2499999999999
 30
0.0
 40
8.4
 41
0.0
 71
     2
 72
     1
  1
\A1;175.5
 11
0.0
 21
1.0
 31
0.0
 73
     1
 44
1.0
  0
POINT
  5
169
330
A
100
AcDbEntity
  8
PV
  6
Continuous
 62
     7
100
AcDbPoint
 10
209.6359999999999
 20
-34.5
 30
0.0
  0
POINT
  5
16A
330
A
100
AcDbEntity
  8
PV
  6
Continuous
 62
     7
100
AcDbPoint
 10
271.374
 20
-210.0
 30
0.0
  0
POINT
  5
16B
330
A
100
AcDbEntity
  8
PV
  6
Continuous
 62
     7
100
AcDbPoint
 10
285.733
 20
-210.0
 30
0.0
  0
LINE
  5
16C
330
A
100
AcDbEntity
  8
PV
  6
Continuous
 62
     7
100
AcDbLine
 10
284.6199999999999
 20
6.844999999999999
 30
0.0
 11
285.733
 21
11.0
 31
0.0
  0
LINE
  5
16D
330
A
100
AcDbEntity
  8
PV
  6
Continuous
 62
     7
100
AcDbLine
 10
285.733
 20
11.0
 30
0.0
 11
286.846
 21
6.844999999999999
 31
0.0
  0
LINE
  5
16E
330
A
100
AcDbEntity
  8
PV
  6
Continuous
 62
     7
100
AcDbLine
 10
285.733
 20
11.0
 30
0.0
 11
285.733
 21
6.844999999999999
 31
0.0
  0
LINE
  5
16F
330
A
100
AcDbEntity
  8
PV
  6
Continuous
 62
     7
100
AcDbLine
 10
286.846
 20
-30.34499999999999
 30
0.0
 11
285.733
 21
-34.5
 31
0.0
  0
LINE
  5
170
330
A
100
AcDbEntity
  8
PV
  6
Continuous
 62
     7
100
AcDbLine
 10
285.733
 20
-34.5
 30
0.0
 11
284.6199999999999
 21
-30.34499999999999
 31
0.0
  0
LINE
  5
171
330
A
100
AcDbEntity
  8
PV
  6
Continuous
 62
     7
100
AcDbLine
 10
285.733
 20
-34.5
 30
0.0
 11
285.733
 21
-30.34499999999999
 31
0.0
  0
LINE
  5
172
330
A
100
AcDbEntity
  8
PV
  6
Continuous
 62
     7
100
AcDbLine
 10
285.733
 20
11.0
 30
0.0
 11
285.733
 21
-34.5
 31
0.0
  0
LINE
  5
173
330
A
100
AcDbEntity
  8
PV
  6
Continuous
 62
     7
100
AcDbLine
 10
211.782
 20
11.0
 30
0.0
 11
289.162
 21
11.0
 31
0.0
  0
MTEXT
  5
174
330
A
100
AcDbEntity
  8
PV
  6
Continuous
 62
     7
100
AcDbMText
 10
274.5829999999999
 20
-11.75
 30
0.0
 40
7.0
 41
0.0
 71
     2
 72
     1
  1
\W1.200;\A1;45.5
 11
0.0
 21
1.0
 31
0.0
 73
     1
 44
0.9
  0
POINT
  5
175
330
A
100
AcDbEntity
  8
PV
  6
Continuous
 62
     7
100
AcDbPoint
 10
207.972
 20
11.0
 30
0.0
  0
POINT
  5
176
330
A
100
AcDbEntity
  8
PV
  6
Continuous
 62
     7
100
AcDbPoint
 10
209.6359999999999
 20
-34.5
 30
0.0
  0
POINT
  5
177
330
A
100
AcDbEntity
  8
PV
  6
Continuous
 62
     7
100
AcDbPoint
 10
285.733
 20
-34.5
 30
0.0
  0
LINE
  5
178
330
A
100
AcDbEntity
  8
PV
  6
Continuous
 62
     7
100
AcDbLine
 10
109.068
 20
26.84499999999999
 30
0.0
 11
110.182
 21
31.0
 31
0.0
  0
LINE
  5
179
330
A
100
AcDbEntity
  8
PV
  6
Continuous
 62
     7
100
AcDbLine
 10
110.182
 20
31.0
 30
0.0
 11
111.295
 21
26.84499999999999
 31
0.0
  0
LINE
  5
17A
330
A
100
AcDbEntity
  8
PV
  6
Continuous
 62
     7
100
AcDbLine
 10
110.182
 20
31.0
 30
0.0
 11
110.182
 21
26.84499999999999
 31
0.0
  0
LINE
  5
17B
330
A
100
AcDbEntity
  8
PV
  6
Continuous
 62
     7
100
AcDbLine
 10
111.295
 20
-205.845
 30
0.0
 11
110.182
 21
-210.0
 31
0.0
  0
LINE
  5
17C
330
A
100
AcDbEntity
  8
PV
  6
Continuous
 62
     7
100
AcDbLine
 10
110.182
 20
-210.0
 30
0.0
 11
109.068
 21
-205.845
 31
0.0
  0
LINE
  5
17D
330
A
100
AcDbEntity
  8
PV
  6
Continuous
 62
     7
100
AcDbLine
 10
110.182
 20
-210.0
 30
0.0
 11
110.182
 21
-205.845
 31
0.0
  0
LINE
  5
17E
330
A
100
AcDbEntity
  8
PV
  6
Continuous
 62
     7
100
AcDbLine
 10
110.182
 20
31.0
 30
0.0
 11
110.182
 21
-210.0
 31
0.0
  0
LINE
  5
17F
330
A
100
AcDbEntity
  8
PV
  6
Continuous
 62
     7
100
AcDbLine
 10
57.68399999999999
 20
31.0
 30
0.0
 11
113.611
 21
31.0
 31
0.0
  0
LINE
  5
180
330
A
100
AcDbEntity
  8
PV
  6
Continuous
 62
     7
100
AcDbLine
 10
75.18399999999999
 20
-210.0
 30
0.0
 11
113.611
 21
-210.0
 31
0.0
  0
MTEXT
  5
181
330
A
100
AcDbEntity
  8
PV
  6
Continuous
 62
     7
100
AcDbMText
 10
100.082
 20
-89.50000000000001
 30
0.0
 40
8.4
 41
0.0
 71
     2
 72
     1
  1
\A1;241
 11
0.0
 21
1.0
 31
0.0
 73
     1
 44
1.0
  0
POINT
  5
182
330
A
100
AcDbEntity
  8
PV
  6
Continuous
 62
     7
100
AcDbPoint
 10
53.87399999999999
 20
31.0
 30
0.0
  0
POINT
  5
183
330
A
100
AcDbEntity
  8
PV
  6
Continuous
 62
     7
100
AcDbPoint
 10
71.37399999999999
 20
-210.0
 30
0.0
  0
POINT
  5
184
330
A
100
AcDbEntity
  8
PV
  6
Continuous
 62
     7
100
AcDbPoint
 10
110.182
 20
-210.0
 30
0.0
  0
LINE
  5
185
330
A
100
AcDbEntity
  8
PV
  6
Continuous
 62
     7
100
AcDbLine
 10
91.58100000000001
 20
26.84499999999999
 30
0.0
 11
92.694
 21
31.0
 31
0.0
  0
LINE
  5
186
330
A
100
AcDbEntity
  8
PV
  6
Continuous
 62
     7
100
AcDbLine
 10
92.694
 20
31.0
 30
0.0
 11
93.807
 21
26.84499999999999
 31
0.0
  0
LINE
  5
187
330
A
100
AcDbEntity
  8
PV
  6
Continuous
 62
     7
100
AcDbLine
 10
92.694
 20
31.0
 30
0.0
 11
92.694
 21
26.84499999999999
 31
0.0
  0
LINE
  5
188
330
A
100
AcDbEntity
  8
PV
  6
Continuous
 62
     7
100
AcDbLine
 10
93.807
 20
-39.34499999999999
 30
0.0
 11
92.694
 21
-43.5
 31
0.0
  0
LINE
  5
189
330
A
100
AcDbEntity
  8
PV
  6
Continuous
 62
     7
100
AcDbLine
 10
92.694
 20
-43.5
 30
0.0
 11
91.58100000000001
 21
-39.34499999999999
 31
0.0
  0
LINE
  5
18A
330
A
100
AcDbEntity
  8
PV
  6
Continuous
 62
     7
100
AcDbLine
 10
92.694
 20
-43.5
 30
0.0
 11
92.694
 21
-39.34499999999999
 31
0.0
  0
LINE
  5
18B
330
A
100
AcDbEntity
  8
PV
  6
Continuous
 62
     7
100
AcDbLine
 10
92.694
 20
31.0
 30
0.0
 11
92.694
 21
-43.5
 31
0.0
  0
MTEXT
  5
18C
330
A
100
AcDbEntity
  8
PV
  6
Continuous
 62
     7
100
AcDbMText
 10
82.59399999999999
 20
-6.25
 30
0.0
 40
8.4
 41
0.0
 71
     2
 72
     1
  1
\A1;74.5
 11
0.0
 21
1.0
 31
0.0
 73
     1
 44
1.0
  0
POINT
  5
18D
330
A
100
AcDbEntity
  8
PV
  6
Continuous
 62
     7
100
AcDbPoint
 10
53.87399999999999
 20
31.0
 30
0.0
  0
POINT
  5
18E
330
A
100
AcDbEntity
  8
PV
  6
Continuous
 62
     7
100
AcDbPoint
 10
53.841
 20
-43.5
 30
0.0
  0
POINT
  5
18F
330
A
100
AcDbEntity
  8
PV
  6
Continuous
 62
     7
100
AcDbPoint
 10
92.694
 20
-43.5
 30
0.0
  0
LINE
  5
190
330
A
100
AcDbEntity
  8
PV
  6
Continuous
 62
     7
100
AcDbLine
 10
91.58100000000001
 20
-47.655
 30
0.0
 11
92.694
 21
-43.5
 31
0.0
  0
LINE
  5
191
330
A
100
AcDbEntity
  8
PV
  6
Continuous
 62
     7
100
AcDbLine
 10
92.694
 20
-43.5
 30
0.0
 11
93.807
 21
-47.655
 31
0.0
  0
LINE
  5
192
330
A
100
AcDbEntity
  8
PV
  6
Continuous
 62
     7
100
AcDbLine
 10
92.694
 20
-43.5
 30
0.0
 11
92.694
 21
-47.655
 31
0.0
  0
LINE
  5
193
330
A
100
AcDbEntity
  8
PV
  6
Continuous
 62
     7
100
AcDbLine
 10
93.807
 20
-205.845
 30
0.0
 11
92.694
 21
-210.0
 31
0.0
  0
LINE
  5
194
330
A
100
AcDbEntity
  8
PV
  6
Continuous
 62
     7
100
AcDbLine
 10
92.694
 20
-210.0
 30
0.0
 11
91.58100000000001
 21
-205.845
 31
0.0
  0
LINE
  5
195
330
A
100
AcDbEntity
  8
PV
  6
Continuous
 62
     7
100
AcDbLine
 10
92.694
 20
-210.0
 30
0.0
 11
92.694
 21
-205.845
 31
0.0
  0
LINE
  5
196
330
A
100
AcDbEntity
  8
PV
  6
Continuous
 62
     7
100
AcDbLine
 10
92.694
 20
-43.5
 30
0.0
 11
92.694
 21
-210.0
 31
0.0
  0
LINE
  5
197
330
A
100
AcDbEntity
  8
PV
  6
Continuous
 62
     7
100
AcDbLine
 10
57.651
 20
-43.5
 30
0.0
 11
96.12299999999999
 21
-43.5
 31
0.0
  0
MTEXT
  5
198
330
A
100
AcDbEntity
  8
PV
  6
Continuous
 62
     7
100
AcDbMText
 10
82.59399999999999
 20
-126.75
 30
0.0
 40
8.4
 41
0.0
 71
     2
 72
     1
  1
\A1;166.5
 11
0.0
 21
1.0
 31
0.0
 73
     1
 44
1.0
  0
POINT
  5
199
330
A
100
AcDbEntity
  8
PV
  6
Continuous
 62
     7
100
AcDbPoint
 10
53.841
 20
-43.5
 30
0.0
  0
POINT
  5
19A
330
A
100
AcDbEntity
  8
PV
  6
Continuous
 62
     7
100
AcDbPoint
 10
71.37399999999999
 20
-210.0
 30
0.0
  0
POINT
  5
19B
330
A
100
AcDbEntity
  8
PV
  6
Continuous
 62
     7
100
AcDbPoint
 10
92.694
 20
-210.0
 30
0.0
  0
LINE
  5
19C
330
A
100
AcDbEntity
  8
PV
  6
Continuous
 62
     7
100
AcDbLine
 10
-132.307
 20
-178.345
 30
0.0
 11
-133.4209999999999
 21
-182.5
 31
0.0
  0
LINE
  5
19D
330
A
100
AcDbEntity
  8
PV
  6
Continuous
 62
     7
100
AcDbLine
 10
-133.4209999999999
 20
-182.5
 30
0.0
 11
-134.5339999999999
 21
-178.345
 31
0.0
  0
LINE
  5
19E
330
A
100
AcDbEntity
  8
PV
  6
Continuous
 62
     7
100
AcDbLine
 10
-133.4209999999999
 20
-182.5
 30
0.0
 11
-133.4209999999999
 21
-178.345
 31
0.0
  0
LINE
  5
19F
330
A
100
AcDbEntity
  8
PV
  6
Continuous
 62
     7
100
AcDbLine
 10
-134.5339999999999
 20
-41.655
 30
0.0
 11
-133.4209999999999
 21
-37.5
 31
0.0
  0
LINE
  5
1A0
330
A
100
AcDbEntity
  8
PV
  6
Continuous
 62
     7
100
AcDbLine
 10
-133.4209999999999
 20
-37.5
 30
0.0
 11
-132.307
 21
-41.655
 31
0.0
  0
LINE
  5
1A1
330
A
100
AcDbEntity
  8
PV
  6
Continuous
 62
     7
100
AcDbLine
 10
-133.4209999999999
 20
-37.5
 30
0.0
 11
-133.4209999999999
 21
-41.655
 31
0.0
  0
LINE
  5
1A2
330
A
100
AcDbEntity
  8
PV
  6
Continuous
 62
     7
100
AcDbLine
 10
-133.4209999999999
 20
-182.5
 30
0.0
 11
-133.4209999999999
 21
-37.5
 31
0.0
  0
LINE
  5
1A3
330
A
100
AcDbEntity
  8
PV
  6
Continuous
 62
     7
100
AcDbLine
 10
-104.936
 20
-182.5
 30
0.0
 11
-136.85
 21
-182.5
 31
0.0
  0
LINE
  5
1A4
330
A
100
AcDbEntity
  8
PV
  6
Continuous
 62
     7
100
AcDbLine
 10
-104.936
 20
-37.5
 30
0.0
 11
-136.85
 21
-37.5
 31
0.0
  0
MTEXT
  5
1A5
330
A
100
AcDbEntity
  8
PV
  6
Continuous
 62
     7
100
AcDbMText
 10
-143.521
 20
-88.192
 30
0.0
 40
8.4
 41
0.0
 71
     2
 72
     1
  1
\A1;\U+2205145
 11
0.0
 21
1.0
 31
0.0
 73
     1
 44
1.0
  0
POINT
  5
1A6
330
A
100
AcDbEntity
  8
PV
  6
Continuous
 62
     7
100
AcDbPoint
 10
-101.126
 20
-182.5
 30
0.0
  0
POINT
  5
1A7
330
A
100
AcDbEntity
  8
PV
  6
Continuous
 62
     7
100
AcDbPoint
 10
-101.126
 20
-37.5
 30
0.0
  0
POINT
  5
1A8
330
A
100
AcDbEntity
  8
PV
  6
Continuous
 62
     7
100
AcDbPoint
 10
-133.4209999999999
 20
-37.5
 30
0.0
  0
LINE
  5
1A9
330
A
100
AcDbEntity
  8
PV
  6
Continuous
 62
     7
100
AcDbLine
 10
67.21899999999999
 20
-229.172
 30
0.0
 11
71.37399999999999
 21
-230.2849999999999
 31
0.0
  0
LINE
  5
1AA
330
A
100
AcDbEntity
  8
PV
  6
Continuous
 62
     7
100
AcDbLine
 10
71.37399999999999
 20
-230.2849999999999
 30
0.0
 11
67.21899999999999
 21
-231.3979999999999
 31
0.0
  0
LINE
  5
1AB
330
A
100
AcDbEntity
  8
PV
  6
Continuous
 62
     7
100
AcDbLine
 10
71.37399999999999
 20
-230.2849999999999
 30
0.0
 11
67.21899999999999
 21
-230.2849999999999
 31
0.0
  0
LINE
  5
1AC
330
A
100
AcDbEntity
  8
PV
  6
Continuous
 62
     7
100
AcDbLine
 10
-69.471
 20
-231.3979999999999
 30
0.0
 11
-73.626
 21
-230.2849999999999
 31
0.0
  0
LINE
  5
1AD
330
A
100
AcDbEntity
  8
PV
  6
Continuous
 62
     7
100
AcDbLine
 10
-73.626
 20
-230.2849999999999
 30
0.0
 11
-69.471
 21
-229.172
 31
0.0
  0
LINE
  5
1AE
330
A
100
AcDbEntity
  8
PV
  6
Continuous
 62
     7
100
AcDbLine
 10
-73.626
 20
-230.2849999999999
 30
0.0
 11
-69.471
 21
-230.2849999999999
 31
0.0
  0
LINE
  5
1AF
330
A
100
AcDbEntity
  8
PV
  6
Continuous
 62
     7
100
AcDbLine
 10
71.37399999999999
 20
-230.2849999999999
 30
0.0
 11
-73.626
 21
-230.2849999999999
 31
0.0
  0
LINE
  5
1B0
330
A
100
AcDbEntity
  8
PV
  6
Continuous
 62
     7
100
AcDbLine
 10
71.37399999999999
 20
-213.81
 30
0.0
 11
71.37399999999999
 21
-233.714
 31
0.0
  0
LINE
  5
1B1
330
A
100
AcDbEntity
  8
PV
  6
Continuous
 62
     7
100
AcDbLine
 10
-73.626
 20
-213.81
 30
0.0
 11
-73.626
 21
-233.714
 31
0.0
  0
MTEXT
  5
1B2
330
A
100
AcDbEntity
  8
PV
  6
Continuous
 62
     7
100
AcDbMText
 10
19.778
 20
-220.1849999999999
 30
0.0
 40
8.4
 41
0.0
 71
     2
 72
     1
  1
\A1;\U+2205145
 73
     1
 44
1.0
  0
POINT
  5
1B3
330
A
100
AcDbEntity
  8
PV
  6
Continuous
 62
     7
100
AcDbPoint
 10
71.37399999999999
 20
-210.0
 30
0.0
  0
POINT
  5
1B4
330
A
100
AcDbEntity
  8
PV
  6
Continuous
 62
     7
100
AcDbPoint
 10
-73.626
 20
-210.0
 30
0.0
  0
POINT
  5
1B5
330
A
100
AcDbEntity
  8
PV
  6
Continuous
 62
     7
100
AcDbPoint
 10
-73.626
 20
-230.2849999999999
 30
0.0
  0
LINE
  5
1B6
330
A
100
AcDbEntity
  8
PV
  6
Continuous
 62
     7
100
AcDbLine
 10
49.71899999999999
 20
-178.2599999999999
 30
0.0
 11
53.87399999999999
 21
-179.374
 31
0.0
  0
LINE
  5
1B7
330
A
100
AcDbEntity
  8
PV
  6
Continuous
 62
     7
100
AcDbLine
 10
53.87399999999999
 20
-179.374
 30
0.0
 11
49.71899999999999
 21
-180.487
 31
0.0
  0
LINE
  5
1B8
330
A
100
AcDbEntity
  8
PV
  6
Continuous
 62
     7
100
AcDbLine
 10
53.87399999999999
 20
-179.374
 30
0.0
 11
49.71899999999999
 21
-179.374
 31
0.0
  0
LINE
  5
1B9
330
A
100
AcDbEntity
  8
PV
  6
Continuous
 62
     7
100
AcDbLine
 10
-51.971
 20
-180.487
 30
0.0
 11
-56.126
 21
-179.374
 31
0.0
  0
LINE
  5
1BA
330
A
100
AcDbEntity
  8
PV
  6
Continuous
 62
     7
100
AcDbLine
 10
-56.126
 20
-179.374
 30
0.0
 11
-51.971
 21
-178.2599999999999
 31
0.0
  0
LINE
  5
1BB
330
A
100
AcDbEntity
  8
PV
  6
Continuous
 62
     7
100
AcDbLine
 10
-56.126
 20
-179.374
 30
0.0
 11
-51.971
 21
-179.374
 31
0.0
  0
LINE
  5
1BC
330
A
100
AcDbEntity
  8
PV
  6
Continuous
 62
     7
100
AcDbLine
 10
53.87399999999999
 20
-179.374
 30
0.0
 11
-56.126
 21
-179.374
 31
0.0
  0
LINE
  5
1BD
330
A
100
AcDbEntity
  8
PV
  6
Continuous
 62
     7
100
AcDbLine
 10
53.87399999999999
 20
-166.31
 30
0.0
 11
53.87399999999999
 21
-181.66
 31
0.0
  0
LINE
  5
1BE
330
A
100
AcDbEntity
  8
PV
  6
Continuous
 62
     7
100
AcDbLine
 10
-56.126
 20
-166.31
 30
0.0
 11
-56.126
 21
-181.66
 31
0.0
  0
MTEXT
  5
1BF
330
A
100
AcDbEntity
  8
PV
  6
Continuous
 62
     7
100
AcDbMText
 10
17.076
 20
-169.274
 30
0.0
 40
8.4
 41
0.0
 71
     2
 72
     1
  1
\A1;\U+2205110
 73
     1
 44
1.0
  0
POINT
  5
1C0
330
A
100
AcDbEntity
  8
PV
  6
Continuous
 62
     7
100
AcDbPoint
 10
53.87399999999999
 20
-162.5
 30
0.0
  0
POINT
  5
1C1
330
A
100
AcDbEntity
  8
PV
  6
Continuous
 62
     7
100
AcDbPoint
 10
-56.126
 20
-162.5
 30
0.0
  0
POINT
  5
1C2
330
A
100
AcDbEntity
  8
PV
  6
Continuous
 62
     7
100
AcDbPoint
 10
-56.126
 20
-179.374
 30
0.0
  0
LINE
  5
1C3
330
A
100
AcDbEntity
  8
PV
  6
Continuous
 62
     7
100
AcDbLine
 10
-158.2629999999999
 20
-205.845
 30
0.0
 11
-159.376
 21
-210.0
 31
0.0
  0
LINE
  5
1C4
330
A
100
AcDbEntity
  8
PV
  6
Continuous
 62
     7
100
AcDbLine
 10
-159.376
 20
-210.0
 30
0.0
 11
-160.49
 21
-205.845
 31
0.0
  0
LINE
  5
1C5
330
A
100
AcDbEntity
  8
PV
  6
Continuous
 62
     7
100
AcDbLine
 10
-159.376
 20
-210.0
 30
0.0
 11
-159.376
 21
-205.845
 31
0.0
  0
LINE
  5
1C6
330
A
100
AcDbEntity
  8
PV
  6
Continuous
 62
     7
100
AcDbLine
 10
-160.49
 20
-114.155
 30
0.0
 11
-159.376
 21
-110.0
 31
0.0
  0
LINE
  5
1C7
330
A
100
AcDbEntity
  8
PV
  6
Continuous
 62
     7
100
AcDbLine
 10
-159.376
 20
-110.0
 30
0.0
 11
-158.2629999999999
 21
-114.155
 31
0.0
  0
LINE
  5
1C8
330
A
100
AcDbEntity
  8
PV
  6
Continuous
 62
     7
100
AcDbLine
 10
-159.376
 20
-110.0
 30
0.0
 11
-159.376
 21
-114.155
 31
0.0
  0
LINE
  5
1C9
330
A
100
AcDbEntity
  8
PV
  6
Continuous
 62
     7
100
AcDbLine
 10
-159.376
 20
-210.0
 30
0.0
 11
-159.376
 21
-110.0
 31
0.0
  0
LINE
  5
1CA
330
A
100
AcDbEntity
  8
PV
  6
Continuous
 62
     7
100
AcDbLine
 10
-81.34162299999999
 20
-210.0
 30
0.0
 11
-162.8049999999999
 21
-210.0
 31
0.0
  0
LINE
  5
1CB
330
A
100
AcDbEntity
  8
PV
  6
Continuous
 62
     7
100
AcDbLine
 10
-115.502941
 20
-110.0
 30
0.0
 11
-162.8049999999999
 21
-110.0
 31
0.0
  0
MTEXT
  5
1CC
330
A
100
AcDbEntity
  8
PV
  6
Continuous
 62
     7
100
AcDbMText
 10
-169.476
 20
-155.5239999999999
 30
0.0
 40
8.4
 41
0.0
 71
     2
 72
     1
  1
\A1;100
 11
0.0
 21
1.0
 31
0.0
 73
     1
 44
1.0
  0
POINT
  5
1CD
330
A
100
AcDbEntity
  8
PV
  6
Continuous
 62
     7
100
AcDbPoint
 10
-73.626
 20
-210.0
 30
0.0
  0
POINT
  5
1CE
330
A
100
AcDbEntity
  8
PV
  6
Continuous
 62
     7
100
AcDbPoint
 10
-108.641
 20
-110.0
 30
0.0
  0
POINT
  5
1CF
330
A
100
AcDbEntity
  8
PV
  6
Continuous
 62
     7
100
AcDbPoint
 10
-159.376
 20
-110.0
 30
0.0
  0
LINE
  5
1D0
330
A
100
AcDbEntity
  8
PV
  6
Continuous
 62
     7
100
AcDbLine
 10
-5.281
 20
-253.642
 30
0.0
 11
-1.125999999999999
 21
-254.755
 31
0.0
  0
LINE
  5
1D1
330
A
100
AcDbEntity
  8
PV
  6
Continuous
 62
     7
100
AcDbLine
 10
-1.125999999999999
 20
-254.755
 30
0.0
 11
-5.281
 21
-255.8679999999999
 31
0.0
  0
LINE
  5
1D2
330
A
100
AcDbEntity
  8
PV
  6
Continuous
 62
     7
100
AcDbLine
 10
-1.125999999999999
 20
-254.755
 30
0.0
 11
-5.281
 21
-254.755
 31
0.0
  0
LINE
  5
1D3
330
A
100
AcDbEntity
  8
PV
  6
Continuous
 62
     7
100
AcDbLine
 10
-96.971
 20
-255.8679999999999
 30
0.0
 11
-101.126
 21
-254.755
 31
0.0
  0
LINE
  5
1D4
330
A
100
AcDbEntity
  8
PV
  6
Continuous
 62
     7
100
AcDbLine
 10
-101.126
 20
-254.755
 30
0.0
 11
-96.971
 21
-253.642
 31
0.0
  0
LINE
  5
1D5
330
A
100
AcDbEntity
  8
PV
  6
Continuous
 62
     7
100
AcDbLine
 10
-101.126
 20
-254.755
 30
0.0
 11
-96.971
 21
-254.755
 31
0.0
  0
LINE
  5
1D6
330
A
100
AcDbEntity
  8
PV
  6
Continuous
 62
     7
100
AcDbLine
 10
-1.125999999999999
 20
-254.755
 30
0.0
 11
-101.126
 21
-254.755
 31
0.0
  0
LINE
  5
1D7
330
A
100
AcDbEntity
  8
PV
  6
Continuous
 62
     7
100
AcDbLine
 10
-1.125999999999999
 20
-252.81
 30
0.0
 11
-1.125999999999999
 21
-225.814825
 31
0.0
  0
LINE
  5
1D8
330
A
100
AcDbEntity
  8
PV
  6
Continuous
 62
     7
100
AcDbLine
 10
-101.126
 20
-189.787422
 30
0.0
 11
-101.126
 21
-258.184
 31
0.0
  0
MTEXT
  5
1D9
330
A
100
AcDbEntity
  8
PV
  6
Continuous
 62
     7
100
AcDbMText
 10
-51.126
 20
-244.655
 30
0.0
 40
8.4
 41
0.0
 71
     2
 72
     1
  1
\A1;100
 73
     1
 44
1.0
  0
POINT
  5
1DA
330
A
100
AcDbEntity
  8
PV
  6
Continuous
 62
     7
100
AcDbPoint
 10
-1.125999999999999
 20
-240.0
 30
0.0
  0
POINT
  5
1DB
330
A
100
AcDbEntity
  8
PV
  6
Continuous
 62
     7
100
AcDbPoint
 10
-101.126
 20
-182.5
 30
0.0
  0
POINT
  5
1DC
330
A
100
AcDbEntity
  8
PV
  6
Continuous
 62
     7
100
AcDbPoint
 10
-101.126
 20
-254.755
 30
0.0
  0
LINE
  5
1DD
330
A
100
AcDbEntity
  8
PV
  6
Continuous
 62
     7
100
AcDbLine
 10
-96.971
 20
237.589
 30
0.0
 11
-101.126
 21
238.702
 31
0.0
  0
LINE
  5
1DE
330
A
100
AcDbEntity
  8
PV
  6
Continuous
 62
     7
100
AcDbLine
 10
-101.126
 20
238.702
 30
0.0
 11
-96.971
 21
239.8159999999999
 31
0.0
  0
LINE
  5
1DF
330
A
100
AcDbEntity
  8
PV
  6
Continuous
 62
     7
100
AcDbLine
 10
-101.126
 20
238.702
 30
0.0
 11
-96.971
 21
238.702
 31
0.0
  0
LINE
  5
1E0
330
A
100
AcDbEntity
  8
PV
  6
Continuous
 62
     7
100
AcDbLine
 10
67.21899999999999
 20
239.8159999999999
 30
0.0
 11
71.37399999999999
 21
238.702
 31
0.0
  0
LINE
  5
1E1
330
A
100
AcDbEntity
  8
PV
  6
Continuous
 62
     7
100
AcDbLine
 10
71.37399999999999
 20
238.702
 30
0.0
 11
67.21899999999999
 21
237.589
 31
0.0
  0
LINE
  5
1E2
330
A
100
AcDbEntity
  8
PV
  6
Continuous
 62
     7
100
AcDbLine
 10
71.37399999999999
 20
238.702
 30
0.0
 11
67.21899999999999
 21
238.702
 31
0.0
  0
LINE
  5
1E3
330
A
100
AcDbEntity
  8
PV
  6
Continuous
 62
     7
100
AcDbLine
 10
-101.126
 20
238.702
 30
0.0
 11
71.37399999999999
 21
238.702
 31
0.0
  0
LINE
  5
1E4
330
A
100
AcDbEntity
  8
PV
  6
Continuous
 62
     7
100
AcDbLine
 10
-101.126
 20
219.3159999999999
 30
0.0
 11
-101.126
 21
242.1309999999999
 31
0.0
  0
LINE
  5
1E5
330
A
100
AcDbEntity
  8
PV
  6
Continuous
 62
     7
100
AcDbLine
 10
71.37399999999999
 20
146.816
 30
0.0
 11
71.37399999999999
 21
242.1309999999999
 31
0.0
  0
MTEXT
  5
1E6
330
A
100
AcDbEntity
  8
PV
  6
Continuous
 62
     7
100
AcDbMText
 10
-14.876
 20
248.802
 30
0.0
 40
8.4
 41
0.0
 71
     2
 72
     1
  1
\A1;172.5
 73
     1
 44
1.0
  0
POINT
  5
1E7
330
A
100
AcDbEntity
  8
PV
  6
Continuous
 62
     7
100
AcDbPoint
 10
-101.126
 20
215.5059999999999
 30
0.0
  0
POINT
  5
1E8
330
A
100
AcDbEntity
  8
PV
  6
Continuous
 62
     7
100
AcDbPoint
 10
71.37399999999999
 20
143.006
 30
0.0
  0
POINT
  5
1E9
330
A
100
AcDbEntity
  8
PV
  6
Continuous
 62
     7
100
AcDbPoint
 10
71.37399999999999
 20
238.702
 30
0.0
  0
LINE
  5
1EA
330
A
100
AcDbEntity
  8
PV
  6
Continuous
 62
     7
100
AcDbLine
 10
-204.860481
 20
95.67372500000001
 30
0.0
 11
-208.067573
 21
92.807732
 31
0.0
  0
LINE
  5
1EB
330
A
100
AcDbEntity
  8
PV
  6
Continuous
 62
     7
100
AcDbLine
 10
-208.067573
 20
92.807732
 30
0.0
 11
-206.723471
 21
96.89362
 31
0.0
  0
LINE
  5
1EC
330
A
100
AcDbEntity
  8
PV
  6
Continuous
 62
     7
100
AcDbLine
 10
-208.067573
 20
92.807732
 30
0.0
 11
-205.791593
 21
96.28399399999999
 31
0.0
  0
LINE
  5
1ED
330
A
100
AcDbEntity
  8
PV
  6
Continuous
 62
     7
100
AcDbLine
 10
-208.067573
 20
92.807732
 30
0.0
 11
-136.284057
 21
202.4534159999999
 31
0.0
  0
MTEXT
  5
1EE
330
A
100
AcDbEntity
  8
PV
  6
Continuous
 62
     7
100
AcDbMText
 10
-158.134386
 20
188.561959
 30
0.0
 40
8.4
 41
0.0
 71
     2
 72
     1
  1
\A1;PCD 120
 11
0.5477481695409567
 21
0.8366432589607896
 31
0.0
 73
     1
 44
1.0
  0
POINT
  5
1EF
330
A
100
AcDbEntity
  8
PV
  6
Continuous
 62
     7
100
AcDbPoint
 10
-160.488
 20
147.446
 30
0.0
  0
POINT
  5
1F0
330
A
100
AcDbEntity
  8
PV
  6
Continuous
 62
     7
100
AcDbPoint
 10
-208.067573
 20
92.807732
 30
0.0
  0
POINT
  5
1F1
330
A
100
AcDbEntity
  8
PV
  6
Continuous
 62
     7
100
AcDbPoint
 10
-214.63
 20
190.629
 30
0.0
  0
POINT
  5
1F2
330
A
100
AcDbEntity
  8
PV
  6
Continuous
 62
     7
100
AcDbPoint
 10
-220.63
 20
180.2369999999999
 30
0.0
  0
CIRCLE
  5
1F3
330
A
100
AcDbEntity
  8
PV
  6
Continuous
 62
     7
100
AcDbCircle
 10
41.87399999999999
 20
100.0059999999999
 30
0.0
 40
6.961
  0
CIRCLE
  5
1F4
330
A
100
AcDbEntity
  8
PV
  6
Continuous
 62
     7
100
AcDbCircle
 10
41.87399999999999
 20
100.0059999999999
 30
0.0
 40
8.0
  0
LINE
  5
1F5
330
A
100
AcDbEntity
  8
PV
  6
Continuous
 62
     7
100
AcDbLine
 10
45.87399999999999
 20
97.61600000000001
 30
0.0
 11
41.87399999999999
 21
95.30599999999999
 31
0.0
  0
LINE
  5
1F6
330
A
100
AcDbEntity
  8
PV
  6
Continuous
 62
     7
100
AcDbLine
 10
41.87399999999999
 20
104.706
 30
0.0
 11
45.87399999999999
 21
102.397
 31
0.0
  0
LINE
  5
1F7
330
A
100
AcDbEntity
  8
PV
  6
Continuous
 62
     7
100
AcDbLine
 10
45.87399999999999
 20
102.397
 30
0.0
 11
45.87399999999999
 21
97.61600000000001
 31
0.0
  0
LINE
  5
1F8
330
A
100
AcDbEntity
  8
PV
  6
Continuous
 62
     7
100
AcDbLine
 10
37.874
 20
102.397
 30
0.0
 11
37.874
 21
97.61600000000001
 31
0.0
  0
LINE
  5
1F9
330
A
100
AcDbEntity
  8
PV
  6
Continuous
 62
     7
100
AcDbLine
 10
41.87399999999999
 20
95.30599999999999
 30
0.0
 11
37.874
 21
97.61600000000001
 31
0.0
  0
LINE
  5
1FA
330
A
100
AcDbEntity
  8
PV
  6
Continuous
 62
     7
100
AcDbLine
 10
37.874
 20
102.397
 30
0.0
 11
41.87399999999999
 21
104.706
 31
0.0
  0
CIRCLE
  5
1FB
330
A
100
AcDbEntity
  8
PV
  6
Continuous
 62
     7
100
AcDbCircle
 10
41.87399999999999
 20
186.0059999999999
 30
0.0
 40
6.961
  0
CIRCLE
  5
1FC
330
A
100
AcDbEntity
  8
PV
  6
Continuous
 62
     7
100
AcDbCircle
 10
41.87399999999999
 20
186.0059999999999
 30
0.0
 40
8.0
  0
LINE
  5
1FD
330
A
100
AcDbEntity
  8
PV
  6
Continuous
 62
     7
100
AcDbLine
 10
37.874
 20
183.6159999999999
 30
0.0
 11
41.87399999999999
 21
181.3059999999999
 31
0.0
  0
LINE
  5
1FE
330
A
100
AcDbEntity
  8
PV
  6
Continuous
 62
     7
100
AcDbLine
 10
41.87399999999999
 20
190.7059999999999
 30
0.0
 11
37.874
 21
188.397
 31
0.0
  0
LINE
  5
1FF
330
A
100
AcDbEntity
  8
PV
  6
Continuous
 62
     7
100
AcDbLine
 10
37.874
 20
188.397
 30
0.0
 11
37.874
 21
183.6159999999999
 31
0.0
  0
LINE
  5
200
330
A
100
AcDbEntity
  8
PV
  6
Continuous
 62
     7
100
AcDbLine
 10
45.87399999999999
 20
188.397
 30
0.0
 11
45.87399999999999
 21
183.6159999999999
 31
0.0
  0
LINE
  5
201
330
A
100
AcDbEntity
  8
PV
  6
Continuous
 62
     7
100
AcDbLine
 10
41.87399999999999
 20
181.3059999999999
 30
0.0
 11
45.87399999999999
 21
183.6159999999999
 31
0.0
  0
LINE
  5
202
330
A
100
AcDbEntity
  8
PV
  6
Continuous
 62
     7
100
AcDbLine
 10
45.87399999999999
 20
188.397
 30
0.0
 11
41.87399999999999
 21
190.7059999999999
 31
0.0
  0
CIRCLE
  5
203
330
A
100
AcDbEntity
  8
PV
  6
Continuous
 62
     7
100
AcDbCircle
 10
-44.126
 20
186.0059999999999
 30
0.0
 40
6.961
  0
CIRCLE
  5
204
330
A
100
AcDbEntity
  8
PV
  6
Continuous
 62
     7
100
AcDbCircle
 10
-44.126
 20
186.0059999999999
 30
0.0
 40
8.0
  0
LINE
  5
205
330
A
100
AcDbEntity
  8
PV
  6
Continuous
 62
     7
100
AcDbLine
 10
-48.126
 20
183.6159999999999
 30
0.0
 11
-44.126
 21
181.3059999999999
 31
0.0
  0
LINE
  5
206
330
A
100
AcDbEntity
  8
PV
  6
Continuous
 62
     7
100
AcDbLine
 10
-44.126
 20
190.7059999999999
 30
0.0
 11
-48.126
 21
188.397
 31
0.0
  0
LINE
  5
207
330
A
100
AcDbEntity
  8
PV
  6
Continuous
 62
     7
100
AcDbLine
 10
-48.126
 20
188.397
 30
0.0
 11
-48.126
 21
183.6159999999999
 31
0.0
  0
LINE
  5
208
330
A
100
AcDbEntity
  8
PV
  6
Continuous
 62
     7
100
AcDbLine
 10
-40.12599999999999
 20
188.397
 30
0.0
 11
-40.12599999999999
 21
183.6159999999999
 31
0.0
  0
LINE
  5
209
330
A
100
AcDbEntity
  8
PV
  6
Continuous
 62
     7
100
AcDbLine
 10
-44.126
 20
181.3059999999999
 30
0.0
 11
-40.12599999999999
 21
183.6159999999999
 31
0.0
  0
LINE
  5
20A
330
A
100
AcDbEntity
  8
PV
  6
Continuous
 62
     7
100
AcDbLine
 10
-40.12599999999999
 20
188.397
 30
0.0
 11
-44.126
 21
190.7059999999999
 31
0.0
  0
CIRCLE
  5
20B
330
A
100
AcDbEntity
  8
PV
  6
Continuous
 62
     7
100
AcDbCircle
 10
-44.126
 20
100.0059999999999
 30
0.0
 40
6.961
  0
CIRCLE
  5
20C
330
A
100
AcDbEntity
  8
PV
  6
Continuous
 62
     7
100
AcDbCircle
 10
-44.126
 20
100.0059999999999
 30
0.0
 40
8.0
  0
LINE
  5
20D
330
A
100
AcDbEntity
  8
PV
  6
Continuous
 62
     7
100
AcDbLine
 10
-48.126
 20
97.61600000000001
 30
0.0
 11
-44.126
 21
95.30599999999999
 31
0.0
  0
LINE
  5
20E
330
A
100
AcDbEntity
  8
PV
  6
Continuous
 62
     7
100
AcDbLine
 10
-44.126
 20
104.706
 30
0.0
 11
-48.126
 21
102.397
 31
0.0
  0
LINE
  5
20F
330
A
100
AcDbEntity
  8
PV
  6
Continuous
 62
     7
100
AcDbLine
 10
-48.126
 20
102.397
 30
0.0
 11
-48.126
 21
97.61600000000001
 31
0.0
  0
LINE
  5
210
330
A
100
AcDbEntity
  8
PV
  6
Continuous
 62
     7
100
AcDbLine
 10
-40.12599999999999
 20
102.397
 30
0.0
 11
-40.12599999999999
 21
97.61600000000001
 31
0.0
  0
LINE
  5
211
330
A
100
AcDbEntity
  8
PV
  6
Continuous
 62
     7
100
AcDbLine
 10
-44.126
 20
95.30599999999999
 30
0.0
 11
-40.12599999999999
 21
97.61600000000001
 31
0.0
  0
LINE
  5
212
330
A
100
AcDbEntity
  8
PV
  6
Continuous
 62
     7
100
AcDbLine
 10
-40.12599999999999
 20
102.397
 30
0.0
 11
-44.126
 21
104.706
 31
0.0
  0
ARC
  5
213
330
A
100
AcDbEntity
  8
PV
  6
Continuous
 62
     7
100
AcDbCircle
 10
-1.125999999999999
 20
143.006
 30
0.0
 40
72.5
100
AcDbArc
 50
229.342743
 51
310.657259
  0
ARC
  5
214
330
A
100
AcDbEntity
  8
PV
  6
Continuous
 62
     7
100
AcDbCircle
 10
-1.125999999999999
 20
143.006
 30
0.0
 40
72.5
100
AcDbArc
 50
319.342749
 51
0.0
  0
ARC
  5
215
330
A
100
AcDbEntity
  8
PV
  6
Continuous
 62
     7
100
AcDbCircle
 10
-1.125999999999999
 20
143.006
 30
0.0
 40
72.5
100
AcDbArc
 50
49.342762
 51
130.6572429999999
  0
ARC
  5
216
330
A
100
AcDbEntity
  8
PV
  6
Continuous
 62
     7
100
AcDbCircle
 10
-1.125999999999999
 20
143.006
 30
0.0
 40
72.5
100
AcDbArc
 50
139.342771
 51
148.2504989999999
  0
CIRCLE
  5
217
330
A
100
AcDbEntity
  8
PV
  6
Continuous
 62
     7
100
AcDbCircle
 10
209.374
 20
-38.5
 30
0.0
 40
1.199999999999999
  0
CIRCLE
  5
218
330
A
100
AcDbEntity
  8
PV
  6
Continuous
 62
     7
100
AcDbCircle
 10
209.374
 20
-38.5
 30
0.0
 40
1.5
  0
CIRCLE
  5
219
330
A
100
AcDbEntity
  8
PV
  6
Continuous
 62
     7
100
AcDbCircle
 10
188.374
 20
-38.5
 30
0.0
 40
1.199999999999999
  0
CIRCLE
  5
21A
330
A
100
AcDbEntity
  8
PV
  6
Continuous
 62
     7
100
AcDbCircle
 10
188.374
 20
-38.5
 30
0.0
 40
1.5
  0
CIRCLE
  5
21B
330
A
100
AcDbEntity
  8
PV
  6
Continuous
 62
     7
100
AcDbCircle
 10
209.374
 20
26.0
 30
0.0
 40
1.199999999999999
  0
CIRCLE
  5
21C
330
A
100
AcDbEntity
  8
PV
  6
Continuous
 62
     7
100
AcDbCircle
 10
209.374
 20
26.0
 30
0.0
 40
1.5
  0
CIRCLE
  5
21D
330
A
100
AcDbEntity
  8
PV
  6
Continuous
 62
     7
100
AcDbCircle
 10
188.374
 20
26.0
 30
0.0
 40
1.199999999999999
  0
CIRCLE
  5
21E
330
A
100
AcDbEntity
  8
PV
  6
Continuous
 62
     7
100
AcDbCircle
 10
188.374
 20
26.0
 30
0.0
 40
1.5
  0
CIRCLE
  5
21F
330
A
100
AcDbEntity
  8
PV
  6
Continuous
 62
     7
100
AcDbCircle
 10
198.874
 20
11.0
 30
0.0
 40
4.849999999999999
  0
CIRCLE
  5
220
330
A
100
AcDbEntity
  8
PV
  6
Continuous
 62
     7
100
AcDbCircle
 10
198.874
 20
11.0
 30
0.0
 40
3.85
  0
CIRCLE
  5
221
330
A
100
AcDbEntity
  8
PV
  6
Continuous
 62
     7
100
AcDbCircle
 10
198.874
 20
-34.5
 30
0.0
 40
4.849999999999999
  0
CIRCLE
  5
222
330
A
100
AcDbEntity
  8
PV
  6
Continuous
 62
     7
100
AcDbCircle
 10
198.874
 20
-34.5
 30
0.0
 40
3.85
  0
ARC
  5
223
330
A
100
AcDbEntity
  8
PV
  6
Continuous
 62
     7
100
AcDbCircle
 10
198.874
 20
-110.0
 30
0.0
 40
72.5
100
AcDbArc
 50
301.749544
 51
40.65724699999999
  0
ARC
  5
225
330
A
100
AcDbEntity
  8
PV
  6
CENTER
 62
     7
100
AcDbCircle
 10
198.874
 20
-110.0
 30
0.0
 40
60.0
100
AcDbArc
 50
156.44353
 51
203.5564669999999
  0
ARC
  5
226
330
A
100
AcDbEntity
  8
PV
  6
CENTER
 62
     7
100
AcDbCircle
 10
198.874
 20
-110.0
 30
0.0
 40
60.0
100
AcDbArc
 50
336.443536
 51
23.556464
  0
ARC
  5
227
330
A
100
AcDbEntity
  8
PV
  6
Continuous
 62
     7
100
AcDbCircle
 10
198.874
 20
-110.0
 30
0.0
 40
72.5
100
AcDbArc
 50
139.3427579999999
 51
238.25044
  0
ARC
  5
228
330
A
100
AcDbEntity
  8
PV
  6
Continuous
 62
     7
100
AcDbCircle
 10
-95.744
 20
-110.0
 30
0.0
 40
55.0
100
AcDbArc
 50
316.208468
 51
43.933467
  0
ARC
  5
229
330
A
100
AcDbEntity
  8
PV
  6
Continuous
 62
     7
100
AcDbCircle
 10
-1.125999999999999
 20
143.006
 30
0.0
 40
72.5
100
AcDbArc
 50
211.749501
 51
220.6572289999999
  0
ARC
  5
22A
330
A
100
AcDbEntity
  8
PV
  6
Continuous
 62
     7
100
AcDbCircle
 10
-1.125999999999999
 20
143.006
 30
0.0
 40
72.5
100
AcDbArc
 50
0.0
 51
40.657251
  0
CIRCLE
  5
22B
330
A
100
AcDbEntity
  8
PV
  6
Continuous
 62
     7
100
AcDbCircle
 10
-217.6299999999999
 20
185.433
 30
0.0
 40
6.0
  0
CIRCLE
  5
22C
330
A
100
AcDbEntity
  8
PV
  6
Continuous
 62
     7
100
AcDbCircle
 10
-217.6299999999999
 20
100.58
 30
0.0
 40
6.0
  0
ARC
  5
22D
330
A
100
AcDbEntity
  8
PV
  6
CENTER
 62
     7
100
AcDbCircle
 10
-175.2029999999999
 20
143.006
 30
0.0
 40
60.0
100
AcDbArc
 50
89.99998199999998
 51
270.000001
  0
CIRCLE
  5
22E
330
A
100
AcDbEntity
  8
PV
  6
Continuous
 62
     7
100
AcDbCircle
 10
-1.125999999999999
 20
143.006
 30
0.0
 40
47.5
  0
ARC
  5
22F
330
A
100
AcDbEntity
  8
PV
  6
Continuous
 62
     7
100
AcDbCircle
 10
-1.125999999999999
 20
143.006
 30
0.0
 40
73.0
100
AcDbArc
 50
131.1120929999999
 51
138.887908
  0
ARC
  5
230
330
A
100
AcDbEntity
  8
PV
  6
Continuous
 62
     7
100
AcDbCircle
 10
-1.125999999999999
 20
143.006
 30
0.0
 40
73.0
100
AcDbArc
 50
41.11209
 51
48.887909
  0
ARC
  5
231
330
A
100
AcDbEntity
  8
PV
  6
Continuous
 62
     7
100
AcDbCircle
 10
-1.125999999999999
 20
143.006
 30
0.0
 40
73.0
100
AcDbArc
 50
221.1120919999999
 51
228.8879069999999
  0
ARC
  5
232
330
A
100
AcDbEntity
  8
PV
  6
Continuous
 62
     7
100
AcDbCircle
 10
-1.125999999999999
 20
143.006
 30
0.0
 40
73.0
100
AcDbArc
 50
311.112091
 51
318.88791
  0
CIRCLE
  5
233
330
A
100
AcDbEntity
  8
PV
  6
Continuous
 62
     7
100
AcDbCircle
 10
-44.126
 20
186.0059999999999
 30
0.0
 40
9.0
  0
CIRCLE
  5
234
330
A
100
AcDbEntity
  8
PV
  6
Continuous
 62
     7
100
AcDbCircle
 10
41.87399999999999
 20
186.0059999999999
 30
0.0
 40
9.0
  0
CIRCLE
  5
235
330
A
100
AcDbEntity
  8
PV
  6
Continuous
 62
     7
100
AcDbCircle
 10
41.87399999999999
 20
100.0059999999999
 30
0.0
 40
9.0
  0
CIRCLE
  5
236
330
A
100
AcDbEntity
  8
PV
  6
Continuous
 62
     7
100
AcDbCircle
 10
-44.126
 20
100.0059999999999
 30
0.0
 40
9.0
  0
LINE
  5
237
330
A
100
AcDbEntity
  8
PV
  6
Continuous
 62
     7
100
AcDbLine
 10
46.87399999999999
 20
31.0
 30
0.0
 11
46.87399999999999
 21
-62.0
 31
0.0
  0
LINE
  5
238
330
A
100
AcDbEntity
  8
PV
  6
Continuous
 62
     7
100
AcDbLine
 10
-49.12600000000001
 20
31.0
 30
0.0
 11
-49.12600000000001
 21
-62.0
 31
0.0
  0
LINE
  5
239
330
A
100
AcDbEntity
  8
PV
  6
Continuous
 62
     7
100
AcDbLine
 10
246.874
 20
31.0
 30
0.0
 11
246.874
 21
-62.0
 31
0.0
  0
LINE
  5
23A
330
A
100
AcDbEntity
  8
PV
  6
Continuous
 62
     7
100
AcDbLine
 10
150.8739999999999
 20
31.0
 30
0.0
 11
150.8739999999999
 21
-62.0
 31
0.0
  0
LINE
  5
23B
330
A
100
AcDbEntity
  8
PV
  6
CENTER
 62
     7
100
AcDbLine
 10
206.999
 20
-38.5
 30
0.0
 11
211.999
 21
-38.5
 31
0.0
  0
LINE
  5
23C
330
A
100
AcDbEntity
  8
PV
  6
CENTER
 62
     7
100
AcDbLine
 10
209.374
 20
-41.146
 30
0.0
 11
209.374
 21
-35.39
 31
0.0
  0
LINE
  5
23D
330
A
100
AcDbEntity
  8
PV
  6
CENTER
 62
     7
100
AcDbLine
 10
190.7499999999999
 20
-38.5
 30
0.0
 11
185.7499999999999
 21
-38.5
 31
0.0
  0
LINE
  5
23E
330
A
100
AcDbEntity
  8
PV
  6
CENTER
 62
     7
100
AcDbLine
 10
188.374
 20
-41.146
 30
0.0
 11
188.374
 21
-35.39
 31
0.0
  0
LINE
  5
23F
330
A
100
AcDbEntity
  8
PV
  6
CENTER
 62
     7
100
AcDbLine
 10
206.999
 20
26.0
 30
0.0
 11
211.999
 21
26.0
 31
0.0
  0
LINE
  5
240
330
A
100
AcDbEntity
  8
PV
  6
CENTER
 62
     7
100
AcDbLine
 10
209.374
 20
28.646
 30
0.0
 11
209.374
 21
22.89
 31
0.0
  0
LINE
  5
241
330
A
100
AcDbEntity
  8
PV
  6
CENTER
 62
     7
100
AcDbLine
 10
190.7499999999999
 20
26.0
 30
0.0
 11
185.7499999999999
 21
26.0
 31
0.0
  0
LINE
  5
242
330
A
100
AcDbEntity
  8
PV
  6
CENTER
 62
     7
100
AcDbLine
 10
188.374
 20
28.646
 30
0.0
 11
188.374
 21
22.89
 31
0.0
  0
LINE
  5
243
330
A
100
AcDbEntity
  8
PV
  6
Continuous
 62
     7
100
AcDbLine
 10
253.874
 20
-155.4999999999999
 30
0.0
 11
143.8739999999999
 21
-155.4999999999999
 31
0.0
  0
LINE
  5
244
330
A
100
AcDbEntity
  8
PV
  6
Continuous
 62
     7
100
AcDbLine
 10
153.8739999999999
 20
-165.5
 30
0.0
 11
143.8739999999999
 21
-155.4999999999999
 31
0.0
  0
LINE
  5
245
330
A
100
AcDbEntity
  8
PV
  6
Continuous
 62
     7
100
AcDbLine
 10
253.874
 20
-155.4999999999999
 30
0.0
 11
243.874
 21
-165.5
 31
0.0
  0
LINE
  5
246
330
A
100
AcDbEntity
  8
PV
  6
Continuous
 62
     7
100
AcDbLine
 10
53.87399999999999
 20
-155.4999999999999
 30
0.0
 11
-56.126
 21
-155.4999999999999
 31
0.0
  0
LINE
  5
247
330
A
100
AcDbEntity
  8
PV
  6
Continuous
 62
     7
100
AcDbLine
 10
43.87399999999999
 20
-165.5
 30
0.0
 11
53.87399999999999
 21
-155.4999999999999
 31
0.0
  0
LINE
  5
248
330
A
100
AcDbEntity
  8
PV
  6
Continuous
 62
     7
100
AcDbLine
 10
-56.126
 20
-155.4999999999999
 30
0.0
 11
-46.126
 21
-165.5
 31
0.0
  0
LINE
  5
249
330
A
100
AcDbEntity
  8
PV
  6
Continuous
 62
     7
100
AcDbLine
 10
-56.126
 20
-148.15
 30
0.0
 11
-56.126
 21
-155.4999999999999
 31
0.0
  0
LINE
  5
24A
330
A
100
AcDbEntity
  8
PV
  6
Continuous
 62
     7
100
AcDbLine
 10
53.87399999999999
 20
31.0
 30
0.0
 11
53.87399999999999
 21
-155.4999999999999
 31
0.0
  0
LINE
  5
24B
330
A
100
AcDbEntity
  8
PV
  6
Continuous
 62
     7
100
AcDbLine
 10
-56.126
 20
31.0
 30
0.0
 11
-56.126
 21
-71.84999999999999
 31
0.0
  0
LINE
  5
24C
330
A
100
AcDbEntity
  8
PV
  6
CENTER
 62
     7
100
AcDbLine
 10
-44.126
 20
39.05599999999999
 30
0.0
 11
-44.126
 21
-67.214
 31
0.0
  0
LINE
  5
24D
330
A
100
AcDbEntity
  8
PV
  6
CENTER
 62
     7
100
AcDbLine
 10
41.87399999999999
 20
37.80899999999999
 30
0.0
 11
41.87399999999999
 21
-66.871
 31
0.0
  0
LINE
  5
24E
330
A
100
AcDbEntity
  8
PV
  6
Continuous
 62
     7
100
AcDbLine
 10
53.714
 20
-62.0
 30
0.0
 11
-56.10199999999999
 21
-62.0
 31
0.0
  0
LINE
  5
24F
330
A
100
AcDbEntity
  8
PV
  6
Continuous
 62
     7
100
AcDbLine
 10
53.87399999999999
 20
31.0
 30
0.0
 11
-56.126
 21
31.0
 31
0.0
  0
LINE
  5
250
330
A
100
AcDbEntity
  8
PV
  6
Continuous
 62
     7
100
AcDbLine
 10
10.124
 20
31.0
 30
0.0
 11
10.124
 21
-43.398
 31
0.0
  0
LINE
  5
251
330
A
100
AcDbEntity
  8
PV
  6
Continuous
 62
     7
100
AcDbLine
 10
5.724
 20
31.0
 30
0.0
 11
5.724
 21
-43.292
 31
0.0
  0
LINE
  5
252
330
A
100
AcDbEntity
  8
PV
  6
Continuous
 62
     7
100
AcDbLine
 10
-7.876
 20
30.863
 30
0.0
 11
-7.876
 21
-43.50399999999999
 31
0.0
  0
LINE
  5
253
330
A
100
AcDbEntity
  8
PV
  6
Continuous
 62
     7
100
AcDbLine
 10
-12.276
 20
30.863
 30
0.0
 11
-12.276
 21
-43.398
 31
0.0
  0
LINE
  5
254
330
A
100
AcDbEntity
  8
PV
  6
Continuous
 62
     7
100
AcDbLine
 10
53.841
 20
-43.5
 30
0.0
 11
-56.284
 21
-43.5
 31
0.0
  0
LINE
  5
255
330
A
100
AcDbEntity
  8
PV
  6
CENTER
 62
     7
100
AcDbLine
 10
59.22
 20
-34.5
 30
0.0
 11
42.374
 21
-34.5
 31
0.0
  0
LINE
  5
256
330
A
100
AcDbEntity
  8
PV
  6
CENTER
 62
     7
100
AcDbLine
 10
59.19399999999999
 20
11.0
 30
0.0
 11
41.64699999999999
 21
11.0
 31
0.0
  0
LINE
  5
257
330
A
100
AcDbEntity
  8
PV
  6
CENTER
 62
     7
100
AcDbLine
 10
-1.125999999999999
 20
45.445
 30
0.0
 11
-1.125999999999999
 21
-221.525848
 31
0.0
  0
LINE
  5
258
330
A
100
AcDbEntity
  8
PV
  6
CENTER
 62
     7
100
AcDbLine
 10
-30.776
 20
-110.0
 30
0.0
 11
-110.2489999999999
 21
-110.0
 31
0.0
  0
LINE
  5
259
330
A
100
AcDbEntity
  8
PV
  6
Continuous
 62
     7
100
AcDbLine
 10
43.87399999999999
 20
-165.5
 30
0.0
 11
-46.126
 21
-165.5
 31
0.0
  0
LINE
  5
25A
330
A
100
AcDbEntity
  8
PV
  6
CENTER
 62
     7
100
AcDbLine
 10
58.87399999999999
 20
-215.8329999999999
 30
0.0
 11
58.87399999999999
 21
-190.0
 31
0.0
  0
LINE
  5
25B
330
A
100
AcDbEntity
  8
PV
  6
CENTER
 62
     7
100
AcDbLine
 10
-61.126
 20
-216.1669999999999
 30
0.0
 11
-61.126
 21
-190.0
 31
0.0
  0
LINE
  5
25C
330
A
100
AcDbEntity
  8
PV
  6
Continuous
 62
     7
100
AcDbLine
 10
71.37399999999999
 20
-210.0
 30
0.0
 11
71.37399999999999
 21
-200.0
 31
0.0
  0
LINE
  5
25D
330
A
100
AcDbEntity
  8
PV
  6
Continuous
 62
     7
100
AcDbLine
 10
-73.626
 20
-210.0
 30
0.0
 11
-73.626
 21
-200.0
 31
0.0
  0
LINE
  5
25E
330
A
100
AcDbEntity
  8
PV
  6
Continuous
 62
     7
100
AcDbLine
 10
-73.626
 20
-210.0
 30
0.0
 11
71.37399999999999
 21
-210.0
 31
0.0
  0
LINE
  5
25F
330
A
100
AcDbEntity
  8
PV
  6
Continuous
 62
     7
100
AcDbLine
 10
-73.626
 20
-200.0
 30
0.0
 11
71.37399999999999
 21
-200.0
 31
0.0
  0
LINE
  5
260
330
A
100
AcDbEntity
  8
PV
  6
Continuous
 62
     7
100
AcDbLine
 10
-91.126
 20
-37.5
 30
0.0
 11
-91.126
 21
-182.5
 31
0.0
  0
LINE
  5
261
330
A
100
AcDbEntity
  8
PV
  6
Continuous
 62
     7
100
AcDbLine
 10
-101.126
 20
-182.5
 30
0.0
 11
-91.126
 21
-182.5
 31
0.0
  0
LINE
  5
262
330
A
100
AcDbEntity
  8
PV
  6
Continuous
 62
     7
100
AcDbLine
 10
-101.126
 20
-37.5
 30
0.0
 11
-101.126
 21
-182.5
 31
0.0
  0
LINE
  5
263
330
A
100
AcDbEntity
  8
PV
  6
Continuous
 62
     7
100
AcDbLine
 10
-101.126
 20
-37.5
 30
0.0
 11
-91.126
 21
-37.5
 31
0.0
  0
LINE
  5
264
330
A
100
AcDbEntity
  8
PV
  6
Continuous
 62
     7
100
AcDbLine
 10
-56.126
 20
-71.84999999999999
 30
0.0
 11
-91.126
 21
-71.84999999999999
 31
0.0
  0
LINE
  5
265
330
A
100
AcDbEntity
  8
PV
  6
CENTER
 62
     7
100
AcDbLine
 10
-111.1129999999999
 20
-170.0
 30
0.0
 11
-81.11299999999999
 21
-170.0
 31
0.0
  0
LINE
  5
266
330
A
100
AcDbEntity
  8
PV
  6
CENTER
 62
     7
100
AcDbLine
 10
-111.1129999999999
 20
-50.0
 30
0.0
 11
-81.11299999999999
 21
-50.0
 31
0.0
  0
LINE
  5
267
330
A
100
AcDbEntity
  8
PV
  6
Continuous
 62
     7
100
AcDbLine
 10
-39.27599999999999
 20
-165.5
 30
0.0
 11
-39.27599999999999
 21
-200.0
 31
0.0
  0
LINE
  5
268
330
A
100
AcDbEntity
  8
PV
  6
Continuous
 62
     7
100
AcDbLine
 10
37.024
 20
-165.5
 30
0.0
 11
37.024
 21
-200.0
 31
0.0
  0
LINE
  5
269
330
A
100
AcDbEntity
  8
PV
  6
Continuous
 62
     7
100
AcDbLine
 10
-56.128
 20
-148.15
 30
0.0
 11
-91.126
 21
-148.15
 31
0.0
  0
LINE
  5
26A
330
A
100
AcDbEntity
  8
PV
  6
Continuous
 62
     7
100
AcDbLine
 10
253.874
 20
31.0
 30
0.0
 11
253.874
 21
-155.4999999999999
 31
0.0
  0
LINE
  5
26B
330
A
100
AcDbEntity
  8
PV
  6
Continuous
 62
     7
100
AcDbLine
 10
143.8739999999999
 20
31.0
 30
0.0
 11
143.8739999999999
 21
-155.4999999999999
 31
0.0
  0
LINE
  5
26C
330
A
100
AcDbEntity
  8
PV
  6
CENTER
 62
     7
100
AcDbLine
 10
155.874
 20
39.05599999999999
 30
0.0
 11
155.874
 21
-67.214
 31
0.0
  0
LINE
  5
26D
330
A
100
AcDbEntity
  8
PV
  6
CENTER
 62
     7
100
AcDbLine
 10
241.874
 20
37.80899999999999
 30
0.0
 11
241.874
 21
-66.871
 31
0.0
  0
LINE
  5
26E
330
A
100
AcDbEntity
  8
PV
  6
Continuous
 62
     7
100
AcDbLine
 10
253.714
 20
-62.0
 30
0.0
 11
143.8979999999999
 21
-62.0
 31
0.0
  0
LINE
  5
26F
330
A
100
AcDbEntity
  8
PV
  6
Continuous
 62
     7
100
AcDbLine
 10
253.874
 20
31.0
 30
0.0
 11
143.8739999999999
 21
31.0
 31
0.0
  0
LINE
  5
270
330
A
100
AcDbEntity
  8
PV
  6
Continuous
 62
     7
100
AcDbLine
 10
253.8409999999999
 20
-43.5
 30
0.0
 11
143.716
 21
-43.5
 31
0.0
  0
LINE
  5
271
330
A
100
AcDbEntity
  8
PV
  6
CENTER
 62
     7
100
AcDbLine
 10
209.6359999999999
 20
-34.5
 30
0.0
 11
188.475
 21
-34.5
 31
0.0
  0
LINE
  5
272
330
A
100
AcDbEntity
  8
PV
  6
CENTER
 62
     7
100
AcDbLine
 10
207.972
 20
11.0
 30
0.0
 11
188.7129999999999
 21
11.0
 31
0.0
  0
LINE
  5
273
330
A
100
AcDbEntity
  8
PV
  6
CENTER
 62
     7
100
AcDbLine
 10
198.874
 20
45.445
 30
0.0
 11
198.874
 21
-240.0
 31
0.0
  0
LINE
  5
274
330
A
100
AcDbEntity
  8
PV
  6
Continuous
 62
     7
100
AcDbLine
 10
243.874
 20
-165.5
 30
0.0
 11
153.8739999999999
 21
-165.5
 31
0.0
  0
LINE
  5
275
330
A
100
AcDbEntity
  8
PV
  6
CENTER
 62
     7
100
AcDbLine
 10
258.874
 20
-215.8329999999999
 30
0.0
 11
258.874
 21
-190.0
 31
0.0
  0
LINE
  5
276
330
A
100
AcDbEntity
  8
PV
  6
CENTER
 62
     7
100
AcDbLine
 10
138.874
 20
-216.1669999999999
 30
0.0
 11
138.874
 21
-190.0
 31
0.0
  0
LINE
  5
277
330
A
100
AcDbEntity
  8
PV
  6
Continuous
 62
     7
100
AcDbLine
 10
271.374
 20
-210.0
 30
0.0
 11
271.374
 21
-200.0
 31
0.0
  0
LINE
  5
278
330
A
100
AcDbEntity
  8
PV
  6
Continuous
 62
     7
100
AcDbLine
 10
126.374
 20
-210.0
 30
0.0
 11
126.374
 21
-200.0
 31
0.0
  0
LINE
  5
279
330
A
100
AcDbEntity
  8
PV
  6
Continuous
 62
     7
100
AcDbLine
 10
126.374
 20
-210.0
 30
0.0
 11
271.374
 21
-210.0
 31
0.0
  0
LINE
  5
27A
330
A
100
AcDbEntity
  8
PV
  6
Continuous
 62
     7
100
AcDbLine
 10
126.374
 20
-200.0
 30
0.0
 11
271.374
 21
-200.0
 31
0.0
  0
LINE
  5
27B
330
A
100
AcDbEntity
  8
PV
  6
Continuous
 62
     7
100
AcDbLine
 10
160.724
 20
-165.5
 30
0.0
 11
160.724
 21
-200.0
 31
0.0
  0
LINE
  5
27C
330
A
100
AcDbEntity
  8
PV
  6
Continuous
 62
     7
100
AcDbLine
 10
237.0239999999999
 20
-165.5
 30
0.0
 11
237.0239999999999
 21
-200.0
 31
0.0
  0
LINE
  5
27D
330
A
100
AcDbEntity
  8
PV
  6
CENTER
 62
     7
100
AcDbLine
 10
-81.24500000000001
 20
83.00600000000001
 30
0.0
 11
-108.4
 21
83.00600000000001
 31
0.0
  0
LINE
  5
27E
330
A
100
AcDbEntity
  8
PV
  6
CENTER
 62
     7
100
AcDbLine
 10
-80.57199999999999
 20
203.0059999999999
 30
0.0
 11
-108.4
 21
203.0059999999999
 31
0.0
  0
LINE
  5
27F
330
A
100
AcDbEntity
  8
PV
  6
Continuous
 62
     7
100
AcDbLine
 10
53.87399999999999
 20
158.506
 30
0.0
 11
53.87399999999999
 21
127.506
 31
0.0
  0
LINE
  5
280
330
A
100
AcDbEntity
  8
PV
  6
CENTER
 62
     7
100
AcDbLine
 10
-210.5579999999999
 20
178.3619999999999
 30
0.0
 11
-224.7009999999999
 21
192.504
 31
0.0
  0
LINE
  5
281
330
A
100
AcDbEntity
  8
PV
  6
CENTER
 62
     7
100
AcDbLine
 10
-210.5579999999999
 20
107.651
 30
0.0
 11
-224.7009999999999
 21
93.50900000000001
 31
0.0
  0
LINE
  5
282
330
A
100
AcDbEntity
  8
PV
  6
CENTER
 62
     7
100
AcDbLine
 10
-243.75
 20
143.006
 30
0.0
 11
-165.203
 21
143.006
 31
0.0
  0
LINE
  5
283
330
A
100
AcDbEntity
  8
PV
  6
CENTER
 62
     7
100
AcDbLine
 10
-175.2029999999999
 20
209.0
 30
0.0
 11
-175.2029999999999
 21
73.5
 31
0.0
  0
LINE
  5
284
330
A
100
AcDbEntity
  8
PV
  6
Continuous
 62
     7
100
AcDbLine
 10
-91.126
 20
143.006
 30
0.0
 11
-91.126
 21
70.506
 31
0.0
  0
LINE
  5
285
330
A
100
AcDbEntity
  8
PV
  6
Continuous
 62
     7
100
AcDbLine
 10
-101.126
 20
70.506
 30
0.0
 11
-91.126
 21
70.506
 31
0.0
  0
LINE
  5
286
330
A
100
AcDbEntity
  8
PV
  6
Continuous
 62
     7
100
AcDbLine
 10
-101.126
 20
215.5059999999999
 30
0.0
 11
-91.126
 21
215.5059999999999
 31
0.0
  0
LINE
  5
287
330
A
100
AcDbEntity
  8
PV
  6
Continuous
 62
     7
100
AcDbLine
 10
-101.126
 20
215.5059999999999
 30
0.0
 11
-101.126
 21
70.506
 31
0.0
  0
LINE
  5
288
330
A
100
AcDbEntity
  8
PV
  6
Continuous
 62
     7
100
AcDbLine
 10
-91.126
 20
215.5059999999999
 30
0.0
 11
-91.126
 21
143.006
 31
0.0
  0
LINE
  5
289
330
A
100
AcDbEntity
  8
PV
  6
Continuous
 62
     7
100
AcDbLine
 10
46.87399999999999
 20
88.00600000000001
 30
0.0
 11
-49.12600000000001
 21
88.00600000000001
 31
0.0
  0
LINE
  5
28A
330
A
100
AcDbEntity
  8
PV
  6
Continuous
 62
     7
100
AcDbLine
 10
46.87399999999999
 20
198.0059999999999
 30
0.0
 11
-49.12600000000001
 21
198.0059999999999
 31
0.0
  0
LINE
  5
28B
330
A
100
AcDbEntity
  8
PV
  6
Continuous
 62
     7
100
AcDbLine
 10
53.87399999999999
 20
191.0059999999999
 30
0.0
 11
53.87399999999999
 21
95.006
 31
0.0
  0
LINE
  5
28C
330
A
100
AcDbEntity
  8
PV
  6
Continuous
 62
     7
100
AcDbLine
 10
-56.126
 20
191.0059999999999
 30
0.0
 11
-56.126
 21
95.006
 31
0.0
  0
LINE
  5
28D
330
A
100
AcDbEntity
  8
PV
  6
Continuous
 62
     7
100
AcDbLine
 10
10.124
 20
198.0059999999999
 30
0.0
 11
10.124
 21
197.0059999999999
 31
0.0
  0
LINE
  5
28E
330
A
100
AcDbEntity
  8
PV
  6
Continuous
 62
     7
100
AcDbLine
 10
11.024
 20
197.0059999999999
 30
0.0
 11
10.124
 21
197.0059999999999
 31
0.0
  0
LINE
  5
28F
330
A
100
AcDbEntity
  8
PV
  6
Continuous
 62
     7
100
AcDbLine
 10
11.024
 20
197.0059999999999
 30
0.0
 11
11.024
 21
193.3059999999999
 31
0.0
  0
LINE
  5
290
330
A
100
AcDbEntity
  8
PV
  6
Continuous
 62
     7
100
AcDbLine
 10
11.024
 20
193.3059999999999
 30
0.0
 11
4.823999999999999
 21
193.3059999999999
 31
0.0
  0
LINE
  5
291
330
A
100
AcDbEntity
  8
PV
  6
Continuous
 62
     7
100
AcDbLine
 10
4.823999999999999
 20
197.0059999999999
 30
0.0
 11
4.823999999999999
 21
193.3059999999999
 31
0.0
  0
LINE
  5
292
330
A
100
AcDbEntity
  8
PV
  6
Continuous
 62
     7
100
AcDbLine
 10
-12.276
 20
198.0059999999999
 30
0.0
 11
-12.276
 21
197.0059999999999
 31
0.0
  0
LINE
  5
293
330
A
100
AcDbEntity
  8
PV
  6
Continuous
 62
     7
100
AcDbLine
 10
-12.276
 20
197.0059999999999
 30
0.0
 11
-13.17599999999999
 21
197.0059999999999
 31
0.0
  0
LINE
  5
294
330
A
100
AcDbEntity
  8
PV
  6
Continuous
 62
     7
100
AcDbLine
 10
-7.876
 20
198.0059999999999
 30
0.0
 11
-7.876
 21
197.0059999999999
 31
0.0
  0
LINE
  5
295
330
A
100
AcDbEntity
  8
PV
  6
Continuous
 62
     7
100
AcDbLine
 10
-6.975999999999999
 20
197.0059999999999
 30
0.0
 11
-7.876
 21
197.0059999999999
 31
0.0
  0
LINE
  5
296
330
A
100
AcDbEntity
  8
PV
  6
Continuous
 62
     7
100
AcDbLine
 10
-6.975999999999999
 20
197.0059999999999
 30
0.0
 11
-6.975999999999999
 21
193.3059999999999
 31
0.0
  0
LINE
  5
297
330
A
100
AcDbEntity
  8
PV
  6
Continuous
 62
     7
100
AcDbLine
 10
-13.17599999999999
 20
197.0059999999999
 30
0.0
 11
-13.17599999999999
 21
193.3059999999999
 31
0.0
  0
LINE
  5
298
330
A
100
AcDbEntity
  8
PV
  6
Continuous
 62
     7
100
AcDbLine
 10
-6.975999999999999
 20
193.3059999999999
 30
0.0
 11
-13.17599999999999
 21
193.3059999999999
 31
0.0
  0
LINE
  5
299
330
A
100
AcDbEntity
  8
PV
  6
Continuous
 62
     7
100
AcDbLine
 10
5.724
 20
198.0059999999999
 30
0.0
 11
5.724
 21
197.0059999999999
 31
0.0
  0
LINE
  5
29A
330
A
100
AcDbEntity
  8
PV
  6
Continuous
 62
     7
100
AcDbLine
 10
5.724
 20
197.0059999999999
 30
0.0
 11
4.823999999999999
 21
197.0059999999999
 31
0.0
  0
LINE
  5
29B
330
A
100
AcDbEntity
  8
PV
  6
Continuous
 62
     7
100
AcDbLine
 10
-12.276
 20
88.00600000000001
 30
0.0
 11
-12.276
 21
89.006
 31
0.0
  0
LINE
  5
29C
330
A
100
AcDbEntity
  8
PV
  6
Continuous
 62
     7
100
AcDbLine
 10
-7.876
 20
88.00600000000001
 30
0.0
 11
-7.876
 21
89.006
 31
0.0
  0
LINE
  5
29D
330
A
100
AcDbEntity
  8
PV
  6
Continuous
 62
     7
100
AcDbLine
 10
10.124
 20
88.00600000000001
 30
0.0
 11
10.124
 21
89.006
 31
0.0
  0
LINE
  5
29E
330
A
100
AcDbEntity
  8
PV
  6
Continuous
 62
     7
100
AcDbLine
 10
5.724
 20
88.00600000000001
 30
0.0
 11
5.724
 21
89.006
 31
0.0
  0
LINE
  5
29F
330
A
100
AcDbEntity
  8
PV
  6
Continuous
 62
     7
100
AcDbLine
 10
11.024
 20
89.006
 30
0.0
 11
11.024
 21
92.70599999999999
 31
0.0
  0
LINE
  5
2A0
330
A
100
AcDbEntity
  8
PV
  6
Continuous
 62
     7
100
AcDbLine
 10
11.024
 20
89.006
 30
0.0
 11
10.124
 21
89.006
 31
0.0
  0
LINE
  5
2A1
330
A
100
AcDbEntity
  8
PV
  6
Continuous
 62
     7
100
AcDbLine
 10
5.724
 20
89.006
 30
0.0
 11
4.823999999999999
 21
89.006
 31
0.0
  0
LINE
  5
2A2
330
A
100
AcDbEntity
  8
PV
  6
Continuous
 62
     7
100
AcDbLine
 10
4.823999999999999
 20
89.006
 30
0.0
 11
4.823999999999999
 21
92.70599999999999
 31
0.0
  0
LINE
  5
2A3
330
A
100
AcDbEntity
  8
PV
  6
Continuous
 62
     7
100
AcDbLine
 10
-12.276
 20
89.006
 30
0.0
 11
-13.17599999999999
 21
89.006
 31
0.0
  0
LINE
  5
2A4
330
A
100
AcDbEntity
  8
PV
  6
Continuous
 62
     7
100
AcDbLine
 10
-13.17599999999999
 20
89.006
 30
0.0
 11
-13.17599999999999
 21
92.70599999999999
 31
0.0
  0
LINE
  5
2A5
330
A
100
AcDbEntity
  8
PV
  6
Continuous
 62
     7
100
AcDbLine
 10
-6.975999999999999
 20
92.70599999999999
 30
0.0
 11
-13.17599999999999
 21
92.70599999999999
 31
0.0
  0
LINE
  5
2A6
330
A
100
AcDbEntity
  8
PV
  6
Continuous
 62
     7
100
AcDbLine
 10
-6.975999999999999
 20
89.006
 30
0.0
 11
-6.975999999999999
 21
92.70599999999999
 31
0.0
  0
LINE
  5
2A7
330
A
100
AcDbEntity
  8
PV
  6
Continuous
 62
     7
100
AcDbLine
 10
-6.975999999999999
 20
89.006
 30
0.0
 11
-7.876
 21
89.006
 31
0.0
  0
LINE
  5
2A8
330
A
100
AcDbEntity
  8
PV
  6
Continuous
 62
     7
100
AcDbLine
 10
11.024
 20
92.70599999999999
 30
0.0
 11
4.823999999999999
 21
92.70599999999999
 31
0.0
  0
LINE
  5
2A9
330
A
100
AcDbEntity
  8
PV
  6
CENTER
 62
     7
100
AcDbLine
 10
-44.126
 20
111.977
 30
0.0
 11
-44.126
 21
88.60700000000001
 31
0.0
  0
LINE
  5
2AA
330
A
100
AcDbEntity
  8
PV
  6
CENTER
 62
     7
100
AcDbLine
 10
41.87399999999999
 20
112.568
 30
0.0
 11
41.87399999999999
 21
89.25499999999999
 31
0.0
  0
LINE
  5
2AB
330
A
100
AcDbEntity
  8
PV
  6
CENTER
 62
     7
100
AcDbLine
 10
31.105
 20
186.0059999999999
 30
0.0
 11
52.996
 21
186.0059999999999
 31
0.0
  0
LINE
  5
2AC
330
A
100
AcDbEntity
  8
PV
  6
CENTER
 62
     7
100
AcDbLine
 10
29.035
 20
100.0059999999999
 30
0.0
 11
53.292
 21
100.0059999999999
 31
0.0
  0
LINE
  5
2AD
330
A
100
AcDbEntity
  8
PV
  6
CENTER
 62
     7
100
AcDbLine
 10
41.87399999999999
 20
196.997
 30
0.0
 11
41.87399999999999
 21
174.3109999999999
 31
0.0
  0
LINE
  5
2AE
330
A
100
AcDbEntity
  8
PV
  6
CENTER
 62
     7
100
AcDbLine
 10
-44.126
 20
197.1529999999999
 30
0.0
 11
-44.126
 21
174.902
 31
0.0
  0
LINE
  5
2AF
330
A
100
AcDbEntity
  8
PV
  6
CENTER
 62
     7
100
AcDbLine
 10
-55.486
 20
100.0059999999999
 30
0.0
 11
-32.70799999999999
 21
100.0059999999999
 31
0.0
  0
LINE
  5
2B0
330
A
100
AcDbEntity
  8
PV
  6
CENTER
 62
     7
100
AcDbLine
 10
-54.76300000000001
 20
186.0059999999999
 30
0.0
 11
-32.70799999999999
 21
186.0059999999999
 31
0.0
  0
LINE
  5
2B1
330
A
100
AcDbEntity
  8
PV
  6
Continuous
 62
     7
100
AcDbLine
 10
-56.19399999999999
 20
104.856
 30
0.0
 11
-91.126
 21
104.856
 31
0.0
  0
LINE
  5
2B2
330
A
100
AcDbEntity
  8
PV
  6
Continuous
 62
     7
100
AcDbLine
 10
-56.126
 20
181.1559999999999
 30
0.0
 11
-91.126
 21
181.1559999999999
 31
0.0
  0
LINE
  5
2B3
330
A
100
AcDbEntity
  8
PV
  6
CENTER
 62
     7
100
AcDbLine
 10
76.551
 20
143.006
 30
0.0
 11
-108.4
 21
143.006
 31
0.0
  0
LINE
  5
2B4
330
A
100
AcDbEntity
  8
PV
  6
CENTER
 62
     7
100
AcDbLine
 10
-1.125999999999999
 20
223.905
 30
0.0
 11
-1.125999999999999
 21
53.73499999999999
 31
0.0
  0
LINE
  5
2B5
330
A
100
AcDbEntity
  8
PV
  6
Continuous
 62
     7
100
AcDbLine
 10
-56.36199999999999
 20
181.1559999999999
 30
0.0
 11
-84.692
 21
181.1559999999999
 31
0.0
  0
ENDSEC
  0
SECTION
  2
OBJECTS
  0
DICTIONARY
  5
19
330
0
100
AcDbDictionary
281
     1
  3
ACAD_GROUP
350
1A
  3
ACAD_LAYOUT
350
1E
  3
ACAD_MLINESTYLE
350
1B
  3
ACAD_PLOTSETTINGS
350
22
  3
ACAD_PLOTSTYLENAME
350
1F
  0
DICTIONARY
  5
1A
102
{ACAD_REACTORS
330
19
102
}
330
19
100
AcDbDictionary
281
     1
  0
DICTIONARY
  5
1E
102
{ACAD_REACTORS
330
19
102
}
330
19
100
AcDbDictionary
281
     1
  3
Layout1
350
21
  3
Model
350
20
  0
DICTIONARY
  5
1B
102
{ACAD_REACTORS
330
19
102
}
330
19
100
AcDbDictionary
281
     1
  3
Standard
350
1C
  0
DICTIONARY
  5
22
102
{ACAD_REACTORS
330
19
102
}
330
19
100
AcDbDictionary
281
     1
  0
ACDBDICTIONARYWDFLT
  5
1F
102
{ACAD_REACTORS
330
19
102
}
330
19
100
AcDbDictionary
281
     1
  3
Normal
350
1D
100
AcDbDictionaryWithDefault
340
1D
  0
LAYOUT
  5
21
102
{ACAD_REACTORS
330
1E
102
}
330
1E
100
AcDbPlotSettings
  1

  2

  4

  6

 40
0.0
 41
0.0
 42
0.0
 43
0.0
 44
0.0
 45
0.0
 46
0.0
 47
0.0
 48
0.0
 49
0.0
140
0.0
141
0.0
142
1.0
143
1.0
 70
     0
 72
     0
 73
     0
 74
     0
  7

 75
     0
147
1.0
148
0.0
149
0.0
100
AcDbLayout
  1
Layout1
 70
     0
 71
     1
 10
0.0
 20
0.0
 11
12.0
 21
9.0
 12
0.0
 22
0.0
 32
0.0
 14
1.000000000000000E+20
 24
1.000000000000000E+20
 34
1.000000000000000E+20
 15
-1.000000000000000E+20
 25
-1.000000000000000E+20
 35
-1.000000000000000E+20
146
0.0
 13
0.0
 23
0.0
 33
0.0
 16
1.0
 26
0.0
 36
0.0
 17
0.0
 27
1.0
 37
0.0
 76
     0
330
B
  0
LAYOUT
  5
20
102
{ACAD_REACTORS
330
1E
102
}
330
1E
100
AcDbPlotSettings
  1

  2
Adobe PDF
  4
A3
  6

 40
3.174999952316284
 41
3.174999952316284
 42
3.17498779296875
 43
3.17498779296875
 44
297.0318298339843
 45
420.1583251953125
 46
0.0
 47
54.96999999999999
 48
0.0
 49
0.0
140
0.0
141
0.0
142
1.0
143
1.753759355372609
 70
 11284
 72
     1
 73
     1
 74
     2
  7

 75
     0
147
0.5702036581795093
148
243.75
149
258.184
100
AcDbLayout
  1
Model
 70
     0
 71
     0
 10
0.0
 20
0.0
 11
0.0
 21
0.0
 12
0.0
 22
0.0
 32
0.0
 14
0.0
 24
0.0
 34
0.0
 15
0.0
 25
0.0
 35
0.0
146
0.0
 13
0.0
 23
0.0
 33
0.0
 16
0.0
 26
0.0
 36
0.0
 17
0.0
 27
0.0
 37
0.0
 76
     0
330
A
  0
MLINESTYLE
  5
1C
102
{ACAD_REACTORS
330
1B
102
}
330
1B
100
AcDbMlineStyle
  2
STANDARD
 70
     0
  3

 62
     0
 51
90.0
 52
90.0
 71
     2
 49
0.5
 62
   256
  6
BYLAYER
 49
-0.5
 62
   256
  6
BYLAYER
  0
ACDBPLACEHOLDER
  5
1D
102
{ACAD_REACTORS
330
1F
102
}
330
1F
  0
ENDSEC
  0
EOF
