  0
SECTION
  2
HEADER
  9
$ACADVER
  1
AC1015
  9
$ACADMAINTVER
 70
    10
  9
$DWGCODEPAGE
  3
ANSI_932
  9
$INSBASE
 10
0.0
 20
0.0
 30
0.0
  9
$EXTMIN
 10
-220.8069850779962
 20
-221.7784909852135
 30
-0.0015258207003583
  9
$EXTMAX
 10
106.4289866017144
 20
218.0274535301593
 30
0.0000000349246037
  9
$LIMMIN
 10
-220.7969999999999
 20
-221.7649999999999
  9
$LIMMAX
 10
106.4189999999999
 20
220.341333
  9
$ORTHOMODE
 70
     0
  9
$REGENMODE
 70
     1
  9
$FILLMODE
 70
     1
  9
$QTEXTMODE
 70
     0
  9
$MIRRTEXT
 70
     1
  9
$LTSCALE
 40
0.3
  9
$ATTMODE
 70
     1
  9
$TEXTSIZE
 40
3.2
  9
$TRACEWID
 40
0.05
  9
$TEXTSTYLE
  7
MX_NOTE_STANDARD
  9
$CLAYER
  8
0
  9
$CELTYPE
  6
CONTINUOUS
  9
$CECOLOR
 62
   256
  9
$CELTSCALE
 40
1.0
  9
$DISPSILH
 70
     0
  9
$DIMSCALE
 40
1.0
  9
$DIMASZ
 40
2.5
  9
$DIMEXO
 40
2.54
  9
$DIMDLI
 40
3.75
  9
$DIMRND
 40
0.0
  9
$DIMDLE
 40
0.0
  9
$DIMEXE
 40
2.286
  9
$DIMTP
 40
0.0
  9
$DIMTM
 40
0.0
  9
$DIMTXT
 40
3.2
  9
$DIMCEN
 40
2.5
  9
$DIMTSZ
 40
0.0
  9
$DIMTOL
 70
     0
  9
$DIMLIM
 70
     0
  9
$DIMTIH
 70
     0
  9
$DIMTOH
 70
     0
  9
$DIMSE1
 70
     0
  9
$DIMSE2
 70
     0
  9
$DIMTAD
 70
     1
  9
$DIMZIN
 70
     8
  9
$DIMBLK
  1

  9
$DIMASO
 70
     1
  9
$DIMSHO
 70
     1
  9
$DIMPOST
  1

  9
$DIMAPOST
  1

  9
$DIMALT
 70
     0
  9
$DIMALTD
 70
     4
  9
$DIMALTF
 40
0.03937
  9
$DIMLFAC
 40
1.0
  9
$DIMTOFL
 70
     1
  9
$DIMTVP
 40
0.0
  9
$DIMTIX
 70
     0
  9
$DIMSOXD
 70
     0
  9
$DIMSAH
 70
     1
  9
$DIMBLK1
  1
OPEN30
  9
$DIMBLK2
  1
OPEN30
  9
$DIMSTYLE
  2
MXDIMSTYLE
  9
$DIMCLRD
 70
     0
  9
$DIMCLRE
 70
     0
  9
$DIMCLRT
 70
     0
  9
$DIMTFAC
 40
1.0
  9
$DIMGAP
 40
1.0
  9
$DIMJUST
 70
     0
  9
$DIMSD1
 70
     0
  9
$DIMSD2
 70
     0
  9
$DIMTOLJ
 70
     0
  9
$DIMTZIN
 70
     0
  9
$DIMALTZ
 70
     0
  9
$DIMALTTZ
 70
     0
  9
$DIMUPT
 70
     1
  9
$DIMDEC
 70
     2
  9
$DIMTDEC
 70
     2
  9
$DIMALTU
 70
     2
  9
$DIMALTTD
 70
     4
  9
$DIMTXSTY
  7
MX_NOTE_STANDARD
  9
$DIMAUNIT
 70
     0
  9
$DIMADEC
 70
     0
  9
$DIMALTRND
 40
0.0
  9
$DIMAZIN
 70
     0
  9
$DIMDSEP
 70
    46
  9
$DIMATFIT
 70
     3
  9
$DIMFRAC
 70
     0
  9
$DIMLDRBLK
  1
OPEN30
  9
$DIMLUNIT
 70
     2
  9
$DIMLWD
 70
    -2
  9
$DIMLWE
 70
    -2
  9
$DIMTMOVE
 70
     0
  9
$LUNITS
 70
     2
  9
$LUPREC
 70
     4
  9
$SKETCHINC
 40
0.1
  9
$FILLETRAD
 40
0.0
  9
$AUNITS
 70
     0
  9
$AUPREC
 70
     0
  9
$MENU
  1
acad
  9
$ELEVATION
 40
0.0
  9
$PELEVATION
 40
0.0
  9
$THICKNESS
 40
0.0
  9
$LIMCHECK
 70
     0
  9
$CHAMFERA
 40
0.0
  9
$CHAMFERB
 40
0.0
  9
$CHAMFERC
 40
0.0
  9
$CHAMFERD
 40
0.0
  9
$SKPOLY
 70
     0
  9
$TDCREATE
 40
2455289.541132233
  9
$TDUCREATE
 40
2455289.166132233
  9
$TDUPDATE
 40
2455289.542866898
  9
$TDUUPDATE
 40
2455289.167866898
  9
$TDINDWG
 40
0.0017359259
  9
$TDUSRTIMER
 40
0.0017359259
  9
$USRTIMER
 70
     1
  9
$ANGBASE
 50
0.0
  9
$ANGDIR
 70
     0
  9
$PDMODE
 70
     0
  9
$PDSIZE
 40
0.0
  9
$PLINEWID
 40
0.0
  9
$SPLFRAME
 70
     0
  9
$SPLINETYPE
 70
     6
  9
$SPLINESEGS
 70
     8
  9
$HANDSEED
  5
3B6
  9
$SURFTAB1
 70
     6
  9
$SURFTAB2
 70
     6
  9
$SURFTYPE
 70
     6
  9
$SURFU
 70
     6
  9
$SURFV
 70
     6
  9
$UCSBASE
  2

  9
$UCSNAME
  2

  9
$UCSORG
 10
0.0
 20
0.0
 30
0.0
  9
$UCSXDIR
 10
1.0
 20
0.0
 30
0.0
  9
$UCSYDIR
 10
0.0
 20
1.0
 30
0.0
  9
$UCSORTHOREF
  2

  9
$UCSORTHOVIEW
 70
     0
  9
$UCSORGTOP
 10
0.0
 20
0.0
 30
0.0
  9
$UCSORGBOTTOM
 10
0.0
 20
0.0
 30
0.0
  9
$UCSORGLEFT
 10
0.0
 20
0.0
 30
0.0
  9
$UCSORGRIGHT
 10
0.0
 20
0.0
 30
0.0
  9
$UCSORGFRONT
 10
0.0
 20
0.0
 30
0.0
  9
$UCSORGBACK
 10
0.0
 20
0.0
 30
0.0
  9
$PUCSBASE
  2

  9
$PUCSNAME
  2

  9
$PUCSORG
 10
0.0
 20
0.0
 30
0.0
  9
$PUCSXDIR
 10
1.0
 20
0.0
 30
0.0
  9
$PUCSYDIR
 10
0.0
 20
1.0
 30
0.0
  9
$PUCSORTHOREF
  2

  9
$PUCSORTHOVIEW
 70
     0
  9
$PUCSORGTOP
 10
0.0
 20
0.0
 30
0.0
  9
$PUCSORGBOTTOM
 10
0.0
 20
0.0
 30
0.0
  9
$PUCSORGLEFT
 10
0.0
 20
0.0
 30
0.0
  9
$PUCSORGRIGHT
 10
0.0
 20
0.0
 30
0.0
  9
$PUCSORGFRONT
 10
0.0
 20
0.0
 30
0.0
  9
$PUCSORGBACK
 10
0.0
 20
0.0
 30
0.0
  9
$USERI1
 70
     0
  9
$USERI2
 70
     0
  9
$USERI3
 70
     0
  9
$USERI4
 70
     0
  9
$USERI5
 70
     0
  9
$USERR1
 40
0.0
  9
$USERR2
 40
0.0
  9
$USERR3
 40
0.0
  9
$USERR4
 40
0.0
  9
$USERR5
 40
0.0
  9
$WORLDVIEW
 70
     1
  9
$SHADEDGE
 70
     3
  9
$SHADEDIF
 70
    70
  9
$TILEMODE
 70
     1
  9
$MAXACTVP
 70
    16
  9
$PINSBASE
 10
0.0
 20
0.0
 30
0.0
  9
$PLIMCHECK
 70
     0
  9
$PEXTMIN
 10
1.000000000000000E+20
 20
1.000000000000000E+20
 30
1.000000000000000E+20
  9
$PEXTMAX
 10
-1.000000000000000E+20
 20
-1.000000000000000E+20
 30
-1.000000000000000E+20
  9
$PLIMMIN
 10
0.0
 20
0.0
  9
$PLIMMAX
 10
12.0
 20
9.0
  9
$UNITMODE
 70
     0
  9
$VISRETAIN
 70
     0
  9
$PLINEGEN
 70
     1
  9
$PSLTSCALE
 70
     0
  9
$TREEDEPTH
 70
  3020
  9
$CMLSTYLE
  2
Standard
  9
$CMLJUST
 70
     0
  9
$CMLSCALE
 40
1.0
  9
$PROXYGRAPHICS
 70
     0
  9
$MEASUREMENT
 70
     1
  9
$CELWEIGHT
370
     0
  9
$ENDCAPS
280
     0
  9
$JOINSTYLE
280
     0
  9
$LWDISPLAY
290
     0
  9
$INSUNITS
 70
     0
  9
$HYPERLINKBASE
  1

  9
$STYLESHEET
  1

  9
$XEDIT
290
     1
  9
$CEPSNTYPE
380
     0
  9
$PSTYLEMODE
290
     1
  9
$FINGERPRINTGUID
  2

  9
$VERSIONGUID
  2
{745C30F6-D3A1-41F6-8D5D-06A96D69DADD}
  9
$EXTNAMES
290
     1
  9
$PSVPSCALE
 40
0.0
  9
$OLESTARTUP
290
     0
  0
ENDSEC
  0
SECTION
  2
CLASSES
  0
CLASS
  1
LWPOLYLINE
  2
AcDbPolyline
  3
AutoCAD 2000
 90
    32768
280
     0
281
     1
  0
CLASS
  1
IMAGE
  2
AcDbRasterImage
  3
ISM
 90
    32895
280
     0
281
     1
  0
CLASS
  1
OLE2FRAME
  2
AcDbOle2Frame
  3
AutoCAD 2000
 90
    32768
280
     0
281
     1
  0
CLASS
  1
HATCH
  2
AcDbHatch
  3
AutoCAD 2000
 90
    32768
280
     0
281
     1
  0
CLASS
  1
DICTIONARYVAR
  2
AcDbDictionaryVar
  3
AutoCAD 2000
 90
    32768
280
     0
281
     0
  0
CLASS
  1
RASTERVARIABLES
  2
AcDbRasterVariables
  3
ISM
 90
    32768
280
     0
281
     0
  0
CLASS
  1
IMAGEDEF
  2
AcDbRasterImageDef
  3
ISM
 90
    32768
280
     0
281
     0
  0
CLASS
  1
IMAGEDEF_REACTOR
  2
AcDbRasterImageDefReactor
  3
ISM
 90
    32769
280
     0
281
     0
  0
CLASS
  1
IDBUFFER
  2
AcDbIdBuffer
  3
AutoCAD 2000
 90
    32768
280
     0
281
     0
  0
CLASS
  1
SPATIAL_FILTER
  2
AcDbSpatialFilter
  3
AutoCAD 2000
 90
    32768
280
     0
281
     0
  0
CLASS
  1
XRECORD
  2
AcDbXrecord
  3
AutoCAD 2000
 90
    32768
280
     0
281
     0
  0
CLASS
  1
SORTENTSTABLE
  2
AcDbSortentsTable
  3
AutoCAD 2000
 90
    32768
280
     0
281
     0
  0
CLASS
  1
LAYER_INDEX
  2
AcDbLayerIndex
  3
AutoCAD 2000
 90
    32768
280
     0
281
     0
  0
CLASS
  1
SPATIAL_INDEX
  2
AcDbSpatialIndex
  3
AutoCAD 2000
 90
    32768
280
     0
281
     0
  0
CLASS
  1
OBJECT_PTR
  2
CAseDLPNTableRecord
  3
"ASE-LPNTableRecord"
 90
    32769
280
     0
281
     0
  0
CLASS
  1
LAYOUT
  2
AcDbLayout
  3
AutoCAD 2000
 90
        0
280
     0
281
     0
  0
CLASS
  1
PLOTSETTINGS
  2
AcDbPlotSettings
  3
AutoCAD 2000
 90
    32768
280
     0
281
     0
  0
CLASS
  1
ACDBDICTIONARYWDFLT
  2
AcDbDictionaryWithDefault
  3
AutoCAD 2000
 90
        0
280
     0
281
     0
  0
CLASS
  1
ACDBPLACEHOLDER
  2
AcDbPlaceHolder
  3
AutoCAD 2000
 90
        0
280
     0
281
     0
  0
ENDSEC
  0
SECTION
  2
TABLES
  0
TABLE
  2
VPORT
  5
7
330
0
100
AcDbSymbolTable
 70
     2
  0
VPORT
  5
3B5
330
7
100
AcDbSymbolTableRecord
100
AcDbViewportTableRecord
  2
*Active
 70
     0
 10
0.0
 20
0.0
 11
1.0
 21
1.0
 12
-57.1890027010972
 22
27.83179564852884
 13
0.0
 23
0.0
 14
1.0
 24
1.0
 15
0.0
 25
0.0
 16
0.0
 26
0.0
 36
1.0
 17
0.0
 27
0.0
 37
0.0
 40
565.2033309748336
 41
1.535714285714285
 42
50.0
 43
0.0
 44
0.0
 50
0.0
 51
0.0
 71
     0
 72
   100
 73
     1
 74
     1
 75
     0
 76
     0
 77
     0
 78
     0
281
     0
 65
     0
110
0.0
120
0.0
130
0.0
111
1.0
121
0.0
131
0.0
112
0.0
122
1.0
132
0.0
 79
     0
146
0.0
  0
ENDTAB
  0
TABLE
  2
LTYPE
  5
4
330
0
100
AcDbSymbolTable
 70
     4
  0
LTYPE
  5
11
330
4
100
AcDbSymbolTableRecord
100
AcDbLinetypeTableRecord
  2
BYBLOCK
 70
     0
  3

 72
    65
 73
     0
 40
0.0
  0
LTYPE
  5
12
330
4
100
AcDbSymbolTableRecord
100
AcDbLinetypeTableRecord
  2
BYLAYER
 70
     0
  3

 72
    65
 73
     0
 40
0.0
  0
LTYPE
  5
13
330
4
100
AcDbSymbolTableRecord
100
AcDbLinetypeTableRecord
  2
CONTINUOUS
 70
     0
  3
Solid line
 72
    65
 73
     0
 40
0.0
  0
LTYPE
  5
2F8
330
4
100
AcDbSymbolTableRecord
100
AcDbLinetypeTableRecord
  2
PHANTOM
 70
     0
  3
Phantom ______  __  __  ______  __  __  ______
 72
    65
 73
     6
 40
63.5
 49
31.75
 74
     0
 49
-6.349999999999999
 74
     0
 49
6.349999999999999
 74
     0
 49
-6.349999999999999
 74
     0
 49
6.349999999999999
 74
     0
 49
-6.349999999999999
 74
     0
  0
LTYPE
  5
307
330
4
100
AcDbSymbolTableRecord
100
AcDbLinetypeTableRecord
  2
CENTER
 70
     0
  3
Center ____ _ ____ _ ____ _ ____ _ ____ _ ____
 72
    65
 73
     4
 40
50.8
 49
31.75
 74
     0
 49
-6.349999999999999
 74
     0
 49
6.349999999999999
 74
     0
 49
-6.349999999999999
 74
     0
  0
LTYPE
  5
325
330
4
100
AcDbSymbolTableRecord
100
AcDbLinetypeTableRecord
  2
DASHED
 70
     0
  3
Dashed __ __ __ __ __ __ __ __ __ __ __ __ __ _
 72
    65
 73
     2
 40
19.05
 49
12.7
 74
     0
 49
-6.349999999999999
 74
     0
  0
ENDTAB
  0
TABLE
  2
LAYER
  5
2
330
0
100
AcDbSymbolTable
 70
     5
  0
LAYER
  5
14
330
2
100
AcDbSymbolTableRecord
100
AcDbLayerTableRecord
  2
0
 70
     0
 62
     7
  6
CONTINUOUS
370
    -3
390
1D
  0
LAYER
  5
23
330
2
100
AcDbSymbolTableRecord
100
AcDbLayerTableRecord
  2
AV
 70
     0
 62
     7
  6
CONTINUOUS
370
    -3
390
1D
  0
LAYER
  5
24
330
2
100
AcDbSymbolTableRecord
100
AcDbLayerTableRecord
  2
DEFPOINTS
 70
     0
 62
     7
  6
CONTINUOUS
290
     0
370
    -3
390
1D
  0
LAYER
  5
25
330
2
100
AcDbSymbolTableRecord
100
AcDbLayerTableRecord
  2
PV
 70
     0
 62
     7
  6
CONTINUOUS
370
    -3
390
1D
  0
LAYER
  5
26
330
2
100
AcDbSymbolTableRecord
100
AcDbLayerTableRecord
  2
WV
 70
     0
 62
     7
  6
CONTINUOUS
370
    -3
390
1D
  0
ENDTAB
  0
TABLE
  2
STYLE
  5
3
330
0
100
AcDbSymbolTable
 70
     2
  0
STYLE
  5
17
330
3
100
AcDbSymbolTableRecord
100
AcDbTextStyleTableRecord
  2
MX_NOTE_STANDARD
 70
     0
 40
0.0
 41
1.0
 50
0.0
 71
     0
 42
3.2
  3
txt.shx
  4
extfont.shx
  0
STYLE
  5
3B1
330
3
100
AcDbSymbolTableRecord
100
AcDbTextStyleTableRecord
  2
Standard
 70
     0
 40
0.0
 41
1.0
 50
0.0
 71
     0
 42
0.2
  3

  4

  0
ENDTAB
  0
TABLE
  2
VIEW
  5
5
330
0
100
AcDbSymbolTable
 70
     0
  0
ENDTAB
  0
TABLE
  2
UCS
  5
6
330
0
100
AcDbSymbolTable
 70
     0
  0
ENDTAB
  0
TABLE
  2
APPID
  5
8
330
0
100
AcDbSymbolTable
 70
     1
  0
APPID
  5
16
330
8
100
AcDbSymbolTableRecord
100
AcDbRegAppTableRecord
  2
ACAD
 70
     0
  0
ENDTAB
  0
TABLE
  2
DIMSTYLE
  5
9
330
0
100
AcDbSymbolTable
 70
     1
100
AcDbDimStyleTable
 71
     0
  0
DIMSTYLE
105
18
102
{ACAD_REACTORS
330
3B
102
}
330
9
100
AcDbSymbolTableRecord
100
AcDbDimStyleTableRecord
  2
MXDIMSTYLE
 70
     0
 41
2.5
 42
2.54
 43
3.75
 44
2.286
 73
     0
 74
     0
 77
     1
 78
     8
140
3.2
141
2.5
143
0.03937
147
1.0
171
     4
172
     1
173
     1
271
     2
272
     2
274
     4
283
     0
288
     1
340
17
341
27
343
27
344
27
  0
ENDTAB
  0
TABLE
  2
BLOCK_RECORD
  5
1
330
0
100
AcDbSymbolTable
 70
     3
  0
BLOCK_RECORD
  5
A
330
1
100
AcDbSymbolTableRecord
100
AcDbBlockTableRecord
  2
*MODEL_SPACE
340
20
  0
BLOCK_RECORD
  5
B
330
1
100
AcDbSymbolTableRecord
100
AcDbBlockTableRecord
  2
*PAPER_SPACE
340
21
  0
BLOCK_RECORD
  5
27
330
1
100
AcDbSymbolTableRecord
100
AcDbBlockTableRecord
  2
_OPEN30
340
0
102
{BLKREFS
331
32
102
}
  0
BLOCK_RECORD
  5
2D
330
1
100
AcDbSymbolTableRecord
100
AcDbBlockTableRecord
  2
*D1
340
0
  0
BLOCK_RECORD
  5
33
330
1
100
AcDbSymbolTableRecord
100
AcDbBlockTableRecord
  2
_NONE
340
0
  0
ENDTAB
  0
ENDSEC
  0
SECTION
  2
BLOCKS
  0
BLOCK
  5
D
330
A
100
AcDbEntity
  8
0
100
AcDbBlockBegin
  2
*MODEL_SPACE
 70
     0
 10
0.0
 20
0.0
 30
0.0
  3
*MODEL_SPACE
  1

  0
ENDBLK
  5
E
330
A
100
AcDbEntity
  8
0
100
AcDbBlockEnd
  0
BLOCK
  5
F
330
B
100
AcDbEntity
 67
     1
  8
0
100
AcDbBlockBegin
  2
*PAPER_SPACE
 70
     0
 10
0.0
 20
0.0
 30
0.0
  3
*PAPER_SPACE
  1

  0
ENDBLK
  5
10
330
B
100
AcDbEntity
 67
     1
  8
0
100
AcDbBlockEnd
  0
BLOCK
  5
28
330
27
100
AcDbEntity
  8
0
  6
ByBlock
 62
     0
370
    -2
100
AcDbBlockBegin
  2
_OPEN30
 70
     2
 10
0.0
 20
0.0
 30
0.0
  3
_OPEN30
  1

  0
LINE
  5
29
330
27
100
AcDbEntity
  8
0
  6
ByBlock
 62
     0
370
    -2
100
AcDbLine
 10
-1.0
 20
0.267949
 30
0.0
 11
0.0
 21
0.0
 31
0.0
  0
LINE
  5
2A
330
27
100
AcDbEntity
  8
0
  6
ByBlock
 62
     0
370
    -2
100
AcDbLine
 10
0.0
 20
0.0
 30
0.0
 11
-1.0
 21
-0.267949
 31
0.0
  0
LINE
  5
2B
330
27
100
AcDbEntity
  8
0
  6
ByBlock
 62
     0
370
    -2
100
AcDbLine
 10
0.0
 20
0.0
 30
0.0
 11
-1.0
 21
0.0
 31
0.0
  0
ENDBLK
  5
2C
330
27
100
AcDbEntity
  8
0
  6
ByBlock
 62
     0
370
    -2
100
AcDbBlockEnd
  0
BLOCK
  5
2E
330
2D
100
AcDbEntity
  8
0
  6
ByBlock
 62
     0
370
    -2
100
AcDbBlockBegin
  2
*D1
 70
     1
 10
0.0
 20
0.0
 30
0.0
  3
*D1
  1

  0
LINE
  5
2F
330
2D
100
AcDbEntity
  8
0
  6
Continuous
 62
     7
100
AcDbLine
 10
-191.8557459999999
 20
-148.6244609999999
 30
0.0
 11
-211.521352
 21
-211.12294
 31
0.0
  0
LINE
  5
30
330
2D
100
AcDbEntity
  8
0
  6
Continuous
 62
     7
100
AcDbLine
 10
-211.521352
 20
-211.12294
 30
0.0
 11
-133.729611
 21
-211.12294
 31
0.0
  0
LINE
  5
31
330
2D
100
AcDbEntity
  8
0
  6
Continuous
 62
     7
100
AcDbLine
 10
-191.8557459999999
 20
-148.6244609999999
 30
0.0
 11
-193.761694
 21
-154.681677
 31
0.0
  0
INSERT
  5
32
330
2D
100
AcDbEntity
  8
0
  6
Continuous
 62
     7
100
AcDbBlockReference
  2
_OPEN30
 10
-191.8557459999999
 20
-148.6244609999999
 30
0.0
 41
2.77
 42
2.77
 43
2.77
 50
72.533434
  0
MTEXT
  5
37
330
2D
100
AcDbEntity
  8
0
  6
Continuous
 62
     7
100
AcDbMText
 10
-171.1796129999999
 20
-206.62294
 30
0.0
 40
7.0
 41
0.0
 71
     5
 72
     1
  1
\A1;4-10キリ（等配）
 73
     1
 44
0.9
  0
POINT
  5
38
330
2D
100
AcDbEntity
  8
DEFPOINTS
  6
Continuous
 62
     0
100
AcDbPoint
 10
-191.8557459999999
 20
-148.6244609999999
 30
0.0
  0
POINT
  5
39
330
2D
100
AcDbEntity
  8
DEFPOINTS
  6
Continuous
 62
     0
100
AcDbPoint
 10
-188.8542539999999
 20
-139.0855389999999
 30
0.0
  0
ENDBLK
  5
3A
330
2D
100
AcDbEntity
  8
0
  6
ByBlock
 62
     0
370
    -2
100
AcDbBlockEnd
  0
BLOCK
  5
34
330
33
100
AcDbEntity
  8
0
  6
ByBlock
 62
     0
370
    -2
100
AcDbBlockBegin
  2
_NONE
 70
     2
 10
0.0
 20
0.0
 30
0.0
  3
_NONE
  1

  0
CIRCLE
  5
35
330
33
100
AcDbEntity
  8
0
  6
ByBlock
 62
     0
370
    -2
100
AcDbCircle
 10
0.0
 20
0.0
 30
0.0
 40
0.25
  0
ENDBLK
  5
36
330
33
100
AcDbEntity
  8
0
  6
ByBlock
 62
     0
370
    -2
100
AcDbBlockEnd
  0
ENDSEC
  0
SECTION
  2
ENTITIES
  0
DIMENSION
  5
3B
330
A
100
AcDbEntity
  8
0
  6
Continuous
 62
     7
100
AcDbDimension
  2
*D1
 10
-188.8542539999999
 20
-139.0855389999999
 30
0.0
 11
-171.1796129999999
 21
-211.12294
 31
0.0
 70
   131
  1
4-<>
 71
     5
 41
0.9
 42
10.0
  3
MXDIMSTYLE
100
AcDbDiametricDimension
 15
-191.8557459999999
 25
-148.6244609999999
 35
0.0
 40
0.0
1001
ACAD
1000
DSTYLE
1002
{
1070
     6
1000
_NONE
1070
    41
1040
2.77
1070
    73
1070
     1
1070
    74
1070
     1
1070
   140
1040
7.0
1070
   141
1040
0.0
1070
   172
1070
     0
1070
   271
1070
     0
1070
   284
1070
     8
1070
   343
1005
33
1002
}
  0
LINE
  5
3C
330
A
100
AcDbEntity
  8
PV
  6
Continuous
 62
     7
100
AcDbLine
 10
-155.0
 20
-49.0
 30
0.0
 11
-155.0
 21
-167.7799999999999
 31
0.0
  0
SOLID
  5
3D
330
A
100
AcDbEntity
  8
PV
  6
Continuous
 62
     7
100
AcDbTrace
 10
-10.131
 20
131.3509999999999
 30
0.0
 11
-9.682999999999999
 21
131.3509999999999
 31
0.0
 12
-10.131
 22
133.59
 32
0.0
 13
-9.682999999999999
 23
133.59
 33
0.0
  0
SOLID
  5
3E
330
A
100
AcDbEntity
  8
PV
  6
Continuous
 62
     7
100
AcDbTrace
 10
-13.601
 20
131.3509999999999
 30
0.0
 11
-13.15299999999999
 21
131.3509999999999
 31
0.0
 12
-13.601
 22
133.59
 32
0.0
 13
-13.15299999999999
 23
133.59
 33
0.0
  0
SOLID
  5
3F
330
A
100
AcDbEntity
  8
PV
  6
Continuous
 62
     7
100
AcDbTrace
 10
0.3
 20
136.816
 30
0.0
 11
1.85
 21
136.816
 31
0.0
 12
0.3
 22
140.366
 32
0.0
 13
1.85
 23
140.366
 33
0.0
  0
MTEXT
  5
40
330
A
100
AcDbEntity
  8
PV
  6
Continuous
 62
     7
100
AcDbMText
 10
10.032124
 20
97.27281300000001
 30
0.0
 40
1.5
 41
0.0
 71
     2
 72
     1
  1
\W1.048;\A1;N
 11
0.9304177033247322
 21
0.3665008831366308
 31
0.0
 73
     1
 44
1.0
  0
MTEXT
  5
41
330
A
100
AcDbEntity
  8
PV
  6
Continuous
 62
     7
100
AcDbMText
 10
0.370844
 20
96.312688
 30
0.0
 40
1.5
 41
0.0
 71
     2
 72
     1
  1
\W0.905;\A1;E
 11
0.9969173391662902
 21
-0.0784590266929423
 31
0.0
 73
     1
 44
1.0
  0
MTEXT
  5
42
330
A
100
AcDbEntity
  8
PV
  6
Continuous
 62
     7
100
AcDbMText
 10
-1.058213999999999
 20
96.48771400000001
 30
0.0
 40
1.5
 41
0.0
 71
     2
 72
     1
  1
\W0.952;\A1;S
 11
0.9862855482320082
 21
-0.1650479243998155
 31
0.0
 73
     1
 44
1.0
  0
MTEXT
  5
43
330
A
100
AcDbEntity
  8
PV
  6
Continuous
 62
     7
100
AcDbMText
 10
-2.466215
 20
96.78711100000001
 30
0.0
 40
1.5
 41
0.0
 71
     2
 72
     1
  1
\W1.048;\A1;O
 11
0.9681476639056603
 21
-0.2503799130801275
 31
0.0
 73
     1
 44
1.0
  0
MTEXT
  5
44
330
A
100
AcDbEntity
  8
PV
  6
Continuous
 62
     7
100
AcDbMText
 10
-3.842644999999999
 20
97.20798100000001
 30
0.0
 40
1.5
 41
0.0
 71
     2
 72
     1
  1
\W0.810;\A1;L
 11
0.9426413920776289
 21
-0.3338071388421012
 31
0.0
 73
     1
 44
1.0
  0
MTEXT
  5
45
330
A
100
AcDbEntity
  8
PV
  6
Continuous
 62
     7
100
AcDbMText
 10
-5.17698
 20
97.74747099999999
 30
0.0
 40
1.5
 41
0.0
 71
     2
 72
     1
  1
\A1;C
 11
0.909961315861277
 21
-0.4146931439462357
 31
0.0
 73
     1
 44
1.0
  0
MTEXT
  5
46
330
A
100
AcDbEntity
  8
PV
  6
Continuous
 62
     7
100
AcDbMText
 10
8.670989
 20
96.80411499999999
 30
0.0
 40
1.5
 41
0.0
 71
     2
 72
     1
  1
\W0.905;\A1;E
 11
0.9588198501244839
 21
0.2840149556049157
 31
0.0
 73
     1
 44
1.0
  0
MTEXT
  5
47
330
A
100
AcDbEntity
  8
PV
  6
Continuous
 62
     7
100
AcDbMText
 10
7.274474
 20
96.455944
 30
0.0
 40
1.5
 41
0.0
 71
     2
 72
     1
  1
\A1;P
 11
0.9799247035488139
 21
0.1993679396863229
 31
0.0
 73
     1
 44
1.0
  0
MTEXT
  5
48
330
A
100
AcDbEntity
  8
PV
  6
Continuous
 62
     7
100
AcDbMText
 10
5.852098
 20
96.231179
 30
0.0
 40
1.5
 41
0.0
 71
     2
 72
     1
  1
\W1.048;\A1;O
 11
0.9935718815697162
 21
0.113202986506601
 31
0.0
 73
     1
 44
1.0
  0
MTEXT
  5
49
330
A
100
AcDbEntity
  8
PV
  6
Continuous
 62
     7
100
AcDbMText
 10
2.939999999999999
 20
105.731
 30
0.0
 40
2.0
 41
0.0
 71
     2
 72
     1
  1
\W0.930;\A1;METAL BELLOWS
 73
     1
 44
1.0
  0
MTEXT
  5
4A
330
A
100
AcDbEntity
  8
PV
  6
Continuous
 62
     7
100
AcDbMText
 10
3.003
 20
110.7929999999999
 30
0.0
 40
2.0
 41
0.0
 71
     2
 72
     1
  1
\W0.925;\A1;HIGH VACUUM VALVES
 73
     1
 44
1.0
  0
LWPOLYLINE
  5
4B
330
A
100
AcDbEntity
  8
PV
  6
Continuous
 62
     7
100
AcDbPolyline
 90
       94
 70
     0
 43
0.0
 10
25.36699999999999
 20
123.206
 10
25.36599999999999
 20
123.2099999999999
 10
25.35099999999999
 20
123.256
 10
25.335
 20
123.3
 10
25.316
 20
123.3439999999999
 10
25.296
 20
123.387
 10
25.274
 20
123.429
 10
25.25
 20
123.4699999999999
 10
25.225
 20
123.51
 10
25.198
 20
123.5489999999999
 10
25.169
 20
123.5859999999999
 10
25.139
 20
123.6229999999999
 10
25.10699999999999
 20
123.657
 10
25.074
 20
123.69
 10
25.039
 20
123.722
 10
25.004
 20
123.752
 10
24.967
 20
123.78
 10
24.929
 20
123.807
 10
24.89
 20
123.832
 10
24.849
 20
123.855
 10
24.808
 20
123.876
 10
24.76599999999999
 20
123.896
 10
24.724
 20
123.913
 10
24.67999999999999
 20
123.929
 10
24.636
 20
123.942
 10
24.592
 20
123.953
 10
24.54699999999999
 20
123.963
 10
24.502
 20
123.97
 10
24.456
 20
123.9749999999999
 10
24.41
 20
123.9779999999999
 10
24.365
 20
123.9789999999999
 10
24.319
 20
123.9779999999999
 10
24.273
 20
123.9749999999999
 10
24.228
 20
123.97
 10
24.182
 20
123.963
 10
24.13699999999999
 20
123.953
 10
24.093
 20
123.942
 10
24.049
 20
123.929
 10
24.005
 20
123.913
 10
23.963
 20
123.896
 10
23.921
 20
123.876
 10
23.87999999999999
 20
123.855
 10
23.83999999999999
 20
123.832
 10
23.8
 20
123.807
 10
23.76199999999999
 20
123.78
 10
23.725
 20
123.752
 10
23.69
 20
123.722
 10
23.655
 20
123.69
 10
23.622
 20
123.657
 10
23.58999999999999
 20
123.6229999999999
 10
23.55999999999999
 20
123.5859999999999
 10
23.53199999999999
 20
123.5489999999999
 10
23.504
 20
123.51
 10
23.479
 20
123.4699999999999
 10
23.45499999999999
 20
123.429
 10
23.433
 20
123.387
 10
23.41299999999999
 20
123.3439999999999
 10
23.394
 20
123.3
 10
23.378
 20
123.256
 10
23.363
 20
123.2099999999999
 10
23.35
 20
123.164
 10
23.339
 20
123.1179999999999
 10
23.33099999999999
 20
123.0699999999999
 10
23.324
 20
123.0229999999999
 10
23.319
 20
122.9749999999999
 10
23.31599999999999
 20
122.927
 10
23.315
 20
122.8789999999999
 10
23.31599999999999
 20
122.831
 10
23.319
 20
122.784
 10
23.324
 20
122.736
 10
23.33099999999999
 20
122.6879999999999
 10
23.339
 20
122.641
 10
23.35
 20
122.595
 10
23.363
 20
122.5489999999999
 10
23.378
 20
122.5029999999999
 10
23.394
 20
122.458
 10
23.41299999999999
 20
122.415
 10
23.433
 20
122.372
 10
23.45499999999999
 20
122.3289999999999
 10
23.479
 20
122.2879999999999
 10
23.504
 20
122.248
 10
23.53199999999999
 20
122.2099999999999
 10
23.55999999999999
 20
122.172
 10
23.58999999999999
 20
122.136
 10
23.622
 20
122.1019999999999
 10
23.655
 20
122.0679999999999
 10
23.69
 20
122.037
 10
23.725
 20
122.0069999999999
 10
23.76199999999999
 20
121.9779999999999
 10
23.8
 20
121.952
 10
23.83999999999999
 20
121.927
 10
23.87999999999999
 20
121.9039999999999
 10
23.921
 20
121.882
 10
23.949
 20
121.869
  0
LWPOLYLINE
  5
4C
330
A
100
AcDbEntity
  8
PV
  6
Continuous
 62
     7
100
AcDbPolyline
 90
       94
 70
     0
 43
0.0
 10
22.962
 20
120.856
 10
22.963
 20
120.8509999999999
 10
22.978
 20
120.8059999999999
 10
22.99399999999999
 20
120.761
 10
23.013
 20
120.717
 10
23.033
 20
120.6739999999999
 10
23.05499999999999
 20
120.632
 10
23.079
 20
120.591
 10
23.104
 20
120.551
 10
23.13199999999999
 20
120.513
 10
23.16
 20
120.4749999999999
 10
23.19
 20
120.4389999999999
 10
23.222
 20
120.4039999999999
 10
23.25499999999999
 20
120.371
 10
23.29
 20
120.34
 10
23.325
 20
120.31
 10
23.36199999999999
 20
120.281
 10
23.39999999999999
 20
120.255
 10
23.44
 20
120.23
 10
23.48
 20
120.207
 10
23.521
 20
120.185
 10
23.563
 20
120.1659999999999
 10
23.605
 20
120.1489999999999
 10
23.649
 20
120.133
 10
23.693
 20
120.12
 10
23.73699999999999
 20
120.1079999999999
 10
23.78199999999999
 20
120.099
 10
23.82699999999999
 20
120.092
 10
23.873
 20
120.086
 10
23.919
 20
120.083
 10
23.965
 20
120.0819999999999
 10
24.01
 20
120.083
 10
24.05599999999999
 20
120.086
 10
24.10199999999999
 20
120.092
 10
24.14699999999999
 20
120.099
 10
24.192
 20
120.1079999999999
 10
24.236
 20
120.12
 10
24.28
 20
120.133
 10
24.324
 20
120.1489999999999
 10
24.366
 20
120.1659999999999
 10
24.408
 20
120.185
 10
24.449
 20
120.207
 10
24.48999999999999
 20
120.23
 10
24.529
 20
120.255
 10
24.56699999999999
 20
120.281
 10
24.60399999999999
 20
120.31
 10
24.639
 20
120.34
 10
24.674
 20
120.371
 10
24.70699999999999
 20
120.4039999999999
 10
24.739
 20
120.4389999999999
 10
24.769
 20
120.4749999999999
 10
24.798
 20
120.513
 10
24.82499999999999
 20
120.551
 10
24.85
 20
120.591
 10
24.874
 20
120.632
 10
24.896
 20
120.6739999999999
 10
24.916
 20
120.717
 10
24.935
 20
120.761
 10
24.951
 20
120.8059999999999
 10
24.96599999999999
 20
120.8509999999999
 10
24.979
 20
120.8979999999999
 10
24.99
 20
120.944
 10
24.999
 20
120.991
 10
25.006
 20
121.039
 10
25.011
 20
121.086
 10
25.014
 20
121.134
 10
25.015
 20
121.182
 10
25.014
 20
121.23
 10
25.011
 20
121.2779999999999
 10
25.006
 20
121.326
 10
24.999
 20
121.3729999999999
 10
24.99
 20
121.4199999999999
 10
24.979
 20
121.467
 10
24.96599999999999
 20
121.513
 10
24.951
 20
121.5579999999999
 10
24.935
 20
121.6029999999999
 10
24.916
 20
121.647
 10
24.896
 20
121.69
 10
24.874
 20
121.732
 10
24.85
 20
121.7729999999999
 10
24.82499999999999
 20
121.8129999999999
 10
24.798
 20
121.852
 10
24.769
 20
121.889
 10
24.739
 20
121.9249999999999
 10
24.70699999999999
 20
121.96
 10
24.674
 20
121.9929999999999
 10
24.639
 20
122.025
 10
24.60399999999999
 20
122.055
 10
24.56699999999999
 20
122.083
 10
24.529
 20
122.11
 10
24.48999999999999
 20
122.135
 10
24.449
 20
122.1579999999999
 10
24.408
 20
122.179
 10
24.38
 20
122.192
  0
LWPOLYLINE
  5
4D
330
A
100
AcDbEntity
  8
PV
  6
Continuous
 62
     7
100
AcDbPolyline
 90
       26
 70
     0
 43
0.0
 10
-7.317999999999999
 20
122.6949999999999
 10
-7.318999999999999
 20
122.6979999999999
 10
-7.342999999999999
 20
122.774
 10
-7.37
 20
122.8489999999999
 10
-7.400999999999999
 20
122.922
 10
-7.434
 20
122.994
 10
-7.469999999999999
 20
123.0629999999999
 10
-7.508999999999999
 20
123.131
 10
-7.549999999999999
 20
123.1959999999999
 10
-7.593999999999999
 20
123.26
 10
-7.639999999999999
 20
123.3199999999999
 10
-7.689
 20
123.3789999999999
 10
-7.738999999999999
 20
123.435
 10
-7.792999999999999
 20
123.4879999999999
 10
-7.847999999999999
 20
123.5379999999999
 10
-7.905
 20
123.5849999999999
 10
-7.963999999999999
 20
123.6289999999999
 10
-8.025
 20
123.671
 10
-8.087999999999999
 20
123.709
 10
-8.152000000000001
 20
123.744
 10
-8.217
 20
123.775
 10
-8.283999999999998
 20
123.8029999999999
 10
-8.352
 20
123.8279999999999
 10
-8.420999999999999
 20
123.8489999999999
 10
-8.49
 20
123.867
 10
-8.560999999999999
 20
123.882
  0
LWPOLYLINE
  5
4E
330
A
100
AcDbEntity
  8
PV
  6
Continuous
 62
     7
100
AcDbPolyline
 90
      113
 70
     0
 43
0.0
 10
-8.560999999999999
 20
123.882
 10
-8.631999999999999
 20
123.892
 10
-8.704
 20
123.899
 10
-8.775999999999999
 20
123.9029999999999
 10
-8.847999999999998
 20
123.9029999999999
 10
-8.919999999999999
 20
123.899
 10
-8.993
 20
123.892
 10
-9.064999999999999
 20
123.8809999999999
 10
-9.137
 20
123.867
 10
-9.208
 20
123.8489999999999
 10
-9.278999999999999
 20
123.827
 10
-9.347999999999998
 20
123.802
 10
-9.417999999999999
 20
123.774
 10
-9.486
 20
123.7419999999999
 10
-9.552999999999999
 20
123.707
 10
-9.618
 20
123.669
 10
-9.682999999999999
 20
123.6279999999999
 10
-9.744999999999999
 20
123.584
 10
-9.807
 20
123.536
 10
-9.865999999999999
 20
123.486
 10
-9.923
 20
123.4329999999999
 10
-9.978999999999999
 20
123.377
 10
-10.033
 20
123.3179999999999
 10
-10.08399999999999
 20
123.257
 10
-10.13299999999999
 20
123.194
 10
-10.18
 20
123.1289999999999
 10
-10.22399999999999
 20
123.061
 10
-10.26599999999999
 20
122.991
 10
-10.30499999999999
 20
122.92
 10
-10.341
 20
122.846
 10
-10.375
 20
122.771
 10
-10.40599999999999
 20
122.6949999999999
 10
-10.434
 20
122.6169999999999
 10
-10.459
 20
122.5389999999999
 10
-10.481
 20
122.459
 10
-10.5
 20
122.3779999999999
 10
-10.51599999999999
 20
122.297
 10
-10.529
 20
122.215
 10
-10.538
 20
122.133
 10
-10.54499999999999
 20
122.0499999999999
 10
-10.54799999999999
 20
121.9679999999999
 10
-10.549
 20
121.8849999999999
 10
-10.54599999999999
 20
121.8029999999999
 10
-10.54
 20
121.721
 10
-10.53099999999999
 20
121.6399999999999
 10
-10.51799999999999
 20
121.5589999999999
 10
-10.503
 20
121.479
 10
-10.484
 20
121.401
 10
-10.463
 20
121.323
 10
-10.439
 20
121.247
 10
-10.41099999999999
 20
121.172
 10
-10.38099999999999
 20
121.099
 10
-10.34799999999999
 20
121.0269999999999
 10
-10.312
 20
120.958
 10
-10.273
 20
120.89
 10
-10.232
 20
120.8239999999999
 10
-10.18799999999999
 20
120.761
 10
-10.142
 20
120.7
 10
-10.093
 20
120.642
 10
-10.04199999999999
 20
120.5859999999999
 10
-9.988999999999998
 20
120.5329999999999
 10
-9.933999999999999
 20
120.4829999999999
 10
-9.877
 20
120.436
 10
-9.817
 20
120.391
 10
-9.756999999999999
 20
120.35
 10
-9.693999999999999
 20
120.312
 10
-9.63
 20
120.277
 10
-9.564999999999999
 20
120.246
 10
-9.497999999999999
 20
120.217
 10
-9.429999999999999
 20
120.1929999999999
 10
-9.361
 20
120.171
 10
-9.291
 20
120.154
 10
-9.221
 20
120.1389999999999
 10
-9.15
 20
120.1289999999999
 10
-9.077999999999999
 20
120.121
 10
-9.006
 20
120.1179999999999
 10
-8.933999999999999
 20
120.1179999999999
 10
-8.861
 20
120.122
 10
-8.788999999999999
 20
120.1289999999999
 10
-8.717
 20
120.14
 10
-8.644999999999999
 20
120.154
 10
-8.573999999999999
 20
120.172
 10
-8.503
 20
120.1929999999999
 10
-8.432999999999999
 20
120.218
 10
-8.363999999999998
 20
120.247
 10
-8.295999999999999
 20
120.2779999999999
 10
-8.228999999999999
 20
120.3129999999999
 10
-8.163
 20
120.352
 10
-8.099
 20
120.3929999999999
 10
-8.035999999999999
 20
120.437
 10
-7.974999999999999
 20
120.4849999999999
 10
-7.916
 20
120.5349999999999
 10
-7.857999999999999
 20
120.588
 10
-7.802999999999999
 20
120.6439999999999
 10
-7.748999999999999
 20
120.702
 10
-7.697999999999999
 20
120.7629999999999
 10
-7.649
 20
120.827
 10
-7.602
 20
120.892
 10
-7.557999999999999
 20
120.96
 10
-7.516
 20
121.0299999999999
 10
-7.477
 20
121.1009999999999
 10
-7.44
 20
121.174
 10
-7.407
 20
121.249
 10
-7.376
 20
121.326
 10
-7.347999999999999
 20
121.4029999999999
 10
-7.322999999999999
 20
121.482
 10
-7.301
 20
121.562
 10
-7.282
 20
121.6429999999999
 10
-7.266
 20
121.7239999999999
 10
-7.252999999999999
 20
121.8059999999999
 10
-7.242999999999999
 20
121.8879999999999
 10
-7.237
 20
121.971
 10
-7.235
 20
122.01
  0
ARC
  5
4F
330
A
100
AcDbEntity
  8
PV
  6
Continuous
 62
     7
100
AcDbCircle
 10
4.375
 20
112.562
 30
0.0
 40
17.25
100
AcDbArc
 50
298.4734849999999
 51
311.660234
  0
ARC
  5
50
330
A
100
AcDbEntity
  8
PV
  6
Continuous
 62
     7
100
AcDbCircle
 10
1.381999999999999
 20
112.799
 30
0.0
 40
17.25
100
AcDbArc
 50
228.339771
 51
242.636245
  0
ARC
  5
51
330
A
100
AcDbEntity
  8
PV
  6
Continuous
 62
   254
100
AcDbCircle
 10
18.63799999999999
 20
132.471
 30
0.0
 40
1.118999999999999
100
AcDbArc
 50
359.999996
 51
90.00003000000001
  0
ARC
  5
52
330
A
100
AcDbEntity
  8
PV
  6
Continuous
 62
   254
100
AcDbCircle
 10
18.63799999999999
 20
132.471
 30
0.0
 40
0.6720000000000001
100
AcDbArc
 50
359.999996
 51
90.00003000000001
  0
ARC
  5
53
330
A
100
AcDbEntity
  8
PV
  6
Continuous
 62
   254
100
AcDbCircle
 10
10.578
 20
132.471
 30
0.0
 40
1.118999999999999
100
AcDbArc
 50
359.999996
 51
89.999975
  0
ARC
  5
54
330
A
100
AcDbEntity
  8
PV
  6
Continuous
 62
   254
100
AcDbCircle
 10
10.578
 20
132.471
 30
0.0
 40
0.6720000000000001
100
AcDbArc
 50
359.999996
 51
89.999975
  0
ARC
  5
55
330
A
100
AcDbEntity
  8
PV
  6
Continuous
 62
   254
100
AcDbCircle
 10
10.354
 20
132.471
 30
0.0
 40
0.6720000000000001
100
AcDbArc
 50
179.999978
 51
270.000001
  0
ARC
  5
56
330
A
100
AcDbEntity
  8
PV
  6
Continuous
 62
   254
100
AcDbCircle
 10
10.354
 20
132.471
 30
0.0
 40
1.118999999999999
100
AcDbArc
 50
179.999978
 51
270.000001
  0
ARC
  5
57
330
A
100
AcDbEntity
  8
PV
  6
Continuous
 62
   254
100
AcDbCircle
 10
-2.631
 20
132.471
 30
0.0
 40
1.118999999999999
100
AcDbArc
 50
179.999978
 51
270.000001
  0
ARC
  5
58
330
A
100
AcDbEntity
  8
PV
  6
Continuous
 62
   254
100
AcDbCircle
 10
-2.631
 20
132.471
 30
0.0
 40
0.6720000000000001
100
AcDbArc
 50
179.999978
 51
270.000001
  0
ARC
  5
59
330
A
100
AcDbEntity
  8
PV
  6
Continuous
 62
   254
100
AcDbCircle
 10
-2.407
 20
132.471
 30
0.0
 40
0.6720000000000001
100
AcDbArc
 50
359.999996
 51
89.999975
  0
ARC
  5
5A
330
A
100
AcDbEntity
  8
PV
  6
Continuous
 62
   254
100
AcDbCircle
 10
-2.407
 20
132.471
 30
0.0
 40
1.118999999999999
100
AcDbArc
 50
359.999996
 51
89.999975
  0
ARC
  5
5B
330
A
100
AcDbEntity
  8
PV
  6
Continuous
 62
   254
100
AcDbCircle
 10
-11.139
 20
132.918
 30
0.0
 40
0.6720000000000001
100
AcDbArc
 50
359.999996
 51
89.999975
  0
ARC
  5
5C
330
A
100
AcDbEntity
  8
PV
  6
Continuous
 62
   254
100
AcDbCircle
 10
-11.139
 20
132.918
 30
0.0
 40
0.224
100
AcDbArc
 50
359.999996
 51
89.999975
  0
ARC
  5
5D
330
A
100
AcDbEntity
  8
PV
  6
Continuous
 62
   254
100
AcDbCircle
 10
8.003
 20
132.471
 30
0.0
 40
0.6720000000000001
100
AcDbArc
 50
89.999975
 51
270.000001
  0
ARC
  5
5E
330
A
100
AcDbEntity
  8
PV
  6
Continuous
 62
   254
100
AcDbCircle
 10
8.003
 20
132.471
 30
0.0
 40
1.118999999999999
100
AcDbArc
 50
89.999975
 51
270.000001
  0
ARC
  5
5F
330
A
100
AcDbEntity
  8
PV
  6
Continuous
 62
   254
100
AcDbCircle
 10
18.63799999999999
 20
132.471
 30
0.0
 40
0.6720000000000001
100
AcDbArc
 50
270.0000109999999
 51
359.999996
  0
ARC
  5
60
330
A
100
AcDbEntity
  8
PV
  6
Continuous
 62
   254
100
AcDbCircle
 10
18.63799999999999
 20
132.471
 30
0.0
 40
1.118999999999999
100
AcDbArc
 50
270.0000109999999
 51
359.999996
  0
ARC
  5
61
330
A
100
AcDbEntity
  8
PV
  6
Continuous
 62
   254
100
AcDbCircle
 10
14.048
 20
132.247
 30
0.0
 40
0.448
100
AcDbArc
 50
179.999978
 51
270.000001
  0
ARC
  5
62
330
A
100
AcDbEntity
  8
PV
  6
Continuous
 62
   254
100
AcDbCircle
 10
14.048
 20
132.247
 30
0.0
 40
0.8959999999999999
100
AcDbArc
 50
179.999978
 51
270.000001
  0
CIRCLE
  5
63
330
A
100
AcDbEntity
  8
PV
  6
Continuous
 62
   254
100
AcDbCircle
 10
11.92099999999999
 20
131.631
 30
0.0
 40
0.28
  0
ARC
  5
64
330
A
100
AcDbEntity
  8
PV
  6
Continuous
 62
   254
100
AcDbCircle
 10
12.638
 20
131.631
 30
0.0
 40
0.28
100
AcDbArc
 50
319.9999189999999
 51
241.536827
  0
ARC
  5
65
330
A
100
AcDbEntity
  8
PV
  6
Continuous
 62
   254
100
AcDbCircle
 10
-2.407
 20
132.471
 30
0.0
 40
0.6720000000000001
100
AcDbArc
 50
270.0000109999999
 51
359.999996
  0
ARC
  5
66
330
A
100
AcDbEntity
  8
PV
  6
Continuous
 62
   254
100
AcDbCircle
 10
-2.631
 20
132.471
 30
0.0
 40
0.6720000000000001
100
AcDbArc
 50
89.999975
 51
179.99995
  0
ARC
  5
67
330
A
100
AcDbEntity
  8
PV
  6
Continuous
 62
   254
100
AcDbCircle
 10
-2.407
 20
132.471
 30
0.0
 40
1.118999999999999
100
AcDbArc
 50
270.0000109999999
 51
359.999996
  0
ARC
  5
68
330
A
100
AcDbEntity
  8
PV
  6
Continuous
 62
   254
100
AcDbCircle
 10
-2.631
 20
132.471
 30
0.0
 40
1.118999999999999
100
AcDbArc
 50
89.999975
 51
179.99995
  0
ARC
  5
69
330
A
100
AcDbEntity
  8
PV
  6
Continuous
 62
   254
100
AcDbCircle
 10
4.868999999999999
 20
132.583
 30
0.0
 40
0.5600000000000001
100
AcDbArc
 50
359.999996
 51
89.999975
  0
ARC
  5
6A
330
A
100
AcDbEntity
  8
PV
  6
Continuous
 62
   254
100
AcDbCircle
 10
4.644999999999999
 20
132.583
 30
0.0
 40
0.5600000000000001
100
AcDbArc
 50
89.999975
 51
179.99995
  0
ARC
  5
6B
330
A
100
AcDbEntity
  8
PV
  6
Continuous
 62
   254
100
AcDbCircle
 10
4.868999999999999
 20
132.583
 30
0.0
 40
1.007
100
AcDbArc
 50
359.999996
 51
89.999975
  0
ARC
  5
6C
330
A
100
AcDbEntity
  8
PV
  6
Continuous
 62
   254
100
AcDbCircle
 10
4.644999999999999
 20
132.583
 30
0.0
 40
1.007
100
AcDbArc
 50
89.999975
 51
179.99995
  0
ARC
  5
6D
330
A
100
AcDbEntity
  8
PV
  6
Continuous
 62
   254
100
AcDbCircle
 10
-8.339999999999999
 20
132.471
 30
0.0
 40
0.6720000000000001
100
AcDbArc
 50
199.471211
 51
270.0000109999999
  0
ARC
  5
6E
330
A
100
AcDbEntity
  8
PV
  6
Continuous
 62
   254
100
AcDbCircle
 10
-8.339999999999999
 20
132.471
 30
0.0
 40
0.6720000000000001
100
AcDbArc
 50
89.999975
 51
160.528775
  0
ARC
  5
6F
330
A
100
AcDbEntity
  8
PV
  6
Continuous
 62
   254
100
AcDbCircle
 10
-8.339999999999999
 20
132.471
 30
0.0
 40
1.118999999999999
100
AcDbArc
 50
89.999975
 51
270.000001
  0
ARC
  5
70
330
A
100
AcDbEntity
  8
PV
  6
Continuous
 62
   254
100
AcDbCircle
 10
10.578
 20
132.471
 30
0.0
 40
0.6720000000000001
100
AcDbArc
 50
270.0000109999999
 51
359.999996
  0
ARC
  5
71
330
A
100
AcDbEntity
  8
PV
  6
Continuous
 62
   254
100
AcDbCircle
 10
10.354
 20
132.471
 30
0.0
 40
0.6720000000000001
100
AcDbArc
 50
89.999975
 51
179.99995
  0
ARC
  5
72
330
A
100
AcDbEntity
  8
PV
  6
Continuous
 62
   254
100
AcDbCircle
 10
10.578
 20
132.471
 30
0.0
 40
1.118999999999999
100
AcDbArc
 50
270.0000109999999
 51
359.999996
  0
ARC
  5
73
330
A
100
AcDbEntity
  8
PV
  6
Continuous
 62
   254
100
AcDbCircle
 10
10.354
 20
132.471
 30
0.0
 40
1.118999999999999
100
AcDbArc
 50
89.999975
 51
179.99995
  0
ARC
  5
74
330
A
100
AcDbEntity
  8
PV
  6
Continuous
 62
   254
100
AcDbCircle
 10
2.294
 20
132.471
 30
0.0
 40
0.6720000000000001
100
AcDbArc
 50
199.471211
 51
270.0000109999999
  0
ARC
  5
75
330
A
100
AcDbEntity
  8
PV
  6
Continuous
 62
   254
100
AcDbCircle
 10
2.294
 20
132.471
 30
0.0
 40
0.6720000000000001
100
AcDbArc
 50
89.999975
 51
160.528775
  0
ARC
  5
76
330
A
100
AcDbEntity
  8
PV
  6
Continuous
 62
   254
100
AcDbCircle
 10
2.294
 20
132.471
 30
0.0
 40
1.118999999999999
100
AcDbArc
 50
89.999975
 51
270.000001
  0
ARC
  5
77
330
A
100
AcDbEntity
  8
PV
  6
Continuous
 62
   254
100
AcDbCircle
 10
-11.139
 20
132.918
 30
0.0
 40
0.224
100
AcDbArc
 50
270.0000109999999
 51
359.999996
  0
ARC
  5
78
330
A
100
AcDbEntity
  8
PV
  6
Continuous
 62
   254
100
AcDbCircle
 10
-11.139
 20
132.918
 30
0.0
 40
0.6720000000000001
100
AcDbArc
 50
273.7218359999999
 51
359.999996
  0
ARC
  5
79
330
A
100
AcDbEntity
  8
PV
  6
Continuous
 62
     7
100
AcDbCircle
 10
8.400999999999999
 20
138.591
 30
0.0
 40
1.0
100
AcDbArc
 50
269.9999969999999
 51
90.00000300000001
  0
ARC
  5
7A
330
A
100
AcDbEntity
  8
PV
  6
Continuous
 62
     7
100
AcDbCircle
 10
8.400999999999999
 20
138.591
 30
0.0
 40
1.0
100
AcDbArc
 50
90.00000300000001
 51
270.000001
  0
ARC
  5
7B
330
A
100
AcDbEntity
  8
PV
  6
Continuous
 62
     7
100
AcDbCircle
 10
6.876
 20
138.591
 30
0.0
 40
1.774999999999999
100
AcDbArc
 50
34.225552
 51
325.774451
  0
ARC
  5
7C
330
A
100
AcDbEntity
  8
PV
  6
Continuous
 62
     7
100
AcDbCircle
 10
3.625
 20
138.591
 30
0.0
 40
0.975
100
AcDbArc
 50
269.9999969999999
 51
90.00000300000001
  0
ARC
  5
7D
330
A
100
AcDbEntity
  8
PV
  6
Continuous
 62
     7
100
AcDbCircle
 10
3.625
 20
138.591
 30
0.0
 40
0.975
100
AcDbArc
 50
90.00000300000001
 51
270.000001
  0
ARC
  5
7E
330
A
100
AcDbEntity
  8
PV
  6
Continuous
 62
     7
100
AcDbCircle
 10
3.625
 20
138.591
 30
0.0
 40
1.774999999999999
100
AcDbArc
 50
90.00000300000001
 51
270.000001
  0
ARC
  5
7F
330
A
100
AcDbEntity
  8
PV
  6
Continuous
 62
     7
100
AcDbCircle
 10
-1.334
 20
139.416
 30
0.0
 40
0.95
100
AcDbArc
 50
179.9999949999999
 51
0.0
  0
ARC
  5
80
330
A
100
AcDbEntity
  8
PV
  6
Continuous
 62
     7
100
AcDbCircle
 10
-1.334
 20
139.416
 30
0.0
 40
0.95
100
AcDbArc
 50
0.0
 51
180.000005
  0
CIRCLE
  5
81
330
A
100
AcDbEntity
  8
PV
  6
Continuous
 62
     7
100
AcDbCircle
 10
3.0
 20
118.006
 30
0.0
 40
25.0
  0
LINE
  5
82
330
A
100
AcDbEntity
  8
PV
  6
Continuous
 62
     7
100
AcDbLine
 10
-7.974
 20
98.78900000000001
 30
0.0
 11
-10.08399999999999
 21
99.91100000000001
 31
0.0
  0
LINE
  5
83
330
A
100
AcDbEntity
  8
PV
  6
Continuous
 62
     7
100
AcDbLine
 10
-8.607000000000001
 20
98.03200000000002
 30
0.0
 11
-10.08399999999999
 21
99.91100000000001
 31
0.0
  0
LINE
  5
84
330
A
100
AcDbEntity
  8
PV
  6
Continuous
 62
     7
100
AcDbLine
 10
14.364
 20
97.79600000000002
 30
0.0
 11
15.841
 21
99.67500000000001
 31
0.0
  0
LINE
  5
85
330
A
100
AcDbEntity
  8
PV
  6
Continuous
 62
     7
100
AcDbLine
 10
13.73099999999999
 20
98.55299999999999
 30
0.0
 11
15.841
 21
99.67500000000001
 31
0.0
  0
LINE
  5
86
330
A
100
AcDbEntity
  8
PV
  6
Continuous
 62
   254
100
AcDbLine
 10
-2.631
 20
133.142
 30
0.0
 11
-2.407
 21
133.142
 31
0.0
  0
LINE
  5
87
330
A
100
AcDbEntity
  8
PV
  6
Continuous
 62
   254
100
AcDbLine
 10
17.854
 20
132.471
 30
0.0
 11
17.854
 21
131.7989999999999
 31
0.0
  0
LINE
  5
88
330
A
100
AcDbEntity
  8
PV
  6
Continuous
 62
   254
100
AcDbLine
 10
17.40599999999999
 20
132.471
 30
0.0
 11
17.40599999999999
 21
131.3509999999999
 31
0.0
  0
LINE
  5
89
330
A
100
AcDbEntity
  8
PV
  6
Continuous
 62
   254
100
AcDbLine
 10
-12.258
 20
132.918
 30
0.0
 11
-12.258
 21
132.694
 31
0.0
  0
LINE
  5
8A
330
A
100
AcDbEntity
  8
PV
  6
Continuous
 62
   254
100
AcDbLine
 10
-12.70599999999999
 20
132.918
 30
0.0
 11
-12.70599999999999
 21
131.3509999999999
 31
0.0
  0
LINE
  5
8B
330
A
100
AcDbEntity
  8
PV
  6
Continuous
 62
   254
100
AcDbLine
 10
17.854
 20
133.142
 30
0.0
 11
17.854
 21
132.471
 31
0.0
  0
LINE
  5
8C
330
A
100
AcDbEntity
  8
PV
  6
Continuous
 62
   254
100
AcDbLine
 10
17.854
 20
131.7989999999999
 30
0.0
 11
18.63799999999999
 21
131.7989999999999
 31
0.0
  0
LINE
  5
8D
330
A
100
AcDbEntity
  8
PV
  6
Continuous
 62
   254
100
AcDbLine
 10
17.40599999999999
 20
133.59
 30
0.0
 11
17.40599999999999
 21
132.471
 31
0.0
  0
LINE
  5
8E
330
A
100
AcDbEntity
  8
PV
  6
Continuous
 62
   254
100
AcDbLine
 10
15.839
 20
131.3509999999999
 30
0.0
 11
16.287
 21
131.3509999999999
 31
0.0
  0
LINE
  5
8F
330
A
100
AcDbEntity
  8
PV
  6
Continuous
 62
   254
100
AcDbLine
 10
16.287
 20
133.142
 30
0.0
 11
17.182
 21
133.142
 31
0.0
  0
LINE
  5
90
330
A
100
AcDbEntity
  8
PV
  6
Continuous
 62
   254
100
AcDbLine
 10
17.40599999999999
 20
133.59
 30
0.0
 11
18.63799999999999
 21
133.59
 31
0.0
  0
LINE
  5
91
330
A
100
AcDbEntity
  8
PV
  6
Continuous
 62
   254
100
AcDbLine
 10
17.854
 20
133.142
 30
0.0
 11
18.63799999999999
 21
133.142
 31
0.0
  0
LINE
  5
92
330
A
100
AcDbEntity
  8
PV
  6
Continuous
 62
   254
100
AcDbLine
 10
15.839
 20
133.142
 30
0.0
 11
15.839
 21
131.3509999999999
 31
0.0
  0
LINE
  5
93
330
A
100
AcDbEntity
  8
PV
  6
Continuous
 62
   254
100
AcDbLine
 10
16.287
 20
133.142
 30
0.0
 11
16.287
 21
131.3509999999999
 31
0.0
  0
LINE
  5
94
330
A
100
AcDbEntity
  8
PV
  6
Continuous
 62
   254
100
AcDbLine
 10
14.944
 20
133.142
 30
0.0
 11
15.839
 21
133.142
 31
0.0
  0
LINE
  5
95
330
A
100
AcDbEntity
  8
PV
  6
Continuous
 62
   254
100
AcDbLine
 10
17.182
 20
133.59
 30
0.0
 11
17.182
 21
133.142
 31
0.0
  0
LINE
  5
96
330
A
100
AcDbEntity
  8
PV
  6
Continuous
 62
   254
100
AcDbLine
 10
14.944
 20
133.59
 30
0.0
 11
14.944
 21
133.142
 31
0.0
  0
LINE
  5
97
330
A
100
AcDbEntity
  8
PV
  6
Continuous
 62
   254
100
AcDbLine
 10
14.944
 20
133.59
 30
0.0
 11
17.182
 21
133.59
 31
0.0
  0
LINE
  5
98
330
A
100
AcDbEntity
  8
PV
  6
Continuous
 62
   254
100
AcDbLine
 10
13.15299999999999
 20
133.59
 30
0.0
 11
13.6
 21
133.59
 31
0.0
  0
LINE
  5
99
330
A
100
AcDbEntity
  8
PV
  6
Continuous
 62
   254
100
AcDbLine
 10
17.40599999999999
 20
131.3509999999999
 30
0.0
 11
18.63799999999999
 21
131.3509999999999
 31
0.0
  0
LINE
  5
9A
330
A
100
AcDbEntity
  8
PV
  6
Continuous
 62
   254
100
AcDbLine
 10
14.048
 20
131.7989999999999
 30
0.0
 11
15.167
 21
131.7989999999999
 31
0.0
  0
LINE
  5
9B
330
A
100
AcDbEntity
  8
PV
  6
Continuous
 62
   254
100
AcDbLine
 10
13.6
 20
133.59
 30
0.0
 11
13.6
 21
132.247
 31
0.0
  0
LINE
  5
9C
330
A
100
AcDbEntity
  8
PV
  6
Continuous
 62
   254
100
AcDbLine
 10
15.167
 20
131.7989999999999
 30
0.0
 11
15.167
 21
131.3509999999999
 31
0.0
  0
LINE
  5
9D
330
A
100
AcDbEntity
  8
PV
  6
Continuous
 62
   254
100
AcDbLine
 10
13.15299999999999
 20
133.59
 30
0.0
 11
13.15299999999999
 21
132.247
 31
0.0
  0
LINE
  5
9E
330
A
100
AcDbEntity
  8
PV
  6
Continuous
 62
   254
100
AcDbLine
 10
12.315
 20
131.159
 30
0.0
 11
12.48599999999999
 21
131.0149999999999
 31
0.0
  0
LINE
  5
9F
330
A
100
AcDbEntity
  8
PV
  6
Continuous
 62
   254
100
AcDbLine
 10
12.315
 20
131.159
 30
0.0
 11
12.504
 21
131.3849999999999
 31
0.0
  0
LINE
  5
A0
330
A
100
AcDbEntity
  8
PV
  6
Continuous
 62
   254
100
AcDbLine
 10
12.48599999999999
 20
131.0149999999999
 30
0.0
 11
12.852
 21
131.451
 31
0.0
  0
LINE
  5
A1
330
A
100
AcDbEntity
  8
PV
  6
Continuous
 62
   254
100
AcDbLine
 10
-2.631
 20
131.7989999999999
 30
0.0
 11
-2.407
 21
131.7989999999999
 31
0.0
  0
LINE
  5
A2
330
A
100
AcDbEntity
  8
PV
  6
Continuous
 62
   254
100
AcDbLine
 10
-2.631
 20
133.59
 30
0.0
 11
-2.407
 21
133.59
 31
0.0
  0
LINE
  5
A3
330
A
100
AcDbEntity
  8
PV
  6
Continuous
 62
   254
100
AcDbLine
 10
-2.631
 20
131.3509999999999
 30
0.0
 11
-2.407
 21
131.3509999999999
 31
0.0
  0
LINE
  5
A4
330
A
100
AcDbEntity
  8
PV
  6
Continuous
 62
   254
100
AcDbLine
 10
5.428999999999999
 20
131.3509999999999
 30
0.0
 11
5.876
 21
131.3509999999999
 31
0.0
  0
LINE
  5
A5
330
A
100
AcDbEntity
  8
PV
  6
Continuous
 62
   254
100
AcDbLine
 10
5.428999999999999
 20
132.583
 30
0.0
 11
5.428999999999999
 21
131.3509999999999
 31
0.0
  0
LINE
  5
A6
330
A
100
AcDbEntity
  8
PV
  6
Continuous
 62
   254
100
AcDbLine
 10
4.084999999999999
 20
132.583
 30
0.0
 11
4.084999999999999
 21
131.3509999999999
 31
0.0
  0
LINE
  5
A7
330
A
100
AcDbEntity
  8
PV
  6
Continuous
 62
   254
100
AcDbLine
 10
4.644999999999999
 20
133.142
 30
0.0
 11
4.868999999999999
 21
133.142
 31
0.0
  0
LINE
  5
A8
330
A
100
AcDbEntity
  8
PV
  6
Continuous
 62
   254
100
AcDbLine
 10
5.876
 20
132.583
 30
0.0
 11
5.876
 21
131.3509999999999
 31
0.0
  0
LINE
  5
A9
330
A
100
AcDbEntity
  8
PV
  6
Continuous
 62
   254
100
AcDbLine
 10
3.637999999999999
 20
132.583
 30
0.0
 11
3.637999999999999
 21
131.3509999999999
 31
0.0
  0
LINE
  5
AA
330
A
100
AcDbEntity
  8
PV
  6
Continuous
 62
   254
100
AcDbLine
 10
4.644999999999999
 20
133.59
 30
0.0
 11
4.868999999999999
 21
133.59
 31
0.0
  0
LINE
  5
AB
330
A
100
AcDbEntity
  8
PV
  6
Continuous
 62
   254
100
AcDbLine
 10
3.64
 20
131.3509999999999
 30
0.0
 11
4.084999999999999
 21
131.3509999999999
 31
0.0
  0
LINE
  5
AC
330
A
100
AcDbEntity
  8
PV
  6
Continuous
 62
   254
100
AcDbLine
 10
14.048
 20
131.3509999999999
 30
0.0
 11
15.167
 21
131.3509999999999
 31
0.0
  0
LINE
  5
AD
330
A
100
AcDbEntity
  8
PV
  6
Continuous
 62
   254
100
AcDbLine
 10
9.122999999999999
 20
133.142
 30
0.0
 11
9.122999999999999
 21
133.59
 31
0.0
  0
LINE
  5
AE
330
A
100
AcDbEntity
  8
PV
  6
Continuous
 62
   254
100
AcDbLine
 10
8.003
 20
133.142
 30
0.0
 11
9.122999999999999
 21
133.142
 31
0.0
  0
LINE
  5
AF
330
A
100
AcDbEntity
  8
PV
  6
Continuous
 62
   254
100
AcDbLine
 10
8.003
 20
131.7989999999999
 30
0.0
 11
9.122999999999999
 21
131.7989999999999
 31
0.0
  0
LINE
  5
B0
330
A
100
AcDbEntity
  8
PV
  6
Continuous
 62
   254
100
AcDbLine
 10
8.003
 20
133.59
 30
0.0
 11
9.122999999999999
 21
133.59
 31
0.0
  0
LINE
  5
B1
330
A
100
AcDbEntity
  8
PV
  6
Continuous
 62
   254
100
AcDbLine
 10
8.003
 20
131.3509999999999
 30
0.0
 11
9.122999999999999
 21
131.3509999999999
 31
0.0
  0
LINE
  5
B2
330
A
100
AcDbEntity
  8
PV
  6
Continuous
 62
   254
100
AcDbLine
 10
-7.332999999999999
 20
131.7989999999999
 30
0.0
 11
-7.332999999999999
 21
131.3509999999999
 31
0.0
  0
LINE
  5
B3
330
A
100
AcDbEntity
  8
PV
  6
Continuous
 62
   254
100
AcDbLine
 10
-7.332999999999999
 20
132.694
 30
0.0
 11
-7.332999999999999
 21
132.247
 31
0.0
  0
LINE
  5
B4
330
A
100
AcDbEntity
  8
PV
  6
Continuous
 62
   254
100
AcDbLine
 10
-8.339999999999999
 20
131.7989999999999
 30
0.0
 11
-7.332999999999999
 21
131.7989999999999
 31
0.0
  0
LINE
  5
B5
330
A
100
AcDbEntity
  8
PV
  6
Continuous
 62
   254
100
AcDbLine
 10
-8.972999999999998
 20
132.694
 30
0.0
 11
-7.332999999999999
 21
132.694
 31
0.0
  0
LINE
  5
B6
330
A
100
AcDbEntity
  8
PV
  6
Continuous
 62
   254
100
AcDbLine
 10
-8.972999999999998
 20
132.247
 30
0.0
 11
-7.332999999999999
 21
132.247
 31
0.0
  0
LINE
  5
B7
330
A
100
AcDbEntity
  8
PV
  6
Continuous
 62
   254
100
AcDbLine
 10
-8.339999999999999
 20
131.3509999999999
 30
0.0
 11
-7.332999999999999
 21
131.3509999999999
 31
0.0
  0
LINE
  5
B8
330
A
100
AcDbEntity
  8
PV
  6
Continuous
 62
   254
100
AcDbLine
 10
-8.339999999999999
 20
133.59
 30
0.0
 11
-7.332999999999999
 21
133.59
 31
0.0
  0
LINE
  5
B9
330
A
100
AcDbEntity
  8
PV
  6
Continuous
 62
   254
100
AcDbLine
 10
-7.332999999999999
 20
133.59
 30
0.0
 11
-7.332999999999999
 21
133.142
 31
0.0
  0
LINE
  5
BA
330
A
100
AcDbEntity
  8
PV
  6
Continuous
 62
   254
100
AcDbLine
 10
-4.156
 20
131.3509999999999
 30
0.0
 11
-3.638999999999999
 21
131.3509999999999
 31
0.0
  0
LINE
  5
BB
330
A
100
AcDbEntity
  8
PV
  6
Continuous
 62
   254
100
AcDbLine
 10
-4.418999999999999
 20
133.59
 30
0.0
 11
-3.638999999999999
 21
133.59
 31
0.0
  0
LINE
  5
BC
330
A
100
AcDbEntity
  8
PV
  6
Continuous
 62
   254
100
AcDbLine
 10
-5.541
 20
132.257
 30
0.0
 11
-5.541
 21
131.3509999999999
 31
0.0
  0
LINE
  5
BD
330
A
100
AcDbEntity
  8
PV
  6
Continuous
 62
   254
100
AcDbLine
 10
-4.926999999999999
 20
132.6879999999999
 30
0.0
 11
-5.541
 21
132.257
 31
0.0
  0
LINE
  5
BE
330
A
100
AcDbEntity
  8
PV
  6
Continuous
 62
   254
100
AcDbLine
 10
-4.156
 20
131.3509999999999
 30
0.0
 11
-4.926999999999999
 21
132.6879999999999
 31
0.0
  0
LINE
  5
BF
330
A
100
AcDbEntity
  8
PV
  6
Continuous
 62
   254
100
AcDbLine
 10
-4.418999999999999
 20
133.59
 30
0.0
 11
-5.541
 21
132.804
 31
0.0
  0
LINE
  5
C0
330
A
100
AcDbEntity
  8
PV
  6
Continuous
 62
   254
100
AcDbLine
 10
-3.637999999999999
 20
133.59
 30
0.0
 11
-4.559
 21
132.945
 31
0.0
  0
LINE
  5
C1
330
A
100
AcDbEntity
  8
PV
  6
Continuous
 62
   254
100
AcDbLine
 10
-3.638999999999999
 20
131.3509999999999
 30
0.0
 11
-4.559
 21
132.945
 31
0.0
  0
LINE
  5
C2
330
A
100
AcDbEntity
  8
PV
  6
Continuous
 62
   254
100
AcDbLine
 10
-5.541
 20
133.59
 30
0.0
 11
-5.541
 21
132.804
 31
0.0
  0
LINE
  5
C3
330
A
100
AcDbEntity
  8
PV
  6
Continuous
 62
   254
100
AcDbLine
 10
-5.988999999999999
 20
133.59
 30
0.0
 11
-5.988999999999999
 21
131.3509999999999
 31
0.0
  0
LINE
  5
C4
330
A
100
AcDbEntity
  8
PV
  6
Continuous
 62
   254
100
AcDbLine
 10
-5.988999999999999
 20
131.3509999999999
 30
0.0
 11
-5.541
 21
131.3509999999999
 31
0.0
  0
LINE
  5
C5
330
A
100
AcDbEntity
  8
PV
  6
Continuous
 62
   254
100
AcDbLine
 10
-5.988999999999999
 20
133.59
 30
0.0
 11
-5.541
 21
133.59
 31
0.0
  0
LINE
  5
C6
330
A
100
AcDbEntity
  8
PV
  6
Continuous
 62
   254
100
AcDbLine
 10
10.354
 20
133.142
 30
0.0
 11
10.578
 21
133.142
 31
0.0
  0
LINE
  5
C7
330
A
100
AcDbEntity
  8
PV
  6
Continuous
 62
   254
100
AcDbLine
 10
10.354
 20
131.7989999999999
 30
0.0
 11
10.578
 21
131.7989999999999
 31
0.0
  0
LINE
  5
C8
330
A
100
AcDbEntity
  8
PV
  6
Continuous
 62
   254
100
AcDbLine
 10
9.122999999999999
 20
131.3539999999999
 30
0.0
 11
9.122999999999999
 21
131.7989999999999
 31
0.0
  0
LINE
  5
C9
330
A
100
AcDbEntity
  8
PV
  6
Continuous
 62
   254
100
AcDbLine
 10
10.354
 20
133.59
 30
0.0
 11
10.578
 21
133.59
 31
0.0
  0
LINE
  5
CA
330
A
100
AcDbEntity
  8
PV
  6
Continuous
 62
   254
100
AcDbLine
 10
10.354
 20
131.3509999999999
 30
0.0
 11
10.578
 21
131.3509999999999
 31
0.0
  0
LINE
  5
CB
330
A
100
AcDbEntity
  8
PV
  6
Continuous
 62
   254
100
AcDbLine
 10
0.7700000000000001
 20
131.3509999999999
 30
0.0
 11
1.286999999999999
 21
131.3509999999999
 31
0.0
  0
LINE
  5
CC
330
A
100
AcDbEntity
  8
PV
  6
Continuous
 62
   254
100
AcDbLine
 10
0.5060000000000001
 20
133.59
 30
0.0
 11
1.286999999999999
 21
133.59
 31
0.0
  0
LINE
  5
CD
330
A
100
AcDbEntity
  8
PV
  6
Continuous
 62
   254
100
AcDbLine
 10
-0.6160000000000001
 20
132.257
 30
0.0
 11
-0.6160000000000001
 21
131.3509999999999
 31
0.0
  0
LINE
  5
CE
330
A
100
AcDbEntity
  8
PV
  6
Continuous
 62
   254
100
AcDbLine
 10
-0.002
 20
132.6879999999999
 30
0.0
 11
-0.6160000000000001
 21
132.257
 31
0.0
  0
LINE
  5
CF
330
A
100
AcDbEntity
  8
PV
  6
Continuous
 62
   254
100
AcDbLine
 10
0.7700000000000001
 20
131.3509999999999
 30
0.0
 11
-0.002
 21
132.6879999999999
 31
0.0
  0
LINE
  5
D0
330
A
100
AcDbEntity
  8
PV
  6
Continuous
 62
   254
100
AcDbLine
 10
0.5060000000000001
 20
133.59
 30
0.0
 11
-0.6160000000000001
 21
132.804
 31
0.0
  0
LINE
  5
D1
330
A
100
AcDbEntity
  8
PV
  6
Continuous
 62
   254
100
AcDbLine
 10
1.286999999999999
 20
133.59
 30
0.0
 11
0.366
 21
132.945
 31
0.0
  0
LINE
  5
D2
330
A
100
AcDbEntity
  8
PV
  6
Continuous
 62
   254
100
AcDbLine
 10
1.286999999999999
 20
131.3509999999999
 30
0.0
 11
0.366
 21
132.945
 31
0.0
  0
LINE
  5
D3
330
A
100
AcDbEntity
  8
PV
  6
Continuous
 62
   254
100
AcDbLine
 10
-11.01299999999999
 20
131.3509999999999
 30
0.0
 11
-11.64099999999999
 21
132.247
 31
0.0
  0
LINE
  5
D4
330
A
100
AcDbEntity
  8
PV
  6
Continuous
 62
   254
100
AcDbLine
 10
-10.467
 20
131.3509999999999
 30
0.0
 11
-11.095
 21
132.2479999999999
 31
0.0
  0
LINE
  5
D5
330
A
100
AcDbEntity
  8
PV
  6
Continuous
 62
   254
100
AcDbLine
 10
-0.6160000000000001
 20
133.59
 30
0.0
 11
-0.6160000000000001
 21
132.804
 31
0.0
  0
LINE
  5
D6
330
A
100
AcDbEntity
  8
PV
  6
Continuous
 62
   254
100
AcDbLine
 10
-1.064
 20
133.59
 30
0.0
 11
-1.064
 21
131.3509999999999
 31
0.0
  0
LINE
  5
D7
330
A
100
AcDbEntity
  8
PV
  6
Continuous
 62
   254
100
AcDbLine
 10
3.302
 20
131.7989999999999
 30
0.0
 11
3.302
 21
131.3509999999999
 31
0.0
  0
LINE
  5
D8
330
A
100
AcDbEntity
  8
PV
  6
Continuous
 62
   254
100
AcDbLine
 10
3.302
 20
132.694
 30
0.0
 11
3.302
 21
132.247
 31
0.0
  0
LINE
  5
D9
330
A
100
AcDbEntity
  8
PV
  6
Continuous
 62
   254
100
AcDbLine
 10
2.294
 20
133.142
 30
0.0
 11
3.302
 21
133.142
 31
0.0
  0
LINE
  5
DA
330
A
100
AcDbEntity
  8
PV
  6
Continuous
 62
   254
100
AcDbLine
 10
2.294
 20
131.7989999999999
 30
0.0
 11
3.302
 21
131.7989999999999
 31
0.0
  0
LINE
  5
DB
330
A
100
AcDbEntity
  8
PV
  6
Continuous
 62
   254
100
AcDbLine
 10
1.661
 20
132.694
 30
0.0
 11
3.302
 21
132.694
 31
0.0
  0
LINE
  5
DC
330
A
100
AcDbEntity
  8
PV
  6
Continuous
 62
   254
100
AcDbLine
 10
1.661
 20
132.247
 30
0.0
 11
3.302
 21
132.247
 31
0.0
  0
LINE
  5
DD
330
A
100
AcDbEntity
  8
PV
  6
Continuous
 62
   254
100
AcDbLine
 10
-1.064
 20
131.3509999999999
 30
0.0
 11
-0.6160000000000001
 21
131.3509999999999
 31
0.0
  0
LINE
  5
DE
330
A
100
AcDbEntity
  8
PV
  6
Continuous
 62
   254
100
AcDbLine
 10
-1.064
 20
133.59
 30
0.0
 11
-0.6160000000000001
 21
133.59
 31
0.0
  0
LINE
  5
DF
330
A
100
AcDbEntity
  8
PV
  6
Continuous
 62
   254
100
AcDbLine
 10
2.294
 20
131.3509999999999
 30
0.0
 11
3.302
 21
131.3509999999999
 31
0.0
  0
LINE
  5
E0
330
A
100
AcDbEntity
  8
PV
  6
Continuous
 62
   254
100
AcDbLine
 10
2.294
 20
133.59
 30
0.0
 11
3.302
 21
133.59
 31
0.0
  0
LINE
  5
E1
330
A
100
AcDbEntity
  8
PV
  6
Continuous
 62
   254
100
AcDbLine
 10
-9.682999999999999
 20
133.59
 30
0.0
 11
-9.682999999999999
 21
131.3509999999999
 31
0.0
  0
LINE
  5
E2
330
A
100
AcDbEntity
  8
PV
  6
Continuous
 62
   254
100
AcDbLine
 10
-10.131
 20
133.59
 30
0.0
 11
-10.131
 21
131.3509999999999
 31
0.0
  0
LINE
  5
E3
330
A
100
AcDbEntity
  8
PV
  6
Continuous
 62
   254
100
AcDbLine
 10
-10.131
 20
131.3509999999999
 30
0.0
 11
-9.682999999999999
 21
131.3509999999999
 31
0.0
  0
LINE
  5
E4
330
A
100
AcDbEntity
  8
PV
  6
Continuous
 62
   254
100
AcDbLine
 10
-10.131
 20
133.59
 30
0.0
 11
-9.682999999999999
 21
133.59
 31
0.0
  0
LINE
  5
E5
330
A
100
AcDbEntity
  8
PV
  6
Continuous
 62
   254
100
AcDbLine
 10
-11.01299999999999
 20
131.3509999999999
 30
0.0
 11
-10.467
 21
131.3509999999999
 31
0.0
  0
LINE
  5
E6
330
A
100
AcDbEntity
  8
PV
  6
Continuous
 62
   254
100
AcDbLine
 10
-12.258
 20
132.247
 30
0.0
 11
-12.258
 21
131.3509999999999
 31
0.0
  0
LINE
  5
E7
330
A
100
AcDbEntity
  8
PV
  6
Continuous
 62
   254
100
AcDbLine
 10
-12.70599999999999
 20
133.59
 30
0.0
 11
-11.139
 21
133.59
 31
0.0
  0
LINE
  5
E8
330
A
100
AcDbEntity
  8
PV
  6
Continuous
 62
   254
100
AcDbLine
 10
-12.70599999999999
 20
131.3509999999999
 30
0.0
 11
-12.258
 21
131.3509999999999
 31
0.0
  0
LINE
  5
E9
330
A
100
AcDbEntity
  8
PV
  6
Continuous
 62
   254
100
AcDbLine
 10
-11.139
 20
132.694
 30
0.0
 11
-12.258
 21
132.694
 31
0.0
  0
LINE
  5
EA
330
A
100
AcDbEntity
  8
PV
  6
Continuous
 62
   254
100
AcDbLine
 10
-11.139
 20
133.142
 30
0.0
 11
-12.258
 21
133.142
 31
0.0
  0
LINE
  5
EB
330
A
100
AcDbEntity
  8
PV
  6
Continuous
 62
   254
100
AcDbLine
 10
-12.258
 20
132.247
 30
0.0
 11
-11.64099999999999
 21
132.247
 31
0.0
  0
LINE
  5
EC
330
A
100
AcDbEntity
  8
PV
  6
Continuous
 62
   254
100
AcDbLine
 10
3.302
 20
133.59
 30
0.0
 11
3.302
 21
133.142
 31
0.0
  0
LINE
  5
ED
330
A
100
AcDbEntity
  8
PV
  6
Continuous
 62
   254
100
AcDbLine
 10
-12.258
 20
133.142
 30
0.0
 11
-12.258
 21
132.918
 31
0.0
  0
LINE
  5
EE
330
A
100
AcDbEntity
  8
PV
  6
Continuous
 62
   254
100
AcDbLine
 10
-12.70599999999999
 20
133.59
 30
0.0
 11
-12.70599999999999
 21
132.918
 31
0.0
  0
LINE
  5
EF
330
A
100
AcDbEntity
  8
PV
  6
Continuous
 62
   254
100
AcDbLine
 10
-13.15299999999999
 20
133.59
 30
0.0
 11
-13.15299999999999
 21
131.3509999999999
 31
0.0
  0
LINE
  5
F0
330
A
100
AcDbEntity
  8
PV
  6
Continuous
 62
   254
100
AcDbLine
 10
-13.601
 20
133.59
 30
0.0
 11
-13.601
 21
131.3509999999999
 31
0.0
  0
LINE
  5
F1
330
A
100
AcDbEntity
  8
PV
  6
Continuous
 62
   254
100
AcDbLine
 10
-13.601
 20
131.3509999999999
 30
0.0
 11
-13.15299999999999
 21
131.3509999999999
 31
0.0
  0
LINE
  5
F2
330
A
100
AcDbEntity
  8
PV
  6
Continuous
 62
   254
100
AcDbLine
 10
-13.601
 20
133.59
 30
0.0
 11
-13.15299999999999
 21
133.59
 31
0.0
  0
LINE
  5
F3
330
A
100
AcDbEntity
  8
PV
  6
Continuous
 62
   254
100
AcDbLine
 10
-8.339999999999999
 20
133.142
 30
0.0
 11
-7.332999999999999
 21
133.142
 31
0.0
  0
LINE
  5
F4
330
A
100
AcDbEntity
  8
PV
  6
Continuous
 62
     7
100
AcDbLine
 10
3.625
 20
139.566
 30
0.0
 11
3.625
 21
137.616
 31
0.0
  0
LINE
  5
F5
330
A
100
AcDbEntity
  8
PV
  6
Continuous
 62
     7
100
AcDbLine
 10
3.625
 20
137.616
 30
0.0
 11
3.625
 21
136.816
 31
0.0
  0
LINE
  5
F6
330
A
100
AcDbEntity
  8
PV
  6
Continuous
 62
     7
100
AcDbLine
 10
8.400999999999999
 20
139.591
 30
0.0
 11
8.400999999999999
 21
137.591
 31
0.0
  0
LINE
  5
F7
330
A
100
AcDbEntity
  8
PV
  6
Continuous
 62
     7
100
AcDbLine
 10
3.625
 20
140.366
 30
0.0
 11
3.625
 21
139.566
 31
0.0
  0
LINE
  5
F8
330
A
100
AcDbEntity
  8
PV
  6
Continuous
 62
     7
100
AcDbLine
 10
0.3
 20
136.816
 30
0.0
 11
1.85
 21
136.816
 31
0.0
  0
LINE
  5
F9
330
A
100
AcDbEntity
  8
PV
  6
Continuous
 62
     7
100
AcDbLine
 10
0.3
 20
140.366
 30
0.0
 11
1.85
 21
140.366
 31
0.0
  0
LINE
  5
FA
330
A
100
AcDbEntity
  8
PV
  6
Continuous
 62
     7
100
AcDbLine
 10
0.3
 20
140.366
 30
0.0
 11
0.3
 21
136.816
 31
0.0
  0
LINE
  5
FB
330
A
100
AcDbEntity
  8
PV
  6
Continuous
 62
     7
100
AcDbLine
 10
-2.284
 20
136.816
 30
0.0
 11
-0.384
 21
136.816
 31
0.0
  0
LINE
  5
FC
330
A
100
AcDbEntity
  8
PV
  6
Continuous
 62
     7
100
AcDbLine
 10
-0.384
 20
139.416
 30
0.0
 11
-0.384
 21
136.816
 31
0.0
  0
LINE
  5
FD
330
A
100
AcDbEntity
  8
PV
  6
Continuous
 62
     7
100
AcDbLine
 10
-2.284
 20
139.416
 30
0.0
 11
-2.284
 21
136.816
 31
0.0
  0
LINE
  5
FE
330
A
100
AcDbEntity
  8
PV
  6
Continuous
 62
     7
100
AcDbLine
 10
-2.284
 20
139.416
 30
0.0
 11
-0.384
 21
139.416
 31
0.0
  0
LINE
  5
FF
330
A
100
AcDbEntity
  8
PV
  6
Continuous
 62
     7
100
AcDbLine
 10
1.85
 20
140.366
 30
0.0
 11
1.85
 21
136.816
 31
0.0
  0
LINE
  5
100
330
A
100
AcDbEntity
  8
PV
  6
Continuous
 62
   254
100
AcDbLine
 10
-5.907999999999999
 20
132.81
 30
0.0
 11
-5.61
 21
132.81
 31
0.0
  0
LINE
  5
101
330
A
100
AcDbEntity
  8
PV
  6
Continuous
 62
     7
100
AcDbLine
 10
24.651
 20
130.506
 30
0.0
 11
-18.65099999999999
 21
130.506
 31
0.0
  0
LINE
  5
102
330
A
100
AcDbEntity
  8
PV
  6
Continuous
 62
     7
100
AcDbLine
 10
23.98699999999999
 20
122.249
 30
0.0
 11
24.38
 21
122.1929999999999
 31
0.0
  0
LINE
  5
103
330
A
100
AcDbEntity
  8
PV
  6
Continuous
 62
     7
100
AcDbLine
 10
23.949
 20
121.869
 30
0.0
 11
24.349
 21
121.8089999999999
 31
0.0
  0
LINE
  5
104
330
A
100
AcDbEntity
  8
PV
  6
Continuous
 62
     7
100
AcDbLine
 10
25.36699999999999
 20
123.2069999999999
 30
0.0
 11
25.051
 21
123.025
 31
0.0
  0
LINE
  5
105
330
A
100
AcDbEntity
  8
PV
  6
Continuous
 62
     7
100
AcDbLine
 10
22.962
 20
120.855
 30
0.0
 11
23.278
 21
121.037
 31
0.0
  0
LINE
  5
106
330
A
100
AcDbEntity
  8
PV
  6
Continuous
 62
     7
100
AcDbLine
 10
6.379999999999999
 20
123.91
 30
0.0
 11
6.791
 21
123.91
 31
0.0
  0
LINE
  5
107
330
A
100
AcDbEntity
  8
PV
  6
Continuous
 62
     7
100
AcDbLine
 10
4.253999999999999
 20
123.91
 30
0.0
 11
4.924999999999999
 21
120.11
 31
0.0
  0
LINE
  5
108
330
A
100
AcDbEntity
  8
PV
  6
Continuous
 62
     7
100
AcDbLine
 10
4.65
 20
123.91
 30
0.0
 11
5.214999999999999
 21
120.7079999999999
 31
0.0
  0
LINE
  5
109
330
A
100
AcDbEntity
  8
PV
  6
Continuous
 62
     7
100
AcDbLine
 10
5.214999999999999
 20
120.7079999999999
 30
0.0
 11
6.379999999999999
 21
123.91
 31
0.0
  0
LINE
  5
10A
330
A
100
AcDbEntity
  8
PV
  6
Continuous
 62
     7
100
AcDbLine
 10
5.407999999999999
 20
120.11
 30
0.0
 11
6.791
 21
123.91
 31
0.0
  0
LINE
  5
10B
330
A
100
AcDbEntity
  8
PV
  6
Continuous
 62
     7
100
AcDbLine
 10
4.253999999999999
 20
123.91
 30
0.0
 11
4.65
 21
123.91
 31
0.0
  0
LINE
  5
10C
330
A
100
AcDbEntity
  8
PV
  6
Continuous
 62
     7
100
AcDbLine
 10
4.924999999999999
 20
120.11
 30
0.0
 11
5.407999999999999
 21
120.11
 31
0.0
  0
LINE
  5
10D
330
A
100
AcDbEntity
  8
PV
  6
Continuous
 62
     7
100
AcDbLine
 10
17.62999999999999
 20
123.91
 30
0.0
 11
18.041
 21
123.91
 31
0.0
  0
LINE
  5
10E
330
A
100
AcDbEntity
  8
PV
  6
Continuous
 62
     7
100
AcDbLine
 10
15.504
 20
123.91
 30
0.0
 11
16.175
 21
120.11
 31
0.0
  0
LINE
  5
10F
330
A
100
AcDbEntity
  8
PV
  6
Continuous
 62
     7
100
AcDbLine
 10
15.9
 20
123.91
 30
0.0
 11
16.465
 21
120.7079999999999
 31
0.0
  0
LINE
  5
110
330
A
100
AcDbEntity
  8
PV
  6
Continuous
 62
     7
100
AcDbLine
 10
16.465
 20
120.7079999999999
 30
0.0
 11
17.62999999999999
 21
123.91
 31
0.0
  0
LINE
  5
111
330
A
100
AcDbEntity
  8
PV
  6
Continuous
 62
     7
100
AcDbLine
 10
16.658
 20
120.11
 30
0.0
 11
18.041
 21
123.91
 31
0.0
  0
LINE
  5
112
330
A
100
AcDbEntity
  8
PV
  6
Continuous
 62
     7
100
AcDbLine
 10
15.504
 20
123.91
 30
0.0
 11
15.9
 21
123.91
 31
0.0
  0
LINE
  5
113
330
A
100
AcDbEntity
  8
PV
  6
Continuous
 62
     7
100
AcDbLine
 10
16.175
 20
120.11
 30
0.0
 11
16.658
 21
120.11
 31
0.0
  0
LINE
  5
114
330
A
100
AcDbEntity
  8
PV
  6
Continuous
 62
     7
100
AcDbLine
 10
20.077
 20
122.198
 30
0.0
 11
20.30599999999999
 21
123.492
 31
0.0
  0
LINE
  5
115
330
A
100
AcDbEntity
  8
PV
  6
Continuous
 62
     7
100
AcDbLine
 10
21.693
 20
123.492
 30
0.0
 11
21.766
 21
123.91
 31
0.0
  0
LINE
  5
116
330
A
100
AcDbEntity
  8
PV
  6
Continuous
 62
     7
100
AcDbLine
 10
21.39499999999999
 20
121.805
 30
0.0
 11
21.464
 21
122.198
 31
0.0
  0
LINE
  5
117
330
A
100
AcDbEntity
  8
PV
  6
Continuous
 62
     7
100
AcDbLine
 10
19.778
 20
120.497
 30
0.0
 11
20.00799999999999
 21
121.805
 31
0.0
  0
LINE
  5
118
330
A
100
AcDbEntity
  8
PV
  6
Continuous
 62
     7
100
AcDbLine
 10
19.778
 20
120.497
 30
0.0
 11
21.16499999999999
 21
120.497
 31
0.0
  0
LINE
  5
119
330
A
100
AcDbEntity
  8
PV
  6
Continuous
 62
     7
100
AcDbLine
 10
20.30599999999999
 20
123.492
 30
0.0
 11
21.693
 21
123.492
 31
0.0
  0
LINE
  5
11A
330
A
100
AcDbEntity
  8
PV
  6
Continuous
 62
     7
100
AcDbLine
 10
20.077
 20
122.198
 30
0.0
 11
21.464
 21
122.198
 31
0.0
  0
LINE
  5
11B
330
A
100
AcDbEntity
  8
PV
  6
Continuous
 62
     7
100
AcDbLine
 10
20.00799999999999
 20
121.805
 30
0.0
 11
21.39499999999999
 21
121.805
 31
0.0
  0
LINE
  5
11C
330
A
100
AcDbEntity
  8
PV
  6
Continuous
 62
     7
100
AcDbLine
 10
21.09599999999999
 20
120.11
 30
0.0
 11
21.16499999999999
 21
120.497
 31
0.0
  0
LINE
  5
11D
330
A
100
AcDbEntity
  8
PV
  6
Continuous
 62
     7
100
AcDbLine
 10
19.319
 20
120.11
 30
0.0
 11
19.989
 21
123.91
 31
0.0
  0
LINE
  5
11E
330
A
100
AcDbEntity
  8
PV
  6
Continuous
 62
     7
100
AcDbLine
 10
12.44299999999999
 20
120.5149999999999
 30
0.0
 11
14.106
 21
120.5149999999999
 31
0.0
  0
LINE
  5
11F
330
A
100
AcDbEntity
  8
PV
  6
Continuous
 62
     7
100
AcDbLine
 10
12.44299999999999
 20
120.5149999999999
 30
0.0
 11
13.041
 21
123.91
 31
0.0
  0
LINE
  5
120
330
A
100
AcDbEntity
  8
PV
  6
Continuous
 62
     7
100
AcDbLine
 10
11.975
 20
120.11
 30
0.0
 11
12.64499999999999
 21
123.91
 31
0.0
  0
LINE
  5
121
330
A
100
AcDbEntity
  8
PV
  6
Continuous
 62
     7
100
AcDbLine
 10
14.034
 20
120.11
 30
0.0
 11
14.106
 21
120.5149999999999
 31
0.0
  0
LINE
  5
122
330
A
100
AcDbEntity
  8
PV
  6
Continuous
 62
     7
100
AcDbLine
 10
19.319
 20
120.11
 30
0.0
 11
21.09599999999999
 21
120.11
 31
0.0
  0
LINE
  5
123
330
A
100
AcDbEntity
  8
PV
  6
Continuous
 62
     7
100
AcDbLine
 10
19.989
 20
123.91
 30
0.0
 11
21.766
 21
123.91
 31
0.0
  0
LINE
  5
124
330
A
100
AcDbEntity
  8
PV
  6
Continuous
 62
     7
100
AcDbLine
 10
12.64599999999999
 20
123.91
 30
0.0
 11
13.041
 21
123.91
 31
0.0
  0
LINE
  5
125
330
A
100
AcDbEntity
  8
PV
  6
Continuous
 62
     7
100
AcDbLine
 10
11.975
 20
120.11
 30
0.0
 11
14.034
 21
120.11
 31
0.0
  0
LINE
  5
126
330
A
100
AcDbEntity
  8
PV
  6
Continuous
 62
     7
100
AcDbLine
 10
9.904999999999999
 20
120.917
 30
0.0
 11
10.12099999999999
 21
120.11
 31
0.0
  0
LINE
  5
127
330
A
100
AcDbEntity
  8
PV
  6
Continuous
 62
     7
100
AcDbLine
 10
8.541
 20
121.312
 30
0.0
 11
9.265
 21
123.303
 31
0.0
  0
LINE
  5
128
330
A
100
AcDbEntity
  8
PV
  6
Continuous
 62
     7
100
AcDbLine
 10
8.541
 20
121.312
 30
0.0
 11
9.798999999999999
 21
121.312
 31
0.0
  0
LINE
  5
129
330
A
100
AcDbEntity
  8
PV
  6
Continuous
 62
     7
100
AcDbLine
 10
8.397
 20
120.917
 30
0.0
 11
9.904999999999999
 21
120.917
 31
0.0
  0
LINE
  5
12A
330
A
100
AcDbEntity
  8
PV
  6
Continuous
 62
     7
100
AcDbLine
 10
10.12099999999999
 20
120.11
 30
0.0
 11
10.514
 21
120.11
 31
0.0
  0
LINE
  5
12B
330
A
100
AcDbEntity
  8
PV
  6
Continuous
 62
     7
100
AcDbLine
 10
9.265
 20
123.303
 30
0.0
 11
9.798999999999999
 21
121.312
 31
0.0
  0
LINE
  5
12C
330
A
100
AcDbEntity
  8
PV
  6
Continuous
 62
     7
100
AcDbLine
 10
9.496
 20
123.91
 30
0.0
 11
10.514
 21
120.11
 31
0.0
  0
LINE
  5
12D
330
A
100
AcDbEntity
  8
PV
  6
Continuous
 62
     7
100
AcDbLine
 10
8.102999999999999
 20
120.11
 30
0.0
 11
8.397
 21
120.917
 31
0.0
  0
LINE
  5
12E
330
A
100
AcDbEntity
  8
PV
  6
Continuous
 62
     7
100
AcDbLine
 10
7.698999999999999
 20
120.11
 30
0.0
 11
9.082
 21
123.91
 31
0.0
  0
LINE
  5
12F
330
A
100
AcDbEntity
  8
PV
  6
Continuous
 62
     7
100
AcDbLine
 10
9.082
 20
123.91
 30
0.0
 11
9.496
 21
123.91
 31
0.0
  0
LINE
  5
130
330
A
100
AcDbEntity
  8
PV
  6
Continuous
 62
     7
100
AcDbLine
 10
7.698999999999999
 20
120.11
 30
0.0
 11
8.102999999999999
 21
120.11
 31
0.0
  0
LINE
  5
131
330
A
100
AcDbEntity
  8
PV
  6
Continuous
 62
     7
100
AcDbLine
 10
-1.222999999999999
 20
122.198
 30
0.0
 11
-0.9940000000000001
 21
123.492
 31
0.0
  0
LINE
  5
132
330
A
100
AcDbEntity
  8
PV
  6
Continuous
 62
     7
100
AcDbLine
 10
0.393
 20
123.492
 30
0.0
 11
0.4660000000000001
 21
123.91
 31
0.0
  0
LINE
  5
133
330
A
100
AcDbEntity
  8
PV
  6
Continuous
 62
     7
100
AcDbLine
 10
0.095
 20
121.805
 30
0.0
 11
0.164
 21
122.198
 31
0.0
  0
LINE
  5
134
330
A
100
AcDbEntity
  8
PV
  6
Continuous
 62
     7
100
AcDbLine
 10
-1.521999999999999
 20
120.497
 30
0.0
 11
-1.291999999999999
 21
121.805
 31
0.0
  0
LINE
  5
135
330
A
100
AcDbEntity
  8
PV
  6
Continuous
 62
     7
100
AcDbLine
 10
-1.521999999999999
 20
120.497
 30
0.0
 11
-0.135
 21
120.497
 31
0.0
  0
LINE
  5
136
330
A
100
AcDbEntity
  8
PV
  6
Continuous
 62
     7
100
AcDbLine
 10
-0.9940000000000001
 20
123.492
 30
0.0
 11
0.393
 21
123.492
 31
0.0
  0
LINE
  5
137
330
A
100
AcDbEntity
  8
PV
  6
Continuous
 62
     7
100
AcDbLine
 10
-1.222999999999999
 20
122.198
 30
0.0
 11
0.164
 21
122.198
 31
0.0
  0
LINE
  5
138
330
A
100
AcDbEntity
  8
PV
  6
Continuous
 62
     7
100
AcDbLine
 10
-1.291999999999999
 20
121.805
 30
0.0
 11
0.095
 21
121.805
 31
0.0
  0
LINE
  5
139
330
A
100
AcDbEntity
  8
PV
  6
Continuous
 62
     7
100
AcDbLine
 10
-0.204
 20
120.11
 30
0.0
 11
-0.135
 21
120.497
 31
0.0
  0
LINE
  5
13A
330
A
100
AcDbEntity
  8
PV
  6
Continuous
 62
     7
100
AcDbLine
 10
-1.980999999999999
 20
120.11
 30
0.0
 11
-1.310999999999999
 21
123.91
 31
0.0
  0
LINE
  5
13B
330
A
100
AcDbEntity
  8
PV
  6
Continuous
 62
     7
100
AcDbLine
 10
-1.980999999999999
 20
120.11
 30
0.0
 11
-0.204
 21
120.11
 31
0.0
  0
LINE
  5
13C
330
A
100
AcDbEntity
  8
PV
  6
Continuous
 62
     7
100
AcDbLine
 10
-1.310999999999999
 20
123.91
 30
0.0
 11
0.4660000000000001
 21
123.91
 31
0.0
  0
LINE
  5
13D
330
A
100
AcDbEntity
  8
PV
  6
Continuous
 62
     7
100
AcDbLine
 10
-5.357
 20
120.5149999999999
 30
0.0
 11
-3.693999999999999
 21
120.5149999999999
 31
0.0
  0
LINE
  5
13E
330
A
100
AcDbEntity
  8
PV
  6
Continuous
 62
     7
100
AcDbLine
 10
-5.357
 20
120.5149999999999
 30
0.0
 11
-4.758999999999999
 21
123.91
 31
0.0
  0
LINE
  5
13F
330
A
100
AcDbEntity
  8
PV
  6
Continuous
 62
     7
100
AcDbLine
 10
-5.825
 20
120.11
 30
0.0
 11
-5.153999999999999
 21
123.91
 31
0.0
  0
LINE
  5
140
330
A
100
AcDbEntity
  8
PV
  6
Continuous
 62
     7
100
AcDbLine
 10
-3.766
 20
120.11
 30
0.0
 11
-3.693999999999999
 21
120.5149999999999
 31
0.0
  0
LINE
  5
141
330
A
100
AcDbEntity
  8
PV
  6
Continuous
 62
     7
100
AcDbLine
 10
-5.153999999999999
 20
123.91
 30
0.0
 11
-4.758999999999999
 21
123.91
 31
0.0
  0
LINE
  5
142
330
A
100
AcDbEntity
  8
PV
  6
Continuous
 62
     7
100
AcDbLine
 10
-5.825
 20
120.11
 30
0.0
 11
-3.766
 21
120.11
 31
0.0
  0
LINE
  5
143
330
A
100
AcDbEntity
  8
PV
  6
Continuous
 62
     7
100
AcDbLine
 10
-17.395
 20
120.917
 30
0.0
 11
-17.179
 21
120.11
 31
0.0
  0
LINE
  5
144
330
A
100
AcDbEntity
  8
PV
  6
Continuous
 62
     7
100
AcDbLine
 10
-18.759
 20
121.312
 30
0.0
 11
-18.035
 21
123.303
 31
0.0
  0
LINE
  5
145
330
A
100
AcDbEntity
  8
PV
  6
Continuous
 62
     7
100
AcDbLine
 10
-18.759
 20
121.312
 30
0.0
 11
-17.50099999999999
 21
121.312
 31
0.0
  0
LINE
  5
146
330
A
100
AcDbEntity
  8
PV
  6
Continuous
 62
     7
100
AcDbLine
 10
-18.90299999999999
 20
120.917
 30
0.0
 11
-17.395
 21
120.917
 31
0.0
  0
LINE
  5
147
330
A
100
AcDbEntity
  8
PV
  6
Continuous
 62
     7
100
AcDbLine
 10
-17.179
 20
120.11
 30
0.0
 11
-16.78599999999999
 21
120.11
 31
0.0
  0
LINE
  5
148
330
A
100
AcDbEntity
  8
PV
  6
Continuous
 62
     7
100
AcDbLine
 10
-18.035
 20
123.303
 30
0.0
 11
-17.50099999999999
 21
121.312
 31
0.0
  0
LINE
  5
149
330
A
100
AcDbEntity
  8
PV
  6
Continuous
 62
     7
100
AcDbLine
 10
-17.804
 20
123.91
 30
0.0
 11
-16.78599999999999
 21
120.11
 31
0.0
  0
LINE
  5
14A
330
A
100
AcDbEntity
  8
PV
  6
Continuous
 62
     7
100
AcDbLine
 10
-19.19699999999999
 20
120.11
 30
0.0
 11
-18.90299999999999
 21
120.917
 31
0.0
  0
LINE
  5
14B
330
A
100
AcDbEntity
  8
PV
  6
Continuous
 62
     7
100
AcDbLine
 10
-19.60099999999999
 20
120.11
 30
0.0
 11
-18.21799999999999
 21
123.91
 31
0.0
  0
LINE
  5
14C
330
A
100
AcDbEntity
  8
PV
  6
Continuous
 62
     7
100
AcDbLine
 10
-18.21799999999999
 20
123.91
 30
0.0
 11
-17.804
 21
123.91
 31
0.0
  0
LINE
  5
14D
330
A
100
AcDbEntity
  8
PV
  6
Continuous
 62
     7
100
AcDbLine
 10
-19.60099999999999
 20
120.11
 30
0.0
 11
-19.19699999999999
 21
120.11
 31
0.0
  0
LINE
  5
14E
330
A
100
AcDbEntity
  8
PV
  6
Continuous
 62
     7
100
AcDbLine
 10
-8.452999999999999
 20
121.6299999999999
 30
0.0
 11
-7.696
 21
121.6299999999999
 31
0.0
  0
LINE
  5
14F
330
A
100
AcDbEntity
  8
PV
  6
Continuous
 62
     7
100
AcDbLine
 10
-8.452999999999999
 20
121.6299999999999
 30
0.0
 11
-8.386000000000001
 21
122.01
 31
0.0
  0
LINE
  5
150
330
A
100
AcDbEntity
  8
PV
  6
Continuous
 62
     7
100
AcDbLine
 10
-7.693999999999999
 20
122.557
 30
0.0
 11
-7.317999999999999
 21
122.6949999999999
 31
0.0
  0
LINE
  5
151
330
A
100
AcDbEntity
  8
PV
  6
Continuous
 62
     7
100
AcDbLine
 10
-8.386000000000001
 20
122.01
 30
0.0
 11
-7.235
 21
122.01
 31
0.0
  0
LINE
  5
152
330
A
100
AcDbEntity
  8
PV
  6
Continuous
 62
     7
100
AcDbLine
 10
-12.204
 20
123.91
 30
0.0
 11
-11.81599999999999
 21
123.91
 31
0.0
  0
LINE
  5
153
330
A
100
AcDbEntity
  8
PV
  6
Continuous
 62
     7
100
AcDbLine
 10
-12.883
 20
120.11
 30
0.0
 11
-12.487
 21
120.11
 31
0.0
  0
LINE
  5
154
330
A
100
AcDbEntity
  8
PV
  6
Continuous
 62
     7
100
AcDbLine
 10
-14.062
 20
123.91
 30
0.0
 11
-12.749
 21
120.817
 31
0.0
  0
LINE
  5
155
330
A
100
AcDbEntity
  8
PV
  6
Continuous
 62
     7
100
AcDbLine
 10
-14.146
 20
123.084
 30
0.0
 11
-12.883
 21
120.11
 31
0.0
  0
LINE
  5
156
330
A
100
AcDbEntity
  8
PV
  6
Continuous
 62
     7
100
AcDbLine
 10
-15.07
 20
120.11
 30
0.0
 11
-14.4
 21
123.91
 31
0.0
  0
LINE
  5
157
330
A
100
AcDbEntity
  8
PV
  6
Continuous
 62
     7
100
AcDbLine
 10
-14.67
 20
120.11
 30
0.0
 11
-14.146
 21
123.084
 31
0.0
  0
LINE
  5
158
330
A
100
AcDbEntity
  8
PV
  6
Continuous
 62
     7
100
AcDbLine
 10
-12.749
 20
120.817
 30
0.0
 11
-12.204
 21
123.91
 31
0.0
  0
LINE
  5
159
330
A
100
AcDbEntity
  8
PV
  6
Continuous
 62
     7
100
AcDbLine
 10
-12.48599999999999
 20
120.11
 30
0.0
 11
-11.81599999999999
 21
123.91
 31
0.0
  0
LINE
  5
15A
330
A
100
AcDbEntity
  8
PV
  6
Continuous
 62
     7
100
AcDbLine
 10
-14.4
 20
123.91
 30
0.0
 11
-14.062
 21
123.91
 31
0.0
  0
LINE
  5
15B
330
A
100
AcDbEntity
  8
PV
  6
Continuous
 62
     7
100
AcDbLine
 10
-15.071
 20
120.11
 30
0.0
 11
-14.67
 21
120.11
 31
0.0
  0
CIRCLE
  5
15C
330
A
100
AcDbEntity
  8
PV
  6
Continuous
 62
     7
100
AcDbCircle
 10
-32.5
 20
82.506
 30
0.0
 40
5.633999999999999
  0
CIRCLE
  5
15D
330
A
100
AcDbEntity
  8
PV
  6
Continuous
 62
     7
100
AcDbCircle
 10
-32.5
 20
82.506
 30
0.0
 40
6.5
  0
LINE
  5
15E
330
A
100
AcDbEntity
  8
PV
  6
Continuous
 62
     7
100
AcDbLine
 10
-35.5
 20
80.774
 30
0.0
 11
-32.5
 21
79.042
 31
0.0
  0
LINE
  5
15F
330
A
100
AcDbEntity
  8
PV
  6
Continuous
 62
     7
100
AcDbLine
 10
-32.5
 20
85.97100000000001
 30
0.0
 11
-29.5
 21
84.23799999999999
 31
0.0
  0
LINE
  5
160
330
A
100
AcDbEntity
  8
PV
  6
Continuous
 62
     7
100
AcDbLine
 10
-35.5
 20
84.23799999999999
 30
0.0
 11
-35.5
 21
80.774
 31
0.0
  0
LINE
  5
161
330
A
100
AcDbEntity
  8
PV
  6
Continuous
 62
     7
100
AcDbLine
 10
-29.5
 20
84.23799999999999
 30
0.0
 11
-29.5
 21
80.774
 31
0.0
  0
LINE
  5
162
330
A
100
AcDbEntity
  8
PV
  6
Continuous
 62
     7
100
AcDbLine
 10
-35.5
 20
84.23799999999999
 30
0.0
 11
-32.5
 21
85.97100000000001
 31
0.0
  0
LINE
  5
163
330
A
100
AcDbEntity
  8
PV
  6
Continuous
 62
     7
100
AcDbLine
 10
-32.5
 20
79.042
 30
0.0
 11
-29.5
 21
80.774
 31
0.0
  0
CIRCLE
  5
164
330
A
100
AcDbEntity
  8
PV
  6
Continuous
 62
     7
100
AcDbCircle
 10
38.5
 20
82.506
 30
0.0
 40
5.633999999999999
  0
CIRCLE
  5
165
330
A
100
AcDbEntity
  8
PV
  6
Continuous
 62
     7
100
AcDbCircle
 10
38.5
 20
82.506
 30
0.0
 40
6.5
  0
LINE
  5
166
330
A
100
AcDbEntity
  8
PV
  6
Continuous
 62
     7
100
AcDbLine
 10
35.5
 20
80.774
 30
0.0
 11
38.5
 21
79.042
 31
0.0
  0
LINE
  5
167
330
A
100
AcDbEntity
  8
PV
  6
Continuous
 62
     7
100
AcDbLine
 10
38.5
 20
85.97100000000001
 30
0.0
 11
41.5
 21
84.23799999999999
 31
0.0
  0
LINE
  5
168
330
A
100
AcDbEntity
  8
PV
  6
Continuous
 62
     7
100
AcDbLine
 10
35.5
 20
84.23799999999999
 30
0.0
 11
35.5
 21
80.774
 31
0.0
  0
LINE
  5
169
330
A
100
AcDbEntity
  8
PV
  6
Continuous
 62
     7
100
AcDbLine
 10
41.5
 20
84.23799999999999
 30
0.0
 11
41.5
 21
80.774
 31
0.0
  0
LINE
  5
16A
330
A
100
AcDbEntity
  8
PV
  6
Continuous
 62
     7
100
AcDbLine
 10
35.5
 20
84.23799999999999
 30
0.0
 11
38.5
 21
85.97100000000001
 31
0.0
  0
LINE
  5
16B
330
A
100
AcDbEntity
  8
PV
  6
Continuous
 62
     7
100
AcDbLine
 10
38.5
 20
79.042
 30
0.0
 11
41.5
 21
80.774
 31
0.0
  0
CIRCLE
  5
16C
330
A
100
AcDbEntity
  8
PV
  6
Continuous
 62
     7
100
AcDbCircle
 10
38.5
 20
153.506
 30
0.0
 40
5.633999999999999
  0
CIRCLE
  5
16D
330
A
100
AcDbEntity
  8
PV
  6
Continuous
 62
     7
100
AcDbCircle
 10
38.5
 20
153.506
 30
0.0
 40
6.5
  0
LINE
  5
16E
330
A
100
AcDbEntity
  8
PV
  6
Continuous
 62
     7
100
AcDbLine
 10
35.5
 20
151.774
 30
0.0
 11
38.5
 21
150.042
 31
0.0
  0
LINE
  5
16F
330
A
100
AcDbEntity
  8
PV
  6
Continuous
 62
     7
100
AcDbLine
 10
38.5
 20
156.971
 30
0.0
 11
41.5
 21
155.238
 31
0.0
  0
LINE
  5
170
330
A
100
AcDbEntity
  8
PV
  6
Continuous
 62
     7
100
AcDbLine
 10
35.5
 20
155.238
 30
0.0
 11
35.5
 21
151.774
 31
0.0
  0
LINE
  5
171
330
A
100
AcDbEntity
  8
PV
  6
Continuous
 62
     7
100
AcDbLine
 10
41.5
 20
155.238
 30
0.0
 11
41.5
 21
151.774
 31
0.0
  0
LINE
  5
172
330
A
100
AcDbEntity
  8
PV
  6
Continuous
 62
     7
100
AcDbLine
 10
35.5
 20
155.238
 30
0.0
 11
38.5
 21
156.971
 31
0.0
  0
LINE
  5
173
330
A
100
AcDbEntity
  8
PV
  6
Continuous
 62
     7
100
AcDbLine
 10
38.5
 20
150.042
 30
0.0
 11
41.5
 21
151.774
 31
0.0
  0
CIRCLE
  5
174
330
A
100
AcDbEntity
  8
PV
  6
Continuous
 62
     7
100
AcDbCircle
 10
-32.5
 20
153.506
 30
0.0
 40
5.633999999999999
  0
CIRCLE
  5
175
330
A
100
AcDbEntity
  8
PV
  6
Continuous
 62
     7
100
AcDbCircle
 10
-32.5
 20
153.506
 30
0.0
 40
6.5
  0
LINE
  5
176
330
A
100
AcDbEntity
  8
PV
  6
Continuous
 62
     7
100
AcDbLine
 10
-35.5
 20
151.774
 30
0.0
 11
-32.5
 21
150.042
 31
0.0
  0
LINE
  5
177
330
A
100
AcDbEntity
  8
PV
  6
Continuous
 62
     7
100
AcDbLine
 10
-32.5
 20
156.971
 30
0.0
 11
-29.5
 21
155.238
 31
0.0
  0
LINE
  5
178
330
A
100
AcDbEntity
  8
PV
  6
Continuous
 62
     7
100
AcDbLine
 10
-35.5
 20
155.238
 30
0.0
 11
-35.5
 21
151.774
 31
0.0
  0
LINE
  5
179
330
A
100
AcDbEntity
  8
PV
  6
Continuous
 62
     7
100
AcDbLine
 10
-29.5
 20
155.238
 30
0.0
 11
-29.5
 21
151.774
 31
0.0
  0
LINE
  5
17A
330
A
100
AcDbEntity
  8
PV
  6
Continuous
 62
     7
100
AcDbLine
 10
-35.5
 20
155.238
 30
0.0
 11
-32.5
 21
156.971
 31
0.0
  0
LINE
  5
17B
330
A
100
AcDbEntity
  8
PV
  6
Continuous
 62
     7
100
AcDbLine
 10
-32.5
 20
150.042
 30
0.0
 11
-29.5
 21
151.774
 31
0.0
  0
LINE
  5
17C
330
A
100
AcDbEntity
  8
PV
  6
Continuous
 62
     7
100
AcDbLine
 10
-38.037
 20
-131.109
 30
0.0
 11
-41.5
 21
-130.182
 31
0.0
  0
LINE
  5
17D
330
A
100
AcDbEntity
  8
PV
  6
Continuous
 62
     7
100
AcDbLine
 10
-41.5
 20
-130.182
 30
0.0
 11
-38.037
 21
-129.254
 31
0.0
  0
LINE
  5
17E
330
A
100
AcDbEntity
  8
PV
  6
Continuous
 62
     7
100
AcDbLine
 10
-41.5
 20
-130.182
 30
0.0
 11
-38.037
 21
-130.182
 31
0.0
  0
LINE
  5
17F
330
A
100
AcDbEntity
  8
PV
  6
Continuous
 62
     7
100
AcDbLine
 10
44.038
 20
-129.254
 30
0.0
 11
47.5
 21
-130.182
 31
0.0
  0
LINE
  5
180
330
A
100
AcDbEntity
  8
PV
  6
Continuous
 62
     7
100
AcDbLine
 10
47.5
 20
-130.182
 30
0.0
 11
44.038
 21
-131.109
 31
0.0
  0
LINE
  5
181
330
A
100
AcDbEntity
  8
PV
  6
Continuous
 62
     7
100
AcDbLine
 10
47.5
 20
-130.182
 30
0.0
 11
44.038
 21
-130.182
 31
0.0
  0
LINE
  5
182
330
A
100
AcDbEntity
  8
PV
  6
Continuous
 62
     7
100
AcDbLine
 10
-41.5
 20
-130.182
 30
0.0
 11
47.5
 21
-130.182
 31
0.0
  0
LINE
  5
183
330
A
100
AcDbEntity
  8
PV
  6
Continuous
 62
     7
100
AcDbLine
 10
-41.5
 20
-138.8249999999999
 30
0.0
 11
-41.5
 21
-127.3239999999999
 31
0.0
  0
MTEXT
  5
184
330
A
100
AcDbEntity
  8
PV
  6
Continuous
 62
     7
100
AcDbMText
 10
20.25799999999999
 20
-121.9319999999999
 30
0.0
 40
7.0
 41
0.0
 71
     2
 72
     1
  1
\T0.871;\W1.115;\A1;\U+220589
 73
     1
 44
1.0
  0
LINE
  5
185
330
A
100
AcDbEntity
  8
PV
  6
Continuous
 62
     7
100
AcDbLine
 10
-76.53699999999999
 20
208.83
 30
0.0
 11
-80.0
 21
209.7579999999999
 31
0.0
  0
LINE
  5
186
330
A
100
AcDbEntity
  8
PV
  6
Continuous
 62
     7
100
AcDbLine
 10
-80.0
 20
209.7579999999999
 30
0.0
 11
-76.53699999999999
 21
210.6859999999999
 31
0.0
  0
LINE
  5
187
330
A
100
AcDbEntity
  8
PV
  6
Continuous
 62
     7
100
AcDbLine
 10
-80.0
 20
209.7579999999999
 30
0.0
 11
-76.53699999999999
 21
209.7579999999999
 31
0.0
  0
LINE
  5
188
330
A
100
AcDbEntity
  8
PV
  6
Continuous
 62
     7
100
AcDbLine
 10
59.53800000000001
 20
210.6859999999999
 30
0.0
 11
63.0
 21
209.7579999999999
 31
0.0
  0
LINE
  5
189
330
A
100
AcDbEntity
  8
PV
  6
Continuous
 62
     7
100
AcDbLine
 10
63.0
 20
209.7579999999999
 30
0.0
 11
59.53800000000001
 21
208.83
 31
0.0
  0
LINE
  5
18A
330
A
100
AcDbEntity
  8
PV
  6
Continuous
 62
     7
100
AcDbLine
 10
63.0
 20
209.7579999999999
 30
0.0
 11
59.53800000000001
 21
209.7579999999999
 31
0.0
  0
LINE
  5
18B
330
A
100
AcDbEntity
  8
PV
  6
Continuous
 62
     7
100
AcDbLine
 10
-80.0
 20
209.7579999999999
 30
0.0
 11
63.0
 21
209.7579999999999
 31
0.0
  0
LINE
  5
18C
330
A
100
AcDbEntity
  8
PV
  6
Continuous
 62
     7
100
AcDbLine
 10
-80.0
 20
180.6809999999999
 30
0.0
 11
-80.0
 21
212.6149999999999
 31
0.0
  0
LINE
  5
18D
330
A
100
AcDbEntity
  8
PV
  6
Continuous
 62
     7
100
AcDbLine
 10
63.0
 20
121.181
 30
0.0
 11
63.0
 21
212.6149999999999
 31
0.0
  0
MTEXT
  5
18E
330
A
100
AcDbEntity
  8
PV
  6
Continuous
 62
     7
100
AcDbMText
 10
-8.5
 20
218.0079999999999
 30
0.0
 40
7.0
 41
0.0
 71
     2
 72
     1
  1
\A1;143
 73
     1
 44
1.0
  0
LINE
  5
18F
330
A
100
AcDbEntity
  8
PV
  6
Continuous
 62
     7
100
AcDbLine
 10
59.53800000000001
 20
-202.7569999999999
 30
0.0
 11
63.0
 21
-203.685
 31
0.0
  0
LINE
  5
190
330
A
100
AcDbEntity
  8
PV
  6
Continuous
 62
     7
100
AcDbLine
 10
63.0
 20
-203.685
 30
0.0
 11
59.53800000000001
 21
-204.613
 31
0.0
  0
LINE
  5
191
330
A
100
AcDbEntity
  8
PV
  6
Continuous
 62
     7
100
AcDbLine
 10
63.0
 20
-203.685
 30
0.0
 11
59.53800000000001
 21
-203.685
 31
0.0
  0
LINE
  5
192
330
A
100
AcDbEntity
  8
PV
  6
Continuous
 62
     7
100
AcDbLine
 10
-53.53699999999999
 20
-204.613
 30
0.0
 11
-57.0
 21
-203.685
 31
0.0
  0
LINE
  5
193
330
A
100
AcDbEntity
  8
PV
  6
Continuous
 62
     7
100
AcDbLine
 10
-57.0
 20
-203.685
 30
0.0
 11
-53.53699999999999
 21
-202.7569999999999
 31
0.0
  0
LINE
  5
194
330
A
100
AcDbEntity
  8
PV
  6
Continuous
 62
     7
100
AcDbLine
 10
-57.0
 20
-203.685
 30
0.0
 11
-53.53699999999999
 21
-203.685
 31
0.0
  0
LINE
  5
195
330
A
100
AcDbEntity
  8
PV
  6
Continuous
 62
     7
100
AcDbLine
 10
63.0
 20
-203.685
 30
0.0
 11
-57.0
 21
-203.685
 31
0.0
  0
LINE
  5
196
330
A
100
AcDbEntity
  8
PV
  6
Continuous
 62
     7
100
AcDbLine
 10
63.0
 20
-194.175
 30
0.0
 11
63.0
 21
-206.542
 31
0.0
  0
LINE
  5
197
330
A
100
AcDbEntity
  8
PV
  6
Continuous
 62
     7
100
AcDbLine
 10
-57.0
 20
-194.175
 30
0.0
 11
-57.0
 21
-206.542
 31
0.0
  0
MTEXT
  5
198
330
A
100
AcDbEntity
  8
PV
  6
Continuous
 62
     7
100
AcDbMText
 10
30.493
 20
-195.4349999999999
 30
0.0
 40
7.0
 41
0.0
 71
     2
 72
     1
  1
\A1;\U+2205120
 73
     1
 44
1.0
  0
LINE
  5
199
330
A
100
AcDbEntity
  8
PV
  6
Continuous
 62
     7
100
AcDbLine
 10
-0.462
 20
-217.9799999999999
 30
0.0
 11
3.0
 21
-218.907
 31
0.0
  0
LINE
  5
19A
330
A
100
AcDbEntity
  8
PV
  6
Continuous
 62
     7
100
AcDbLine
 10
3.0
 20
-218.907
 30
0.0
 11
-0.462
 21
-219.835
 31
0.0
  0
LINE
  5
19B
330
A
100
AcDbEntity
  8
PV
  6
Continuous
 62
     7
100
AcDbLine
 10
3.0
 20
-218.907
 30
0.0
 11
-0.462
 21
-218.907
 31
0.0
  0
LINE
  5
19C
330
A
100
AcDbEntity
  8
PV
  6
Continuous
 62
     7
100
AcDbLine
 10
-76.53699999999999
 20
-219.835
 30
0.0
 11
-80.0
 21
-218.907
 31
0.0
  0
LINE
  5
19D
330
A
100
AcDbEntity
  8
PV
  6
Continuous
 62
     7
100
AcDbLine
 10
-80.0
 20
-218.907
 30
0.0
 11
-76.53699999999999
 21
-217.9799999999999
 31
0.0
  0
LINE
  5
19E
330
A
100
AcDbEntity
  8
PV
  6
Continuous
 62
     7
100
AcDbLine
 10
-80.0
 20
-218.907
 30
0.0
 11
-76.53699999999999
 21
-218.907
 31
0.0
  0
LINE
  5
19F
330
A
100
AcDbEntity
  8
PV
  6
Continuous
 62
     7
100
AcDbLine
 10
3.0
 20
-218.907
 30
0.0
 11
-80.0
 21
-218.907
 31
0.0
  0
LINE
  5
1A0
330
A
100
AcDbEntity
  8
PV
  6
Continuous
 62
     7
100
AcDbLine
 10
3.0
 20
-211.6389999999999
 30
0.0
 11
3.0
 21
-221.7649999999999
 31
0.0
  0
LINE
  5
1A1
330
A
100
AcDbEntity
  8
PV
  6
Continuous
 62
     7
100
AcDbLine
 10
-80.0
 20
-170.955
 30
0.0
 11
-80.0
 21
-221.7649999999999
 31
0.0
  0
MTEXT
  5
1A2
330
A
100
AcDbEntity
  8
PV
  6
Continuous
 62
     7
100
AcDbMText
 10
-38.921
 20
-210.657
 30
0.0
 40
7.0
 41
0.0
 71
     2
 72
     1
  1
\W0.952;\A1;83
 73
     1
 44
1.0
  0
LINE
  5
1A3
330
A
100
AcDbEntity
  8
PV
  6
Continuous
 62
     7
100
AcDbLine
 10
-121.4129999999999
 20
-188.037
 30
0.0
 11
-122.34
 21
-191.5
 31
0.0
  0
LINE
  5
1A4
330
A
100
AcDbEntity
  8
PV
  6
Continuous
 62
     7
100
AcDbLine
 10
-122.34
 20
-191.5
 30
0.0
 11
-123.2679999999999
 21
-188.037
 31
0.0
  0
LINE
  5
1A5
330
A
100
AcDbEntity
  8
PV
  6
Continuous
 62
     7
100
AcDbLine
 10
-122.34
 20
-191.5
 30
0.0
 11
-122.34
 21
-188.037
 31
0.0
  0
LINE
  5
1A6
330
A
100
AcDbEntity
  8
PV
  6
Continuous
 62
     7
100
AcDbLine
 10
-123.2679999999999
 20
-111.9629999999999
 30
0.0
 11
-122.34
 21
-108.4999999999999
 31
0.0
  0
LINE
  5
1A7
330
A
100
AcDbEntity
  8
PV
  6
Continuous
 62
     7
100
AcDbLine
 10
-122.34
 20
-108.4999999999999
 30
0.0
 11
-121.4129999999999
 21
-111.9629999999999
 31
0.0
  0
LINE
  5
1A8
330
A
100
AcDbEntity
  8
PV
  6
Continuous
 62
     7
100
AcDbLine
 10
-122.34
 20
-108.4999999999999
 30
0.0
 11
-122.34
 21
-111.9629999999999
 31
0.0
  0
LINE
  5
1A9
330
A
100
AcDbEntity
  8
PV
  6
Continuous
 62
     7
100
AcDbLine
 10
-122.34
 20
-191.5
 30
0.0
 11
-122.34
 21
-108.4999999999999
 31
0.0
  0
LINE
  5
1AA
330
A
100
AcDbEntity
  8
PV
  6
Continuous
 62
     7
100
AcDbLine
 10
-59.675
 20
-191.5
 30
0.0
 11
-125.1979999999999
 21
-191.5
 31
0.0
  0
LINE
  5
1AB
330
A
100
AcDbEntity
  8
PV
  6
Continuous
 62
     7
100
AcDbLine
 10
-92.37299999999999
 20
-108.4999999999999
 30
0.0
 11
-125.1979999999999
 21
-108.4999999999999
 31
0.0
  0
MTEXT
  5
1AC
330
A
100
AcDbEntity
  8
PV
  6
Continuous
 62
     7
100
AcDbMText
 10
-130.59
 20
-150.0
 30
0.0
 40
7.0
 41
0.0
 71
     2
 72
     1
  1
\W0.952;\A1;83
 11
0.0
 21
1.0
 31
0.0
 73
     1
 44
1.0
  0
LINE
  5
1AD
330
A
100
AcDbEntity
  8
PV
  6
Continuous
 62
     7
100
AcDbLine
 10
-97.057
 20
-165.038
 30
0.0
 11
-97.984
 21
-168.5
 31
0.0
  0
LINE
  5
1AE
330
A
100
AcDbEntity
  8
PV
  6
Continuous
 62
     7
100
AcDbLine
 10
-97.984
 20
-168.5
 30
0.0
 11
-98.91200000000001
 21
-165.038
 31
0.0
  0
LINE
  5
1AF
330
A
100
AcDbEntity
  8
PV
  6
Continuous
 62
     7
100
AcDbLine
 10
-97.984
 20
-168.5
 30
0.0
 11
-97.984
 21
-165.038
 31
0.0
  0
LINE
  5
1B0
330
A
100
AcDbEntity
  8
PV
  6
Continuous
 62
     7
100
AcDbLine
 10
-98.91200000000001
 20
-51.962
 30
0.0
 11
-97.984
 21
-48.5
 31
0.0
  0
LINE
  5
1B1
330
A
100
AcDbEntity
  8
PV
  6
Continuous
 62
     7
100
AcDbLine
 10
-97.984
 20
-48.5
 30
0.0
 11
-97.057
 21
-51.962
 31
0.0
  0
LINE
  5
1B2
330
A
100
AcDbEntity
  8
PV
  6
Continuous
 62
     7
100
AcDbLine
 10
-97.984
 20
-48.5
 30
0.0
 11
-97.984
 21
-51.962
 31
0.0
  0
LINE
  5
1B3
330
A
100
AcDbEntity
  8
PV
  6
Continuous
 62
     7
100
AcDbLine
 10
-97.984
 20
-168.5
 30
0.0
 11
-97.984
 21
-48.5
 31
0.0
  0
LINE
  5
1B4
330
A
100
AcDbEntity
  8
PV
  6
Continuous
 62
     7
100
AcDbLine
 10
-82.675
 20
-168.5
 30
0.0
 11
-100.842
 21
-168.5
 31
0.0
  0
LINE
  5
1B5
330
A
100
AcDbEntity
  8
PV
  6
Continuous
 62
     7
100
AcDbLine
 10
-82.675
 20
-48.5
 30
0.0
 11
-100.842
 21
-48.5
 31
0.0
  0
MTEXT
  5
1B6
330
A
100
AcDbEntity
  8
PV
  6
Continuous
 62
     7
100
AcDbMText
 10
-106.234
 20
-89.212
 30
0.0
 40
7.0
 41
0.0
 71
     2
 72
     1
  1
\A1;\U+2205120
 11
0.0
 21
1.0
 31
0.0
 73
     1
 44
1.0
  0
LINE
  5
1B7
330
A
100
AcDbEntity
  8
PV
  6
Continuous
 62
     7
100
AcDbLine
 10
102.6329999999999
 20
-5.462
 30
0.0
 11
103.561
 21
-2.0
 31
0.0
  0
LINE
  5
1B8
330
A
100
AcDbEntity
  8
PV
  6
Continuous
 62
     7
100
AcDbLine
 10
103.561
 20
-2.0
 30
0.0
 11
104.4889999999999
 21
-5.462
 31
0.0
  0
LINE
  5
1B9
330
A
100
AcDbEntity
  8
PV
  6
Continuous
 62
     7
100
AcDbLine
 10
103.561
 20
-2.0
 30
0.0
 11
103.561
 21
-5.462
 31
0.0
  0
LINE
  5
1BA
330
A
100
AcDbEntity
  8
PV
  6
Continuous
 62
     7
100
AcDbLine
 10
104.4889999999999
 20
-188.037
 30
0.0
 11
103.561
 21
-191.5
 31
0.0
  0
LINE
  5
1BB
330
A
100
AcDbEntity
  8
PV
  6
Continuous
 62
     7
100
AcDbLine
 10
103.561
 20
-191.5
 30
0.0
 11
102.6329999999999
 21
-188.037
 31
0.0
  0
LINE
  5
1BC
330
A
100
AcDbEntity
  8
PV
  6
Continuous
 62
     7
100
AcDbLine
 10
103.561
 20
-191.5
 30
0.0
 11
103.561
 21
-188.037
 31
0.0
  0
LINE
  5
1BD
330
A
100
AcDbEntity
  8
PV
  6
Continuous
 62
     7
100
AcDbLine
 10
103.561
 20
-2.0
 30
0.0
 11
103.561
 21
-191.5
 31
0.0
  0
LINE
  5
1BE
330
A
100
AcDbEntity
  8
PV
  6
Continuous
 62
     7
100
AcDbLine
 10
31.675
 20
-2.0
 30
0.0
 11
106.4189999999999
 21
-2.0
 31
0.0
  0
LINE
  5
1BF
330
A
100
AcDbEntity
  8
PV
  6
Continuous
 62
     7
100
AcDbLine
 10
65.455
 20
-191.5
 30
0.0
 11
106.4189999999999
 21
-191.5
 31
0.0
  0
MTEXT
  5
1C0
330
A
100
AcDbEntity
  8
PV
  6
Continuous
 62
     7
100
AcDbMText
 10
95.311
 20
-96.75
 30
0.0
 40
7.0
 41
0.0
 71
     2
 72
     1
  1
\A1;189.5～209.5
 11
0.0
 21
1.0
 31
0.0
 73
     1
 44
1.0
  0
LINE
  5
1C1
330
A
100
AcDbEntity
  8
PV
  6
Continuous
 62
     7
100
AcDbLine
 10
90.35999999999999
 20
-44.46299999999999
 30
0.0
 11
91.288
 21
-41.0
 31
0.0
  0
LINE
  5
1C2
330
A
100
AcDbEntity
  8
PV
  6
Continuous
 62
     7
100
AcDbLine
 10
91.288
 20
-41.0
 30
0.0
 11
92.216
 21
-44.46299999999999
 31
0.0
  0
LINE
  5
1C3
330
A
100
AcDbEntity
  8
PV
  6
Continuous
 62
     7
100
AcDbLine
 10
91.288
 20
-41.0
 30
0.0
 11
91.288
 21
-44.46299999999999
 31
0.0
  0
LINE
  5
1C4
330
A
100
AcDbEntity
  8
PV
  6
Continuous
 62
     7
100
AcDbLine
 10
92.216
 20
-188.037
 30
0.0
 11
91.288
 21
-191.5
 31
0.0
  0
LINE
  5
1C5
330
A
100
AcDbEntity
  8
PV
  6
Continuous
 62
     7
100
AcDbLine
 10
91.288
 20
-191.5
 30
0.0
 11
90.35999999999999
 21
-188.037
 31
0.0
  0
LINE
  5
1C6
330
A
100
AcDbEntity
  8
PV
  6
Continuous
 62
     7
100
AcDbLine
 10
91.288
 20
-191.5
 30
0.0
 11
91.288
 21
-188.037
 31
0.0
  0
LINE
  5
1C7
330
A
100
AcDbEntity
  8
PV
  6
Continuous
 62
     7
100
AcDbLine
 10
91.288
 20
-41.0
 30
0.0
 11
91.288
 21
-191.5
 31
0.0
  0
LINE
  5
1C8
330
A
100
AcDbEntity
  8
PV
  6
Continuous
 62
     7
100
AcDbLine
 10
51.17499999999999
 20
-41.0
 30
0.0
 11
94.146
 21
-41.0
 31
0.0
  0
MTEXT
  5
1C9
330
A
100
AcDbEntity
  8
PV
  6
Continuous
 62
     7
100
AcDbMText
 10
83.038
 20
-116.25
 30
0.0
 40
7.0
 41
0.0
 71
     2
 72
     1
  1
\A1;150.5
 11
0.0
 21
1.0
 31
0.0
 73
     1
 44
1.0
  0
LINE
  5
1CA
330
A
100
AcDbEntity
  8
PV
  6
Continuous
 62
     7
100
AcDbLine
 10
90.35999999999999
 20
-5.462
 30
0.0
 11
91.288
 21
-2.0
 31
0.0
  0
LINE
  5
1CB
330
A
100
AcDbEntity
  8
PV
  6
Continuous
 62
     7
100
AcDbLine
 10
91.288
 20
-2.0
 30
0.0
 11
92.216
 21
-5.462
 31
0.0
  0
LINE
  5
1CC
330
A
100
AcDbEntity
  8
PV
  6
Continuous
 62
     7
100
AcDbLine
 10
91.288
 20
-2.0
 30
0.0
 11
91.288
 21
-5.462
 31
0.0
  0
LINE
  5
1CD
330
A
100
AcDbEntity
  8
PV
  6
Continuous
 62
     7
100
AcDbLine
 10
92.216
 20
-37.538
 30
0.0
 11
91.288
 21
-41.0
 31
0.0
  0
LINE
  5
1CE
330
A
100
AcDbEntity
  8
PV
  6
Continuous
 62
     7
100
AcDbLine
 10
91.288
 20
-41.0
 30
0.0
 11
90.35999999999999
 21
-37.538
 31
0.0
  0
LINE
  5
1CF
330
A
100
AcDbEntity
  8
PV
  6
Continuous
 62
     7
100
AcDbLine
 10
91.288
 20
-41.0
 30
0.0
 11
91.288
 21
-37.538
 31
0.0
  0
LINE
  5
1D0
330
A
100
AcDbEntity
  8
PV
  6
Continuous
 62
     7
100
AcDbLine
 10
91.288
 20
-2.0
 30
0.0
 11
91.288
 21
-41.0
 31
0.0
  0
MTEXT
  5
1D1
330
A
100
AcDbEntity
  8
PV
  6
Continuous
 62
     7
100
AcDbMText
 10
84.867792
 20
-21.432542
 30
0.0
 40
6.0
 41
0.0
 71
     2
 72
     1
  1
\W0.963;\A1;39～59
 11
0.0
 21
1.0
 31
0.0
 73
     1
 44
1.0
  0
LINE
  5
1D2
330
A
100
AcDbEntity
  8
PV
  6
Continuous
 62
     7
100
AcDbLine
 10
63.71500000000001
 20
-34.07199999999999
 30
0.0
 11
60.253
 21
-35.0
 31
0.0
  0
LINE
  5
1D3
330
A
100
AcDbEntity
  8
PV
  6
Continuous
 62
     7
100
AcDbLine
 10
60.253
 20
-35.0
 30
0.0
 11
62.787
 21
-32.465
 31
0.0
  0
LINE
  5
1D4
330
A
100
AcDbEntity
  8
PV
  6
Continuous
 62
     7
100
AcDbLine
 10
60.253
 20
-35.0
 30
0.0
 11
63.251
 21
-33.269
 31
0.0
  0
LINE
  5
1D5
330
A
100
AcDbEntity
  8
PV
  6
Continuous
 62
     7
100
AcDbLine
 10
59.325
 20
-39.463
 30
0.0
 11
60.253
 21
-36.0
 31
0.0
  0
LINE
  5
1D6
330
A
100
AcDbEntity
  8
PV
  6
Continuous
 62
     7
100
AcDbLine
 10
60.253
 20
-36.0
 30
0.0
 11
61.18
 21
-39.463
 31
0.0
  0
LINE
  5
1D7
330
A
100
AcDbEntity
  8
PV
  6
Continuous
 62
     7
100
AcDbLine
 10
60.253
 20
-36.0
 30
0.0
 11
60.253
 21
-39.463
 31
0.0
  0
LINE
  5
1D8
330
A
100
AcDbEntity
  8
PV
  6
Continuous
 62
     7
100
AcDbLine
 10
60.253
 20
-28.0
 30
0.0
 11
60.253
 21
-36.0
 31
0.0
  0
LINE
  5
1D9
330
A
100
AcDbEntity
  8
PV
  6
Continuous
 62
     7
100
AcDbLine
 10
34.17499999999999
 20
-36.0
 30
0.0
 11
64.825
 21
-36.0
 31
0.0
  0
LINE
  5
1DA
330
A
100
AcDbEntity
  8
PV
  6
Continuous
 62
     7
100
AcDbLine
 10
60.253
 20
-35.0
 30
0.0
 11
74.39
 21
-26.838
 31
0.0
  0
LINE
  5
1DB
330
A
100
AcDbEntity
  8
PV
  6
Continuous
 62
     7
100
AcDbLine
 10
74.39
 20
-26.838
 30
0.0
 11
74.39
 21
-3.755319999999999
 31
0.0
  0
LINE
  5
1DC
330
A
100
AcDbEntity
  8
PV
  6
Continuous
 62
     7
100
AcDbLine
 10
60.253
 20
-36.0
 30
0.0
 11
60.253
 21
-43.938
 31
0.0
  0
MTEXT
  5
1DD
330
A
100
AcDbEntity
  8
PV
  6
Continuous
 62
     7
100
AcDbMText
 10
67.5514
 20
-14.941129
 30
0.0
 40
6.0
 41
0.0
 71
     2
 72
     1
  1
\T0.864;\W1.118;\A1;8～28
 11
0.0
 21
1.0
 31
0.0
 73
     1
 44
1.0
  0
LINE
  5
1DE
330
A
100
AcDbEntity
  8
PV
  6
Continuous
 62
     7
100
AcDbLine
 10
-23.53699999999999
 20
23.281
 30
0.0
 11
-27.0
 21
24.209
 31
0.0
  0
LINE
  5
1DF
330
A
100
AcDbEntity
  8
PV
  6
Continuous
 62
     7
100
AcDbLine
 10
-27.0
 20
24.209
 30
0.0
 11
-23.53699999999999
 21
25.137
 31
0.0
  0
LINE
  5
1E0
330
A
100
AcDbEntity
  8
PV
  6
Continuous
 62
     7
100
AcDbLine
 10
-27.0
 20
24.209
 30
0.0
 11
-23.53699999999999
 21
24.209
 31
0.0
  0
LINE
  5
1E1
330
A
100
AcDbEntity
  8
PV
  6
Continuous
 62
     7
100
AcDbLine
 10
29.538
 20
25.137
 30
0.0
 11
33.0
 21
24.209
 31
0.0
  0
LINE
  5
1E2
330
A
100
AcDbEntity
  8
PV
  6
Continuous
 62
     7
100
AcDbLine
 10
33.0
 20
24.209
 30
0.0
 11
29.538
 21
23.281
 31
0.0
  0
LINE
  5
1E3
330
A
100
AcDbEntity
  8
PV
  6
Continuous
 62
     7
100
AcDbLine
 10
33.0
 20
24.209
 30
0.0
 11
29.538
 21
24.209
 31
0.0
  0
LINE
  5
1E4
330
A
100
AcDbEntity
  8
PV
  6
Continuous
 62
     7
100
AcDbLine
 10
-27.0
 20
24.209
 30
0.0
 11
33.0
 21
24.209
 31
0.0
  0
LINE
  5
1E5
330
A
100
AcDbEntity
  8
PV
  6
Continuous
 62
     7
100
AcDbLine
 10
-27.0
 20
-24.82499999999999
 30
0.0
 11
-27.0
 21
26.495
 31
0.0
  0
LINE
  5
1E6
330
A
100
AcDbEntity
  8
PV
  6
Continuous
 62
     7
100
AcDbLine
 10
33.0
 20
-24.82499999999999
 30
0.0
 11
33.0
 21
26.495
 31
0.0
  0
MTEXT
  5
1E7
330
A
100
AcDbEntity
  8
PV
  6
Continuous
 62
     7
100
AcDbMText
 10
3.282999999999999
 20
33.459
 30
0.0
 40
7.0
 41
0.0
 71
     2
 72
     1
  1
\T1.024;\A1;\U+220560
 73
     1
 44
1.0
  0
LINE
  5
1E8
330
A
100
AcDbEntity
  8
PV
  6
Continuous
 62
     7
100
AcDbLine
 10
59.325
 20
-5.462
 30
0.0
 11
60.253
 21
-2.0
 31
0.0
  0
LINE
  5
1E9
330
A
100
AcDbEntity
  8
PV
  6
Continuous
 62
     7
100
AcDbLine
 10
60.253
 20
-2.0
 30
0.0
 11
61.18
 21
-5.462
 31
0.0
  0
LINE
  5
1EA
330
A
100
AcDbEntity
  8
PV
  6
Continuous
 62
     7
100
AcDbLine
 10
60.253
 20
-2.0
 30
0.0
 11
60.253
 21
-5.462
 31
0.0
  0
LINE
  5
1EB
330
A
100
AcDbEntity
  8
PV
  6
Continuous
 62
     7
100
AcDbLine
 10
61.18
 20
-24.53699999999999
 30
0.0
 11
60.253
 21
-28.0
 31
0.0
  0
LINE
  5
1EC
330
A
100
AcDbEntity
  8
PV
  6
Continuous
 62
     7
100
AcDbLine
 10
60.253
 20
-28.0
 30
0.0
 11
59.325
 21
-24.53699999999999
 31
0.0
  0
LINE
  5
1ED
330
A
100
AcDbEntity
  8
PV
  6
Continuous
 62
     7
100
AcDbLine
 10
60.253
 20
-28.0
 30
0.0
 11
60.253
 21
-24.53699999999999
 31
0.0
  0
LINE
  5
1EE
330
A
100
AcDbEntity
  8
PV
  6
Continuous
 62
     7
100
AcDbLine
 10
60.253
 20
-2.0
 30
0.0
 11
60.253
 21
-28.0
 31
0.0
  0
LINE
  5
1EF
330
A
100
AcDbEntity
  8
PV
  6
Continuous
 62
     7
100
AcDbLine
 10
36.17499999999999
 20
-28.0
 30
0.0
 11
64.825
 21
-28.0
 31
0.0
  0
MTEXT
  5
1F0
330
A
100
AcDbEntity
  8
PV
  6
Continuous
 62
     7
100
AcDbMText
 10
52.003
 20
-15.0
 30
0.0
 40
7.0
 41
0.0
 71
     2
 72
     1
  1
\W0.952;\A1;26
 11
0.0
 21
1.0
 31
0.0
 73
     1
 44
1.0
  0
LINE
  5
1F1
330
A
100
AcDbEntity
  8
PV
  6
Continuous
 62
     7
100
AcDbLine
 10
29.07199999999999
 20
-21.383
 30
0.0
 11
29.096
 21
-21.354
 31
0.0
  0
LINE
  5
1F2
330
A
100
AcDbEntity
  8
PV
  6
Continuous
 62
     7
100
AcDbLine
 10
29.096
 20
-21.354
 30
0.0
 11
29.12
 21
-21.324
 31
0.0
  0
LINE
  5
1F3
330
A
100
AcDbEntity
  8
PV
  6
Continuous
 62
     7
100
AcDbLine
 10
29.12
 20
-21.324
 30
0.0
 11
29.144
 21
-21.293
 31
0.0
  0
LINE
  5
1F4
330
A
100
AcDbEntity
  8
PV
  6
Continuous
 62
     7
100
AcDbLine
 10
29.144
 20
-21.293
 30
0.0
 11
29.167
 21
-21.263
 31
0.0
  0
LINE
  5
1F5
330
A
100
AcDbEntity
  8
PV
  6
Continuous
 62
     7
100
AcDbLine
 10
29.167
 20
-21.263
 30
0.0
 11
29.19
 21
-21.232
 31
0.0
  0
LINE
  5
1F6
330
A
100
AcDbEntity
  8
PV
  6
Continuous
 62
     7
100
AcDbLine
 10
29.19
 20
-21.232
 30
0.0
 11
29.212
 21
-21.2
 31
0.0
  0
LINE
  5
1F7
330
A
100
AcDbEntity
  8
PV
  6
Continuous
 62
     7
100
AcDbLine
 10
29.212
 20
-21.2
 30
0.0
 11
29.234
 21
-21.169
 31
0.0
  0
LINE
  5
1F8
330
A
100
AcDbEntity
  8
PV
  6
Continuous
 62
     7
100
AcDbLine
 10
29.234
 20
-21.169
 30
0.0
 11
29.256
 21
-21.13699999999999
 31
0.0
  0
LINE
  5
1F9
330
A
100
AcDbEntity
  8
PV
  6
Continuous
 62
     7
100
AcDbLine
 10
29.256
 20
-21.13699999999999
 30
0.0
 11
29.27699999999999
 21
-21.105
 31
0.0
  0
LINE
  5
1FA
330
A
100
AcDbEntity
  8
PV
  6
Continuous
 62
     7
100
AcDbLine
 10
29.27699999999999
 20
-21.105
 30
0.0
 11
29.298
 21
-21.072
 31
0.0
  0
LINE
  5
1FB
330
A
100
AcDbEntity
  8
PV
  6
Continuous
 62
     7
100
AcDbLine
 10
29.298
 20
-21.072
 30
0.0
 11
29.319
 21
-21.04
 31
0.0
  0
LINE
  5
1FC
330
A
100
AcDbEntity
  8
PV
  6
Continuous
 62
     7
100
AcDbLine
 10
29.319
 20
-21.04
 30
0.0
 11
29.339
 21
-21.00699999999999
 31
0.0
  0
LINE
  5
1FD
330
A
100
AcDbEntity
  8
PV
  6
Continuous
 62
     7
100
AcDbLine
 10
29.339
 20
-21.00699999999999
 30
0.0
 11
29.358
 21
-20.97399999999999
 31
0.0
  0
LINE
  5
1FE
330
A
100
AcDbEntity
  8
PV
  6
Continuous
 62
     7
100
AcDbLine
 10
29.358
 20
-20.97399999999999
 30
0.0
 11
29.378
 21
-20.941
 31
0.0
  0
LINE
  5
1FF
330
A
100
AcDbEntity
  8
PV
  6
Continuous
 62
     7
100
AcDbLine
 10
29.378
 20
-20.941
 30
0.0
 11
29.397
 21
-20.90699999999999
 31
0.0
  0
LINE
  5
200
330
A
100
AcDbEntity
  8
PV
  6
Continuous
 62
     7
100
AcDbLine
 10
29.397
 20
-20.90699999999999
 30
0.0
 11
29.416
 21
-20.874
 31
0.0
  0
LINE
  5
201
330
A
100
AcDbEntity
  8
PV
  6
Continuous
 62
     7
100
AcDbLine
 10
29.416
 20
-20.874
 30
0.0
 11
29.434
 21
-20.84
 31
0.0
  0
LINE
  5
202
330
A
100
AcDbEntity
  8
PV
  6
Continuous
 62
     7
100
AcDbLine
 10
29.434
 20
-20.84
 30
0.0
 11
29.453
 21
-20.806
 31
0.0
  0
LINE
  5
203
330
A
100
AcDbEntity
  8
PV
  6
Continuous
 62
     7
100
AcDbLine
 10
29.453
 20
-20.806
 30
0.0
 11
29.47
 21
-20.77199999999999
 31
0.0
  0
LINE
  5
204
330
A
100
AcDbEntity
  8
PV
  6
Continuous
 62
     7
100
AcDbLine
 10
29.47
 20
-20.77199999999999
 30
0.0
 11
29.488
 21
-20.737
 31
0.0
  0
LINE
  5
205
330
A
100
AcDbEntity
  8
PV
  6
Continuous
 62
     7
100
AcDbLine
 10
29.488
 20
-20.737
 30
0.0
 11
29.50499999999999
 21
-20.703
 31
0.0
  0
LINE
  5
206
330
A
100
AcDbEntity
  8
PV
  6
Continuous
 62
     7
100
AcDbLine
 10
29.50499999999999
 20
-20.703
 30
0.0
 11
29.52199999999999
 21
-20.668
 31
0.0
  0
LINE
  5
207
330
A
100
AcDbEntity
  8
PV
  6
Continuous
 62
     7
100
AcDbLine
 10
29.52199999999999
 20
-20.668
 30
0.0
 11
29.539
 21
-20.634
 31
0.0
  0
LINE
  5
208
330
A
100
AcDbEntity
  8
PV
  6
Continuous
 62
     7
100
AcDbLine
 10
29.539
 20
-20.634
 30
0.0
 11
29.556
 21
-20.599
 31
0.0
  0
LINE
  5
209
330
A
100
AcDbEntity
  8
PV
  6
Continuous
 62
     7
100
AcDbLine
 10
29.556
 20
-20.599
 30
0.0
 11
29.572
 21
-20.564
 31
0.0
  0
LINE
  5
20A
330
A
100
AcDbEntity
  8
PV
  6
Continuous
 62
     7
100
AcDbLine
 10
29.572
 20
-20.564
 30
0.0
 11
29.588
 21
-20.529
 31
0.0
  0
LINE
  5
20B
330
A
100
AcDbEntity
  8
PV
  6
Continuous
 62
     7
100
AcDbLine
 10
29.588
 20
-20.529
 30
0.0
 11
29.60399999999999
 21
-20.49399999999999
 31
0.0
  0
LINE
  5
20C
330
A
100
AcDbEntity
  8
PV
  6
Continuous
 62
     7
100
AcDbLine
 10
29.60399999999999
 20
-20.49399999999999
 30
0.0
 11
29.61899999999999
 21
-20.459
 31
0.0
  0
LINE
  5
20D
330
A
100
AcDbEntity
  8
PV
  6
Continuous
 62
     7
100
AcDbLine
 10
29.61899999999999
 20
-20.459
 30
0.0
 11
29.634
 21
-20.423
 31
0.0
  0
LINE
  5
20E
330
A
100
AcDbEntity
  8
PV
  6
Continuous
 62
     7
100
AcDbLine
 10
29.634
 20
-20.423
 30
0.0
 11
29.649
 21
-20.38799999999999
 31
0.0
  0
LINE
  5
20F
330
A
100
AcDbEntity
  8
PV
  6
Continuous
 62
     7
100
AcDbLine
 10
29.649
 20
-20.38799999999999
 30
0.0
 11
29.664
 21
-20.352
 31
0.0
  0
LINE
  5
210
330
A
100
AcDbEntity
  8
PV
  6
Continuous
 62
     7
100
AcDbLine
 10
29.664
 20
-20.352
 30
0.0
 11
29.679
 21
-20.317
 31
0.0
  0
LINE
  5
211
330
A
100
AcDbEntity
  8
PV
  6
Continuous
 62
     7
100
AcDbLine
 10
29.679
 20
-20.317
 30
0.0
 11
29.693
 21
-20.28099999999999
 31
0.0
  0
LINE
  5
212
330
A
100
AcDbEntity
  8
PV
  6
Continuous
 62
     7
100
AcDbLine
 10
29.693
 20
-20.28099999999999
 30
0.0
 11
29.70699999999999
 21
-20.245
 31
0.0
  0
LINE
  5
213
330
A
100
AcDbEntity
  8
PV
  6
Continuous
 62
     7
100
AcDbLine
 10
29.70699999999999
 20
-20.245
 30
0.0
 11
29.721
 21
-20.209
 31
0.0
  0
LINE
  5
214
330
A
100
AcDbEntity
  8
PV
  6
Continuous
 62
     7
100
AcDbLine
 10
29.721
 20
-20.209
 30
0.0
 11
29.734
 21
-20.173
 31
0.0
  0
LINE
  5
215
330
A
100
AcDbEntity
  8
PV
  6
Continuous
 62
     7
100
AcDbLine
 10
29.734
 20
-20.173
 30
0.0
 11
29.748
 21
-20.137
 31
0.0
  0
LINE
  5
216
330
A
100
AcDbEntity
  8
PV
  6
Continuous
 62
     7
100
AcDbLine
 10
29.748
 20
-20.137
 30
0.0
 11
29.761
 21
-20.10099999999999
 31
0.0
  0
LINE
  5
217
330
A
100
AcDbEntity
  8
PV
  6
Continuous
 62
     7
100
AcDbLine
 10
29.761
 20
-20.10099999999999
 30
0.0
 11
29.774
 21
-20.065
 31
0.0
  0
LINE
  5
218
330
A
100
AcDbEntity
  8
PV
  6
Continuous
 62
     7
100
AcDbLine
 10
29.774
 20
-20.065
 30
0.0
 11
29.78699999999999
 21
-20.028
 31
0.0
  0
LINE
  5
219
330
A
100
AcDbEntity
  8
PV
  6
Continuous
 62
     7
100
AcDbLine
 10
29.78699999999999
 20
-20.028
 30
0.0
 11
29.799
 21
-19.992
 31
0.0
  0
LINE
  5
21A
330
A
100
AcDbEntity
  8
PV
  6
Continuous
 62
     7
100
AcDbLine
 10
29.799
 20
-19.992
 30
0.0
 11
29.81099999999999
 21
-19.95499999999999
 31
0.0
  0
LINE
  5
21B
330
A
100
AcDbEntity
  8
PV
  6
Continuous
 62
     7
100
AcDbLine
 10
29.81099999999999
 20
-19.95499999999999
 30
0.0
 11
29.823
 21
-19.919
 31
0.0
  0
LINE
  5
21C
330
A
100
AcDbEntity
  8
PV
  6
Continuous
 62
     7
100
AcDbLine
 10
29.823
 20
-19.919
 30
0.0
 11
29.835
 21
-19.882
 31
0.0
  0
LINE
  5
21D
330
A
100
AcDbEntity
  8
PV
  6
Continuous
 62
     7
100
AcDbLine
 10
29.835
 20
-19.882
 30
0.0
 11
29.847
 21
-19.846
 31
0.0
  0
LINE
  5
21E
330
A
100
AcDbEntity
  8
PV
  6
Continuous
 62
     7
100
AcDbLine
 10
29.847
 20
-19.846
 30
0.0
 11
29.859
 21
-19.809
 31
0.0
  0
LINE
  5
21F
330
A
100
AcDbEntity
  8
PV
  6
Continuous
 62
     7
100
AcDbLine
 10
29.859
 20
-19.809
 30
0.0
 11
29.87
 21
-19.772
 31
0.0
  0
LINE
  5
220
330
A
100
AcDbEntity
  8
PV
  6
Continuous
 62
     7
100
AcDbLine
 10
29.87
 20
-19.772
 30
0.0
 11
29.881
 21
-19.73499999999999
 31
0.0
  0
LINE
  5
221
330
A
100
AcDbEntity
  8
PV
  6
Continuous
 62
     7
100
AcDbLine
 10
29.881
 20
-19.73499999999999
 30
0.0
 11
29.892
 21
-19.698
 31
0.0
  0
LINE
  5
222
330
A
100
AcDbEntity
  8
PV
  6
Continuous
 62
     7
100
AcDbLine
 10
29.892
 20
-19.698
 30
0.0
 11
29.903
 21
-19.66199999999999
 31
0.0
  0
LINE
  5
223
330
A
100
AcDbEntity
  8
PV
  6
Continuous
 62
     7
100
AcDbLine
 10
29.903
 20
-19.66199999999999
 30
0.0
 11
29.913
 21
-19.625
 31
0.0
  0
LINE
  5
224
330
A
100
AcDbEntity
  8
PV
  6
Continuous
 62
     7
100
AcDbLine
 10
29.913
 20
-19.625
 30
0.0
 11
29.92399999999999
 21
-19.587
 31
0.0
  0
LINE
  5
225
330
A
100
AcDbEntity
  8
PV
  6
Continuous
 62
     7
100
AcDbLine
 10
29.92399999999999
 20
-19.587
 30
0.0
 11
29.934
 21
-19.55
 31
0.0
  0
LINE
  5
226
330
A
100
AcDbEntity
  8
PV
  6
Continuous
 62
     7
100
AcDbLine
 10
29.934
 20
-19.55
 30
0.0
 11
29.944
 21
-19.51299999999999
 31
0.0
  0
LINE
  5
227
330
A
100
AcDbEntity
  8
PV
  6
Continuous
 62
     7
100
AcDbLine
 10
29.944
 20
-19.51299999999999
 30
0.0
 11
29.954
 21
-19.47599999999999
 31
0.0
  0
LINE
  5
228
330
A
100
AcDbEntity
  8
PV
  6
Continuous
 62
     7
100
AcDbLine
 10
29.954
 20
-19.47599999999999
 30
0.0
 11
29.963
 21
-19.439
 31
0.0
  0
LINE
  5
229
330
A
100
AcDbEntity
  8
PV
  6
Continuous
 62
     7
100
AcDbLine
 10
29.963
 20
-19.439
 30
0.0
 11
29.973
 21
-19.401
 31
0.0
  0
LINE
  5
22A
330
A
100
AcDbEntity
  8
PV
  6
Continuous
 62
     7
100
AcDbLine
 10
29.973
 20
-19.401
 30
0.0
 11
29.982
 21
-19.364
 31
0.0
  0
LINE
  5
22B
330
A
100
AcDbEntity
  8
PV
  6
Continuous
 62
     7
100
AcDbLine
 10
29.982
 20
-19.364
 30
0.0
 11
29.991
 21
-19.327
 31
0.0
  0
LINE
  5
22C
330
A
100
AcDbEntity
  8
PV
  6
Continuous
 62
     7
100
AcDbLine
 10
29.991
 20
-19.327
 30
0.0
 11
30.0
 21
-19.289
 31
0.0
  0
LINE
  5
22D
330
A
100
AcDbEntity
  8
PV
  6
Continuous
 62
     7
100
AcDbLine
 10
30.0
 20
-19.289
 30
0.0
 11
30.009
 21
-19.252
 31
0.0
  0
LINE
  5
22E
330
A
100
AcDbEntity
  8
PV
  6
Continuous
 62
     7
100
AcDbLine
 10
30.009
 20
-19.252
 30
0.0
 11
30.017
 21
-19.214
 31
0.0
  0
LINE
  5
22F
330
A
100
AcDbEntity
  8
PV
  6
Continuous
 62
     7
100
AcDbLine
 10
30.017
 20
-19.214
 30
0.0
 11
30.026
 21
-19.17699999999999
 31
0.0
  0
LINE
  5
230
330
A
100
AcDbEntity
  8
PV
  6
Continuous
 62
     7
100
AcDbLine
 10
30.026
 20
-19.17699999999999
 30
0.0
 11
30.034
 21
-19.13899999999999
 31
0.0
  0
LINE
  5
231
330
A
100
AcDbEntity
  8
PV
  6
Continuous
 62
     7
100
AcDbLine
 10
30.034
 20
-19.13899999999999
 30
0.0
 11
30.04199999999999
 21
-19.102
 31
0.0
  0
LINE
  5
232
330
A
100
AcDbEntity
  8
PV
  6
Continuous
 62
     7
100
AcDbLine
 10
30.04199999999999
 20
-19.102
 30
0.0
 11
30.05
 21
-19.064
 31
0.0
  0
LINE
  5
233
330
A
100
AcDbEntity
  8
PV
  6
Continuous
 62
     7
100
AcDbLine
 10
30.05
 20
-19.064
 30
0.0
 11
30.058
 21
-19.02599999999999
 31
0.0
  0
LINE
  5
234
330
A
100
AcDbEntity
  8
PV
  6
Continuous
 62
     7
100
AcDbLine
 10
30.058
 20
-19.02599999999999
 30
0.0
 11
30.066
 21
-18.98799999999999
 31
0.0
  0
LINE
  5
235
330
A
100
AcDbEntity
  8
PV
  6
Continuous
 62
     7
100
AcDbLine
 10
30.066
 20
-18.98799999999999
 30
0.0
 11
30.073
 21
-18.951
 31
0.0
  0
LINE
  5
236
330
A
100
AcDbEntity
  8
PV
  6
Continuous
 62
     7
100
AcDbLine
 10
30.073
 20
-18.951
 30
0.0
 11
30.08
 21
-18.913
 31
0.0
  0
LINE
  5
237
330
A
100
AcDbEntity
  8
PV
  6
Continuous
 62
     7
100
AcDbLine
 10
30.08
 20
-18.913
 30
0.0
 11
30.087
 21
-18.875
 31
0.0
  0
LINE
  5
238
330
A
100
AcDbEntity
  8
PV
  6
Continuous
 62
     7
100
AcDbLine
 10
30.087
 20
-18.875
 30
0.0
 11
30.094
 21
-18.837
 31
0.0
  0
LINE
  5
239
330
A
100
AcDbEntity
  8
PV
  6
Continuous
 62
     7
100
AcDbLine
 10
30.094
 20
-18.837
 30
0.0
 11
30.10099999999999
 21
-18.799
 31
0.0
  0
LINE
  5
23A
330
A
100
AcDbEntity
  8
PV
  6
Continuous
 62
     7
100
AcDbLine
 10
30.10099999999999
 20
-18.799
 30
0.0
 11
30.108
 21
-18.762
 31
0.0
  0
LINE
  5
23B
330
A
100
AcDbEntity
  8
PV
  6
Continuous
 62
     7
100
AcDbLine
 10
30.108
 20
-18.762
 30
0.0
 11
30.114
 21
-18.724
 31
0.0
  0
LINE
  5
23C
330
A
100
AcDbEntity
  8
PV
  6
Continuous
 62
     7
100
AcDbLine
 10
30.114
 20
-18.724
 30
0.0
 11
30.121
 21
-18.68599999999999
 31
0.0
  0
LINE
  5
23D
330
A
100
AcDbEntity
  8
PV
  6
Continuous
 62
     7
100
AcDbLine
 10
30.121
 20
-18.68599999999999
 30
0.0
 11
30.127
 21
-18.64799999999999
 31
0.0
  0
LINE
  5
23E
330
A
100
AcDbEntity
  8
PV
  6
Continuous
 62
     7
100
AcDbLine
 10
30.127
 20
-18.64799999999999
 30
0.0
 11
30.133
 21
-18.60999999999999
 31
0.0
  0
LINE
  5
23F
330
A
100
AcDbEntity
  8
PV
  6
Continuous
 62
     7
100
AcDbLine
 10
30.133
 20
-18.60999999999999
 30
0.0
 11
30.139
 21
-18.57199999999999
 31
0.0
  0
LINE
  5
240
330
A
100
AcDbEntity
  8
PV
  6
Continuous
 62
     7
100
AcDbLine
 10
30.139
 20
-18.57199999999999
 30
0.0
 11
30.14499999999999
 21
-18.534
 31
0.0
  0
LINE
  5
241
330
A
100
AcDbEntity
  8
PV
  6
Continuous
 62
     7
100
AcDbLine
 10
30.14499999999999
 20
-18.534
 30
0.0
 11
30.15
 21
-18.49599999999999
 31
0.0
  0
LINE
  5
242
330
A
100
AcDbEntity
  8
PV
  6
Continuous
 62
     7
100
AcDbLine
 10
30.15
 20
-18.49599999999999
 30
0.0
 11
30.156
 21
-18.457
 31
0.0
  0
LINE
  5
243
330
A
100
AcDbEntity
  8
PV
  6
Continuous
 62
     7
100
AcDbLine
 10
30.156
 20
-18.457
 30
0.0
 11
30.16099999999999
 21
-18.419
 31
0.0
  0
LINE
  5
244
330
A
100
AcDbEntity
  8
PV
  6
Continuous
 62
     7
100
AcDbLine
 10
30.16099999999999
 20
-18.419
 30
0.0
 11
30.166
 21
-18.381
 31
0.0
  0
LINE
  5
245
330
A
100
AcDbEntity
  8
PV
  6
Continuous
 62
     7
100
AcDbLine
 10
30.166
 20
-18.381
 30
0.0
 11
30.171
 21
-18.34299999999999
 31
0.0
  0
LINE
  5
246
330
A
100
AcDbEntity
  8
PV
  6
Continuous
 62
     7
100
AcDbLine
 10
30.171
 20
-18.34299999999999
 30
0.0
 11
30.17599999999999
 21
-18.30499999999999
 31
0.0
  0
LINE
  5
247
330
A
100
AcDbEntity
  8
PV
  6
Continuous
 62
     7
100
AcDbLine
 10
30.17599999999999
 20
-18.30499999999999
 30
0.0
 11
30.18
 21
-18.26699999999999
 31
0.0
  0
LINE
  5
248
330
A
100
AcDbEntity
  8
PV
  6
Continuous
 62
     7
100
AcDbLine
 10
30.18
 20
-18.26699999999999
 30
0.0
 11
30.18499999999999
 21
-18.22799999999999
 31
0.0
  0
LINE
  5
249
330
A
100
AcDbEntity
  8
PV
  6
Continuous
 62
     7
100
AcDbLine
 10
30.18499999999999
 20
-18.22799999999999
 30
0.0
 11
30.189
 21
-18.19
 31
0.0
  0
LINE
  5
24A
330
A
100
AcDbEntity
  8
PV
  6
Continuous
 62
     7
100
AcDbLine
 10
30.189
 20
-18.19
 30
0.0
 11
30.194
 21
-18.152
 31
0.0
  0
LINE
  5
24B
330
A
100
AcDbEntity
  8
PV
  6
Continuous
 62
     7
100
AcDbLine
 10
30.194
 20
-18.152
 30
0.0
 11
30.198
 21
-18.114
 31
0.0
  0
LINE
  5
24C
330
A
100
AcDbEntity
  8
PV
  6
Continuous
 62
     7
100
AcDbLine
 10
30.198
 20
-18.114
 30
0.0
 11
30.20199999999999
 21
-18.075
 31
0.0
  0
LINE
  5
24D
330
A
100
AcDbEntity
  8
PV
  6
Continuous
 62
     7
100
AcDbLine
 10
30.20199999999999
 20
-18.075
 30
0.0
 11
30.20599999999999
 21
-18.037
 31
0.0
  0
LINE
  5
24E
330
A
100
AcDbEntity
  8
PV
  6
Continuous
 62
     7
100
AcDbLine
 10
30.20599999999999
 20
-18.037
 30
0.0
 11
30.209
 21
-17.999
 31
0.0
  0
LINE
  5
24F
330
A
100
AcDbEntity
  8
PV
  6
Continuous
 62
     7
100
AcDbLine
 10
30.209
 20
-17.999
 30
0.0
 11
30.213
 21
-17.961
 31
0.0
  0
LINE
  5
250
330
A
100
AcDbEntity
  8
PV
  6
Continuous
 62
     7
100
AcDbLine
 10
30.213
 20
-17.961
 30
0.0
 11
30.21599999999999
 21
-17.922
 31
0.0
  0
LINE
  5
251
330
A
100
AcDbEntity
  8
PV
  6
Continuous
 62
     7
100
AcDbLine
 10
30.21599999999999
 20
-17.922
 30
0.0
 11
30.219
 21
-17.884
 31
0.0
  0
LINE
  5
252
330
A
100
AcDbEntity
  8
PV
  6
Continuous
 62
     7
100
AcDbLine
 10
30.219
 20
-17.884
 30
0.0
 11
30.223
 21
-17.846
 31
0.0
  0
LINE
  5
253
330
A
100
AcDbEntity
  8
PV
  6
Continuous
 62
     7
100
AcDbLine
 10
30.223
 20
-17.846
 30
0.0
 11
30.226
 21
-17.807
 31
0.0
  0
LINE
  5
254
330
A
100
AcDbEntity
  8
PV
  6
Continuous
 62
     7
100
AcDbLine
 10
30.226
 20
-17.807
 30
0.0
 11
30.228
 21
-17.769
 31
0.0
  0
LINE
  5
255
330
A
100
AcDbEntity
  8
PV
  6
Continuous
 62
     7
100
AcDbLine
 10
30.228
 20
-17.769
 30
0.0
 11
30.23099999999999
 21
-17.73
 31
0.0
  0
LINE
  5
256
330
A
100
AcDbEntity
  8
PV
  6
Continuous
 62
     7
100
AcDbLine
 10
30.23099999999999
 20
-17.73
 30
0.0
 11
30.234
 21
-17.692
 31
0.0
  0
LINE
  5
257
330
A
100
AcDbEntity
  8
PV
  6
Continuous
 62
     7
100
AcDbLine
 10
30.234
 20
-17.692
 30
0.0
 11
30.236
 21
-17.654
 31
0.0
  0
LINE
  5
258
330
A
100
AcDbEntity
  8
PV
  6
Continuous
 62
     7
100
AcDbLine
 10
30.236
 20
-17.654
 30
0.0
 11
30.238
 21
-17.61499999999999
 31
0.0
  0
LINE
  5
259
330
A
100
AcDbEntity
  8
PV
  6
Continuous
 62
     7
100
AcDbLine
 10
30.238
 20
-17.61499999999999
 30
0.0
 11
30.24
 21
-17.577
 31
0.0
  0
LINE
  5
25A
330
A
100
AcDbEntity
  8
PV
  6
Continuous
 62
     7
100
AcDbLine
 10
30.24
 20
-17.577
 30
0.0
 11
30.24199999999999
 21
-17.538
 31
0.0
  0
LINE
  5
25B
330
A
100
AcDbEntity
  8
PV
  6
Continuous
 62
     7
100
AcDbLine
 10
30.24199999999999
 20
-17.538
 30
0.0
 11
30.24399999999999
 21
-17.5
 31
0.0
  0
LINE
  5
25C
330
A
100
AcDbEntity
  8
PV
  6
Continuous
 62
     7
100
AcDbLine
 10
30.24399999999999
 20
-17.5
 30
0.0
 11
30.24599999999999
 21
-17.461
 31
0.0
  0
LINE
  5
25D
330
A
100
AcDbEntity
  8
PV
  6
Continuous
 62
     7
100
AcDbLine
 10
30.24599999999999
 20
-17.461
 30
0.0
 11
30.248
 21
-17.423
 31
0.0
  0
LINE
  5
25E
330
A
100
AcDbEntity
  8
PV
  6
Continuous
 62
     7
100
AcDbLine
 10
30.248
 20
-17.423
 30
0.0
 11
30.249
 21
-17.385
 31
0.0
  0
LINE
  5
25F
330
A
100
AcDbEntity
  8
PV
  6
Continuous
 62
     7
100
AcDbLine
 10
30.249
 20
-17.385
 30
0.0
 11
30.25
 21
-17.346
 31
0.0
  0
LINE
  5
260
330
A
100
AcDbEntity
  8
PV
  6
Continuous
 62
     7
100
AcDbLine
 10
30.25
 20
-17.346
 30
0.0
 11
30.251
 21
-17.308
 31
0.0
  0
LINE
  5
261
330
A
100
AcDbEntity
  8
PV
  6
Continuous
 62
     7
100
AcDbLine
 10
30.251
 20
-17.308
 30
0.0
 11
30.253
 21
-17.269
 31
0.0
  0
LINE
  5
262
330
A
100
AcDbEntity
  8
PV
  6
Continuous
 62
     7
100
AcDbLine
 10
30.253
 20
-17.269
 30
0.0
 11
30.253
 21
-17.23099999999999
 31
0.0
  0
LINE
  5
263
330
A
100
AcDbEntity
  8
PV
  6
Continuous
 62
     7
100
AcDbLine
 10
30.253
 20
-17.23099999999999
 30
0.0
 11
30.254
 21
-17.192
 31
0.0
  0
LINE
  5
264
330
A
100
AcDbEntity
  8
PV
  6
Continuous
 62
     7
100
AcDbLine
 10
30.254
 20
-17.192
 30
0.0
 11
30.255
 21
-17.15399999999999
 31
0.0
  0
LINE
  5
265
330
A
100
AcDbEntity
  8
PV
  6
Continuous
 62
     7
100
AcDbLine
 10
30.255
 20
-17.15399999999999
 30
0.0
 11
30.255
 21
-17.115
 31
0.0
  0
LINE
  5
266
330
A
100
AcDbEntity
  8
PV
  6
Continuous
 62
     7
100
AcDbLine
 10
30.255
 20
-17.115
 30
0.0
 11
30.256
 21
-17.077
 31
0.0
  0
LINE
  5
267
330
A
100
AcDbEntity
  8
PV
  6
Continuous
 62
     7
100
AcDbLine
 10
30.256
 20
-17.077
 30
0.0
 11
30.256
 21
-17.038
 31
0.0
  0
LINE
  5
268
330
A
100
AcDbEntity
  8
PV
  6
Continuous
 62
     7
100
AcDbLine
 10
30.256
 20
-17.038
 30
0.0
 11
30.256
 21
-17.0
 31
0.0
  0
LINE
  5
269
330
A
100
AcDbEntity
  8
PV
  6
Continuous
 62
     7
100
AcDbLine
 10
-24.256
 20
-17.0
 30
0.0
 11
-24.256
 21
-17.038
 31
0.0
  0
LINE
  5
26A
330
A
100
AcDbEntity
  8
PV
  6
Continuous
 62
     7
100
AcDbLine
 10
-24.256
 20
-17.038
 30
0.0
 11
-24.256
 21
-17.077
 31
0.0
  0
LINE
  5
26B
330
A
100
AcDbEntity
  8
PV
  6
Continuous
 62
     7
100
AcDbLine
 10
-24.256
 20
-17.077
 30
0.0
 11
-24.25499999999999
 21
-17.115
 31
0.0
  0
LINE
  5
26C
330
A
100
AcDbEntity
  8
PV
  6
Continuous
 62
     7
100
AcDbLine
 10
-24.25499999999999
 20
-17.115
 30
0.0
 11
-24.25499999999999
 21
-17.15399999999999
 31
0.0
  0
LINE
  5
26D
330
A
100
AcDbEntity
  8
PV
  6
Continuous
 62
     7
100
AcDbLine
 10
-24.25499999999999
 20
-17.15399999999999
 30
0.0
 11
-24.254
 21
-17.192
 31
0.0
  0
LINE
  5
26E
330
A
100
AcDbEntity
  8
PV
  6
Continuous
 62
     7
100
AcDbLine
 10
-24.254
 20
-17.192
 30
0.0
 11
-24.253
 21
-17.23099999999999
 31
0.0
  0
LINE
  5
26F
330
A
100
AcDbEntity
  8
PV
  6
Continuous
 62
     7
100
AcDbLine
 10
-24.253
 20
-17.23099999999999
 30
0.0
 11
-24.252
 21
-17.269
 31
0.0
  0
LINE
  5
270
330
A
100
AcDbEntity
  8
PV
  6
Continuous
 62
     7
100
AcDbLine
 10
-24.252
 20
-17.269
 30
0.0
 11
-24.251
 21
-17.308
 31
0.0
  0
LINE
  5
271
330
A
100
AcDbEntity
  8
PV
  6
Continuous
 62
     7
100
AcDbLine
 10
-24.251
 20
-17.308
 30
0.0
 11
-24.25
 21
-17.346
 31
0.0
  0
LINE
  5
272
330
A
100
AcDbEntity
  8
PV
  6
Continuous
 62
     7
100
AcDbLine
 10
-24.25
 20
-17.346
 30
0.0
 11
-24.249
 21
-17.385
 31
0.0
  0
LINE
  5
273
330
A
100
AcDbEntity
  8
PV
  6
Continuous
 62
     7
100
AcDbLine
 10
-24.249
 20
-17.385
 30
0.0
 11
-24.248
 21
-17.423
 31
0.0
  0
LINE
  5
274
330
A
100
AcDbEntity
  8
PV
  6
Continuous
 62
     7
100
AcDbLine
 10
-24.248
 20
-17.423
 30
0.0
 11
-24.24599999999999
 21
-17.461
 31
0.0
  0
LINE
  5
275
330
A
100
AcDbEntity
  8
PV
  6
Continuous
 62
     7
100
AcDbLine
 10
-24.24599999999999
 20
-17.461
 30
0.0
 11
-24.244
 21
-17.5
 31
0.0
  0
LINE
  5
276
330
A
100
AcDbEntity
  8
PV
  6
Continuous
 62
     7
100
AcDbLine
 10
-24.244
 20
-17.5
 30
0.0
 11
-24.24199999999999
 21
-17.538
 31
0.0
  0
LINE
  5
277
330
A
100
AcDbEntity
  8
PV
  6
Continuous
 62
     7
100
AcDbLine
 10
-24.24199999999999
 20
-17.538
 30
0.0
 11
-24.23999999999999
 21
-17.577
 31
0.0
  0
LINE
  5
278
330
A
100
AcDbEntity
  8
PV
  6
Continuous
 62
     7
100
AcDbLine
 10
-24.23999999999999
 20
-17.577
 30
0.0
 11
-24.238
 21
-17.61499999999999
 31
0.0
  0
LINE
  5
279
330
A
100
AcDbEntity
  8
PV
  6
Continuous
 62
     7
100
AcDbLine
 10
-24.238
 20
-17.61499999999999
 30
0.0
 11
-24.236
 21
-17.654
 31
0.0
  0
LINE
  5
27A
330
A
100
AcDbEntity
  8
PV
  6
Continuous
 62
     7
100
AcDbLine
 10
-24.236
 20
-17.654
 30
0.0
 11
-24.234
 21
-17.692
 31
0.0
  0
LINE
  5
27B
330
A
100
AcDbEntity
  8
PV
  6
Continuous
 62
     7
100
AcDbLine
 10
-24.234
 20
-17.692
 30
0.0
 11
-24.23099999999999
 21
-17.73
 31
0.0
  0
LINE
  5
27C
330
A
100
AcDbEntity
  8
PV
  6
Continuous
 62
     7
100
AcDbLine
 10
-24.23099999999999
 20
-17.73
 30
0.0
 11
-24.228
 21
-17.769
 31
0.0
  0
LINE
  5
27D
330
A
100
AcDbEntity
  8
PV
  6
Continuous
 62
     7
100
AcDbLine
 10
-24.228
 20
-17.769
 30
0.0
 11
-24.225
 21
-17.807
 31
0.0
  0
LINE
  5
27E
330
A
100
AcDbEntity
  8
PV
  6
Continuous
 62
     7
100
AcDbLine
 10
-24.225
 20
-17.807
 30
0.0
 11
-24.223
 21
-17.846
 31
0.0
  0
LINE
  5
27F
330
A
100
AcDbEntity
  8
PV
  6
Continuous
 62
     7
100
AcDbLine
 10
-24.223
 20
-17.846
 30
0.0
 11
-24.219
 21
-17.884
 31
0.0
  0
LINE
  5
280
330
A
100
AcDbEntity
  8
PV
  6
Continuous
 62
     7
100
AcDbLine
 10
-24.219
 20
-17.884
 30
0.0
 11
-24.21599999999999
 21
-17.922
 31
0.0
  0
LINE
  5
281
330
A
100
AcDbEntity
  8
PV
  6
Continuous
 62
     7
100
AcDbLine
 10
-24.21599999999999
 20
-17.922
 30
0.0
 11
-24.213
 21
-17.961
 31
0.0
  0
LINE
  5
282
330
A
100
AcDbEntity
  8
PV
  6
Continuous
 62
     7
100
AcDbLine
 10
-24.213
 20
-17.961
 30
0.0
 11
-24.209
 21
-17.999
 31
0.0
  0
LINE
  5
283
330
A
100
AcDbEntity
  8
PV
  6
Continuous
 62
     7
100
AcDbLine
 10
-24.209
 20
-17.999
 30
0.0
 11
-24.206
 21
-18.037
 31
0.0
  0
LINE
  5
284
330
A
100
AcDbEntity
  8
PV
  6
Continuous
 62
     7
100
AcDbLine
 10
-24.206
 20
-18.037
 30
0.0
 11
-24.20199999999999
 21
-18.075
 31
0.0
  0
LINE
  5
285
330
A
100
AcDbEntity
  8
PV
  6
Continuous
 62
     7
100
AcDbLine
 10
-24.20199999999999
 20
-18.075
 30
0.0
 11
-24.198
 21
-18.114
 31
0.0
  0
LINE
  5
286
330
A
100
AcDbEntity
  8
PV
  6
Continuous
 62
     7
100
AcDbLine
 10
-24.198
 20
-18.114
 30
0.0
 11
-24.194
 21
-18.152
 31
0.0
  0
LINE
  5
287
330
A
100
AcDbEntity
  8
PV
  6
Continuous
 62
     7
100
AcDbLine
 10
-24.194
 20
-18.152
 30
0.0
 11
-24.189
 21
-18.19
 31
0.0
  0
LINE
  5
288
330
A
100
AcDbEntity
  8
PV
  6
Continuous
 62
     7
100
AcDbLine
 10
-24.189
 20
-18.19
 30
0.0
 11
-24.18499999999999
 21
-18.22799999999999
 31
0.0
  0
LINE
  5
289
330
A
100
AcDbEntity
  8
PV
  6
Continuous
 62
     7
100
AcDbLine
 10
-24.18499999999999
 20
-18.22799999999999
 30
0.0
 11
-24.18
 21
-18.26699999999999
 31
0.0
  0
LINE
  5
28A
330
A
100
AcDbEntity
  8
PV
  6
Continuous
 62
     7
100
AcDbLine
 10
-24.18
 20
-18.26699999999999
 30
0.0
 11
-24.176
 21
-18.30499999999999
 31
0.0
  0
LINE
  5
28B
330
A
100
AcDbEntity
  8
PV
  6
Continuous
 62
     7
100
AcDbLine
 10
-24.176
 20
-18.30499999999999
 30
0.0
 11
-24.171
 21
-18.34299999999999
 31
0.0
  0
LINE
  5
28C
330
A
100
AcDbEntity
  8
PV
  6
Continuous
 62
     7
100
AcDbLine
 10
-24.171
 20
-18.34299999999999
 30
0.0
 11
-24.166
 21
-18.381
 31
0.0
  0
LINE
  5
28D
330
A
100
AcDbEntity
  8
PV
  6
Continuous
 62
     7
100
AcDbLine
 10
-24.166
 20
-18.381
 30
0.0
 11
-24.161
 21
-18.419
 31
0.0
  0
LINE
  5
28E
330
A
100
AcDbEntity
  8
PV
  6
Continuous
 62
     7
100
AcDbLine
 10
-24.161
 20
-18.419
 30
0.0
 11
-24.155
 21
-18.457
 31
0.0
  0
LINE
  5
28F
330
A
100
AcDbEntity
  8
PV
  6
Continuous
 62
     7
100
AcDbLine
 10
-24.155
 20
-18.457
 30
0.0
 11
-24.15
 21
-18.49599999999999
 31
0.0
  0
LINE
  5
290
330
A
100
AcDbEntity
  8
PV
  6
Continuous
 62
     7
100
AcDbLine
 10
-24.15
 20
-18.49599999999999
 30
0.0
 11
-24.144
 21
-18.534
 31
0.0
  0
LINE
  5
291
330
A
100
AcDbEntity
  8
PV
  6
Continuous
 62
     7
100
AcDbLine
 10
-24.144
 20
-18.534
 30
0.0
 11
-24.13899999999999
 21
-18.57199999999999
 31
0.0
  0
LINE
  5
292
330
A
100
AcDbEntity
  8
PV
  6
Continuous
 62
     7
100
AcDbLine
 10
-24.13899999999999
 20
-18.57199999999999
 30
0.0
 11
-24.133
 21
-18.60999999999999
 31
0.0
  0
LINE
  5
293
330
A
100
AcDbEntity
  8
PV
  6
Continuous
 62
     7
100
AcDbLine
 10
-24.133
 20
-18.60999999999999
 30
0.0
 11
-24.127
 21
-18.64799999999999
 31
0.0
  0
LINE
  5
294
330
A
100
AcDbEntity
  8
PV
  6
Continuous
 62
     7
100
AcDbLine
 10
-24.127
 20
-18.64799999999999
 30
0.0
 11
-24.121
 21
-18.68599999999999
 31
0.0
  0
LINE
  5
295
330
A
100
AcDbEntity
  8
PV
  6
Continuous
 62
     7
100
AcDbLine
 10
-24.121
 20
-18.68599999999999
 30
0.0
 11
-24.114
 21
-18.724
 31
0.0
  0
LINE
  5
296
330
A
100
AcDbEntity
  8
PV
  6
Continuous
 62
     7
100
AcDbLine
 10
-24.114
 20
-18.724
 30
0.0
 11
-24.108
 21
-18.762
 31
0.0
  0
LINE
  5
297
330
A
100
AcDbEntity
  8
PV
  6
Continuous
 62
     7
100
AcDbLine
 10
-24.108
 20
-18.762
 30
0.0
 11
-24.10099999999999
 21
-18.799
 31
0.0
  0
LINE
  5
298
330
A
100
AcDbEntity
  8
PV
  6
Continuous
 62
     7
100
AcDbLine
 10
-24.10099999999999
 20
-18.799
 30
0.0
 11
-24.094
 21
-18.837
 31
0.0
  0
LINE
  5
299
330
A
100
AcDbEntity
  8
PV
  6
Continuous
 62
     7
100
AcDbLine
 10
-24.094
 20
-18.837
 30
0.0
 11
-24.087
 21
-18.875
 31
0.0
  0
LINE
  5
29A
330
A
100
AcDbEntity
  8
PV
  6
Continuous
 62
     7
100
AcDbLine
 10
-24.087
 20
-18.875
 30
0.0
 11
-24.07999999999999
 21
-18.913
 31
0.0
  0
LINE
  5
29B
330
A
100
AcDbEntity
  8
PV
  6
Continuous
 62
     7
100
AcDbLine
 10
-24.07999999999999
 20
-18.913
 30
0.0
 11
-24.073
 21
-18.951
 31
0.0
  0
LINE
  5
29C
330
A
100
AcDbEntity
  8
PV
  6
Continuous
 62
     7
100
AcDbLine
 10
-24.073
 20
-18.951
 30
0.0
 11
-24.065
 21
-18.98799999999999
 31
0.0
  0
LINE
  5
29D
330
A
100
AcDbEntity
  8
PV
  6
Continuous
 62
     7
100
AcDbLine
 10
-24.065
 20
-18.98799999999999
 30
0.0
 11
-24.058
 21
-19.02599999999999
 31
0.0
  0
LINE
  5
29E
330
A
100
AcDbEntity
  8
PV
  6
Continuous
 62
     7
100
AcDbLine
 10
-24.058
 20
-19.02599999999999
 30
0.0
 11
-24.05
 21
-19.064
 31
0.0
  0
LINE
  5
29F
330
A
100
AcDbEntity
  8
PV
  6
Continuous
 62
     7
100
AcDbLine
 10
-24.05
 20
-19.064
 30
0.0
 11
-24.04199999999999
 21
-19.102
 31
0.0
  0
LINE
  5
2A0
330
A
100
AcDbEntity
  8
PV
  6
Continuous
 62
     7
100
AcDbLine
 10
-24.04199999999999
 20
-19.102
 30
0.0
 11
-24.034
 21
-19.13899999999999
 31
0.0
  0
LINE
  5
2A1
330
A
100
AcDbEntity
  8
PV
  6
Continuous
 62
     7
100
AcDbLine
 10
-24.034
 20
-19.13899999999999
 30
0.0
 11
-24.026
 21
-19.17699999999999
 31
0.0
  0
LINE
  5
2A2
330
A
100
AcDbEntity
  8
PV
  6
Continuous
 62
     7
100
AcDbLine
 10
-24.026
 20
-19.17699999999999
 30
0.0
 11
-24.01699999999999
 21
-19.214
 31
0.0
  0
LINE
  5
2A3
330
A
100
AcDbEntity
  8
PV
  6
Continuous
 62
     7
100
AcDbLine
 10
-24.01699999999999
 20
-19.214
 30
0.0
 11
-24.009
 21
-19.252
 31
0.0
  0
LINE
  5
2A4
330
A
100
AcDbEntity
  8
PV
  6
Continuous
 62
     7
100
AcDbLine
 10
-24.009
 20
-19.252
 30
0.0
 11
-24.0
 21
-19.289
 31
0.0
  0
LINE
  5
2A5
330
A
100
AcDbEntity
  8
PV
  6
Continuous
 62
     7
100
AcDbLine
 10
-24.0
 20
-19.289
 30
0.0
 11
-23.991
 21
-19.327
 31
0.0
  0
LINE
  5
2A6
330
A
100
AcDbEntity
  8
PV
  6
Continuous
 62
     7
100
AcDbLine
 10
-23.991
 20
-19.327
 30
0.0
 11
-23.982
 21
-19.364
 31
0.0
  0
LINE
  5
2A7
330
A
100
AcDbEntity
  8
PV
  6
Continuous
 62
     7
100
AcDbLine
 10
-23.982
 20
-19.364
 30
0.0
 11
-23.973
 21
-19.401
 31
0.0
  0
LINE
  5
2A8
330
A
100
AcDbEntity
  8
PV
  6
Continuous
 62
     7
100
AcDbLine
 10
-23.973
 20
-19.401
 30
0.0
 11
-23.963
 21
-19.439
 31
0.0
  0
LINE
  5
2A9
330
A
100
AcDbEntity
  8
PV
  6
Continuous
 62
     7
100
AcDbLine
 10
-23.963
 20
-19.439
 30
0.0
 11
-23.95399999999999
 21
-19.47599999999999
 31
0.0
  0
LINE
  5
2AA
330
A
100
AcDbEntity
  8
PV
  6
Continuous
 62
     7
100
AcDbLine
 10
-23.95399999999999
 20
-19.47599999999999
 30
0.0
 11
-23.944
 21
-19.51299999999999
 31
0.0
  0
LINE
  5
2AB
330
A
100
AcDbEntity
  8
PV
  6
Continuous
 62
     7
100
AcDbLine
 10
-23.944
 20
-19.51299999999999
 30
0.0
 11
-23.934
 21
-19.55
 31
0.0
  0
LINE
  5
2AC
330
A
100
AcDbEntity
  8
PV
  6
Continuous
 62
     7
100
AcDbLine
 10
-23.934
 20
-19.55
 30
0.0
 11
-23.92399999999999
 21
-19.587
 31
0.0
  0
LINE
  5
2AD
330
A
100
AcDbEntity
  8
PV
  6
Continuous
 62
     7
100
AcDbLine
 10
-23.92399999999999
 20
-19.587
 30
0.0
 11
-23.913
 21
-19.625
 31
0.0
  0
LINE
  5
2AE
330
A
100
AcDbEntity
  8
PV
  6
Continuous
 62
     7
100
AcDbLine
 10
-23.913
 20
-19.625
 30
0.0
 11
-23.903
 21
-19.66199999999999
 31
0.0
  0
LINE
  5
2AF
330
A
100
AcDbEntity
  8
PV
  6
Continuous
 62
     7
100
AcDbLine
 10
-23.903
 20
-19.66199999999999
 30
0.0
 11
-23.892
 21
-19.698
 31
0.0
  0
LINE
  5
2B0
330
A
100
AcDbEntity
  8
PV
  6
Continuous
 62
     7
100
AcDbLine
 10
-23.892
 20
-19.698
 30
0.0
 11
-23.881
 21
-19.73499999999999
 31
0.0
  0
LINE
  5
2B1
330
A
100
AcDbEntity
  8
PV
  6
Continuous
 62
     7
100
AcDbLine
 10
-23.881
 20
-19.73499999999999
 30
0.0
 11
-23.87
 21
-19.772
 31
0.0
  0
LINE
  5
2B2
330
A
100
AcDbEntity
  8
PV
  6
Continuous
 62
     7
100
AcDbLine
 10
-23.87
 20
-19.772
 30
0.0
 11
-23.859
 21
-19.809
 31
0.0
  0
LINE
  5
2B3
330
A
100
AcDbEntity
  8
PV
  6
Continuous
 62
     7
100
AcDbLine
 10
-23.859
 20
-19.809
 30
0.0
 11
-23.847
 21
-19.846
 31
0.0
  0
LINE
  5
2B4
330
A
100
AcDbEntity
  8
PV
  6
Continuous
 62
     7
100
AcDbLine
 10
-23.847
 20
-19.846
 30
0.0
 11
-23.835
 21
-19.882
 31
0.0
  0
LINE
  5
2B5
330
A
100
AcDbEntity
  8
PV
  6
Continuous
 62
     7
100
AcDbLine
 10
-23.835
 20
-19.882
 30
0.0
 11
-23.823
 21
-19.919
 31
0.0
  0
LINE
  5
2B6
330
A
100
AcDbEntity
  8
PV
  6
Continuous
 62
     7
100
AcDbLine
 10
-23.823
 20
-19.919
 30
0.0
 11
-23.81099999999999
 21
-19.95499999999999
 31
0.0
  0
LINE
  5
2B7
330
A
100
AcDbEntity
  8
PV
  6
Continuous
 62
     7
100
AcDbLine
 10
-23.81099999999999
 20
-19.95499999999999
 30
0.0
 11
-23.799
 21
-19.992
 31
0.0
  0
LINE
  5
2B8
330
A
100
AcDbEntity
  8
PV
  6
Continuous
 62
     7
100
AcDbLine
 10
-23.799
 20
-19.992
 30
0.0
 11
-23.786
 21
-20.028
 31
0.0
  0
LINE
  5
2B9
330
A
100
AcDbEntity
  8
PV
  6
Continuous
 62
     7
100
AcDbLine
 10
-23.786
 20
-20.028
 30
0.0
 11
-23.774
 21
-20.065
 31
0.0
  0
LINE
  5
2BA
330
A
100
AcDbEntity
  8
PV
  6
Continuous
 62
     7
100
AcDbLine
 10
-23.774
 20
-20.065
 30
0.0
 11
-23.761
 21
-20.10099999999999
 31
0.0
  0
LINE
  5
2BB
330
A
100
AcDbEntity
  8
PV
  6
Continuous
 62
     7
100
AcDbLine
 10
-23.761
 20
-20.10099999999999
 30
0.0
 11
-23.748
 21
-20.137
 31
0.0
  0
LINE
  5
2BC
330
A
100
AcDbEntity
  8
PV
  6
Continuous
 62
     7
100
AcDbLine
 10
-23.748
 20
-20.137
 30
0.0
 11
-23.734
 21
-20.173
 31
0.0
  0
LINE
  5
2BD
330
A
100
AcDbEntity
  8
PV
  6
Continuous
 62
     7
100
AcDbLine
 10
-23.734
 20
-20.173
 30
0.0
 11
-23.721
 21
-20.209
 31
0.0
  0
LINE
  5
2BE
330
A
100
AcDbEntity
  8
PV
  6
Continuous
 62
     7
100
AcDbLine
 10
-23.721
 20
-20.209
 30
0.0
 11
-23.70699999999999
 21
-20.245
 31
0.0
  0
LINE
  5
2BF
330
A
100
AcDbEntity
  8
PV
  6
Continuous
 62
     7
100
AcDbLine
 10
-23.70699999999999
 20
-20.245
 30
0.0
 11
-23.693
 21
-20.28099999999999
 31
0.0
  0
LINE
  5
2C0
330
A
100
AcDbEntity
  8
PV
  6
Continuous
 62
     7
100
AcDbLine
 10
-23.693
 20
-20.28099999999999
 30
0.0
 11
-23.679
 21
-20.317
 31
0.0
  0
LINE
  5
2C1
330
A
100
AcDbEntity
  8
PV
  6
Continuous
 62
     7
100
AcDbLine
 10
-23.679
 20
-20.317
 30
0.0
 11
-23.664
 21
-20.352
 31
0.0
  0
LINE
  5
2C2
330
A
100
AcDbEntity
  8
PV
  6
Continuous
 62
     7
100
AcDbLine
 10
-23.664
 20
-20.352
 30
0.0
 11
-23.649
 21
-20.38799999999999
 31
0.0
  0
LINE
  5
2C3
330
A
100
AcDbEntity
  8
PV
  6
Continuous
 62
     7
100
AcDbLine
 10
-23.649
 20
-20.38799999999999
 30
0.0
 11
-23.63399999999999
 21
-20.423
 31
0.0
  0
LINE
  5
2C4
330
A
100
AcDbEntity
  8
PV
  6
Continuous
 62
     7
100
AcDbLine
 10
-23.63399999999999
 20
-20.423
 30
0.0
 11
-23.61899999999999
 21
-20.459
 31
0.0
  0
LINE
  5
2C5
330
A
100
AcDbEntity
  8
PV
  6
Continuous
 62
     7
100
AcDbLine
 10
-23.61899999999999
 20
-20.459
 30
0.0
 11
-23.60399999999999
 21
-20.49399999999999
 31
0.0
  0
LINE
  5
2C6
330
A
100
AcDbEntity
  8
PV
  6
Continuous
 62
     7
100
AcDbLine
 10
-23.60399999999999
 20
-20.49399999999999
 30
0.0
 11
-23.588
 21
-20.529
 31
0.0
  0
LINE
  5
2C7
330
A
100
AcDbEntity
  8
PV
  6
Continuous
 62
     7
100
AcDbLine
 10
-23.588
 20
-20.529
 30
0.0
 11
-23.572
 21
-20.564
 31
0.0
  0
LINE
  5
2C8
330
A
100
AcDbEntity
  8
PV
  6
Continuous
 62
     7
100
AcDbLine
 10
-23.572
 20
-20.564
 30
0.0
 11
-23.55599999999999
 21
-20.599
 31
0.0
  0
LINE
  5
2C9
330
A
100
AcDbEntity
  8
PV
  6
Continuous
 62
     7
100
AcDbLine
 10
-23.55599999999999
 20
-20.599
 30
0.0
 11
-23.539
 21
-20.634
 31
0.0
  0
LINE
  5
2CA
330
A
100
AcDbEntity
  8
PV
  6
Continuous
 62
     7
100
AcDbLine
 10
-23.539
 20
-20.634
 30
0.0
 11
-23.52199999999999
 21
-20.668
 31
0.0
  0
LINE
  5
2CB
330
A
100
AcDbEntity
  8
PV
  6
Continuous
 62
     7
100
AcDbLine
 10
-23.52199999999999
 20
-20.668
 30
0.0
 11
-23.50499999999999
 21
-20.703
 31
0.0
  0
LINE
  5
2CC
330
A
100
AcDbEntity
  8
PV
  6
Continuous
 62
     7
100
AcDbLine
 10
-23.50499999999999
 20
-20.703
 30
0.0
 11
-23.488
 21
-20.737
 31
0.0
  0
LINE
  5
2CD
330
A
100
AcDbEntity
  8
PV
  6
Continuous
 62
     7
100
AcDbLine
 10
-23.488
 20
-20.737
 30
0.0
 11
-23.46999999999999
 21
-20.77199999999999
 31
0.0
  0
LINE
  5
2CE
330
A
100
AcDbEntity
  8
PV
  6
Continuous
 62
     7
100
AcDbLine
 10
-23.46999999999999
 20
-20.77199999999999
 30
0.0
 11
-23.453
 21
-20.806
 31
0.0
  0
LINE
  5
2CF
330
A
100
AcDbEntity
  8
PV
  6
Continuous
 62
     7
100
AcDbLine
 10
-23.453
 20
-20.806
 30
0.0
 11
-23.434
 21
-20.84
 31
0.0
  0
LINE
  5
2D0
330
A
100
AcDbEntity
  8
PV
  6
Continuous
 62
     7
100
AcDbLine
 10
-23.434
 20
-20.84
 30
0.0
 11
-23.416
 21
-20.874
 31
0.0
  0
LINE
  5
2D1
330
A
100
AcDbEntity
  8
PV
  6
Continuous
 62
     7
100
AcDbLine
 10
-23.416
 20
-20.874
 30
0.0
 11
-23.397
 21
-20.90699999999999
 31
0.0
  0
LINE
  5
2D2
330
A
100
AcDbEntity
  8
PV
  6
Continuous
 62
     7
100
AcDbLine
 10
-23.397
 20
-20.90699999999999
 30
0.0
 11
-23.378
 21
-20.941
 31
0.0
  0
LINE
  5
2D3
330
A
100
AcDbEntity
  8
PV
  6
Continuous
 62
     7
100
AcDbLine
 10
-23.378
 20
-20.941
 30
0.0
 11
-23.358
 21
-20.97399999999999
 31
0.0
  0
LINE
  5
2D4
330
A
100
AcDbEntity
  8
PV
  6
Continuous
 62
     7
100
AcDbLine
 10
-23.358
 20
-20.97399999999999
 30
0.0
 11
-23.339
 21
-21.00699999999999
 31
0.0
  0
LINE
  5
2D5
330
A
100
AcDbEntity
  8
PV
  6
Continuous
 62
     7
100
AcDbLine
 10
-23.339
 20
-21.00699999999999
 30
0.0
 11
-23.318
 21
-21.04
 31
0.0
  0
LINE
  5
2D6
330
A
100
AcDbEntity
  8
PV
  6
Continuous
 62
     7
100
AcDbLine
 10
-23.318
 20
-21.04
 30
0.0
 11
-23.298
 21
-21.072
 31
0.0
  0
LINE
  5
2D7
330
A
100
AcDbEntity
  8
PV
  6
Continuous
 62
     7
100
AcDbLine
 10
-23.298
 20
-21.072
 30
0.0
 11
-23.27699999999999
 21
-21.105
 31
0.0
  0
LINE
  5
2D8
330
A
100
AcDbEntity
  8
PV
  6
Continuous
 62
     7
100
AcDbLine
 10
-23.27699999999999
 20
-21.105
 30
0.0
 11
-23.256
 21
-21.13699999999999
 31
0.0
  0
LINE
  5
2D9
330
A
100
AcDbEntity
  8
PV
  6
Continuous
 62
     7
100
AcDbLine
 10
-23.256
 20
-21.13699999999999
 30
0.0
 11
-23.234
 21
-21.169
 31
0.0
  0
LINE
  5
2DA
330
A
100
AcDbEntity
  8
PV
  6
Continuous
 62
     7
100
AcDbLine
 10
-23.234
 20
-21.169
 30
0.0
 11
-23.212
 21
-21.2
 31
0.0
  0
LINE
  5
2DB
330
A
100
AcDbEntity
  8
PV
  6
Continuous
 62
     7
100
AcDbLine
 10
-23.212
 20
-21.2
 30
0.0
 11
-23.19
 21
-21.232
 31
0.0
  0
LINE
  5
2DC
330
A
100
AcDbEntity
  8
PV
  6
Continuous
 62
     7
100
AcDbLine
 10
-23.19
 20
-21.232
 30
0.0
 11
-23.16699999999999
 21
-21.263
 31
0.0
  0
LINE
  5
2DD
330
A
100
AcDbEntity
  8
PV
  6
Continuous
 62
     7
100
AcDbLine
 10
-23.16699999999999
 20
-21.263
 30
0.0
 11
-23.144
 21
-21.293
 31
0.0
  0
LINE
  5
2DE
330
A
100
AcDbEntity
  8
PV
  6
Continuous
 62
     7
100
AcDbLine
 10
-23.144
 20
-21.293
 30
0.0
 11
-23.12
 21
-21.324
 31
0.0
  0
LINE
  5
2DF
330
A
100
AcDbEntity
  8
PV
  6
Continuous
 62
     7
100
AcDbLine
 10
-23.12
 20
-21.324
 30
0.0
 11
-23.096
 21
-21.354
 31
0.0
  0
LINE
  5
2E0
330
A
100
AcDbEntity
  8
PV
  6
Continuous
 62
     7
100
AcDbLine
 10
-23.096
 20
-21.354
 30
0.0
 11
-23.07199999999999
 21
-21.383
 31
0.0
  0
LINE
  5
2E1
330
A
100
AcDbEntity
  8
PV
  6
Continuous
 62
     7
100
AcDbLine
 10
-181.6535419999999
 20
-146.3096919999999
 30
0.0
 11
-184.452597
 21
-148.549187
 31
0.0
  0
LINE
  5
2E2
330
A
100
AcDbEntity
  8
PV
  6
Continuous
 62
     7
100
AcDbLine
 10
-184.452597
 20
-148.549187
 30
0.0
 11
-183.148959
 21
-145.210212
 31
0.0
  0
LINE
  5
2E3
330
A
100
AcDbEntity
  8
PV
  6
Continuous
 62
     7
100
AcDbLine
 10
-195.7639999999999
 20
-145.5738959999999
 30
0.0
 11
-193.2019999999999
 21
-143.2448959999999
 31
0.0
  0
LINE
  5
2E4
330
A
100
AcDbEntity
  8
PV
  6
Continuous
 62
     7
100
AcDbLine
 10
-184.452597
 20
-148.549187
 30
0.0
 11
-120.5386159999999
 21
-61.63994200000001
 31
0.0
  0
MTEXT
  5
2E5
330
A
100
AcDbEntity
  8
PV
  6
Continuous
 62
     7
100
AcDbMText
 10
-140.9484879999999
 20
-74.302288
 30
0.0
 40
7.0
 41
0.0
 71
     2
 72
     1
  1
\A1;P.C.D 100
 11
0.5924512326446844
 21
0.8056063163467587
 31
0.0
 73
     1
 44
1.0
  0
LINE
  5
2E6
330
A
100
AcDbEntity
  8
PV
  6
Continuous
 62
     7
100
AcDbLine
 10
81.93099999999999
 20
160.5439999999999
 30
0.0
 11
82.85899999999999
 21
164.0059999999999
 31
0.0
  0
LINE
  5
2E7
330
A
100
AcDbEntity
  8
PV
  6
Continuous
 62
     7
100
AcDbLine
 10
82.85899999999999
 20
164.0059999999999
 30
0.0
 11
83.786
 21
160.5439999999999
 31
0.0
  0
LINE
  5
2E8
330
A
100
AcDbEntity
  8
PV
  6
Continuous
 62
     7
100
AcDbLine
 10
82.85899999999999
 20
164.0059999999999
 30
0.0
 11
82.85899999999999
 21
160.5439999999999
 31
0.0
  0
LINE
  5
2E9
330
A
100
AcDbEntity
  8
PV
  6
Continuous
 62
     7
100
AcDbLine
 10
83.786
 20
75.46899999999999
 30
0.0
 11
82.85899999999999
 21
72.006
 31
0.0
  0
LINE
  5
2EA
330
A
100
AcDbEntity
  8
PV
  6
Continuous
 62
     7
100
AcDbLine
 10
82.85899999999999
 20
72.006
 30
0.0
 11
81.93099999999999
 21
75.46899999999999
 31
0.0
  0
LINE
  5
2EB
330
A
100
AcDbEntity
  8
PV
  6
Continuous
 62
     7
100
AcDbLine
 10
82.85899999999999
 20
72.006
 30
0.0
 11
82.85899999999999
 21
75.46899999999999
 31
0.0
  0
LINE
  5
2EC
330
A
100
AcDbEntity
  8
PV
  6
Continuous
 62
     7
100
AcDbLine
 10
82.85899999999999
 20
164.0059999999999
 30
0.0
 11
82.85899999999999
 21
72.006
 31
0.0
  0
LINE
  5
2ED
330
A
100
AcDbEntity
  8
PV
  6
Continuous
 62
     7
100
AcDbLine
 10
47.27199999999999
 20
164.0059999999999
 30
0.0
 11
85.71600000000001
 21
164.0059999999999
 31
0.0
  0
LINE
  5
2EE
330
A
100
AcDbEntity
  8
PV
  6
Continuous
 62
     7
100
AcDbLine
 10
48.349
 20
72.006
 30
0.0
 11
85.71600000000001
 21
72.006
 31
0.0
  0
MTEXT
  5
2EF
330
A
100
AcDbEntity
  8
PV
  6
Continuous
 62
     7
100
AcDbMText
 10
74.60899999999999
 20
118.006
 30
0.0
 40
7.0
 41
0.0
 71
     2
 72
     1
  1
\T0.823;\W1.177;\A1;□92
 11
0.0
 21
1.0
 31
0.0
 73
     1
 44
1.0
  0
LWPOLYLINE
  5
2F0
330
A
100
AcDbEntity
  8
PV
  6
Continuous
 62
     7
100
AcDbPolyline
 90
       73
 70
     0
 43
0.0
 10
25.456
 20
-17.0
 10
25.459
 20
-17.262
 10
25.46699999999999
 20
-17.52299999999999
 10
25.482
 20
-17.783
 10
25.501
 20
-18.042
 10
25.52699999999999
 20
-18.299
 10
25.558
 20
-18.553
 10
25.59499999999999
 20
-18.804
 10
25.63699999999999
 20
-19.05199999999999
 10
25.684
 20
-19.29599999999999
 10
25.737
 20
-19.53599999999999
 10
25.795
 20
-19.77
 10
25.858
 20
-20.0
 10
25.926
 20
-20.224
 10
25.998
 20
-20.44099999999999
 10
26.076
 20
-20.653
 10
26.158
 20
-20.857
 10
26.244
 20
-21.054
 10
26.335
 20
-21.243
 10
26.429
 20
-21.42399999999999
 10
26.528
 20
-21.596
 10
26.63
 20
-21.76
 10
26.735
 20
-21.915
 10
26.844
 20
-22.05999999999999
 10
26.956
 20
-22.19599999999999
 10
27.071
 20
-22.322
 10
27.188
 20
-22.438
 10
27.308
 20
-22.543
 10
27.43
 20
-22.638
 10
27.554
 20
-22.72199999999999
 10
27.679
 20
-22.79599999999999
 10
27.80699999999999
 20
-22.858
 10
27.93499999999999
 20
-22.909
 10
28.064
 20
-22.949
 10
28.194
 20
-22.97699999999999
 10
28.32499999999999
 20
-22.99399999999999
 10
28.456
 20
-23.0
 10
28.587
 20
-22.99399999999999
 10
28.717
 20
-22.97699999999999
 10
28.847
 20
-22.949
 10
28.977
 20
-22.909
 10
29.105
 20
-22.858
 10
29.23199999999999
 20
-22.79599999999999
 10
29.358
 20
-22.72199999999999
 10
29.48199999999999
 20
-22.638
 10
29.60399999999999
 20
-22.543
 10
29.724
 20
-22.438
 10
29.84099999999999
 20
-22.322
 10
29.95599999999999
 20
-22.19599999999999
 10
30.068
 20
-22.05999999999999
 10
30.177
 20
-21.915
 10
30.282
 20
-21.76
 10
30.384
 20
-21.596
 10
30.483
 20
-21.42399999999999
 10
30.577
 20
-21.243
 10
30.668
 20
-21.054
 10
30.754
 20
-20.857
 10
30.836
 20
-20.653
 10
30.913
 20
-20.44099999999999
 10
30.986
 20
-20.224
 10
31.054
 20
-20.0
 10
31.11699999999999
 20
-19.77
 10
31.175
 20
-19.53599999999999
 10
31.228
 20
-19.29599999999999
 10
31.27499999999999
 20
-19.05199999999999
 10
31.31699999999999
 20
-18.804
 10
31.354
 20
-18.553
 10
31.385
 20
-18.299
 10
31.41
 20
-18.042
 10
31.43
 20
-17.783
 10
31.444
 20
-17.52299999999999
 10
31.453
 20
-17.262
 10
31.45599999999999
 20
-17.0
  0
LWPOLYLINE
  5
2F1
330
A
100
AcDbEntity
  8
PV
  6
Continuous
 62
     7
100
AcDbPolyline
 90
       73
 70
     0
 43
0.0
 10
-25.456
 20
-17.0
 10
-25.453
 20
-17.262
 10
-25.444
 20
-17.52299999999999
 10
-25.43
 20
-17.783
 10
-25.41
 20
-18.042
 10
-25.385
 20
-18.299
 10
-25.354
 20
-18.553
 10
-25.31699999999999
 20
-18.804
 10
-25.27499999999999
 20
-19.05199999999999
 10
-25.22699999999999
 20
-19.29599999999999
 10
-25.175
 20
-19.53599999999999
 10
-25.11699999999999
 20
-19.77
 10
-25.054
 20
-20.0
 10
-24.986
 20
-20.224
 10
-24.913
 20
-20.44099999999999
 10
-24.836
 20
-20.653
 10
-24.754
 20
-20.857
 10
-24.668
 20
-21.054
 10
-24.57699999999999
 20
-21.243
 10
-24.483
 20
-21.42399999999999
 10
-24.384
 20
-21.596
 10
-24.28199999999999
 20
-21.76
 10
-24.17699999999999
 20
-21.915
 10
-24.068
 20
-22.05999999999999
 10
-23.95599999999999
 20
-22.19599999999999
 10
-23.84099999999999
 20
-22.322
 10
-23.724
 20
-22.438
 10
-23.60399999999999
 20
-22.543
 10
-23.48199999999999
 20
-22.638
 10
-23.358
 20
-22.72199999999999
 10
-23.23199999999999
 20
-22.79599999999999
 10
-23.105
 20
-22.858
 10
-22.97699999999999
 20
-22.909
 10
-22.84699999999999
 20
-22.949
 10
-22.717
 20
-22.97699999999999
 10
-22.587
 20
-22.99399999999999
 10
-22.456
 20
-23.0
 10
-22.32499999999999
 20
-22.99399999999999
 10
-22.194
 20
-22.97699999999999
 10
-22.06399999999999
 20
-22.949
 10
-21.93499999999999
 20
-22.909
 10
-21.80699999999999
 20
-22.858
 10
-21.679
 20
-22.79599999999999
 10
-21.554
 20
-22.72199999999999
 10
-21.43
 20
-22.638
 10
-21.308
 20
-22.543
 10
-21.188
 20
-22.438
 10
-21.07099999999999
 20
-22.322
 10
-20.956
 20
-22.19599999999999
 10
-20.844
 20
-22.05999999999999
 10
-20.735
 20
-21.915
 10
-20.63
 20
-21.76
 10
-20.52699999999999
 20
-21.596
 10
-20.429
 20
-21.42399999999999
 10
-20.335
 20
-21.243
 10
-20.24399999999999
 20
-21.054
 10
-20.158
 20
-20.857
 10
-20.076
 20
-20.653
 10
-19.998
 20
-20.44099999999999
 10
-19.92599999999999
 20
-20.224
 10
-19.858
 20
-20.0
 10
-19.795
 20
-19.77
 10
-19.737
 20
-19.53599999999999
 10
-19.684
 20
-19.29599999999999
 10
-19.637
 20
-19.05199999999999
 10
-19.595
 20
-18.804
 10
-19.55799999999999
 20
-18.553
 10
-19.527
 20
-18.299
 10
-19.50099999999999
 20
-18.042
 10
-19.48099999999999
 20
-17.783
 10
-19.46699999999999
 20
-17.52299999999999
 10
-19.45899999999999
 20
-17.262
 10
-19.45599999999999
 20
-17.0
  0
ARC
  5
2F2
330
A
100
AcDbEntity
  8
PV
  6
Continuous
 62
     7
100
AcDbCircle
 10
-24.078
 20
-5.0
 30
0.0
 40
2.0
100
AcDbArc
 50
90.00000300000001
 51
177.7093919999999
  0
ARC
  5
2F3
330
A
100
AcDbEntity
  8
PV
  6
Continuous
 62
     7
100
AcDbCircle
 10
-22.5
 20
-3.0
 30
0.0
 40
1.0
100
AcDbArc
 50
90.00000300000001
 51
180.000005
  0
ARC
  5
2F4
330
A
100
AcDbEntity
  8
PV
  6
Continuous
 62
     7
100
AcDbCircle
 10
28.5
 20
-3.0
 30
0.0
 40
1.0
100
AcDbArc
 50
0.0
 51
90.00000300000001
  0
ARC
  5
2F5
330
A
100
AcDbEntity
  8
PV
  6
Continuous
 62
     7
100
AcDbCircle
 10
30.078
 20
-5.0
 30
0.0
 40
2.0
100
AcDbArc
 50
2.29061
 51
90.00000300000001
  0
ARC
  5
2F6
330
A
100
AcDbEntity
  8
PV
  6
Continuous
 62
     7
100
AcDbCircle
 10
36.0
 20
-36.0
 30
0.0
 40
5.0
100
AcDbArc
 50
179.9999909999999
 51
270.000001
  0
ARC
  5
2F7
330
A
100
AcDbEntity
  8
PV
  6
Continuous
 62
     7
100
AcDbCircle
 10
-30.0
 20
-36.0
 30
0.0
 40
5.0
100
AcDbArc
 50
269.9999969999999
 51
0.0
  0
ARC
  5
2F9
330
A
100
AcDbEntity
  8
PV
  6
PHANTOM
 62
     7
100
AcDbCircle
 10
28.5
 20
17.0
 30
0.0
 40
1.0
100
AcDbArc
 50
0.0
 51
90.00000300000001
  0
ARC
  5
2FA
330
A
100
AcDbEntity
  8
PV
  6
PHANTOM
 62
     7
100
AcDbCircle
 10
-22.5
 20
17.0
 30
0.0
 40
1.0
100
AcDbArc
 50
90.00000300000001
 51
180.000005
  0
ARC
  5
2FB
330
A
100
AcDbEntity
  8
PV
  6
Continuous
 62
     7
100
AcDbCircle
 10
3.0
 20
-17.0
 30
0.0
 40
6.0
100
AcDbArc
 50
269.9999969999999
 51
0.0
  0
ARC
  5
2FC
330
A
100
AcDbEntity
  8
PV
  6
Continuous
 62
     7
100
AcDbCircle
 10
3.0
 20
-17.0
 30
0.0
 40
6.0
100
AcDbArc
 50
179.9999909999999
 51
270.000001
  0
ARC
  5
2FD
330
A
100
AcDbEntity
  8
PV
  6
PHANTOM
 62
     7
100
AcDbCircle
 10
30.078
 20
15.0
 30
0.0
 40
2.0
100
AcDbArc
 50
2.29061
 51
90.00000300000001
  0
ARC
  5
2FE
330
A
100
AcDbEntity
  8
PV
  6
PHANTOM
 62
     7
100
AcDbCircle
 10
-24.078
 20
15.0
 30
0.0
 40
2.0
100
AcDbArc
 50
90.00000300000001
 51
177.7093919999999
  0
ARC
  5
2FF
330
A
100
AcDbEntity
  8
PV
  6
Continuous
 62
     7
100
AcDbCircle
 10
-74.205
 20
-108.4999999999999
 30
0.0
 40
44.55
100
AcDbArc
 50
317.2335219999999
 51
42.766482
  0
ARC
  5
300
330
A
100
AcDbEntity
  8
PV
  6
Continuous
 62
     7
100
AcDbCircle
 10
3.0
 20
118.006
 30
0.0
 40
60.0
100
AcDbArc
 50
230.055501
 51
309.9445039999999
  0
ARC
  5
301
330
A
100
AcDbEntity
  8
PV
  6
Continuous
 62
     7
100
AcDbCircle
 10
3.0
 20
118.006
 30
0.0
 40
60.0
100
AcDbArc
 50
320.055496
 51
39.94450399999999
  0
ARC
  5
302
330
A
100
AcDbEntity
  8
PV
  6
Continuous
 62
     7
100
AcDbCircle
 10
3.0
 20
118.006
 30
0.0
 40
60.0
100
AcDbArc
 50
50.055506
 51
129.944499
  0
ARC
  5
303
330
A
100
AcDbEntity
  8
PV
  6
Continuous
 62
     7
100
AcDbCircle
 10
3.0
 20
118.006
 30
0.0
 40
60.0
100
AcDbArc
 50
140.0555009999999
 51
149.7239889999999
  0
ARC
  5
304
330
A
100
AcDbEntity
  8
PV
  6
Continuous
 62
     7
100
AcDbCircle
 10
3.0
 20
118.006
 30
0.0
 40
60.0
100
AcDbArc
 50
210.276079
 51
219.944499
  0
CIRCLE
  5
305
330
A
100
AcDbEntity
  8
PV
  6
Continuous
 62
     7
100
AcDbCircle
 10
-190.3549999999999
 20
-73.14499999999999
 30
0.0
 40
5.0
  0
CIRCLE
  5
306
330
A
100
AcDbEntity
  8
PV
  6
Continuous
 62
     7
100
AcDbCircle
 10
-190.3549999999999
 20
-143.855
 30
0.0
 40
5.0
  0
ARC
  5
308
330
A
100
AcDbEntity
  8
PV
  6
CENTER
 62
     7
100
AcDbCircle
 10
-155.0
 20
-108.4999999999999
 30
0.0
 40
50.0
100
AcDbArc
 50
90.00000300000001
 51
270.000001
  0
ARC
  5
309
330
A
100
AcDbEntity
  8
PV
  6
Continuous
 62
     7
100
AcDbCircle
 10
3.0
 20
118.006
 30
0.0
 40
61.0
100
AcDbArc
 50
131.053339
 51
138.946661
  0
ARC
  5
30A
330
A
100
AcDbEntity
  8
PV
  6
Continuous
 62
     7
100
AcDbCircle
 10
3.0
 20
118.006
 30
0.0
 40
61.0
100
AcDbArc
 50
311.053352
 51
318.946649
  0
ARC
  5
30B
330
A
100
AcDbEntity
  8
PV
  6
Continuous
 62
     7
100
AcDbCircle
 10
3.0
 20
118.006
 30
0.0
 40
61.0
100
AcDbArc
 50
221.053339
 51
228.946647
  0
ARC
  5
30C
330
A
100
AcDbEntity
  8
PV
  6
Continuous
 62
     7
100
AcDbCircle
 10
3.0
 20
118.006
 30
0.0
 40
61.0
100
AcDbArc
 50
41.053351
 51
48.946659
  0
CIRCLE
  5
30D
330
A
100
AcDbEntity
  8
PV
  6
Continuous
 62
     7
100
AcDbCircle
 10
38.5
 20
82.506
 30
0.0
 40
7.5
  0
CIRCLE
  5
30E
330
A
100
AcDbEntity
  8
PV
  6
Continuous
 62
     7
100
AcDbCircle
 10
38.5
 20
153.506
 30
0.0
 40
7.5
  0
CIRCLE
  5
30F
330
A
100
AcDbEntity
  8
PV
  6
Continuous
 62
     7
100
AcDbCircle
 10
-32.5
 20
153.506
 30
0.0
 40
7.5
  0
CIRCLE
  5
310
330
A
100
AcDbEntity
  8
PV
  6
Continuous
 62
     7
100
AcDbCircle
 10
-32.5
 20
82.506
 30
0.0
 40
7.5
  0
ARC
  5
311
330
A
100
AcDbEntity
  8
PV
  6
Continuous
 62
   254
100
AcDbCircle
 10
3.0
 20
118.006
 30
0.0
 40
29.0
100
AcDbArc
 50
161.90891
 51
198.091086
  0
ARC
  5
312
330
A
100
AcDbEntity
  8
PV
  6
Continuous
 62
   254
100
AcDbCircle
 10
-24.432
 20
108.5199999999999
 30
0.0
 40
0.5
100
AcDbArc
 50
30.000001
 51
120.0000029999999
  0
ARC
  5
313
330
A
100
AcDbEntity
  8
PV
  6
Continuous
 62
   254
100
AcDbCircle
 10
-24.432
 20
127.4929999999999
 30
0.0
 40
0.5
100
AcDbArc
 50
239.999997
 51
329.9999989999999
  0
ARC
  5
314
330
A
100
AcDbEntity
  8
PV
  6
Continuous
 62
   254
100
AcDbCircle
 10
-18.932
 20
137.02
 30
0.0
 40
0.5
100
AcDbArc
 50
329.9999989999999
 51
60.000002
  0
ARC
  5
315
330
A
100
AcDbEntity
  8
PV
  6
Continuous
 62
   254
100
AcDbCircle
 10
3.0
 20
118.006
 30
0.0
 40
29.0
100
AcDbArc
 50
101.908915
 51
138.091084
  0
ARC
  5
316
330
A
100
AcDbEntity
  8
PV
  6
Continuous
 62
   254
100
AcDbCircle
 10
-2.5
 20
146.506
 30
0.0
 40
0.5
100
AcDbArc
 50
179.9999909999999
 51
270.000001
  0
ARC
  5
317
330
A
100
AcDbEntity
  8
PV
  6
Continuous
 62
   254
100
AcDbCircle
 10
8.5
 20
146.506
 30
0.0
 40
0.5
100
AcDbArc
 50
269.9999969999999
 51
0.0
  0
ARC
  5
318
330
A
100
AcDbEntity
  8
PV
  6
Continuous
 62
   254
100
AcDbCircle
 10
3.0
 20
118.006
 30
0.0
 40
29.0
100
AcDbArc
 50
41.908914
 51
78.091083
  0
ARC
  5
319
330
A
100
AcDbEntity
  8
PV
  6
Continuous
 62
   254
100
AcDbCircle
 10
24.93199999999999
 20
137.02
 30
0.0
 40
0.5
100
AcDbArc
 50
120.0000029999999
 51
209.999999
  0
ARC
  5
31A
330
A
100
AcDbEntity
  8
PV
  6
Continuous
 62
   254
100
AcDbCircle
 10
30.432
 20
127.4929999999999
 30
0.0
 40
0.5
100
AcDbArc
 50
210.0000029999999
 51
299.999998
  0
ARC
  5
31B
330
A
100
AcDbEntity
  8
PV
  6
Continuous
 62
   254
100
AcDbCircle
 10
3.0
 20
118.006
 30
0.0
 40
29.0
100
AcDbArc
 50
341.908914
 51
18.09108599999999
  0
ARC
  5
31C
330
A
100
AcDbEntity
  8
PV
  6
Continuous
 62
   254
100
AcDbCircle
 10
30.432
 20
108.5199999999999
 30
0.0
 40
0.5
100
AcDbArc
 50
60.000002
 51
149.999997
  0
ARC
  5
31D
330
A
100
AcDbEntity
  8
PV
  6
Continuous
 62
   254
100
AcDbCircle
 10
24.93199999999999
 20
98.993
 30
0.0
 40
0.5
100
AcDbArc
 50
149.999997
 51
240.0000069999999
  0
CIRCLE
  5
31E
330
A
100
AcDbEntity
  8
PV
  6
Continuous
 62
   254
100
AcDbCircle
 10
3.0
 20
118.006
 30
0.0
 40
30.0
  0
ARC
  5
31F
330
A
100
AcDbEntity
  8
PV
  6
Continuous
 62
   254
100
AcDbCircle
 10
3.0
 20
118.006
 30
0.0
 40
29.0
100
AcDbArc
 50
221.908916
 51
258.059454
  0
ARC
  5
320
330
A
100
AcDbEntity
  8
PV
  6
Continuous
 62
   254
100
AcDbCircle
 10
8.5
 20
89.50599999999999
 30
0.0
 40
0.5
100
AcDbArc
 50
0.0
 51
90.00000300000001
  0
ARC
  5
321
330
A
100
AcDbEntity
  8
PV
  6
Continuous
 62
   254
100
AcDbCircle
 10
-2.5
 20
89.50599999999999
 30
0.0
 40
0.5
100
AcDbArc
 50
90.00000300000001
 51
180.000005
  0
CIRCLE
  5
322
330
A
100
AcDbEntity
  8
PV
  6
Continuous
 62
   254
100
AcDbCircle
 10
3.0
 20
118.006
 30
0.0
 40
26.5
  0
ARC
  5
323
330
A
100
AcDbEntity
  8
PV
  6
Continuous
 62
   254
100
AcDbCircle
 10
3.0
 20
118.006
 30
0.0
 40
29.0
100
AcDbArc
 50
281.9405409999999
 51
318.0910859999999
  0
ARC
  5
324
330
A
100
AcDbEntity
  8
PV
  6
Continuous
 62
   254
100
AcDbCircle
 10
-18.932
 20
98.993
 30
0.0
 40
0.5
100
AcDbArc
 50
299.999998
 51
30.000001
  0
LINE
  5
326
330
A
100
AcDbEntity
  8
PV
  6
DASHED
 62
     7
100
AcDbLine
 10
-77.0
 20
75.506
 30
0.0
 11
-77.0
 21
70.506
 31
0.0
  0
LINE
  5
327
330
A
100
AcDbEntity
  8
PV
  6
DASHED
 62
     7
100
AcDbLine
 10
-80.0
 20
70.506
 30
0.0
 11
-77.0
 21
70.506
 31
0.0
  0
LINE
  5
328
330
A
100
AcDbEntity
  8
PV
  6
DASHED
 62
     7
100
AcDbLine
 10
-80.0
 20
75.506
 30
0.0
 11
-77.0
 21
75.506
 31
0.0
  0
LINE
  5
329
330
A
100
AcDbEntity
  8
PV
  6
DASHED
 62
     7
100
AcDbLine
 10
-77.0
 20
160.5059999999999
 30
0.0
 11
-77.0
 21
165.5059999999999
 31
0.0
  0
LINE
  5
32A
330
A
100
AcDbEntity
  8
PV
  6
DASHED
 62
     7
100
AcDbLine
 10
-80.0
 20
160.5059999999999
 30
0.0
 11
-77.0
 21
160.5059999999999
 31
0.0
  0
LINE
  5
32B
330
A
100
AcDbEntity
  8
PV
  6
DASHED
 62
     7
100
AcDbLine
 10
-80.0
 20
165.5059999999999
 30
0.0
 11
-77.0
 21
165.5059999999999
 31
0.0
  0
LINE
  5
32C
330
A
100
AcDbEntity
  8
PV
  6
DASHED
 62
     7
100
AcDbLine
 10
-77.0
 20
-66.0
 30
0.0
 11
-77.0
 21
-61.0
 31
0.0
  0
LINE
  5
32D
330
A
100
AcDbEntity
  8
PV
  6
DASHED
 62
     7
100
AcDbLine
 10
-80.0
 20
-66.0
 30
0.0
 11
-77.0
 21
-66.0
 31
0.0
  0
LINE
  5
32E
330
A
100
AcDbEntity
  8
PV
  6
DASHED
 62
     7
100
AcDbLine
 10
-80.0
 20
-61.0
 30
0.0
 11
-77.0
 21
-61.0
 31
0.0
  0
LINE
  5
32F
330
A
100
AcDbEntity
  8
PV
  6
DASHED
 62
     7
100
AcDbLine
 10
-77.0
 20
-151.0
 30
0.0
 11
-77.0
 21
-156.0
 31
0.0
  0
LINE
  5
330
330
A
100
AcDbEntity
  8
PV
  6
DASHED
 62
     7
100
AcDbLine
 10
-80.0
 20
-156.0
 30
0.0
 11
-77.0
 21
-156.0
 31
0.0
  0
LINE
  5
331
330
A
100
AcDbEntity
  8
PV
  6
DASHED
 62
     7
100
AcDbLine
 10
-80.0
 20
-151.0
 30
0.0
 11
-77.0
 21
-151.0
 31
0.0
  0
LINE
  5
332
330
A
100
AcDbEntity
  8
PV
  6
Continuous
 62
     7
100
AcDbLine
 10
-71.0
 20
178.0059999999999
 30
0.0
 11
-71.0
 21
58.006
 31
0.0
  0
LINE
  5
333
330
A
100
AcDbEntity
  8
PV
  6
Continuous
 62
     7
100
AcDbLine
 10
-79.5
 20
178.0059999999999
 30
0.0
 11
-79.5
 21
58.006
 31
0.0
  0
LINE
  5
334
330
A
100
AcDbEntity
  8
PV
  6
Continuous
 62
     7
100
AcDbLine
 10
-71.0
 20
-48.5
 30
0.0
 11
-71.0
 21
-168.5
 31
0.0
  0
LINE
  5
335
330
A
100
AcDbEntity
  8
PV
  6
Continuous
 62
     7
100
AcDbLine
 10
-79.5
 20
-48.5
 30
0.0
 11
-79.5
 21
-168.5
 31
0.0
  0
LINE
  5
336
330
A
100
AcDbEntity
  8
PV
  6
Continuous
 62
     7
100
AcDbLine
 10
-57.0
 20
-191.0
 30
0.0
 11
63.0
 21
-191.0
 31
0.0
  0
LINE
  5
337
330
A
100
AcDbEntity
  8
PV
  6
Continuous
 62
     7
100
AcDbLine
 10
-57.0
 20
-182.5
 30
0.0
 11
63.0
 21
-182.5
 31
0.0
  0
LINE
  5
338
330
A
100
AcDbEntity
  8
PV
  6
CENTER
 62
     7
100
AcDbLine
 10
53.0
 20
-168.564
 30
0.0
 11
53.0
 21
-194.3849999999999
 31
0.0
  0
LINE
  5
339
330
A
100
AcDbEntity
  8
PV
  6
CENTER
 62
     7
100
AcDbLine
 10
-47.0
 20
-168.077
 30
0.0
 11
-47.0
 21
-193.407
 31
0.0
  0
LINE
  5
33A
330
A
100
AcDbEntity
  8
PV
  6
Continuous
 62
     7
100
AcDbLine
 10
33.25
 20
-181.4999999999999
 30
0.0
 11
33.25
 21
-151.0
 31
0.0
  0
LINE
  5
33B
330
A
100
AcDbEntity
  8
PV
  6
Continuous
 62
     7
100
AcDbLine
 10
62.0
 20
-181.4999999999999
 30
0.0
 11
63.0
 21
-182.5
 31
0.0
  0
LINE
  5
33C
330
A
100
AcDbEntity
  8
PV
  6
Continuous
 62
     7
100
AcDbLine
 10
63.0
 20
-191.0
 30
0.0
 11
62.5
 21
-191.5
 31
0.0
  0
LINE
  5
33D
330
A
100
AcDbEntity
  8
PV
  6
Continuous
 62
     7
100
AcDbLine
 10
63.0
 20
-182.5
 30
0.0
 11
63.0
 21
-191.0
 31
0.0
  0
LINE
  5
33E
330
A
100
AcDbEntity
  8
PV
  6
Continuous
 62
     7
100
AcDbLine
 10
-56.0
 20
-181.4999999999999
 30
0.0
 11
-57.0
 21
-182.5
 31
0.0
  0
LINE
  5
33F
330
A
100
AcDbEntity
  8
PV
  6
Continuous
 62
     7
100
AcDbLine
 10
-57.0
 20
-191.0
 30
0.0
 11
-56.5
 21
-191.5
 31
0.0
  0
LINE
  5
340
330
A
100
AcDbEntity
  8
PV
  6
Continuous
 62
     7
100
AcDbLine
 10
-57.0
 20
-182.5
 30
0.0
 11
-57.0
 21
-191.0
 31
0.0
  0
LINE
  5
341
330
A
100
AcDbEntity
  8
PV
  6
Continuous
 62
     7
100
AcDbLine
 10
-56.0
 20
-181.4999999999999
 30
0.0
 11
62.0
 21
-181.4999999999999
 31
0.0
  0
LINE
  5
342
330
A
100
AcDbEntity
  8
PV
  6
Continuous
 62
     7
100
AcDbLine
 10
-56.5
 20
-191.5
 30
0.0
 11
62.28
 21
-191.5
 31
0.0
  0
LINE
  5
343
330
A
100
AcDbEntity
  8
PV
  6
Continuous
 62
     7
100
AcDbLine
 10
-27.25
 20
-181.4999999999999
 30
0.0
 11
-27.25
 21
-151.0
 31
0.0
  0
LINE
  5
344
330
A
100
AcDbEntity
  8
PV
  6
Continuous
 62
     7
100
AcDbLine
 10
47.5
 20
-142.0
 30
0.0
 11
-41.5
 21
-142.0
 31
0.0
  0
LINE
  5
345
330
A
100
AcDbEntity
  8
PV
  6
Continuous
 62
     7
100
AcDbLine
 10
-32.5
 20
-151.0
 30
0.0
 11
-41.5
 21
-142.0
 31
0.0
  0
LINE
  5
346
330
A
100
AcDbEntity
  8
PV
  6
Continuous
 62
     7
100
AcDbLine
 10
47.5
 20
-142.0
 30
0.0
 11
38.5
 21
-151.0
 31
0.0
  0
LINE
  5
347
330
A
100
AcDbEntity
  8
PV
  6
CENTER
 62
     7
100
AcDbLine
 10
37.0
 20
-37.02199999999999
 30
0.0
 11
37.0
 21
-75.756
 31
0.0
  0
LINE
  5
348
330
A
100
AcDbEntity
  8
PV
  6
CENTER
 62
     7
100
AcDbLine
 10
-31.0
 20
-37.305
 30
0.0
 11
-31.0
 21
-75.191
 31
0.0
  0
LINE
  5
349
330
A
100
AcDbEntity
  8
PV
  6
Continuous
 62
     7
100
AcDbLine
 10
-36.0
 20
-41.0
 30
0.0
 11
-36.0
 21
-72.0
 31
0.0
  0
LINE
  5
34A
330
A
100
AcDbEntity
  8
PV
  6
Continuous
 62
     7
100
AcDbLine
 10
42.0
 20
-41.0
 30
0.0
 11
42.0
 21
-59.0
 31
0.0
  0
LINE
  5
34B
330
A
100
AcDbEntity
  8
PV
  6
Continuous
 62
     7
100
AcDbLine
 10
48.0
 20
-41.0
 30
0.0
 11
48.0
 21
-59.0
 31
0.0
  0
LINE
  5
34C
330
A
100
AcDbEntity
  8
PV
  6
Continuous
 62
     7
100
AcDbLine
 10
-42.0
 20
-41.0
 30
0.0
 11
-42.0
 21
-59.0
 31
0.0
  0
LINE
  5
34D
330
A
100
AcDbEntity
  8
PV
  6
Continuous
 62
     7
100
AcDbLine
 10
42.0
 20
-59.15600000000001
 30
0.0
 11
42.0
 21
-72.0
 31
0.0
  0
LINE
  5
34E
330
A
100
AcDbEntity
  8
PV
  6
Continuous
 62
     7
100
AcDbLine
 10
-42.0
 20
-59.15600000000001
 30
0.0
 11
-42.0
 21
-72.0
 31
0.0
  0
LINE
  5
34F
330
A
100
AcDbEntity
  8
PV
  6
Continuous
 62
     7
100
AcDbLine
 10
48.0
 20
-59.15600000000001
 30
0.0
 11
48.0
 21
-72.0
 31
0.0
  0
LINE
  5
350
330
A
100
AcDbEntity
  8
PV
  6
Continuous
 62
     7
100
AcDbLine
 10
-41.5
 20
-72.0
 30
0.0
 11
-41.5
 21
-78.25
 31
0.0
  0
LINE
  5
351
330
A
100
AcDbEntity
  8
PV
  6
Continuous
 62
     7
100
AcDbLine
 10
-41.5
 20
-138.7499999999999
 30
0.0
 11
-41.5
 21
-142.0
 31
0.0
  0
LINE
  5
352
330
A
100
AcDbEntity
  8
PV
  6
Continuous
 62
     7
100
AcDbLine
 10
47.5
 20
-72.0
 30
0.0
 11
47.5
 21
-142.0
 31
0.0
  0
LINE
  5
353
330
A
100
AcDbEntity
  8
PV
  6
Continuous
 62
     7
100
AcDbLine
 10
-22.5
 20
-2.0
 30
0.0
 11
28.5
 21
-2.0
 31
0.0
  0
LINE
  5
354
330
A
100
AcDbEntity
  8
PV
  6
Continuous
 62
     7
100
AcDbLine
 10
-24.078
 20
-3.0
 30
0.0
 11
30.078
 21
-3.0
 31
0.0
  0
LINE
  5
355
330
A
100
AcDbEntity
  8
PV
  6
Continuous
 62
     7
100
AcDbLine
 10
32.07699999999999
 20
-4.919999999999999
 30
0.0
 11
33.0
 21
-28.0
 31
0.0
  0
LINE
  5
356
330
A
100
AcDbEntity
  8
PV
  6
Continuous
 62
     7
100
AcDbLine
 10
-27.0
 20
-28.0
 30
0.0
 11
33.0
 21
-28.0
 31
0.0
  0
LINE
  5
357
330
A
100
AcDbEntity
  8
PV
  6
Continuous
 62
     7
100
AcDbLine
 10
-27.0
 20
-28.0
 30
0.0
 11
-26.07699999999999
 21
-4.919999999999999
 31
0.0
  0
LINE
  5
358
330
A
100
AcDbEntity
  8
PV
  6
Continuous
 62
     7
100
AcDbLine
 10
31.0
 20
-36.0
 30
0.0
 11
-25.0
 21
-36.0
 31
0.0
  0
LINE
  5
359
330
A
100
AcDbEntity
  8
PV
  6
Continuous
 62
     7
100
AcDbLine
 10
7.0
 20
-28.0
 30
0.0
 11
7.0
 21
-36.0
 31
0.0
  0
LINE
  5
35A
330
A
100
AcDbEntity
  8
PV
  6
Continuous
 62
     7
100
AcDbLine
 10
-1.0
 20
-28.0
 30
0.0
 11
-1.0
 21
-36.0
 31
0.0
  0
LINE
  5
35B
330
A
100
AcDbEntity
  8
PV
  6
Continuous
 62
     7
100
AcDbLine
 10
29.07199999999999
 20
-21.383
 30
0.0
 11
27.827
 21
-22.86699999999999
 31
0.0
  0
LINE
  5
35C
330
A
100
AcDbEntity
  8
PV
  6
Continuous
 62
     7
100
AcDbLine
 10
30.256
 20
-3.0
 30
0.0
 11
30.256
 21
-17.0
 31
0.0
  0
LINE
  5
35D
330
A
100
AcDbEntity
  8
PV
  6
Continuous
 62
     7
100
AcDbLine
 10
31.45599999999999
 20
-3.549999999999999
 30
0.0
 11
31.45599999999999
 21
-17.0
 31
0.0
  0
LINE
  5
35E
330
A
100
AcDbEntity
  8
PV
  6
Continuous
 62
     7
100
AcDbLine
 10
25.456
 20
-3.0
 30
0.0
 11
25.456
 21
-17.0
 31
0.0
  0
LINE
  5
35F
330
A
100
AcDbEntity
  8
PV
  6
Continuous
 62
     7
100
AcDbLine
 10
-23.07199999999999
 20
-21.383
 30
0.0
 11
-21.827
 21
-22.86699999999999
 31
0.0
  0
LINE
  5
360
330
A
100
AcDbEntity
  8
PV
  6
Continuous
 62
     7
100
AcDbLine
 10
-24.256
 20
-3.0
 30
0.0
 11
-24.256
 21
-17.0
 31
0.0
  0
LINE
  5
361
330
A
100
AcDbEntity
  8
PV
  6
Continuous
 62
     7
100
AcDbLine
 10
-25.456
 20
-3.549999999999999
 30
0.0
 11
-25.456
 21
-17.0
 31
0.0
  0
LINE
  5
362
330
A
100
AcDbEntity
  8
PV
  6
Continuous
 62
     7
100
AcDbLine
 10
-19.45599999999999
 20
-3.0
 30
0.0
 11
-19.45599999999999
 21
-17.0
 31
0.0
  0
LINE
  5
363
330
A
100
AcDbEntity
  8
PV
  6
DASHED
 62
     7
100
AcDbLine
 10
-22.0
 20
-2.299999999999999
 30
0.0
 11
28.0
 21
-2.299999999999999
 31
0.0
  0
LINE
  5
364
330
A
100
AcDbEntity
  8
PV
  6
PHANTOM
 62
     7
100
AcDbLine
 10
-22.5
 20
18.0
 30
0.0
 11
28.5
 21
18.0
 31
0.0
  0
LINE
  5
365
330
A
100
AcDbEntity
  8
PV
  6
DASHED
 62
     7
100
AcDbLine
 10
-22.0
 20
-2.0
 30
0.0
 11
-22.0
 21
-2.299999999999999
 31
0.0
  0
LINE
  5
366
330
A
100
AcDbEntity
  8
PV
  6
DASHED
 62
     7
100
AcDbLine
 10
28.0
 20
-2.0
 30
0.0
 11
28.0
 21
-2.299999999999999
 31
0.0
  0
LINE
  5
367
330
A
100
AcDbEntity
  8
PV
  6
Continuous
 62
     7
100
AcDbLine
 10
-22.5
 20
-2.0
 30
0.0
 11
28.5
 21
-2.0
 31
0.0
  0
LINE
  5
368
330
A
100
AcDbEntity
  8
PV
  6
Continuous
 62
     7
100
AcDbLine
 10
9.0
 20
-3.0
 30
0.0
 11
9.0
 21
-17.0
 31
0.0
  0
LINE
  5
369
330
A
100
AcDbEntity
  8
PV
  6
Continuous
 62
     7
100
AcDbLine
 10
-3.0
 20
-3.0
 30
0.0
 11
-3.0
 21
-17.0
 31
0.0
  0
LINE
  5
36A
330
A
100
AcDbEntity
  8
PV
  6
PHANTOM
 62
     7
100
AcDbLine
 10
32.07699999999999
 20
15.08
 30
0.0
 11
33.0
 21
-8.0
 31
0.0
  0
LINE
  5
36B
330
A
100
AcDbEntity
  8
PV
  6
PHANTOM
 62
     7
100
AcDbLine
 10
-27.0
 20
-8.0
 30
0.0
 11
-26.07699999999999
 21
15.08
 31
0.0
  0
LINE
  5
36C
330
A
100
AcDbEntity
  8
PV
  6
PHANTOM
 62
     7
100
AcDbLine
 10
-24.078
 20
17.0
 30
0.0
 11
30.078
 21
17.0
 31
0.0
  0
LINE
  5
36D
330
A
100
AcDbEntity
  8
PV
  6
PHANTOM
 62
     7
100
AcDbLine
 10
-27.0
 20
-8.0
 30
0.0
 11
33.0
 21
-8.0
 31
0.0
  0
LINE
  5
36E
330
A
100
AcDbEntity
  8
PV
  6
Continuous
 62
     7
100
AcDbLine
 10
48.0
 20
-41.0
 30
0.0
 11
-42.0
 21
-41.0
 31
0.0
  0
LINE
  5
36F
330
A
100
AcDbEntity
  8
PV
  6
Continuous
 62
     7
100
AcDbLine
 10
48.0
 20
-59.0
 30
0.0
 11
-42.0
 21
-59.0
 31
0.0
  0
LINE
  5
370
330
A
100
AcDbEntity
  8
PV
  6
Continuous
 62
     7
100
AcDbLine
 10
-42.0
 20
-72.0
 30
0.0
 11
48.0
 21
-72.0
 31
0.0
  0
LINE
  5
371
330
A
100
AcDbEntity
  8
PV
  6
Continuous
 62
     7
100
AcDbLine
 10
38.5
 20
-151.0
 30
0.0
 11
-32.5
 21
-151.0
 31
0.0
  0
LINE
  5
372
330
A
100
AcDbEntity
  8
PV
  6
CENTER
 62
     7
100
AcDbLine
 10
3.0
 20
21.981176
 30
0.0
 11
3.0
 21
-208.464
 31
0.0
  0
LINE
  5
373
330
A
100
AcDbEntity
  8
PV
  6
CENTER
 62
     7
100
AcDbLine
 10
-62.701
 20
69.506
 30
0.0
 11
-90.95399999999999
 21
69.506
 31
0.0
  0
LINE
  5
374
330
A
100
AcDbEntity
  8
PV
  6
CENTER
 62
     7
100
AcDbLine
 10
-62.701
 20
169.5059999999999
 30
0.0
 11
-88.03200000000002
 21
169.5059999999999
 31
0.0
  0
LINE
  5
375
330
A
100
AcDbEntity
  8
PV
  6
CENTER
 62
     7
100
AcDbLine
 10
-84.793
 20
-158.4999999999999
 30
0.0
 11
-63.676
 21
-158.4999999999999
 31
0.0
  0
LINE
  5
376
330
A
100
AcDbEntity
  8
PV
  6
CENTER
 62
     7
100
AcDbLine
 10
-84.793
 20
-58.5
 30
0.0
 11
-61.24
 21
-58.5
 31
0.0
  0
LINE
  5
377
330
A
100
AcDbEntity
  8
PV
  6
Continuous
 62
     7
100
AcDbLine
 10
-70.0
 20
87.756
 30
0.0
 11
-43.0
 21
87.756
 31
0.0
  0
LINE
  5
378
330
A
100
AcDbEntity
  8
PV
  6
Continuous
 62
     7
100
AcDbLine
 10
-69.68
 20
148.256
 30
0.0
 11
-43.0
 21
148.256
 31
0.0
  0
LINE
  5
379
330
A
100
AcDbEntity
  8
PV
  6
Continuous
 62
     7
100
AcDbLine
 10
-70.0
 20
177.0059999999999
 30
0.0
 11
-71.0
 21
178.0059999999999
 31
0.0
  0
LINE
  5
37A
330
A
100
AcDbEntity
  8
PV
  6
Continuous
 62
     7
100
AcDbLine
 10
-79.5
 20
178.0059999999999
 30
0.0
 11
-80.0
 21
177.5059999999999
 31
0.0
  0
LINE
  5
37B
330
A
100
AcDbEntity
  8
PV
  6
Continuous
 62
     7
100
AcDbLine
 10
-71.0
 20
178.0059999999999
 30
0.0
 11
-79.5
 21
178.0059999999999
 31
0.0
  0
LINE
  5
37C
330
A
100
AcDbEntity
  8
PV
  6
Continuous
 62
     7
100
AcDbLine
 10
-70.0
 20
59.006
 30
0.0
 11
-71.0
 21
58.006
 31
0.0
  0
LINE
  5
37D
330
A
100
AcDbEntity
  8
PV
  6
Continuous
 62
     7
100
AcDbLine
 10
-79.5
 20
58.006
 30
0.0
 11
-80.0
 21
58.506
 31
0.0
  0
LINE
  5
37E
330
A
100
AcDbEntity
  8
PV
  6
Continuous
 62
     7
100
AcDbLine
 10
-70.0
 20
177.0059999999999
 30
0.0
 11
-70.0
 21
59.006
 31
0.0
  0
LINE
  5
37F
330
A
100
AcDbEntity
  8
PV
  6
Continuous
 62
     7
100
AcDbLine
 10
-80.0
 20
177.5059999999999
 30
0.0
 11
-80.0
 21
58.72600000000001
 31
0.0
  0
LINE
  5
380
330
A
100
AcDbEntity
  8
PV
  6
Continuous
 62
     7
100
AcDbLine
 10
-71.0
 20
58.006
 30
0.0
 11
-79.5
 21
58.006
 31
0.0
  0
LINE
  5
381
330
A
100
AcDbEntity
  8
PV
  6
Continuous
 62
     7
100
AcDbLine
 10
-70.0
 20
-49.5
 30
0.0
 11
-70.0
 21
-167.5
 31
0.0
  0
LINE
  5
382
330
A
100
AcDbEntity
  8
PV
  6
Continuous
 62
     7
100
AcDbLine
 10
-70.0
 20
-167.5
 30
0.0
 11
-71.0
 21
-168.5
 31
0.0
  0
LINE
  5
383
330
A
100
AcDbEntity
  8
PV
  6
Continuous
 62
     7
100
AcDbLine
 10
-79.5
 20
-168.5
 30
0.0
 11
-80.0
 21
-168.0
 31
0.0
  0
LINE
  5
384
330
A
100
AcDbEntity
  8
PV
  6
Continuous
 62
     7
100
AcDbLine
 10
-70.0
 20
-138.7499999999999
 30
0.0
 11
-41.5
 21
-138.7499999999999
 31
0.0
  0
LINE
  5
385
330
A
100
AcDbEntity
  8
PV
  6
Continuous
 62
     7
100
AcDbLine
 10
-71.0
 20
-168.5
 30
0.0
 11
-79.5
 21
-168.5
 31
0.0
  0
LINE
  5
386
330
A
100
AcDbEntity
  8
PV
  6
Continuous
 62
     7
100
AcDbLine
 10
-70.0
 20
-49.5
 30
0.0
 11
-71.0
 21
-48.5
 31
0.0
  0
LINE
  5
387
330
A
100
AcDbEntity
  8
PV
  6
Continuous
 62
     7
100
AcDbLine
 10
-70.0
 20
-78.25
 30
0.0
 11
-41.553
 21
-78.25
 31
0.0
  0
LINE
  5
388
330
A
100
AcDbEntity
  8
PV
  6
Continuous
 62
     7
100
AcDbLine
 10
-80.0
 20
-49.0
 30
0.0
 11
-80.0
 21
-167.7799999999999
 31
0.0
  0
LINE
  5
389
330
A
100
AcDbEntity
  8
PV
  6
Continuous
 62
     7
100
AcDbLine
 10
-71.0
 20
-48.5
 30
0.0
 11
-79.5
 21
-48.5
 31
0.0
  0
LINE
  5
38A
330
A
100
AcDbEntity
  8
PV
  6
Continuous
 62
     7
100
AcDbLine
 10
-79.5
 20
-48.5
 30
0.0
 11
-80.0
 21
-49.0
 31
0.0
  0
LINE
  5
38B
330
A
100
AcDbEntity
  8
PV
  6
CENTER
 62
     7
100
AcDbLine
 10
-88.399
 20
-108.4999999999999
 30
0.0
 11
-8.206947333883363
 21
-108.4999999999999
 31
0.0
  0
LINE
  5
38C
330
A
100
AcDbEntity
  8
PV
  6
CENTER
 62
     7
100
AcDbLine
 10
-195.562
 20
-67.938
 30
0.0
 11
-183.2969999999999
 21
-80.203
 31
0.0
  0
LINE
  5
38D
330
A
100
AcDbEntity
  8
PV
  6
CENTER
 62
     7
100
AcDbLine
 10
-195.562
 20
-149.062
 30
0.0
 11
-183.2969999999999
 21
-136.7969999999999
 31
0.0
  0
LINE
  5
38E
330
A
100
AcDbEntity
  8
PV
  6
CENTER
 62
     7
100
AcDbLine
 10
-220.7969999999999
 20
-108.4999999999999
 30
0.0
 11
-151.6109999999999
 21
-108.4999999999999
 31
0.0
  0
LINE
  5
38F
330
A
100
AcDbEntity
  8
PV
  6
Continuous
 62
     7
100
AcDbLine
 10
43.06199999999999
 20
72.006
 30
0.0
 11
-37.06199999999999
 21
72.006
 31
0.0
  0
LINE
  5
390
330
A
100
AcDbEntity
  8
PV
  6
Continuous
 62
     7
100
AcDbLine
 10
43.06199999999999
 20
164.0059999999999
 30
0.0
 11
-37.06199999999999
 21
164.0059999999999
 31
0.0
  0
LINE
  5
391
330
A
100
AcDbEntity
  8
PV
  6
Continuous
 62
     7
100
AcDbLine
 10
49.0
 20
158.0689999999999
 30
0.0
 11
49.0
 21
77.944
 31
0.0
  0
LINE
  5
392
330
A
100
AcDbEntity
  8
PV
  6
Continuous
 62
     7
100
AcDbLine
 10
-43.0
 20
158.0689999999999
 30
0.0
 11
-43.0
 21
77.944
 31
0.0
  0
LINE
  5
393
330
A
100
AcDbEntity
  8
PV
  6
CENTER
 62
     7
100
AcDbLine
 10
38.5
 20
94.006
 30
0.0
 11
38.5
 21
71.006
 31
0.0
  0
LINE
  5
394
330
A
100
AcDbEntity
  8
PV
  6
CENTER
 62
     7
100
AcDbLine
 10
27.0
 20
82.506
 30
0.0
 11
50.0
 21
82.506
 31
0.0
  0
LINE
  5
395
330
A
100
AcDbEntity
  8
PV
  6
CENTER
 62
     7
100
AcDbLine
 10
38.5
 20
142.006
 30
0.0
 11
38.5
 21
165.0059999999999
 31
0.0
  0
LINE
  5
396
330
A
100
AcDbEntity
  8
PV
  6
CENTER
 62
     7
100
AcDbLine
 10
27.0
 20
153.506
 30
0.0
 11
50.0
 21
153.506
 31
0.0
  0
LINE
  5
397
330
A
100
AcDbEntity
  8
PV
  6
CENTER
 62
     7
100
AcDbLine
 10
-32.5
 20
142.006
 30
0.0
 11
-32.5
 21
165.0059999999999
 31
0.0
  0
LINE
  5
398
330
A
100
AcDbEntity
  8
PV
  6
CENTER
 62
     7
100
AcDbLine
 10
-21.0
 20
153.506
 30
0.0
 11
-44.0
 21
153.506
 31
0.0
  0
LINE
  5
399
330
A
100
AcDbEntity
  8
PV
  6
CENTER
 62
     7
100
AcDbLine
 10
-32.5
 20
94.006
 30
0.0
 11
-32.5
 21
71.006
 31
0.0
  0
LINE
  5
39A
330
A
100
AcDbEntity
  8
PV
  6
CENTER
 62
     7
100
AcDbLine
 10
-21.0
 20
82.506
 30
0.0
 11
-44.0
 21
82.506
 31
0.0
  0
LINE
  5
39B
330
A
100
AcDbEntity
  8
PV
  6
Continuous
 62
   254
100
AcDbLine
 10
-23.999
 20
108.7699999999999
 30
0.0
 11
-18.499
 21
99.243
 31
0.0
  0
LINE
  5
39C
330
A
100
AcDbEntity
  8
PV
  6
Continuous
 62
   254
100
AcDbLine
 10
-18.682
 20
98.56000000000001
 30
0.0
 11
-19.45599999999999
 21
98.11300000000001
 31
0.0
  0
LINE
  5
39D
330
A
100
AcDbEntity
  8
PV
  6
Continuous
 62
   254
100
AcDbLine
 10
-24.68199999999999
 20
127.0599999999999
 30
0.0
 11
-25.456
 21
127.507
 31
0.0
  0
LINE
  5
39E
330
A
100
AcDbEntity
  8
PV
  6
Continuous
 62
   254
100
AcDbLine
 10
-24.68199999999999
 20
108.9529999999999
 30
0.0
 11
-25.456
 21
108.506
 31
0.0
  0
LINE
  5
39F
330
A
100
AcDbEntity
  8
PV
  6
Continuous
 62
   254
100
AcDbLine
 10
-18.499
 20
136.77
 30
0.0
 11
-23.999
 21
127.2429999999999
 31
0.0
  0
LINE
  5
3A0
330
A
100
AcDbEntity
  8
PV
  6
Continuous
 62
   254
100
AcDbLine
 10
-18.682
 20
137.453
 30
0.0
 11
-19.45599999999999
 21
137.8989999999999
 31
0.0
  0
LINE
  5
3A1
330
A
100
AcDbEntity
  8
PV
  6
Continuous
 62
   254
100
AcDbLine
 10
-3.0
 20
146.506
 30
0.0
 11
-3.0
 21
147.4
 31
0.0
  0
LINE
  5
3A2
330
A
100
AcDbEntity
  8
PV
  6
Continuous
 62
   254
100
AcDbLine
 10
9.0
 20
146.506
 30
0.0
 11
9.0
 21
147.4
 31
0.0
  0
LINE
  5
3A3
330
A
100
AcDbEntity
  8
PV
  6
Continuous
 62
   254
100
AcDbLine
 10
8.5
 20
146.006
 30
0.0
 11
-2.5
 21
146.006
 31
0.0
  0
LINE
  5
3A4
330
A
100
AcDbEntity
  8
PV
  6
Continuous
 62
   254
100
AcDbLine
 10
24.68199999999999
 20
137.453
 30
0.0
 11
25.456
 21
137.9
 31
0.0
  0
LINE
  5
3A5
330
A
100
AcDbEntity
  8
PV
  6
Continuous
 62
   254
100
AcDbLine
 10
29.999
 20
127.2429999999999
 30
0.0
 11
24.499
 21
136.77
 31
0.0
  0
LINE
  5
3A6
330
A
100
AcDbEntity
  8
PV
  6
Continuous
 62
   254
100
AcDbLine
 10
30.682
 20
127.0599999999999
 30
0.0
 11
31.45599999999999
 21
127.507
 31
0.0
  0
LINE
  5
3A7
330
A
100
AcDbEntity
  8
PV
  6
Continuous
 62
   254
100
AcDbLine
 10
30.682
 20
108.9529999999999
 30
0.0
 11
31.45599999999999
 21
108.506
 31
0.0
  0
LINE
  5
3A8
330
A
100
AcDbEntity
  8
PV
  6
Continuous
 62
   254
100
AcDbLine
 10
24.499
 20
99.243
 30
0.0
 11
29.999
 21
108.7699999999999
 31
0.0
  0
LINE
  5
3A9
330
A
100
AcDbEntity
  8
PV
  6
Continuous
 62
   254
100
AcDbLine
 10
24.68199999999999
 20
98.56000000000001
 30
0.0
 11
25.456
 21
98.11300000000001
 31
0.0
  0
LINE
  5
3AA
330
A
100
AcDbEntity
  8
PV
  6
Continuous
 62
   254
100
AcDbLine
 10
9.0
 20
89.50599999999999
 30
0.0
 11
9.0
 21
88.61299999999999
 31
0.0
  0
LINE
  5
3AB
330
A
100
AcDbEntity
  8
PV
  6
Continuous
 62
   254
100
AcDbLine
 10
-2.5
 20
90.006
 30
0.0
 11
8.5
 21
90.006
 31
0.0
  0
LINE
  5
3AC
330
A
100
AcDbEntity
  8
PV
  6
Continuous
 62
   254
100
AcDbLine
 10
-3.0
 20
89.50599999999999
 30
0.0
 11
-3.0
 21
88.61299999999999
 31
0.0
  0
LINE
  5
3AD
330
A
100
AcDbEntity
  8
PV
  6
CENTER
 62
     7
100
AcDbLine
 10
66.385
 20
118.006
 30
0.0
 11
-88.61499999999999
 21
118.006
 31
0.0
  0
LINE
  5
3AE
330
A
100
AcDbEntity
  8
PV
  6
CENTER
 62
     7
100
AcDbLine
 10
3.0
 20
179.3679999999999
 30
0.0
 11
3.0
 21
48.333
 31
0.0
  0
ENDSEC
  0
SECTION
  2
OBJECTS
  0
DICTIONARY
  5
19
330
0
100
AcDbDictionary
281
     1
  3
ACAD_GROUP
350
1A
  3
ACAD_LAYOUT
350
1E
  3
ACAD_MLINESTYLE
350
1B
  3
ACAD_PLOTSETTINGS
350
22
  3
ACAD_PLOTSTYLENAME
350
1F
  0
DICTIONARY
  5
1A
102
{ACAD_REACTORS
330
19
102
}
330
19
100
AcDbDictionary
281
     1
  0
DICTIONARY
  5
1E
102
{ACAD_REACTORS
330
19
102
}
330
19
100
AcDbDictionary
281
     1
  3
Layout1
350
21
  3
Model
350
20
  0
DICTIONARY
  5
1B
102
{ACAD_REACTORS
330
19
102
}
330
19
100
AcDbDictionary
281
     1
  3
Standard
350
1C
  0
DICTIONARY
  5
22
102
{ACAD_REACTORS
330
19
102
}
330
19
100
AcDbDictionary
281
     1
  0
ACDBDICTIONARYWDFLT
  5
1F
102
{ACAD_REACTORS
330
19
102
}
330
19
100
AcDbDictionary
281
     1
  3
Normal
350
1D
100
AcDbDictionaryWithDefault
340
1D
  0
LAYOUT
  5
21
102
{ACAD_REACTORS
330
1E
102
}
330
1E
100
AcDbPlotSettings
  1

  2

  4

  6

 40
0.0
 41
0.0
 42
0.0
 43
0.0
 44
0.0
 45
0.0
 46
0.0
 47
0.0
 48
0.0
 49
0.0
140
0.0
141
0.0
142
1.0
143
1.0
 70
     0
 72
     0
 73
     0
 74
     0
  7

 75
     0
147
1.0
148
0.0
149
0.0
100
AcDbLayout
  1
Layout1
 70
     0
 71
     1
 10
0.0
 20
0.0
 11
12.0
 21
9.0
 12
0.0
 22
0.0
 32
0.0
 14
1.000000000000000E+20
 24
1.000000000000000E+20
 34
1.000000000000000E+20
 15
-1.000000000000000E+20
 25
-1.000000000000000E+20
 35
-1.000000000000000E+20
146
0.0
 13
0.0
 23
0.0
 33
0.0
 16
1.0
 26
0.0
 36
0.0
 17
0.0
 27
1.0
 37
0.0
 76
     0
330
B
  0
LAYOUT
  5
20
102
{ACAD_REACTORS
330
1E
102
}
330
1E
100
AcDbPlotSettings
  1

  2
Adobe PDF
  4
A4
  6

 40
3.174999952316284
 41
3.174999952316284
 42
3.175003051757812
 43
3.17498779296875
 44
209.9098358154297
 45
297.0318298339843
 46
0.0
 47
7.82
 48
0.0
 49
0.0
140
0.0
141
0.0
142
1.0
143
1.607468406123323
 70
 11284
 72
     1
 73
     0
 74
     2
  7

 75
     0
147
0.622096208044092
148
220.7969999999999
149
221.7649999999999
100
AcDbLayout
  1
Model
 70
     0
 71
     0
 10
0.0
 20
0.0
 11
0.0
 21
0.0
 12
0.0
 22
0.0
 32
0.0
 14
0.0
 24
0.0
 34
0.0
 15
0.0
 25
0.0
 35
0.0
146
0.0
 13
0.0
 23
0.0
 33
0.0
 16
0.0
 26
0.0
 36
0.0
 17
0.0
 27
0.0
 37
0.0
 76
     0
330
A
  0
MLINESTYLE
  5
1C
102
{ACAD_REACTORS
330
1B
102
}
330
1B
100
AcDbMlineStyle
  2
STANDARD
 70
     0
  3

 62
     0
 51
90.0
 52
90.0
 71
     2
 49
0.5
 62
   256
  6
BYLAYER
 49
-0.5
 62
   256
  6
BYLAYER
  0
ACDBPLACEHOLDER
  5
1D
102
{ACAD_REACTORS
330
1F
102
}
330
1F
  0
ENDSEC
  0
EOF
