  0
SECTION
  2
HEADER
  9
$ACADVER
  1
AC1015
  9
$ACADMAINTVER
 70
    10
  9
$DWGCODEPAGE
  3
ANSI_932
  9
$INSBASE
 10
0.0
 20
0.0
 30
0.0
  9
$EXTMIN
 10
-151.1306333632932
 20
-200.9995861254262
 30
-0.0000000349181948
  9
$EXTMAX
 10
88.66263559633763
 20
183.3420310422049
 30
0.0000000814935746
  9
$LIMMIN
 10
-151.116
 20
-200.9759999999999
  9
$LIMMAX
 10
88.648
 20
185.4826669999999
  9
$ORTHOMODE
 70
     0
  9
$REGENMODE
 70
     1
  9
$FILLMODE
 70
     1
  9
$QTEXTMODE
 70
     0
  9
$MIRRTEXT
 70
     1
  9
$LTSCALE
 40
0.3
  9
$ATTMODE
 70
     1
  9
$TEXTSIZE
 40
3.2
  9
$TRACEWID
 40
0.05
  9
$TEXTSTYLE
  7
MX_NOTE_STANDARD
  9
$CLAYER
  8
0
  9
$CELTYPE
  6
CONTINUOUS
  9
$CECOLOR
 62
   256
  9
$CELTSCALE
 40
1.0
  9
$DISPSILH
 70
     0
  9
$DIMSCALE
 40
1.0
  9
$DIMASZ
 40
2.5
  9
$DIMEXO
 40
2.54
  9
$DIMDLI
 40
3.75
  9
$DIMRND
 40
0.0
  9
$DIMDLE
 40
0.0
  9
$DIMEXE
 40
2.286
  9
$DIMTP
 40
0.0
  9
$DIMTM
 40
0.0
  9
$DIMTXT
 40
3.2
  9
$DIMCEN
 40
2.5
  9
$DIMTSZ
 40
0.0
  9
$DIMTOL
 70
     0
  9
$DIMLIM
 70
     0
  9
$DIMTIH
 70
     0
  9
$DIMTOH
 70
     0
  9
$DIMSE1
 70
     0
  9
$DIMSE2
 70
     0
  9
$DIMTAD
 70
     1
  9
$DIMZIN
 70
     8
  9
$DIMBLK
  1

  9
$DIMASO
 70
     1
  9
$DIMSHO
 70
     1
  9
$DIMPOST
  1

  9
$DIMAPOST
  1

  9
$DIMALT
 70
     0
  9
$DIMALTD
 70
     4
  9
$DIMALTF
 40
0.03937
  9
$DIMLFAC
 40
1.0
  9
$DIMTOFL
 70
     1
  9
$DIMTVP
 40
0.0
  9
$DIMTIX
 70
     0
  9
$DIMSOXD
 70
     0
  9
$DIMSAH
 70
     1
  9
$DIMBLK1
  1
OPEN30
  9
$DIMBLK2
  1
OPEN30
  9
$DIMSTYLE
  2
MXDIMSTYLE
  9
$DIMCLRD
 70
     0
  9
$DIMCLRE
 70
     0
  9
$DIMCLRT
 70
     0
  9
$DIMTFAC
 40
1.0
  9
$DIMGAP
 40
1.0
  9
$DIMJUST
 70
     0
  9
$DIMSD1
 70
     0
  9
$DIMSD2
 70
     0
  9
$DIMTOLJ
 70
     0
  9
$DIMTZIN
 70
     0
  9
$DIMALTZ
 70
     0
  9
$DIMALTTZ
 70
     0
  9
$DIMUPT
 70
     1
  9
$DIMDEC
 70
     2
  9
$DIMTDEC
 70
     2
  9
$DIMALTU
 70
     2
  9
$DIMALTTD
 70
     4
  9
$DIMTXSTY
  7
MX_NOTE_STANDARD
  9
$DIMAUNIT
 70
     0
  9
$DIMADEC
 70
     0
  9
$DIMALTRND
 40
0.0
  9
$DIMAZIN
 70
     0
  9
$DIMDSEP
 70
    46
  9
$DIMATFIT
 70
     3
  9
$DIMFRAC
 70
     0
  9
$DIMLDRBLK
  1
OPEN30
  9
$DIMLUNIT
 70
     2
  9
$DIMLWD
 70
    -2
  9
$DIMLWE
 70
    -2
  9
$DIMTMOVE
 70
     0
  9
$LUNITS
 70
     2
  9
$LUPREC
 70
     4
  9
$SKETCHINC
 40
0.1
  9
$FILLETRAD
 40
0.0
  9
$AUNITS
 70
     0
  9
$AUPREC
 70
     0
  9
$MENU
  1
acad
  9
$ELEVATION
 40
0.0
  9
$PELEVATION
 40
0.0
  9
$THICKNESS
 40
0.0
  9
$LIMCHECK
 70
     0
  9
$CHAMFERA
 40
0.0
  9
$CHAMFERB
 40
0.0
  9
$CHAMFERC
 40
0.0
  9
$CHAMFERD
 40
0.0
  9
$SKPOLY
 70
     0
  9
$TDCREATE
 40
2455289.638933287
  9
$TDUCREATE
 40
2455289.263933287
  9
$TDUPDATE
 40
2455289.646284537
  9
$TDUUPDATE
 40
2455289.271284537
  9
$TDINDWG
 40
0.0073523380
  9
$TDUSRTIMER
 40
0.0073523380
  9
$USRTIMER
 70
     1
  9
$ANGBASE
 50
0.0
  9
$ANGDIR
 70
     0
  9
$PDMODE
 70
     0
  9
$PDSIZE
 40
0.0
  9
$PLINEWID
 40
0.0
  9
$SPLFRAME
 70
     0
  9
$SPLINETYPE
 70
     6
  9
$SPLINESEGS
 70
     8
  9
$HANDSEED
  5
3BA
  9
$SURFTAB1
 70
     6
  9
$SURFTAB2
 70
     6
  9
$SURFTYPE
 70
     6
  9
$SURFU
 70
     6
  9
$SURFV
 70
     6
  9
$UCSBASE
  2

  9
$UCSNAME
  2

  9
$UCSORG
 10
0.0
 20
0.0
 30
0.0
  9
$UCSXDIR
 10
1.0
 20
0.0
 30
0.0
  9
$UCSYDIR
 10
0.0
 20
1.0
 30
0.0
  9
$UCSORTHOREF
  2

  9
$UCSORTHOVIEW
 70
     0
  9
$UCSORGTOP
 10
0.0
 20
0.0
 30
0.0
  9
$UCSORGBOTTOM
 10
0.0
 20
0.0
 30
0.0
  9
$UCSORGLEFT
 10
0.0
 20
0.0
 30
0.0
  9
$UCSORGRIGHT
 10
0.0
 20
0.0
 30
0.0
  9
$UCSORGFRONT
 10
0.0
 20
0.0
 30
0.0
  9
$UCSORGBACK
 10
0.0
 20
0.0
 30
0.0
  9
$PUCSBASE
  2

  9
$PUCSNAME
  2

  9
$PUCSORG
 10
0.0
 20
0.0
 30
0.0
  9
$PUCSXDIR
 10
1.0
 20
0.0
 30
0.0
  9
$PUCSYDIR
 10
0.0
 20
1.0
 30
0.0
  9
$PUCSORTHOREF
  2

  9
$PUCSORTHOVIEW
 70
     0
  9
$PUCSORGTOP
 10
0.0
 20
0.0
 30
0.0
  9
$PUCSORGBOTTOM
 10
0.0
 20
0.0
 30
0.0
  9
$PUCSORGLEFT
 10
0.0
 20
0.0
 30
0.0
  9
$PUCSORGRIGHT
 10
0.0
 20
0.0
 30
0.0
  9
$PUCSORGFRONT
 10
0.0
 20
0.0
 30
0.0
  9
$PUCSORGBACK
 10
0.0
 20
0.0
 30
0.0
  9
$USERI1
 70
     0
  9
$USERI2
 70
     0
  9
$USERI3
 70
     0
  9
$USERI4
 70
     0
  9
$USERI5
 70
     0
  9
$USERR1
 40
0.0
  9
$USERR2
 40
0.0
  9
$USERR3
 40
0.0
  9
$USERR4
 40
0.0
  9
$USERR5
 40
0.0
  9
$WORLDVIEW
 70
     1
  9
$SHADEDGE
 70
     3
  9
$SHADEDIF
 70
    70
  9
$TILEMODE
 70
     1
  9
$MAXACTVP
 70
    16
  9
$PINSBASE
 10
0.0
 20
0.0
 30
0.0
  9
$PLIMCHECK
 70
     0
  9
$PEXTMIN
 10
1.000000000000000E+20
 20
1.000000000000000E+20
 30
1.000000000000000E+20
  9
$PEXTMAX
 10
-1.000000000000000E+20
 20
-1.000000000000000E+20
 30
-1.000000000000000E+20
  9
$PLIMMIN
 10
0.0
 20
0.0
  9
$PLIMMAX
 10
12.0
 20
9.0
  9
$UNITMODE
 70
     0
  9
$VISRETAIN
 70
     0
  9
$PLINEGEN
 70
     1
  9
$PSLTSCALE
 70
     0
  9
$TREEDEPTH
 70
  3020
  9
$CMLSTYLE
  2
Standard
  9
$CMLJUST
 70
     0
  9
$CMLSCALE
 40
1.0
  9
$PROXYGRAPHICS
 70
     0
  9
$MEASUREMENT
 70
     1
  9
$CELWEIGHT
370
     0
  9
$ENDCAPS
280
     0
  9
$JOINSTYLE
280
     0
  9
$LWDISPLAY
290
     0
  9
$INSUNITS
 70
     0
  9
$HYPERLINKBASE
  1

  9
$STYLESHEET
  1

  9
$XEDIT
290
     1
  9
$CEPSNTYPE
380
     0
  9
$PSTYLEMODE
290
     1
  9
$FINGERPRINTGUID
  2

  9
$VERSIONGUID
  2
{2EDBA1F2-58A7-4CEF-A473-29DE282DC5E4}
  9
$EXTNAMES
290
     1
  9
$PSVPSCALE
 40
0.0
  9
$OLESTARTUP
290
     0
  0
ENDSEC
  0
SECTION
  2
CLASSES
  0
CLASS
  1
LWPOLYLINE
  2
AcDbPolyline
  3
AutoCAD 2000
 90
    32768
280
     0
281
     1
  0
CLASS
  1
IMAGE
  2
AcDbRasterImage
  3
ISM
 90
    32895
280
     0
281
     1
  0
CLASS
  1
OLE2FRAME
  2
AcDbOle2Frame
  3
AutoCAD 2000
 90
    32768
280
     0
281
     1
  0
CLASS
  1
HATCH
  2
AcDbHatch
  3
AutoCAD 2000
 90
    32768
280
     0
281
     1
  0
CLASS
  1
DICTIONARYVAR
  2
AcDbDictionaryVar
  3
AutoCAD 2000
 90
    32768
280
     0
281
     0
  0
CLASS
  1
RASTERVARIABLES
  2
AcDbRasterVariables
  3
ISM
 90
    32768
280
     0
281
     0
  0
CLASS
  1
IMAGEDEF
  2
AcDbRasterImageDef
  3
ISM
 90
    32768
280
     0
281
     0
  0
CLASS
  1
IMAGEDEF_REACTOR
  2
AcDbRasterImageDefReactor
  3
ISM
 90
    32769
280
     0
281
     0
  0
CLASS
  1
IDBUFFER
  2
AcDbIdBuffer
  3
AutoCAD 2000
 90
    32768
280
     0
281
     0
  0
CLASS
  1
SPATIAL_FILTER
  2
AcDbSpatialFilter
  3
AutoCAD 2000
 90
    32768
280
     0
281
     0
  0
CLASS
  1
XRECORD
  2
AcDbXrecord
  3
AutoCAD 2000
 90
    32768
280
     0
281
     0
  0
CLASS
  1
SORTENTSTABLE
  2
AcDbSortentsTable
  3
AutoCAD 2000
 90
    32768
280
     0
281
     0
  0
CLASS
  1
LAYER_INDEX
  2
AcDbLayerIndex
  3
AutoCAD 2000
 90
    32768
280
     0
281
     0
  0
CLASS
  1
SPATIAL_INDEX
  2
AcDbSpatialIndex
  3
AutoCAD 2000
 90
    32768
280
     0
281
     0
  0
CLASS
  1
OBJECT_PTR
  2
CAseDLPNTableRecord
  3
"ASE-LPNTableRecord"
 90
    32769
280
     0
281
     0
  0
CLASS
  1
LAYOUT
  2
AcDbLayout
  3
AutoCAD 2000
 90
        0
280
     0
281
     0
  0
CLASS
  1
PLOTSETTINGS
  2
AcDbPlotSettings
  3
AutoCAD 2000
 90
    32768
280
     0
281
     0
  0
CLASS
  1
ACDBDICTIONARYWDFLT
  2
AcDbDictionaryWithDefault
  3
AutoCAD 2000
 90
        0
280
     0
281
     0
  0
CLASS
  1
ACDBPLACEHOLDER
  2
AcDbPlaceHolder
  3
AutoCAD 2000
 90
        0
280
     0
281
     0
  0
ENDSEC
  0
SECTION
  2
TABLES
  0
TABLE
  2
VPORT
  5
7
330
0
100
AcDbSymbolTable
 70
     2
  0
VPORT
  5
3B9
330
7
100
AcDbSymbolTableRecord
100
AcDbViewportTableRecord
  2
*Active
 70
     0
 10
0.0
 20
0.0
 11
1.0
 21
1.0
 12
59.16934093894536
 22
-15.36346988035541
 13
0.0
 23
0.0
 14
1.0
 24
1.0
 15
0.0
 25
0.0
 16
0.0
 26
0.0
 36
1.0
 17
0.0
 27
0.0
 37
0.0
 40
440.2678307241589
 41
1.535714285714285
 42
50.0
 43
0.0
 44
0.0
 50
0.0
 51
0.0
 71
     0
 72
   100
 73
     1
 74
     1
 75
     0
 76
     0
 77
     0
 78
     0
281
     0
 65
     0
110
0.0
120
0.0
130
0.0
111
1.0
121
0.0
131
0.0
112
0.0
122
1.0
132
0.0
 79
     0
146
0.0
  0
ENDTAB
  0
TABLE
  2
LTYPE
  5
4
330
0
100
AcDbSymbolTable
 70
     4
  0
LTYPE
  5
11
330
4
100
AcDbSymbolTableRecord
100
AcDbLinetypeTableRecord
  2
BYBLOCK
 70
     0
  3

 72
    65
 73
     0
 40
0.0
  0
LTYPE
  5
12
330
4
100
AcDbSymbolTableRecord
100
AcDbLinetypeTableRecord
  2
BYLAYER
 70
     0
  3

 72
    65
 73
     0
 40
0.0
  0
LTYPE
  5
13
330
4
100
AcDbSymbolTableRecord
100
AcDbLinetypeTableRecord
  2
CONTINUOUS
 70
     0
  3
Solid line
 72
    65
 73
     0
 40
0.0
  0
LTYPE
  5
3C
330
4
100
AcDbSymbolTableRecord
100
AcDbLinetypeTableRecord
  2
CENTER
 70
     0
  3
Center ____ _ ____ _ ____ _ ____ _ ____ _ ____
 72
    65
 73
     4
 40
50.8
 49
31.75
 74
     0
 49
-6.349999999999999
 74
     0
 49
6.349999999999999
 74
     0
 49
-6.349999999999999
 74
     0
  0
LTYPE
  5
86
330
4
100
AcDbSymbolTableRecord
100
AcDbLinetypeTableRecord
  2
PHANTOM
 70
     0
  3
Phantom ______  __  __  ______  __  __  ______
 72
    65
 73
     6
 40
63.5
 49
31.75
 74
     0
 49
-6.349999999999999
 74
     0
 49
6.349999999999999
 74
     0
 49
-6.349999999999999
 74
     0
 49
6.349999999999999
 74
     0
 49
-6.349999999999999
 74
     0
  0
LTYPE
  5
8E
330
4
100
AcDbSymbolTableRecord
100
AcDbLinetypeTableRecord
  2
DASHED
 70
     0
  3
Dashed __ __ __ __ __ __ __ __ __ __ __ __ __ _
 72
    65
 73
     2
 40
19.05
 49
12.7
 74
     0
 49
-6.349999999999999
 74
     0
  0
ENDTAB
  0
TABLE
  2
LAYER
  5
2
330
0
100
AcDbSymbolTable
 70
     4
  0
LAYER
  5
14
330
2
100
AcDbSymbolTableRecord
100
AcDbLayerTableRecord
  2
0
 70
     0
 62
     7
  6
CONTINUOUS
370
    -3
390
1D
  0
LAYER
  5
23
330
2
100
AcDbSymbolTableRecord
100
AcDbLayerTableRecord
  2
DEFPOINTS
 70
     0
 62
     7
  6
CONTINUOUS
290
     0
370
    -3
390
1D
  0
LAYER
  5
24
330
2
100
AcDbSymbolTableRecord
100
AcDbLayerTableRecord
  2
PV
 70
     0
 62
     7
  6
CONTINUOUS
370
    -3
390
1D
  0
LAYER
  5
25
330
2
100
AcDbSymbolTableRecord
100
AcDbLayerTableRecord
  2
WV
 70
     0
 62
     7
  6
CONTINUOUS
370
    -3
390
1D
  0
ENDTAB
  0
TABLE
  2
STYLE
  5
3
330
0
100
AcDbSymbolTable
 70
     2
  0
STYLE
  5
17
330
3
100
AcDbSymbolTableRecord
100
AcDbTextStyleTableRecord
  2
MX_NOTE_STANDARD
 70
     0
 40
0.0
 41
1.0
 50
0.0
 71
     0
 42
3.2
  3
txt.shx
  4
extfont.shx
  0
STYLE
  5
3B5
330
3
100
AcDbSymbolTableRecord
100
AcDbTextStyleTableRecord
  2
Standard
 70
     0
 40
0.0
 41
1.0
 50
0.0
 71
     0
 42
0.2
  3

  4

  0
ENDTAB
  0
TABLE
  2
VIEW
  5
5
330
0
100
AcDbSymbolTable
 70
     0
  0
ENDTAB
  0
TABLE
  2
UCS
  5
6
330
0
100
AcDbSymbolTable
 70
     0
  0
ENDTAB
  0
TABLE
  2
APPID
  5
8
330
0
100
AcDbSymbolTable
 70
     1
  0
APPID
  5
16
330
8
100
AcDbSymbolTableRecord
100
AcDbRegAppTableRecord
  2
ACAD
 70
     0
  0
ENDTAB
  0
TABLE
  2
DIMSTYLE
  5
9
330
0
100
AcDbSymbolTable
 70
     1
100
AcDbDimStyleTable
 71
     0
  0
DIMSTYLE
105
18
102
{ACAD_REACTORS
330
3B
102
}
330
9
100
AcDbSymbolTableRecord
100
AcDbDimStyleTableRecord
  2
MXDIMSTYLE
 70
     0
 41
2.5
 42
2.54
 43
3.75
 44
2.286
 73
     0
 74
     0
 77
     1
 78
     8
140
3.2
141
2.5
143
0.03937
147
1.0
171
     4
172
     1
173
     1
271
     2
272
     2
274
     4
283
     0
288
     1
340
17
341
26
343
26
344
26
  0
ENDTAB
  0
TABLE
  2
BLOCK_RECORD
  5
1
330
0
100
AcDbSymbolTable
 70
     3
  0
BLOCK_RECORD
  5
A
330
1
100
AcDbSymbolTableRecord
100
AcDbBlockTableRecord
  2
*MODEL_SPACE
340
20
  0
BLOCK_RECORD
  5
B
330
1
100
AcDbSymbolTableRecord
100
AcDbBlockTableRecord
  2
*PAPER_SPACE
340
21
  0
BLOCK_RECORD
  5
26
330
1
100
AcDbSymbolTableRecord
100
AcDbBlockTableRecord
  2
_OPEN30
340
0
102
{BLKREFS
331
32
102
}
  0
BLOCK_RECORD
  5
2D
330
1
100
AcDbSymbolTableRecord
100
AcDbBlockTableRecord
  2
*D1
340
0
  0
BLOCK_RECORD
  5
33
330
1
100
AcDbSymbolTableRecord
100
AcDbBlockTableRecord
  2
_NONE
340
0
  0
ENDTAB
  0
ENDSEC
  0
SECTION
  2
BLOCKS
  0
BLOCK
  5
D
330
A
100
AcDbEntity
  8
0
100
AcDbBlockBegin
  2
*MODEL_SPACE
 70
     0
 10
0.0
 20
0.0
 30
0.0
  3
*MODEL_SPACE
  1

  0
ENDBLK
  5
E
330
A
100
AcDbEntity
  8
0
100
AcDbBlockEnd
  0
BLOCK
  5
F
330
B
100
AcDbEntity
 67
     1
  8
0
100
AcDbBlockBegin
  2
*PAPER_SPACE
 70
     0
 10
0.0
 20
0.0
 30
0.0
  3
*PAPER_SPACE
  1

  0
ENDBLK
  5
10
330
B
100
AcDbEntity
 67
     1
  8
0
100
AcDbBlockEnd
  0
BLOCK
  5
27
330
26
100
AcDbEntity
  8
0
  6
ByBlock
 62
     0
370
    -2
100
AcDbBlockBegin
  2
_OPEN30
 70
     2
 10
0.0
 20
0.0
 30
0.0
  3
_OPEN30
  1

  0
LINE
  5
28
330
26
100
AcDbEntity
  8
0
  6
ByBlock
 62
     0
370
    -2
100
AcDbLine
 10
-1.0
 20
0.267949
 30
0.0
 11
0.0
 21
0.0
 31
0.0
  0
LINE
  5
29
330
26
100
AcDbEntity
  8
0
  6
ByBlock
 62
     0
370
    -2
100
AcDbLine
 10
0.0
 20
0.0
 30
0.0
 11
-1.0
 21
-0.267949
 31
0.0
  0
LINE
  5
2A
330
26
100
AcDbEntity
  8
0
  6
ByBlock
 62
     0
370
    -2
100
AcDbLine
 10
0.0
 20
0.0
 30
0.0
 11
-1.0
 21
0.0
 31
0.0
  0
ENDBLK
  5
2B
330
26
100
AcDbEntity
  8
0
  6
ByBlock
 62
     0
370
    -2
100
AcDbBlockEnd
  0
BLOCK
  5
2E
330
2D
100
AcDbEntity
  8
0
  6
ByBlock
 62
     0
370
    -2
100
AcDbBlockBegin
  2
*D1
 70
     1
 10
0.0
 20
0.0
 30
0.0
  3
*D1
  1

  0
LINE
  5
2F
330
2D
100
AcDbEntity
  8
0
  6
Continuous
 62
     7
100
AcDbLine
 10
-134.412104
 20
70.99511600000001
 30
0.0
 11
-128.4619139999999
 21
24.884029
 31
0.0
  0
LINE
  5
30
330
2D
100
AcDbEntity
  8
0
  6
Continuous
 62
     7
100
AcDbLine
 10
-128.4619139999999
 20
24.884029
 30
0.0
 11
-59.009662
 21
24.884029
 31
0.0
  0
LINE
  5
31
330
2D
100
AcDbEntity
  8
0
  6
Continuous
 62
     7
100
AcDbLine
 10
-134.412104
 20
70.99511600000001
 30
0.0
 11
-133.5994359999999
 21
64.697333
 31
0.0
  0
INSERT
  5
32
330
2D
100
AcDbEntity
  8
0
  6
Continuous
 62
     7
100
AcDbBlockReference
  2
_OPEN30
 10
-134.412104
 20
70.99511600000001
 30
0.0
 41
2.77
 42
2.77
 43
2.77
 50
97.352834
  0
MTEXT
  5
37
330
2D
100
AcDbEntity
  8
0
  6
Continuous
 62
     7
100
AcDbMText
 10
-93.784664
 20
29.13402899999999
 30
0.0
 40
6.5
 41
0.0
 71
     5
 72
     1
  1
\A1;4-10キリ（等配）
 73
     1
 44
0.9
  0
POINT
  5
38
330
2D
100
AcDbEntity
  8
DEFPOINTS
  6
Continuous
 62
     0
100
AcDbPoint
 10
-134.412104
 20
70.99511600000001
 30
0.0
  0
POINT
  5
39
330
2D
100
AcDbEntity
  8
DEFPOINTS
  6
Continuous
 62
     0
100
AcDbPoint
 10
-135.6918959999999
 20
80.91288399999999
 30
0.0
  0
ENDBLK
  5
3A
330
2D
100
AcDbEntity
  8
0
  6
ByBlock
 62
     0
370
    -2
100
AcDbBlockEnd
  0
BLOCK
  5
34
330
33
100
AcDbEntity
  8
0
  6
ByBlock
 62
     0
370
    -2
100
AcDbBlockBegin
  2
_NONE
 70
     2
 10
0.0
 20
0.0
 30
0.0
  3
_NONE
  1

  0
CIRCLE
  5
35
330
33
100
AcDbEntity
  8
0
  6
ByBlock
 62
     0
370
    -2
100
AcDbCircle
 10
0.0
 20
0.0
 30
0.0
 40
0.25
  0
ENDBLK
  5
36
330
33
100
AcDbEntity
  8
0
  6
ByBlock
 62
     0
370
    -2
100
AcDbBlockEnd
  0
ENDSEC
  0
SECTION
  2
ENTITIES
  0
LINE
  5
2C
330
A
100
AcDbEntity
  8
0
  6
Continuous
 62
     7
100
AcDbLine
 10
68.619
 20
4.5
 30
0.0
 11
68.619
 21
55.74969
 31
0.0
  0
DIMENSION
  5
3B
330
A
100
AcDbEntity
  8
0
  6
Continuous
 62
     7
100
AcDbDimension
  2
*D1
 10
-135.6918959999999
 20
80.91288399999999
 30
0.0
 11
-93.784664
 21
24.884029
 31
0.0
 70
   131
  1
4-<>
 71
     5
 41
0.9
 42
10.0
  3
MXDIMSTYLE
100
AcDbDiametricDimension
 15
-134.412104
 25
70.99511600000001
 35
0.0
 40
0.0
1001
ACAD
1000
DSTYLE
1002
{
1070
     6
1000
_NONE
1070
    41
1040
2.77
1070
    73
1070
     1
1070
    74
1070
     1
1070
   140
1040
6.5
1070
   141
1040
0.0
1070
   172
1070
     0
1070
   271
1070
     0
1070
   284
1070
     8
1070
   343
1005
33
1002
}
  0
LINE
  5
3D
330
A
100
AcDbEntity
  8
PV
  6
CENTER
 62
     7
100
AcDbLine
 10
62.44399999999999
 20
106.006
 30
0.0
 11
-77.28699999999999
 21
106.006
 31
0.0
  0
LINE
  5
3E
330
A
100
AcDbEntity
  8
PV
  6
CENTER
 62
     7
100
AcDbLine
 10
5.0
 20
163.531
 30
0.0
 11
5.0
 21
50.32
 31
0.0
  0
LINE
  5
3F
330
A
100
AcDbEntity
  8
PV
  6
CENTER
 62
     7
100
AcDbLine
 10
47.0
 20
75.006
 30
0.0
 11
25.0
 21
75.006
 31
0.0
  0
LINE
  5
40
330
A
100
AcDbEntity
  8
PV
  6
CENTER
 62
     7
100
AcDbLine
 10
36.0
 20
86.006
 30
0.0
 11
36.0
 21
64.006
 31
0.0
  0
LINE
  5
41
330
A
100
AcDbEntity
  8
PV
  6
CENTER
 62
     7
100
AcDbLine
 10
-26.0
 20
86.006
 30
0.0
 11
-26.0
 21
64.006
 31
0.0
  0
LINE
  5
42
330
A
100
AcDbEntity
  8
PV
  6
CENTER
 62
     7
100
AcDbLine
 10
-37.0
 20
75.006
 30
0.0
 11
-15.0
 21
75.006
 31
0.0
  0
LINE
  5
43
330
A
100
AcDbEntity
  8
PV
  6
CENTER
 62
     7
100
AcDbLine
 10
36.0
 20
126.0059999999999
 30
0.0
 11
36.0
 21
148.0059999999999
 31
0.0
  0
LINE
  5
44
330
A
100
AcDbEntity
  8
PV
  6
CENTER
 62
     7
100
AcDbLine
 10
47.0
 20
137.006
 30
0.0
 11
25.0
 21
137.006
 31
0.0
  0
LINE
  5
45
330
A
100
AcDbEntity
  8
PV
  6
CENTER
 62
     7
100
AcDbLine
 10
-26.0
 20
126.0059999999999
 30
0.0
 11
-26.0
 21
148.0059999999999
 31
0.0
  0
LINE
  5
46
330
A
100
AcDbEntity
  8
PV
  6
CENTER
 62
     7
100
AcDbLine
 10
-37.0
 20
137.006
 30
0.0
 11
-15.0
 21
137.006
 31
0.0
  0
LINE
  5
47
330
A
100
AcDbEntity
  8
PV
  6
Continuous
 62
   254
100
AcDbLine
 10
-21.999
 20
96.76999999999999
 30
0.0
 11
-16.499
 21
87.24299999999999
 31
0.0
  0
LINE
  5
48
330
A
100
AcDbEntity
  8
PV
  6
Continuous
 62
   254
100
AcDbLine
 10
-22.68199999999999
 20
96.95299999999999
 30
0.0
 11
-23.456
 21
96.506
 31
0.0
  0
LINE
  5
49
330
A
100
AcDbEntity
  8
PV
  6
Continuous
 62
   254
100
AcDbLine
 10
-16.682
 20
86.56
 30
0.0
 11
-17.456
 21
86.11299999999999
 31
0.0
  0
LINE
  5
4A
330
A
100
AcDbEntity
  8
PV
  6
Continuous
 62
   254
100
AcDbLine
 10
-1.0
 20
77.506
 30
0.0
 11
-1.0
 21
76.613
 31
0.0
  0
LINE
  5
4B
330
A
100
AcDbEntity
  8
PV
  6
Continuous
 62
   254
100
AcDbLine
 10
-0.5
 20
78.006
 30
0.0
 11
10.5
 21
78.006
 31
0.0
  0
LINE
  5
4C
330
A
100
AcDbEntity
  8
PV
  6
Continuous
 62
   254
100
AcDbLine
 10
11.0
 20
77.506
 30
0.0
 11
11.0
 21
76.613
 31
0.0
  0
LINE
  5
4D
330
A
100
AcDbEntity
  8
PV
  6
Continuous
 62
   254
100
AcDbLine
 10
26.682
 20
86.56
 30
0.0
 11
27.456
 21
86.11299999999999
 31
0.0
  0
LINE
  5
4E
330
A
100
AcDbEntity
  8
PV
  6
Continuous
 62
   254
100
AcDbLine
 10
26.499
 20
87.24299999999999
 30
0.0
 11
31.999
 21
96.76999999999999
 31
0.0
  0
LINE
  5
4F
330
A
100
AcDbEntity
  8
PV
  6
Continuous
 62
   254
100
AcDbLine
 10
32.68199999999999
 20
96.95299999999999
 30
0.0
 11
33.45599999999999
 21
96.506
 31
0.0
  0
LINE
  5
50
330
A
100
AcDbEntity
  8
PV
  6
Continuous
 62
   254
100
AcDbLine
 10
32.68199999999999
 20
115.06
 30
0.0
 11
33.45599999999999
 21
115.507
 31
0.0
  0
LINE
  5
51
330
A
100
AcDbEntity
  8
PV
  6
Continuous
 62
   254
100
AcDbLine
 10
31.999
 20
115.243
 30
0.0
 11
26.499
 21
124.77
 31
0.0
  0
LINE
  5
52
330
A
100
AcDbEntity
  8
PV
  6
Continuous
 62
   254
100
AcDbLine
 10
26.682
 20
125.4529999999999
 30
0.0
 11
27.456
 21
125.9
 31
0.0
  0
LINE
  5
53
330
A
100
AcDbEntity
  8
PV
  6
Continuous
 62
   254
100
AcDbLine
 10
11.0
 20
134.5059999999999
 30
0.0
 11
11.0
 21
135.4
 31
0.0
  0
LINE
  5
54
330
A
100
AcDbEntity
  8
PV
  6
Continuous
 62
   254
100
AcDbLine
 10
10.5
 20
134.006
 30
0.0
 11
-0.5
 21
134.006
 31
0.0
  0
LINE
  5
55
330
A
100
AcDbEntity
  8
PV
  6
Continuous
 62
   254
100
AcDbLine
 10
-1.0
 20
134.5059999999999
 30
0.0
 11
-1.0
 21
135.4
 31
0.0
  0
LINE
  5
56
330
A
100
AcDbEntity
  8
PV
  6
Continuous
 62
   254
100
AcDbLine
 10
-16.682
 20
125.4529999999999
 30
0.0
 11
-17.456
 21
125.9
 31
0.0
  0
LINE
  5
57
330
A
100
AcDbEntity
  8
PV
  6
Continuous
 62
   254
100
AcDbLine
 10
-16.499
 20
124.77
 30
0.0
 11
-21.999
 21
115.243
 31
0.0
  0
LINE
  5
58
330
A
100
AcDbEntity
  8
PV
  6
Continuous
 62
   254
100
AcDbLine
 10
-22.68199999999999
 20
115.06
 30
0.0
 11
-23.456
 21
115.507
 31
0.0
  0
LINE
  5
59
330
A
100
AcDbEntity
  8
PV
  6
Continuous
 62
     7
100
AcDbLine
 10
39.18699999999999
 20
146.506
 30
0.0
 11
-29.18699999999999
 21
146.506
 31
0.0
  0
LINE
  5
5A
330
A
100
AcDbEntity
  8
PV
  6
Continuous
 62
     7
100
AcDbLine
 10
-35.5
 20
140.1929999999999
 30
0.0
 11
-35.5
 21
71.819
 31
0.0
  0
LINE
  5
5B
330
A
100
AcDbEntity
  8
PV
  6
Continuous
 62
     7
100
AcDbLine
 10
45.49999999999999
 20
140.1929999999999
 30
0.0
 11
45.49999999999999
 21
71.819
 31
0.0
  0
LINE
  5
5C
330
A
100
AcDbEntity
  8
PV
  6
Continuous
 62
     7
100
AcDbLine
 10
39.18699999999999
 20
65.506
 30
0.0
 11
-29.18699999999999
 21
65.506
 31
0.0
  0
LINE
  5
5D
330
A
100
AcDbEntity
  8
PV
  6
CENTER
 62
     7
100
AcDbLine
 10
-105.0
 20
153.144
 30
0.0
 11
-105.0
 21
57.715
 31
0.0
  0
LINE
  5
5E
330
A
100
AcDbEntity
  8
PV
  6
CENTER
 62
     7
100
AcDbLine
 10
-95.81999999999998
 20
106.006
 30
0.0
 11
-151.116
 21
106.006
 31
0.0
  0
LINE
  5
5F
330
A
100
AcDbEntity
  8
PV
  6
CENTER
 62
     7
100
AcDbLine
 10
-140.997
 20
142.004
 30
0.0
 11
-127.088
 21
128.0939999999999
 31
0.0
  0
LINE
  5
60
330
A
100
AcDbEntity
  8
PV
  6
CENTER
 62
     7
100
AcDbLine
 10
-127.701
 20
83.305
 30
0.0
 11
-140.9149999999999
 21
70.091
 31
0.0
  0
LINE
  5
61
330
A
100
AcDbEntity
  8
PV
  6
Continuous
 62
     7
100
AcDbLine
 10
-55.5
 20
-41.0
 30
0.0
 11
-64.0
 21
-41.0
 31
0.0
  0
LINE
  5
62
330
A
100
AcDbEntity
  8
PV
  6
Continuous
 62
     7
100
AcDbLine
 10
-65.0
 20
-145.0
 30
0.0
 11
-65.0
 21
-42.0
 31
0.0
  0
LINE
  5
63
330
A
100
AcDbEntity
  8
PV
  6
Continuous
 62
     7
100
AcDbLine
 10
-64.0
 20
-41.0
 30
0.0
 11
-65.0
 21
-42.0
 31
0.0
  0
LINE
  5
64
330
A
100
AcDbEntity
  8
PV
  6
Continuous
 62
     7
100
AcDbLine
 10
-55.0
 20
-41.5
 30
0.0
 11
-55.5
 21
-41.0
 31
0.0
  0
LINE
  5
65
330
A
100
AcDbEntity
  8
PV
  6
Continuous
 62
     7
100
AcDbLine
 10
-55.0
 20
-145.5
 30
0.0
 11
-55.0
 21
-41.5
 31
0.0
  0
LINE
  5
66
330
A
100
AcDbEntity
  8
PV
  6
Continuous
 62
     7
100
AcDbLine
 10
-33.0
 20
-72.15
 30
0.0
 11
-55.0
 21
-72.15
 31
0.0
  0
LINE
  5
67
330
A
100
AcDbEntity
  8
PV
  6
Continuous
 62
     7
100
AcDbLine
 10
-33.0
 20
-114.85
 30
0.0
 11
-55.0
 21
-114.85
 31
0.0
  0
LINE
  5
68
330
A
100
AcDbEntity
  8
PV
  6
Continuous
 62
     7
100
AcDbLine
 10
-55.0
 20
-145.5
 30
0.0
 11
-55.5
 21
-146.0
 31
0.0
  0
LINE
  5
69
330
A
100
AcDbEntity
  8
PV
  6
Continuous
 62
     7
100
AcDbLine
 10
-55.5
 20
-146.0
 30
0.0
 11
-64.0
 21
-146.0
 31
0.0
  0
LINE
  5
6A
330
A
100
AcDbEntity
  8
PV
  6
Continuous
 62
     7
100
AcDbLine
 10
-64.0
 20
-146.0
 30
0.0
 11
-65.0
 21
-145.0
 31
0.0
  0
LINE
  5
6B
330
A
100
AcDbEntity
  8
PV
  6
Continuous
 62
     7
100
AcDbLine
 10
-65.0
 20
54.506
 30
0.0
 11
-65.0
 21
157.506
 31
0.0
  0
LINE
  5
6C
330
A
100
AcDbEntity
  8
PV
  6
Continuous
 62
     7
100
AcDbLine
 10
-55.5
 20
158.506
 30
0.0
 11
-64.0
 21
158.506
 31
0.0
  0
LINE
  5
6D
330
A
100
AcDbEntity
  8
PV
  6
Continuous
 62
     7
100
AcDbLine
 10
-64.0
 20
158.506
 30
0.0
 11
-65.0
 21
157.506
 31
0.0
  0
LINE
  5
6E
330
A
100
AcDbEntity
  8
PV
  6
Continuous
 62
     7
100
AcDbLine
 10
-55.0
 20
158.006
 30
0.0
 11
-55.5
 21
158.506
 31
0.0
  0
LINE
  5
6F
330
A
100
AcDbEntity
  8
PV
  6
Continuous
 62
     7
100
AcDbLine
 10
-55.0
 20
106.006
 30
0.0
 11
-55.0
 21
158.006
 31
0.0
  0
LINE
  5
70
330
A
100
AcDbEntity
  8
PV
  6
Continuous
 62
     7
100
AcDbLine
 10
-55.0
 20
54.006
 30
0.0
 11
-55.0
 21
106.006
 31
0.0
  0
LINE
  5
71
330
A
100
AcDbEntity
  8
PV
  6
Continuous
 62
     7
100
AcDbLine
 10
-55.5
 20
53.506
 30
0.0
 11
-64.0
 21
53.506
 31
0.0
  0
LINE
  5
72
330
A
100
AcDbEntity
  8
PV
  6
Continuous
 62
     7
100
AcDbLine
 10
-64.0
 20
53.506
 30
0.0
 11
-65.0
 21
54.506
 31
0.0
  0
LINE
  5
73
330
A
100
AcDbEntity
  8
PV
  6
Continuous
 62
     7
100
AcDbLine
 10
-55.0
 20
54.006
 30
0.0
 11
-55.5
 21
53.506
 31
0.0
  0
LINE
  5
74
330
A
100
AcDbEntity
  8
PV
  6
Continuous
 62
     7
100
AcDbLine
 10
-55.0
 20
84.50599999999999
 30
0.0
 11
-35.5
 21
84.50599999999999
 31
0.0
  0
LINE
  5
75
330
A
100
AcDbEntity
  8
PV
  6
Continuous
 62
     7
100
AcDbLine
 10
-55.0
 20
127.506
 30
0.0
 11
-35.5
 21
127.506
 31
0.0
  0
LINE
  5
76
330
A
100
AcDbEntity
  8
PV
  6
CENTER
 62
     7
100
AcDbLine
 10
-47.381
 20
63.506
 30
0.0
 11
-71.082
 21
63.506
 31
0.0
  0
LINE
  5
77
330
A
100
AcDbEntity
  8
PV
  6
CENTER
 62
     7
100
AcDbLine
 10
-46.87699999999999
 20
148.506
 30
0.0
 11
-71.58599999999999
 21
148.506
 31
0.0
  0
LINE
  5
78
330
A
100
AcDbEntity
  8
PV
  6
CENTER
 62
     7
100
AcDbLine
 10
-66.79300000000001
 20
-51.0
 30
0.0
 11
-49.903
 21
-51.0
 31
0.0
  0
LINE
  5
79
330
A
100
AcDbEntity
  8
PV
  6
CENTER
 62
     7
100
AcDbLine
 10
-66.79300000000001
 20
-136.0
 30
0.0
 11
-48.894
 21
-136.0
 31
0.0
  0
LINE
  5
7A
330
A
100
AcDbEntity
  8
PV
  6
CENTER
 62
     7
100
AcDbLine
 10
5.0
 20
23.706
 30
0.0
 11
5.0
 21
-168.5235159999999
 31
0.0
  0
LINE
  5
7B
330
A
100
AcDbEntity
  8
PV
  6
CENTER
 62
     7
100
AcDbLine
 10
-26.0
 20
-30.733
 30
0.0
 11
-26.0
 21
-64.112
 31
0.0
  0
LINE
  5
7C
330
A
100
AcDbEntity
  8
PV
  6
CENTER
 62
     7
100
AcDbLine
 10
36.0
 20
-30.733
 30
0.0
 11
36.0
 21
-63.915
 31
0.0
  0
LINE
  5
7D
330
A
100
AcDbEntity
  8
PV
  6
Continuous
 62
     7
100
AcDbLine
 10
36.0
 20
-125.5
 30
0.0
 11
-26.0
 21
-125.5
 31
0.0
  0
LINE
  5
7E
330
A
100
AcDbEntity
  8
PV
  6
CENTER
 62
     7
100
AcDbLine
 10
-74.98000000000001
 20
-93.49999999999999
 30
0.0
 11
-5.068999999999999
 21
-93.49999999999999
 31
0.0
  0
LINE
  5
7F
330
A
100
AcDbEntity
  8
PV
  6
Continuous
 62
     7
100
AcDbLine
 10
-33.0
 20
-61.538
 30
0.0
 11
-33.0
 21
-72.15
 31
0.0
  0
LINE
  5
80
330
A
100
AcDbEntity
  8
PV
  6
Continuous
 62
     7
100
AcDbLine
 10
-35.5
 20
-61.5
 30
0.0
 11
45.49999999999999
 21
-61.5
 31
0.0
  0
LINE
  5
81
330
A
100
AcDbEntity
  8
PV
  6
Continuous
 62
     7
100
AcDbLine
 10
-35.5
 20
-50.0
 30
0.0
 11
45.49999999999999
 21
-50.0
 31
0.0
  0
LINE
  5
82
330
A
100
AcDbEntity
  8
PV
  6
Continuous
 62
     7
100
AcDbLine
 10
-34.5
 20
-34.0
 30
0.0
 11
44.5
 21
-34.0
 31
0.0
  0
LINE
  5
83
330
A
100
AcDbEntity
  8
PV
  6
Continuous
 62
     7
100
AcDbLine
 10
-30.5
 20
-50.05600000000001
 30
0.0
 11
-30.5
 21
-61.5
 31
0.0
  0
LINE
  5
84
330
A
100
AcDbEntity
  8
PV
  6
Continuous
 62
     7
100
AcDbLine
 10
40.49999999999999
 20
-50.15399999999999
 30
0.0
 11
40.49999999999999
 21
-61.5
 31
0.0
  0
LINE
  5
85
330
A
100
AcDbEntity
  8
PV
  6
Continuous
 62
     7
100
AcDbLine
 10
40.49999999999999
 20
-50.0
 30
0.0
 11
40.49999999999999
 21
-34.0
 31
0.0
  0
LINE
  5
87
330
A
100
AcDbEntity
  8
PV
  6
PHANTOM
 62
     7
100
AcDbLine
 10
-25.0
 20
-6.5
 30
0.0
 11
35.0
 21
-6.5
 31
0.0
  0
LINE
  5
88
330
A
100
AcDbEntity
  8
PV
  6
PHANTOM
 62
     7
100
AcDbLine
 10
-22.078
 20
18.5
 30
0.0
 11
32.078
 21
18.5
 31
0.0
  0
LINE
  5
89
330
A
100
AcDbEntity
  8
PV
  6
PHANTOM
 62
     7
100
AcDbLine
 10
-25.0
 20
-6.5
 30
0.0
 11
-24.077
 21
16.57999999999999
 31
0.0
  0
LINE
  5
8A
330
A
100
AcDbEntity
  8
PV
  6
PHANTOM
 62
     7
100
AcDbLine
 10
34.077
 20
16.57999999999999
 30
0.0
 11
35.0
 21
-6.5
 31
0.0
  0
LINE
  5
8B
330
A
100
AcDbEntity
  8
PV
  6
Continuous
 62
     7
100
AcDbLine
 10
-1.0
 20
3.5
 30
0.0
 11
-1.0
 21
-10.5
 31
0.0
  0
LINE
  5
8C
330
A
100
AcDbEntity
  8
PV
  6
Continuous
 62
     7
100
AcDbLine
 10
11.0
 20
3.5
 30
0.0
 11
11.0
 21
-10.5
 31
0.0
  0
LINE
  5
8D
330
A
100
AcDbEntity
  8
PV
  6
Continuous
 62
     7
100
AcDbLine
 10
-20.5
 20
4.5
 30
0.0
 11
30.5
 21
4.5
 31
0.0
  0
LINE
  5
8F
330
A
100
AcDbEntity
  8
PV
  6
DASHED
 62
     7
100
AcDbLine
 10
30.0
 20
4.5
 30
0.0
 11
30.0
 21
4.2
 31
0.0
  0
LINE
  5
90
330
A
100
AcDbEntity
  8
PV
  6
DASHED
 62
     7
100
AcDbLine
 10
-20.0
 20
4.5
 30
0.0
 11
-20.0
 21
4.2
 31
0.0
  0
LINE
  5
91
330
A
100
AcDbEntity
  8
PV
  6
PHANTOM
 62
     7
100
AcDbLine
 10
-20.5
 20
19.5
 30
0.0
 11
30.5
 21
19.5
 31
0.0
  0
LINE
  5
92
330
A
100
AcDbEntity
  8
PV
  6
DASHED
 62
     7
100
AcDbLine
 10
-20.0
 20
4.2
 30
0.0
 11
30.0
 21
4.2
 31
0.0
  0
LINE
  5
93
330
A
100
AcDbEntity
  8
PV
  6
Continuous
 62
     7
100
AcDbLine
 10
-17.456
 20
3.5
 30
0.0
 11
-17.456
 21
-10.5
 31
0.0
  0
LINE
  5
94
330
A
100
AcDbEntity
  8
PV
  6
Continuous
 62
     7
100
AcDbLine
 10
-23.456
 20
2.95
 30
0.0
 11
-23.456
 21
-10.5
 31
0.0
  0
LINE
  5
95
330
A
100
AcDbEntity
  8
PV
  6
Continuous
 62
     7
100
AcDbLine
 10
-22.256
 20
3.5
 30
0.0
 11
-22.256
 21
-10.5
 31
0.0
  0
LINE
  5
96
330
A
100
AcDbEntity
  8
PV
  6
Continuous
 62
     7
100
AcDbLine
 10
-21.072
 20
-14.88299999999999
 30
0.0
 11
-19.827
 21
-16.367
 31
0.0
  0
LINE
  5
97
330
A
100
AcDbEntity
  8
PV
  6
Continuous
 62
     7
100
AcDbLine
 10
27.456
 20
3.5
 30
0.0
 11
27.456
 21
-10.5
 31
0.0
  0
LINE
  5
98
330
A
100
AcDbEntity
  8
PV
  6
Continuous
 62
     7
100
AcDbLine
 10
33.45599999999999
 20
2.95
 30
0.0
 11
33.45599999999999
 21
-10.5
 31
0.0
  0
LINE
  5
99
330
A
100
AcDbEntity
  8
PV
  6
Continuous
 62
     7
100
AcDbLine
 10
32.256
 20
3.5
 30
0.0
 11
32.256
 21
-10.5
 31
0.0
  0
LINE
  5
9A
330
A
100
AcDbEntity
  8
PV
  6
Continuous
 62
     7
100
AcDbLine
 10
31.072
 20
-14.88299999999999
 30
0.0
 11
29.82699999999999
 21
-16.367
 31
0.0
  0
LINE
  5
9B
330
A
100
AcDbEntity
  8
PV
  6
Continuous
 62
     7
100
AcDbLine
 10
-21.0
 20
-29.0
 30
0.0
 11
31.0
 21
-29.0
 31
0.0
  0
LINE
  5
9C
330
A
100
AcDbEntity
  8
PV
  6
Continuous
 62
     7
100
AcDbLine
 10
1.0
 20
-21.49999999999999
 30
0.0
 11
1.0
 21
-29.0
 31
0.0
  0
LINE
  5
9D
330
A
100
AcDbEntity
  8
PV
  6
Continuous
 62
     7
100
AcDbLine
 10
9.0
 20
-21.49999999999999
 30
0.0
 11
9.0
 21
-29.0
 31
0.0
  0
LINE
  5
9E
330
A
100
AcDbEntity
  8
PV
  6
Continuous
 62
     7
100
AcDbLine
 10
-30.5
 20
-50.0
 30
0.0
 11
-30.5
 21
-34.0
 31
0.0
  0
LINE
  5
9F
330
A
100
AcDbEntity
  8
PV
  6
Continuous
 62
     7
100
AcDbLine
 10
-25.0
 20
-21.49999999999999
 30
0.0
 11
35.0
 21
-21.49999999999999
 31
0.0
  0
LINE
  5
A0
330
A
100
AcDbEntity
  8
PV
  6
Continuous
 62
     7
100
AcDbLine
 10
-25.0
 20
-21.49999999999999
 30
0.0
 11
-24.077
 21
1.58
 31
0.0
  0
LINE
  5
A1
330
A
100
AcDbEntity
  8
PV
  6
Continuous
 62
     7
100
AcDbLine
 10
-22.078
 20
3.5
 30
0.0
 11
32.078
 21
3.5
 31
0.0
  0
LINE
  5
A2
330
A
100
AcDbEntity
  8
PV
  6
Continuous
 62
     7
100
AcDbLine
 10
34.077
 20
1.58
 30
0.0
 11
35.0
 21
-21.49999999999999
 31
0.0
  0
LINE
  5
A3
330
A
100
AcDbEntity
  8
PV
  6
Continuous
 62
     7
100
AcDbLine
 10
-35.5
 20
-50.05600000000001
 30
0.0
 11
-35.5
 21
-61.5
 31
0.0
  0
LINE
  5
A4
330
A
100
AcDbEntity
  8
PV
  6
Continuous
 62
     7
100
AcDbLine
 10
-35.5
 20
-35.0
 30
0.0
 11
-35.5
 21
-50.0
 31
0.0
  0
LINE
  5
A5
330
A
100
AcDbEntity
  8
PV
  6
Continuous
 62
     7
100
AcDbLine
 10
45.49999999999999
 20
-50.05600000000001
 30
0.0
 11
45.49999999999999
 21
-61.5
 31
0.0
  0
LINE
  5
A6
330
A
100
AcDbEntity
  8
PV
  6
Continuous
 62
     7
100
AcDbLine
 10
45.49999999999999
 20
-34.928
 30
0.0
 11
45.49999999999999
 21
-50.0
 31
0.0
  0
LINE
  5
A7
330
A
100
AcDbEntity
  8
PV
  6
Continuous
 62
     7
100
AcDbLine
 10
43.0
 20
-61.701
 30
0.0
 11
43.0
 21
-118.5
 31
0.0
  0
LINE
  5
A8
330
A
100
AcDbEntity
  8
PV
  6
Continuous
 62
     7
100
AcDbLine
 10
-33.0
 20
-114.85
 30
0.0
 11
-33.0
 21
-118.5
 31
0.0
  0
LINE
  5
A9
330
A
100
AcDbEntity
  8
PV
  6
Continuous
 62
     7
100
AcDbLine
 10
44.5
 20
-34.0
 30
0.0
 11
45.49999999999999
 21
-35.0
 31
0.0
  0
LINE
  5
AA
330
A
100
AcDbEntity
  8
PV
  6
Continuous
 62
     7
100
AcDbLine
 10
-34.5
 20
-34.0
 30
0.0
 11
-35.5
 21
-35.0
 31
0.0
  0
LINE
  5
AB
330
A
100
AcDbEntity
  8
PV
  6
Continuous
 62
     7
100
AcDbLine
 10
43.0
 20
-118.5
 30
0.0
 11
36.0
 21
-125.5
 31
0.0
  0
LINE
  5
AC
330
A
100
AcDbEntity
  8
PV
  6
Continuous
 62
     7
100
AcDbLine
 10
-26.0
 20
-125.5
 30
0.0
 11
-33.0
 21
-118.5
 31
0.0
  0
LINE
  5
AD
330
A
100
AcDbEntity
  8
PV
  6
Continuous
 62
     7
100
AcDbLine
 10
43.0
 20
-118.5
 30
0.0
 11
-33.0
 21
-118.5
 31
0.0
  0
LINE
  5
AE
330
A
100
AcDbEntity
  8
PV
  6
Continuous
 62
     7
100
AcDbLine
 10
-64.0
 20
-41.0
 30
0.0
 11
-64.0
 21
-146.0
 31
0.0
  0
LINE
  5
AF
330
A
100
AcDbEntity
  8
PV
  6
Continuous
 62
     7
100
AcDbLine
 10
-55.5
 20
-41.0
 30
0.0
 11
-55.5
 21
-146.0
 31
0.0
  0
LINE
  5
B0
330
A
100
AcDbEntity
  8
PV
  6
Continuous
 62
     7
100
AcDbLine
 10
56.5
 20
-163.4999999999999
 30
0.0
 11
-46.5
 21
-163.4999999999999
 31
0.0
  0
LINE
  5
B1
330
A
100
AcDbEntity
  8
PV
  6
Continuous
 62
     7
100
AcDbLine
 10
-47.5
 20
-154.0
 30
0.0
 11
-47.5
 21
-162.5
 31
0.0
  0
LINE
  5
B2
330
A
100
AcDbEntity
  8
PV
  6
Continuous
 62
     7
100
AcDbLine
 10
57.5
 20
-154.0
 30
0.0
 11
57.5
 21
-162.5
 31
0.0
  0
LINE
  5
B3
330
A
100
AcDbEntity
  8
PV
  6
Continuous
 62
     7
100
AcDbLine
 10
-47.5
 20
-162.5
 30
0.0
 11
-46.5
 21
-163.4999999999999
 31
0.0
  0
LINE
  5
B4
330
A
100
AcDbEntity
  8
PV
  6
Continuous
 62
     7
100
AcDbLine
 10
57.5
 20
-162.5
 30
0.0
 11
56.5
 21
-163.4999999999999
 31
0.0
  0
LINE
  5
B5
330
A
100
AcDbEntity
  8
PV
  6
Continuous
 62
     7
100
AcDbLine
 10
57.0
 20
-153.5
 30
0.0
 11
57.5
 21
-154.0
 31
0.0
  0
LINE
  5
B6
330
A
100
AcDbEntity
  8
PV
  6
Continuous
 62
     7
100
AcDbLine
 10
-47.0
 20
-153.5
 30
0.0
 11
-47.5
 21
-154.0
 31
0.0
  0
LINE
  5
B7
330
A
100
AcDbEntity
  8
PV
  6
Continuous
 62
     7
100
AcDbLine
 10
57.0
 20
-153.5
 30
0.0
 11
-47.0
 21
-153.5
 31
0.0
  0
LINE
  5
B8
330
A
100
AcDbEntity
  8
PV
  6
Continuous
 62
     7
100
AcDbLine
 10
-16.5
 20
-125.5
 30
0.0
 11
-16.5
 21
-153.5
 31
0.0
  0
LINE
  5
B9
330
A
100
AcDbEntity
  8
PV
  6
Continuous
 62
     7
100
AcDbLine
 10
26.5
 20
-125.5
 30
0.0
 11
26.5
 21
-153.5
 31
0.0
  0
LINE
  5
BA
330
A
100
AcDbEntity
  8
PV
  6
CENTER
 62
     7
100
AcDbLine
 10
-37.5
 20
-146.4429999999999
 30
0.0
 11
-37.5
 21
-166.389
 31
0.0
  0
LINE
  5
BB
330
A
100
AcDbEntity
  8
PV
  6
CENTER
 62
     7
100
AcDbLine
 10
47.5
 20
-145.4349999999999
 30
0.0
 11
47.5
 21
-166.389
 31
0.0
  0
LINE
  5
BC
330
A
100
AcDbEntity
  8
PV
  6
Continuous
 62
     7
100
AcDbLine
 10
-47.5
 20
-162.5
 30
0.0
 11
57.5
 21
-162.5
 31
0.0
  0
LINE
  5
BD
330
A
100
AcDbEntity
  8
PV
  6
Continuous
 62
     7
100
AcDbLine
 10
-47.5
 20
-154.0
 30
0.0
 11
57.5
 21
-154.0
 31
0.0
  0
LINE
  5
BE
330
A
100
AcDbEntity
  8
PV
  6
Continuous
 62
     7
100
AcDbLine
 10
-64.0
 20
158.506
 30
0.0
 11
-64.0
 21
53.506
 31
0.0
  0
LINE
  5
BF
330
A
100
AcDbEntity
  8
PV
  6
Continuous
 62
     7
100
AcDbLine
 10
-55.5
 20
158.506
 30
0.0
 11
-55.5
 21
53.506
 31
0.0
  0
LINE
  5
C0
330
A
100
AcDbEntity
  8
PV
  6
DASHED
 62
     7
100
AcDbLine
 10
-65.0
 20
-66.0
 30
0.0
 11
-62.0
 21
-66.0
 31
0.0
  0
LINE
  5
C1
330
A
100
AcDbEntity
  8
PV
  6
DASHED
 62
     7
100
AcDbLine
 10
-65.0
 20
-61.0
 30
0.0
 11
-62.0
 21
-61.0
 31
0.0
  0
LINE
  5
C2
330
A
100
AcDbEntity
  8
PV
  6
DASHED
 62
     7
100
AcDbLine
 10
-62.0
 20
-66.0
 30
0.0
 11
-62.0
 21
-61.0
 31
0.0
  0
LINE
  5
C3
330
A
100
AcDbEntity
  8
PV
  6
DASHED
 62
     7
100
AcDbLine
 10
-65.0
 20
-121.0
 30
0.0
 11
-62.0
 21
-121.0
 31
0.0
  0
LINE
  5
C4
330
A
100
AcDbEntity
  8
PV
  6
DASHED
 62
     7
100
AcDbLine
 10
-62.0
 20
-121.0
 30
0.0
 11
-62.0
 21
-126.0
 31
0.0
  0
LINE
  5
C5
330
A
100
AcDbEntity
  8
PV
  6
DASHED
 62
     7
100
AcDbLine
 10
-65.0
 20
-126.0
 30
0.0
 11
-62.0
 21
-126.0
 31
0.0
  0
LINE
  5
C6
330
A
100
AcDbEntity
  8
PV
  6
DASHED
 62
     7
100
AcDbLine
 10
-65.0
 20
133.506
 30
0.0
 11
-62.0
 21
133.506
 31
0.0
  0
LINE
  5
C7
330
A
100
AcDbEntity
  8
PV
  6
DASHED
 62
     7
100
AcDbLine
 10
-65.0
 20
138.5059999999999
 30
0.0
 11
-62.0
 21
138.5059999999999
 31
0.0
  0
LINE
  5
C8
330
A
100
AcDbEntity
  8
PV
  6
DASHED
 62
     7
100
AcDbLine
 10
-62.0
 20
133.506
 30
0.0
 11
-62.0
 21
138.5059999999999
 31
0.0
  0
LINE
  5
C9
330
A
100
AcDbEntity
  8
PV
  6
DASHED
 62
     7
100
AcDbLine
 10
-65.0
 20
78.506
 30
0.0
 11
-62.0
 21
78.506
 31
0.0
  0
LINE
  5
CA
330
A
100
AcDbEntity
  8
PV
  6
DASHED
 62
     7
100
AcDbLine
 10
-65.0
 20
73.506
 30
0.0
 11
-62.0
 21
73.506
 31
0.0
  0
LINE
  5
CB
330
A
100
AcDbEntity
  8
PV
  6
DASHED
 62
     7
100
AcDbLine
 10
-62.0
 20
78.506
 30
0.0
 11
-62.0
 21
73.506
 31
0.0
  0
ARC
  5
CC
330
A
100
AcDbEntity
  8
PV
  6
Continuous
 62
   254
100
AcDbCircle
 10
14.226
 20
136.5029999999999
 30
0.0
 40
1.790999999999999
100
AcDbArc
 50
268.6023769999999
 51
270.0000109999999
  0
ARC
  5
CD
330
A
100
AcDbEntity
  8
PV
  6
Continuous
 62
   254
100
AcDbCircle
 10
5.0
 20
106.006
 30
0.0
 40
29.0
100
AcDbArc
 50
281.9405409999999
 51
318.0910859999999
  0
CIRCLE
  5
CE
330
A
100
AcDbEntity
  8
PV
  6
Continuous
 62
   254
100
AcDbCircle
 10
5.0
 20
106.006
 30
0.0
 40
26.5
  0
ARC
  5
CF
330
A
100
AcDbEntity
  8
PV
  6
Continuous
 62
   254
100
AcDbCircle
 10
-22.43199999999999
 20
96.52000000000001
 30
0.0
 40
0.5
100
AcDbArc
 50
30.000001
 51
120.0000029999999
  0
ARC
  5
D0
330
A
100
AcDbEntity
  8
PV
  6
Continuous
 62
   254
100
AcDbCircle
 10
-16.932
 20
86.99299999999999
 30
0.0
 40
0.5
100
AcDbArc
 50
299.999998
 51
30.000001
  0
ARC
  5
D1
330
A
100
AcDbEntity
  8
PV
  6
Continuous
 62
   254
100
AcDbCircle
 10
-0.5
 20
77.506
 30
0.0
 40
0.5
100
AcDbArc
 50
90.00000300000001
 51
180.000005
  0
ARC
  5
D2
330
A
100
AcDbEntity
  8
PV
  6
Continuous
 62
   254
100
AcDbCircle
 10
10.5
 20
77.506
 30
0.0
 40
0.5
100
AcDbArc
 50
0.0
 51
90.00000300000001
  0
ARC
  5
D3
330
A
100
AcDbEntity
  8
PV
  6
Continuous
 62
   254
100
AcDbCircle
 10
26.932
 20
86.99299999999999
 30
0.0
 40
0.5
100
AcDbArc
 50
149.999997
 51
240.0000069999999
  0
ARC
  5
D4
330
A
100
AcDbEntity
  8
PV
  6
Continuous
 62
   254
100
AcDbCircle
 10
32.43199999999999
 20
96.52000000000001
 30
0.0
 40
0.5
100
AcDbArc
 50
60.000002
 51
149.999997
  0
ARC
  5
D5
330
A
100
AcDbEntity
  8
PV
  6
Continuous
 62
   254
100
AcDbCircle
 10
32.43199999999999
 20
115.493
 30
0.0
 40
0.5
100
AcDbArc
 50
210.0000029999999
 51
299.999998
  0
ARC
  5
D6
330
A
100
AcDbEntity
  8
PV
  6
Continuous
 62
   254
100
AcDbCircle
 10
26.932
 20
125.0199999999999
 30
0.0
 40
0.5
100
AcDbArc
 50
120.0000029999999
 51
209.999999
  0
ARC
  5
D7
330
A
100
AcDbEntity
  8
PV
  6
Continuous
 62
   254
100
AcDbCircle
 10
10.5
 20
134.5059999999999
 30
0.0
 40
0.5
100
AcDbArc
 50
269.9999969999999
 51
0.0
  0
ARC
  5
D8
330
A
100
AcDbEntity
  8
PV
  6
Continuous
 62
   254
100
AcDbCircle
 10
-0.5
 20
134.5059999999999
 30
0.0
 40
0.5
100
AcDbArc
 50
179.9999909999999
 51
270.000001
  0
ARC
  5
D9
330
A
100
AcDbEntity
  8
PV
  6
Continuous
 62
   254
100
AcDbCircle
 10
-16.932
 20
125.0199999999999
 30
0.0
 40
0.5
100
AcDbArc
 50
329.9999989999999
 51
60.000002
  0
ARC
  5
DA
330
A
100
AcDbEntity
  8
PV
  6
Continuous
 62
   254
100
AcDbCircle
 10
-22.43199999999999
 20
115.493
 30
0.0
 40
0.5
100
AcDbArc
 50
239.999997
 51
329.9999989999999
  0
ARC
  5
DB
330
A
100
AcDbEntity
  8
PV
  6
Continuous
 62
   254
100
AcDbCircle
 10
5.0
 20
106.006
 30
0.0
 40
29.0
100
AcDbArc
 50
221.908916
 51
258.059454
  0
CIRCLE
  5
DC
330
A
100
AcDbEntity
  8
PV
  6
Continuous
 62
   254
100
AcDbCircle
 10
5.0
 20
106.006
 30
0.0
 40
30.0
  0
ARC
  5
DD
330
A
100
AcDbEntity
  8
PV
  6
Continuous
 62
   254
100
AcDbCircle
 10
5.0
 20
106.006
 30
0.0
 40
29.0
100
AcDbArc
 50
161.90891
 51
198.091086
  0
ARC
  5
DE
330
A
100
AcDbEntity
  8
PV
  6
Continuous
 62
   254
100
AcDbCircle
 10
5.0
 20
106.006
 30
0.0
 40
29.0
100
AcDbArc
 50
101.908915
 51
138.091084
  0
ARC
  5
DF
330
A
100
AcDbEntity
  8
PV
  6
Continuous
 62
   254
100
AcDbCircle
 10
5.0
 20
106.006
 30
0.0
 40
29.0
100
AcDbArc
 50
41.908914
 51
78.091083
  0
ARC
  5
E0
330
A
100
AcDbEntity
  8
PV
  6
Continuous
 62
   254
100
AcDbCircle
 10
5.0
 20
106.006
 30
0.0
 40
29.0
100
AcDbArc
 50
341.908914
 51
18.09108599999999
  0
ARC
  5
E1
330
A
100
AcDbEntity
  8
PV
  6
Continuous
 62
     7
100
AcDbCircle
 10
5.0
 20
106.006
 30
0.0
 40
53.0
100
AcDbArc
 50
220.168488
 51
229.831512
  0
ARC
  5
E2
330
A
100
AcDbEntity
  8
PV
  6
Continuous
 62
     7
100
AcDbCircle
 10
5.0
 20
106.006
 30
0.0
 40
53.0
100
AcDbArc
 50
40.168486
 51
49.831527
  0
ARC
  5
E3
330
A
100
AcDbEntity
  8
PV
  6
Continuous
 62
     7
100
AcDbCircle
 10
5.0
 20
106.006
 30
0.0
 40
53.0
100
AcDbArc
 50
130.1684749999999
 51
139.831512
  0
ARC
  5
E4
330
A
100
AcDbEntity
  8
PV
  6
Continuous
 62
     7
100
AcDbCircle
 10
5.0
 20
106.006
 30
0.0
 40
53.0
100
AcDbArc
 50
310.1684829999999
 51
319.831514
  0
CIRCLE
  5
E5
330
A
100
AcDbEntity
  8
PV
  6
Continuous
 62
     7
100
AcDbCircle
 10
-26.0
 20
75.006
 30
0.0
 40
7.5
  0
CIRCLE
  5
E6
330
A
100
AcDbEntity
  8
PV
  6
Continuous
 62
     7
100
AcDbCircle
 10
36.0
 20
75.006
 30
0.0
 40
7.5
  0
CIRCLE
  5
E7
330
A
100
AcDbEntity
  8
PV
  6
Continuous
 62
     7
100
AcDbCircle
 10
36.0
 20
137.006
 30
0.0
 40
7.5
  0
CIRCLE
  5
E8
330
A
100
AcDbEntity
  8
PV
  6
Continuous
 62
     7
100
AcDbCircle
 10
-26.0
 20
137.006
 30
0.0
 40
7.5
  0
ARC
  5
E9
330
A
100
AcDbEntity
  8
PV
  6
CENTER
 62
     7
100
AcDbCircle
 10
-105.0
 20
106.006
 30
0.0
 40
42.5
100
AcDbArc
 50
89.999996
 51
270.000001
  0
CIRCLE
  5
EA
330
A
100
AcDbEntity
  8
PV
  6
Continuous
 62
     7
100
AcDbCircle
 10
-135.052
 20
136.0579999999999
 30
0.0
 40
5.0
  0
CIRCLE
  5
EB
330
A
100
AcDbEntity
  8
PV
  6
Continuous
 62
     7
100
AcDbCircle
 10
-135.052
 20
75.95399999999999
 30
0.0
 40
5.0
  0
ARC
  5
EC
330
A
100
AcDbEntity
  8
PV
  6
Continuous
 62
     7
100
AcDbCircle
 10
5.0
 20
106.006
 30
0.0
 40
55.0
100
AcDbArc
 50
0.0
 51
156.6528069999999
  0
ARC
  5
ED
330
A
100
AcDbEntity
  8
PV
  6
Continuous
 62
     7
100
AcDbCircle
 10
5.0
 20
106.006
 30
0.0
 40
55.0
100
AcDbArc
 50
203.011107
 51
0.0
  0
ARC
  5
EE
330
A
100
AcDbEntity
  8
PV
  6
Continuous
 62
     7
100
AcDbCircle
 10
-64.616
 20
-93.49999999999999
 30
0.0
 40
38.14999999999999
100
AcDbArc
 50
325.9695459999999
 51
34.03045399999999
  0
ARC
  5
EF
330
A
100
AcDbEntity
  8
PV
  6
PHANTOM
 62
     7
100
AcDbCircle
 10
-22.078
 20
16.5
 30
0.0
 40
2.0
100
AcDbArc
 50
90.00000300000001
 51
177.7093919999999
  0
ARC
  5
F0
330
A
100
AcDbEntity
  8
PV
  6
PHANTOM
 62
     7
100
AcDbCircle
 10
32.078
 20
16.5
 30
0.0
 40
2.0
100
AcDbArc
 50
2.29061
 51
90.00000300000001
  0
ARC
  5
F1
330
A
100
AcDbEntity
  8
PV
  6
Continuous
 62
     7
100
AcDbCircle
 10
5.0
 20
-10.5
 30
0.0
 40
6.0
100
AcDbArc
 50
179.9999909999999
 51
270.000001
  0
ARC
  5
F2
330
A
100
AcDbEntity
  8
PV
  6
Continuous
 62
     7
100
AcDbCircle
 10
5.0
 20
-10.5
 30
0.0
 40
6.0
100
AcDbArc
 50
269.9999969999999
 51
0.0
  0
ARC
  5
F3
330
A
100
AcDbEntity
  8
PV
  6
PHANTOM
 62
     7
100
AcDbCircle
 10
-20.5
 20
18.5
 30
0.0
 40
1.0
100
AcDbArc
 50
90.00000300000001
 51
180.000005
  0
ARC
  5
F4
330
A
100
AcDbEntity
  8
PV
  6
PHANTOM
 62
     7
100
AcDbCircle
 10
30.5
 20
18.5
 30
0.0
 40
1.0
100
AcDbArc
 50
0.0
 51
90.00000300000001
  0
ARC
  5
F5
330
A
100
AcDbEntity
  8
PV
  6
Continuous
 62
     7
100
AcDbCircle
 10
-26.0
 20
-29.0
 30
0.0
 40
5.0
100
AcDbArc
 50
269.9999969999999
 51
0.0
  0
ARC
  5
F6
330
A
100
AcDbEntity
  8
PV
  6
Continuous
 62
     7
100
AcDbCircle
 10
36.0
 20
-29.0
 30
0.0
 40
5.0
100
AcDbArc
 50
179.9999909999999
 51
270.000001
  0
ARC
  5
F7
330
A
100
AcDbEntity
  8
PV
  6
Continuous
 62
     7
100
AcDbCircle
 10
-22.078
 20
1.5
 30
0.0
 40
2.0
100
AcDbArc
 50
90.00000300000001
 51
177.7093919999999
  0
ARC
  5
F8
330
A
100
AcDbEntity
  8
PV
  6
Continuous
 62
     7
100
AcDbCircle
 10
-20.5
 20
3.5
 30
0.0
 40
1.0
100
AcDbArc
 50
90.00000300000001
 51
180.000005
  0
ARC
  5
F9
330
A
100
AcDbEntity
  8
PV
  6
Continuous
 62
     7
100
AcDbCircle
 10
30.5
 20
3.5
 30
0.0
 40
1.0
100
AcDbArc
 50
0.0
 51
90.00000300000001
  0
ARC
  5
FA
330
A
100
AcDbEntity
  8
PV
  6
Continuous
 62
     7
100
AcDbCircle
 10
32.078
 20
1.5
 30
0.0
 40
2.0
100
AcDbArc
 50
2.29061
 51
90.00000300000001
  0
LWPOLYLINE
  5
FB
330
A
100
AcDbEntity
  8
PV
  6
Continuous
 62
     7
100
AcDbPolyline
 90
       73
 70
     0
 43
0.0
 10
-23.456
 20
-10.5
 10
-23.453
 20
-10.762
 10
-23.444
 20
-11.023
 10
-23.42999999999999
 20
-11.283
 10
-23.41
 20
-11.542
 10
-23.385
 20
-11.799
 10
-23.35399999999999
 20
-12.053
 10
-23.31699999999999
 20
-12.304
 10
-23.275
 20
-12.552
 10
-23.22699999999999
 20
-12.796
 10
-23.175
 20
-13.036
 10
-23.11699999999999
 20
-13.26999999999999
 10
-23.054
 20
-13.5
 10
-22.98599999999999
 20
-13.724
 10
-22.913
 20
-13.94099999999999
 10
-22.83599999999999
 20
-14.153
 10
-22.754
 20
-14.357
 10
-22.668
 20
-14.554
 10
-22.57699999999999
 20
-14.743
 10
-22.48299999999999
 20
-14.924
 10
-22.38399999999999
 20
-15.09599999999999
 10
-22.28199999999999
 20
-15.25999999999999
 10
-22.177
 20
-15.415
 10
-22.068
 20
-15.56
 10
-21.956
 20
-15.696
 10
-21.84099999999999
 20
-15.822
 10
-21.724
 20
-15.93799999999999
 10
-21.604
 20
-16.043
 10
-21.482
 20
-16.13799999999999
 10
-21.358
 20
-16.222
 10
-21.232
 20
-16.29599999999999
 10
-21.105
 20
-16.358
 10
-20.97699999999999
 20
-16.409
 10
-20.84699999999999
 20
-16.449
 10
-20.71699999999999
 20
-16.477
 10
-20.58699999999999
 20
-16.49399999999999
 10
-20.45599999999999
 20
-16.5
 10
-20.325
 20
-16.49399999999999
 10
-20.194
 20
-16.477
 10
-20.064
 20
-16.449
 10
-19.935
 20
-16.409
 10
-19.807
 20
-16.358
 10
-19.679
 20
-16.29599999999999
 10
-19.554
 20
-16.222
 10
-19.42999999999999
 20
-16.13799999999999
 10
-19.30799999999999
 20
-16.043
 10
-19.188
 20
-15.93799999999999
 10
-19.07099999999999
 20
-15.822
 10
-18.95599999999999
 20
-15.696
 10
-18.844
 20
-15.56
 10
-18.73499999999999
 20
-15.415
 10
-18.62999999999999
 20
-15.25999999999999
 10
-18.527
 20
-15.09599999999999
 10
-18.429
 20
-14.924
 10
-18.335
 20
-14.743
 10
-18.24399999999999
 20
-14.554
 10
-18.158
 20
-14.357
 10
-18.076
 20
-14.153
 10
-17.998
 20
-13.94099999999999
 10
-17.926
 20
-13.724
 10
-17.858
 20
-13.5
 10
-17.795
 20
-13.26999999999999
 10
-17.737
 20
-13.036
 10
-17.684
 20
-12.796
 10
-17.637
 20
-12.552
 10
-17.595
 20
-12.304
 10
-17.55799999999999
 20
-12.053
 10
-17.527
 20
-11.799
 10
-17.50099999999999
 20
-11.542
 10
-17.48199999999999
 20
-11.283
 10
-17.46699999999999
 20
-11.023
 10
-17.45899999999999
 20
-10.762
 10
-17.456
 20
-10.5
  0
LWPOLYLINE
  5
FC
330
A
100
AcDbEntity
  8
PV
  6
Continuous
 62
     7
100
AcDbPolyline
 90
       73
 70
     0
 43
0.0
 10
27.456
 20
-10.5
 10
27.459
 20
-10.762
 10
27.467
 20
-11.023
 10
27.482
 20
-11.283
 10
27.50099999999999
 20
-11.542
 10
27.52699999999999
 20
-11.799
 10
27.558
 20
-12.053
 10
27.595
 20
-12.304
 10
27.637
 20
-12.552
 10
27.684
 20
-12.796
 10
27.73699999999999
 20
-13.036
 10
27.795
 20
-13.26999999999999
 10
27.858
 20
-13.5
 10
27.926
 20
-13.724
 10
27.998
 20
-13.94099999999999
 10
28.076
 20
-14.153
 10
28.158
 20
-14.357
 10
28.244
 20
-14.554
 10
28.335
 20
-14.743
 10
28.429
 20
-14.924
 10
28.527
 20
-15.09599999999999
 10
28.62999999999999
 20
-15.25999999999999
 10
28.73499999999999
 20
-15.415
 10
28.844
 20
-15.56
 10
28.95599999999999
 20
-15.696
 10
29.07099999999999
 20
-15.822
 10
29.188
 20
-15.93799999999999
 10
29.308
 20
-16.043
 10
29.42999999999999
 20
-16.13799999999999
 10
29.554
 20
-16.222
 10
29.679
 20
-16.29599999999999
 10
29.807
 20
-16.358
 10
29.935
 20
-16.409
 10
30.064
 20
-16.449
 10
30.194
 20
-16.477
 10
30.325
 20
-16.49399999999999
 10
30.456
 20
-16.5
 10
30.58699999999999
 20
-16.49399999999999
 10
30.71699999999999
 20
-16.477
 10
30.84699999999999
 20
-16.449
 10
30.97699999999999
 20
-16.409
 10
31.105
 20
-16.358
 10
31.232
 20
-16.29599999999999
 10
31.358
 20
-16.222
 10
31.482
 20
-16.13799999999999
 10
31.604
 20
-16.043
 10
31.724
 20
-15.93799999999999
 10
31.84099999999999
 20
-15.822
 10
31.956
 20
-15.696
 10
32.068
 20
-15.56
 10
32.177
 20
-15.415
 10
32.28199999999999
 20
-15.25999999999999
 10
32.384
 20
-15.09599999999999
 10
32.483
 20
-14.924
 10
32.57699999999999
 20
-14.743
 10
32.66799999999999
 20
-14.554
 10
32.75399999999999
 20
-14.357
 10
32.83599999999999
 20
-14.153
 10
32.913
 20
-13.94099999999999
 10
32.98599999999999
 20
-13.724
 10
33.054
 20
-13.5
 10
33.117
 20
-13.26999999999999
 10
33.17499999999999
 20
-13.036
 10
33.22699999999999
 20
-12.796
 10
33.275
 20
-12.552
 10
33.317
 20
-12.304
 10
33.35399999999999
 20
-12.053
 10
33.38499999999999
 20
-11.799
 10
33.40999999999999
 20
-11.542
 10
33.42999999999999
 20
-11.283
 10
33.444
 20
-11.023
 10
33.453
 20
-10.762
 10
33.45599999999999
 20
-10.5
  0
LINE
  5
FD
330
A
100
AcDbEntity
  8
PV
  6
Continuous
 62
     7
100
AcDbLine
 10
-13.071
 20
108.1099999999999
 30
0.0
 11
-12.67
 21
108.1099999999999
 31
0.0
  0
LINE
  5
FE
330
A
100
AcDbEntity
  8
PV
  6
Continuous
 62
     7
100
AcDbLine
 10
-12.4
 20
111.9099999999999
 30
0.0
 11
-12.062
 21
111.9099999999999
 31
0.0
  0
LINE
  5
FF
330
A
100
AcDbEntity
  8
PV
  6
Continuous
 62
     7
100
AcDbLine
 10
-10.48699999999999
 20
108.1099999999999
 30
0.0
 11
-9.816
 21
111.9099999999999
 31
0.0
  0
LINE
  5
100
330
A
100
AcDbEntity
  8
PV
  6
Continuous
 62
     7
100
AcDbLine
 10
-10.749
 20
108.817
 30
0.0
 11
-10.204
 21
111.9099999999999
 31
0.0
  0
LINE
  5
101
330
A
100
AcDbEntity
  8
PV
  6
Continuous
 62
     7
100
AcDbLine
 10
-12.67
 20
108.1099999999999
 30
0.0
 11
-12.14599999999999
 21
111.084
 31
0.0
  0
LINE
  5
102
330
A
100
AcDbEntity
  8
PV
  6
Continuous
 62
     7
100
AcDbLine
 10
-13.071
 20
108.1099999999999
 30
0.0
 11
-12.4
 21
111.9099999999999
 31
0.0
  0
LINE
  5
103
330
A
100
AcDbEntity
  8
PV
  6
Continuous
 62
     7
100
AcDbLine
 10
-12.14599999999999
 20
111.084
 30
0.0
 11
-10.883
 21
108.1099999999999
 31
0.0
  0
LINE
  5
104
330
A
100
AcDbEntity
  8
PV
  6
Continuous
 62
     7
100
AcDbLine
 10
-12.062
 20
111.9099999999999
 30
0.0
 11
-10.749
 21
108.817
 31
0.0
  0
LINE
  5
105
330
A
100
AcDbEntity
  8
PV
  6
Continuous
 62
     7
100
AcDbLine
 10
-10.883
 20
108.1099999999999
 30
0.0
 11
-10.48699999999999
 21
108.1099999999999
 31
0.0
  0
LINE
  5
106
330
A
100
AcDbEntity
  8
PV
  6
Continuous
 62
     7
100
AcDbLine
 10
-10.204
 20
111.9099999999999
 30
0.0
 11
-9.816
 21
111.9099999999999
 31
0.0
  0
LINE
  5
107
330
A
100
AcDbEntity
  8
PV
  6
Continuous
 62
     7
100
AcDbLine
 10
-6.386
 20
110.01
 30
0.0
 11
-5.235
 21
110.01
 31
0.0
  0
LINE
  5
108
330
A
100
AcDbEntity
  8
PV
  6
Continuous
 62
     7
100
AcDbLine
 10
-5.693999999999999
 20
110.5569999999999
 30
0.0
 11
-5.317999999999999
 21
110.6949999999999
 31
0.0
  0
LINE
  5
109
330
A
100
AcDbEntity
  8
PV
  6
Continuous
 62
     7
100
AcDbLine
 10
-6.452999999999999
 20
109.63
 30
0.0
 11
-6.386
 21
110.01
 31
0.0
  0
LINE
  5
10A
330
A
100
AcDbEntity
  8
PV
  6
Continuous
 62
     7
100
AcDbLine
 10
-6.452999999999999
 20
109.63
 30
0.0
 11
-5.696
 21
109.63
 31
0.0
  0
LINE
  5
10B
330
A
100
AcDbEntity
  8
PV
  6
Continuous
 62
     7
100
AcDbLine
 10
-17.60099999999999
 20
108.1099999999999
 30
0.0
 11
-17.197
 21
108.1099999999999
 31
0.0
  0
LINE
  5
10C
330
A
100
AcDbEntity
  8
PV
  6
Continuous
 62
     7
100
AcDbLine
 10
-16.218
 20
111.9099999999999
 30
0.0
 11
-15.804
 21
111.9099999999999
 31
0.0
  0
LINE
  5
10D
330
A
100
AcDbEntity
  8
PV
  6
Continuous
 62
     7
100
AcDbLine
 10
-17.60099999999999
 20
108.1099999999999
 30
0.0
 11
-16.218
 21
111.9099999999999
 31
0.0
  0
LINE
  5
10E
330
A
100
AcDbEntity
  8
PV
  6
Continuous
 62
     7
100
AcDbLine
 10
-17.197
 20
108.1099999999999
 30
0.0
 11
-16.90299999999999
 21
108.9169999999999
 31
0.0
  0
LINE
  5
10F
330
A
100
AcDbEntity
  8
PV
  6
Continuous
 62
     7
100
AcDbLine
 10
-15.804
 20
111.9099999999999
 30
0.0
 11
-14.786
 21
108.1099999999999
 31
0.0
  0
LINE
  5
110
330
A
100
AcDbEntity
  8
PV
  6
Continuous
 62
     7
100
AcDbLine
 10
-16.035
 20
111.3029999999999
 30
0.0
 11
-15.501
 21
109.312
 31
0.0
  0
LINE
  5
111
330
A
100
AcDbEntity
  8
PV
  6
Continuous
 62
     7
100
AcDbLine
 10
-15.179
 20
108.1099999999999
 30
0.0
 11
-14.786
 21
108.1099999999999
 31
0.0
  0
LINE
  5
112
330
A
100
AcDbEntity
  8
PV
  6
Continuous
 62
     7
100
AcDbLine
 10
-16.90299999999999
 20
108.9169999999999
 30
0.0
 11
-15.395
 21
108.9169999999999
 31
0.0
  0
LINE
  5
113
330
A
100
AcDbEntity
  8
PV
  6
Continuous
 62
     7
100
AcDbLine
 10
-16.759
 20
109.312
 30
0.0
 11
-15.501
 21
109.312
 31
0.0
  0
LINE
  5
114
330
A
100
AcDbEntity
  8
PV
  6
Continuous
 62
     7
100
AcDbLine
 10
-16.759
 20
109.312
 30
0.0
 11
-16.035
 21
111.3029999999999
 31
0.0
  0
LINE
  5
115
330
A
100
AcDbEntity
  8
PV
  6
Continuous
 62
     7
100
AcDbLine
 10
-15.395
 20
108.9169999999999
 30
0.0
 11
-15.179
 21
108.1099999999999
 31
0.0
  0
LINE
  5
116
330
A
100
AcDbEntity
  8
PV
  6
Continuous
 62
     7
100
AcDbLine
 10
-3.825
 20
108.1099999999999
 30
0.0
 11
-1.766
 21
108.1099999999999
 31
0.0
  0
LINE
  5
117
330
A
100
AcDbEntity
  8
PV
  6
Continuous
 62
     7
100
AcDbLine
 10
-3.154999999999999
 20
111.9099999999999
 30
0.0
 11
-2.758999999999999
 21
111.9099999999999
 31
0.0
  0
LINE
  5
118
330
A
100
AcDbEntity
  8
PV
  6
Continuous
 62
     7
100
AcDbLine
 10
-1.766
 20
108.1099999999999
 30
0.0
 11
-1.693999999999999
 21
108.515
 31
0.0
  0
LINE
  5
119
330
A
100
AcDbEntity
  8
PV
  6
Continuous
 62
     7
100
AcDbLine
 10
-3.825
 20
108.1099999999999
 30
0.0
 11
-3.154999999999999
 21
111.9099999999999
 31
0.0
  0
LINE
  5
11A
330
A
100
AcDbEntity
  8
PV
  6
Continuous
 62
     7
100
AcDbLine
 10
-3.356999999999999
 20
108.515
 30
0.0
 11
-2.758999999999999
 21
111.9099999999999
 31
0.0
  0
LINE
  5
11B
330
A
100
AcDbEntity
  8
PV
  6
Continuous
 62
     7
100
AcDbLine
 10
-3.356999999999999
 20
108.515
 30
0.0
 11
-1.693999999999999
 21
108.515
 31
0.0
  0
LINE
  5
11C
330
A
100
AcDbEntity
  8
PV
  6
Continuous
 62
     7
100
AcDbLine
 10
0.6890000000000001
 20
111.9099999999999
 30
0.0
 11
2.465999999999999
 21
111.9099999999999
 31
0.0
  0
LINE
  5
11D
330
A
100
AcDbEntity
  8
PV
  6
Continuous
 62
     7
100
AcDbLine
 10
0.019
 20
108.1099999999999
 30
0.0
 11
1.796
 21
108.1099999999999
 31
0.0
  0
LINE
  5
11E
330
A
100
AcDbEntity
  8
PV
  6
Continuous
 62
     7
100
AcDbLine
 10
0.019
 20
108.1099999999999
 30
0.0
 11
0.6890000000000001
 21
111.9099999999999
 31
0.0
  0
LINE
  5
11F
330
A
100
AcDbEntity
  8
PV
  6
Continuous
 62
     7
100
AcDbLine
 10
1.796
 20
108.1099999999999
 30
0.0
 11
1.865
 21
108.497
 31
0.0
  0
LINE
  5
120
330
A
100
AcDbEntity
  8
PV
  6
Continuous
 62
     7
100
AcDbLine
 10
0.708
 20
109.805
 30
0.0
 11
2.095
 21
109.805
 31
0.0
  0
LINE
  5
121
330
A
100
AcDbEntity
  8
PV
  6
Continuous
 62
     7
100
AcDbLine
 10
0.7770000000000001
 20
110.1979999999999
 30
0.0
 11
2.164
 21
110.1979999999999
 31
0.0
  0
LINE
  5
122
330
A
100
AcDbEntity
  8
PV
  6
Continuous
 62
     7
100
AcDbLine
 10
1.006
 20
111.492
 30
0.0
 11
2.393
 21
111.492
 31
0.0
  0
LINE
  5
123
330
A
100
AcDbEntity
  8
PV
  6
Continuous
 62
     7
100
AcDbLine
 10
0.478
 20
108.497
 30
0.0
 11
1.865
 21
108.497
 31
0.0
  0
LINE
  5
124
330
A
100
AcDbEntity
  8
PV
  6
Continuous
 62
     7
100
AcDbLine
 10
0.478
 20
108.497
 30
0.0
 11
0.708
 21
109.805
 31
0.0
  0
LINE
  5
125
330
A
100
AcDbEntity
  8
PV
  6
Continuous
 62
     7
100
AcDbLine
 10
2.095
 20
109.805
 30
0.0
 11
2.164
 21
110.1979999999999
 31
0.0
  0
LINE
  5
126
330
A
100
AcDbEntity
  8
PV
  6
Continuous
 62
     7
100
AcDbLine
 10
2.393
 20
111.492
 30
0.0
 11
2.465999999999999
 21
111.9099999999999
 31
0.0
  0
LINE
  5
127
330
A
100
AcDbEntity
  8
PV
  6
Continuous
 62
     7
100
AcDbLine
 10
0.7770000000000001
 20
110.1979999999999
 30
0.0
 11
1.006
 21
111.492
 31
0.0
  0
LINE
  5
128
330
A
100
AcDbEntity
  8
PV
  6
Continuous
 62
     7
100
AcDbLine
 10
9.698999999999999
 20
108.1099999999999
 30
0.0
 11
10.10299999999999
 21
108.1099999999999
 31
0.0
  0
LINE
  5
129
330
A
100
AcDbEntity
  8
PV
  6
Continuous
 62
     7
100
AcDbLine
 10
11.082
 20
111.9099999999999
 30
0.0
 11
11.49599999999999
 21
111.9099999999999
 31
0.0
  0
LINE
  5
12A
330
A
100
AcDbEntity
  8
PV
  6
Continuous
 62
     7
100
AcDbLine
 10
9.698999999999999
 20
108.1099999999999
 30
0.0
 11
11.082
 21
111.9099999999999
 31
0.0
  0
LINE
  5
12B
330
A
100
AcDbEntity
  8
PV
  6
Continuous
 62
     7
100
AcDbLine
 10
10.10299999999999
 20
108.1099999999999
 30
0.0
 11
10.397
 21
108.9169999999999
 31
0.0
  0
LINE
  5
12C
330
A
100
AcDbEntity
  8
PV
  6
Continuous
 62
     7
100
AcDbLine
 10
11.49599999999999
 20
111.9099999999999
 30
0.0
 11
12.514
 21
108.1099999999999
 31
0.0
  0
LINE
  5
12D
330
A
100
AcDbEntity
  8
PV
  6
Continuous
 62
     7
100
AcDbLine
 10
11.265
 20
111.3029999999999
 30
0.0
 11
11.799
 21
109.312
 31
0.0
  0
LINE
  5
12E
330
A
100
AcDbEntity
  8
PV
  6
Continuous
 62
     7
100
AcDbLine
 10
12.12099999999999
 20
108.1099999999999
 30
0.0
 11
12.514
 21
108.1099999999999
 31
0.0
  0
LINE
  5
12F
330
A
100
AcDbEntity
  8
PV
  6
Continuous
 62
     7
100
AcDbLine
 10
10.397
 20
108.9169999999999
 30
0.0
 11
11.90499999999999
 21
108.9169999999999
 31
0.0
  0
LINE
  5
130
330
A
100
AcDbEntity
  8
PV
  6
Continuous
 62
     7
100
AcDbLine
 10
10.54099999999999
 20
109.312
 30
0.0
 11
11.799
 21
109.312
 31
0.0
  0
LINE
  5
131
330
A
100
AcDbEntity
  8
PV
  6
Continuous
 62
     7
100
AcDbLine
 10
10.54099999999999
 20
109.312
 30
0.0
 11
11.265
 21
111.3029999999999
 31
0.0
  0
LINE
  5
132
330
A
100
AcDbEntity
  8
PV
  6
Continuous
 62
     7
100
AcDbLine
 10
11.90499999999999
 20
108.9169999999999
 30
0.0
 11
12.12099999999999
 21
108.1099999999999
 31
0.0
  0
LINE
  5
133
330
A
100
AcDbEntity
  8
PV
  6
Continuous
 62
     7
100
AcDbLine
 10
13.97499999999999
 20
108.1099999999999
 30
0.0
 11
16.034
 21
108.1099999999999
 31
0.0
  0
LINE
  5
134
330
A
100
AcDbEntity
  8
PV
  6
Continuous
 62
     7
100
AcDbLine
 10
14.645
 20
111.9099999999999
 30
0.0
 11
15.041
 21
111.9099999999999
 31
0.0
  0
LINE
  5
135
330
A
100
AcDbEntity
  8
PV
  6
Continuous
 62
     7
100
AcDbLine
 10
21.989
 20
111.9099999999999
 30
0.0
 11
23.76599999999999
 21
111.9099999999999
 31
0.0
  0
LINE
  5
136
330
A
100
AcDbEntity
  8
PV
  6
Continuous
 62
     7
100
AcDbLine
 10
21.319
 20
108.1099999999999
 30
0.0
 11
23.096
 21
108.1099999999999
 31
0.0
  0
LINE
  5
137
330
A
100
AcDbEntity
  8
PV
  6
Continuous
 62
     7
100
AcDbLine
 10
16.034
 20
108.1099999999999
 30
0.0
 11
16.10599999999999
 21
108.515
 31
0.0
  0
LINE
  5
138
330
A
100
AcDbEntity
  8
PV
  6
Continuous
 62
     7
100
AcDbLine
 10
13.97499999999999
 20
108.1099999999999
 30
0.0
 11
14.645
 21
111.9099999999999
 31
0.0
  0
LINE
  5
139
330
A
100
AcDbEntity
  8
PV
  6
Continuous
 62
     7
100
AcDbLine
 10
14.443
 20
108.515
 30
0.0
 11
15.041
 21
111.9099999999999
 31
0.0
  0
LINE
  5
13A
330
A
100
AcDbEntity
  8
PV
  6
Continuous
 62
     7
100
AcDbLine
 10
14.443
 20
108.515
 30
0.0
 11
16.10599999999999
 21
108.515
 31
0.0
  0
LINE
  5
13B
330
A
100
AcDbEntity
  8
PV
  6
Continuous
 62
     7
100
AcDbLine
 10
21.319
 20
108.1099999999999
 30
0.0
 11
21.989
 21
111.9099999999999
 31
0.0
  0
LINE
  5
13C
330
A
100
AcDbEntity
  8
PV
  6
Continuous
 62
     7
100
AcDbLine
 10
23.096
 20
108.1099999999999
 30
0.0
 11
23.165
 21
108.497
 31
0.0
  0
LINE
  5
13D
330
A
100
AcDbEntity
  8
PV
  6
Continuous
 62
     7
100
AcDbLine
 10
22.008
 20
109.805
 30
0.0
 11
23.395
 21
109.805
 31
0.0
  0
LINE
  5
13E
330
A
100
AcDbEntity
  8
PV
  6
Continuous
 62
     7
100
AcDbLine
 10
22.07699999999999
 20
110.1979999999999
 30
0.0
 11
23.464
 21
110.1979999999999
 31
0.0
  0
LINE
  5
13F
330
A
100
AcDbEntity
  8
PV
  6
Continuous
 62
     7
100
AcDbLine
 10
22.30599999999999
 20
111.492
 30
0.0
 11
23.693
 21
111.492
 31
0.0
  0
LINE
  5
140
330
A
100
AcDbEntity
  8
PV
  6
Continuous
 62
     7
100
AcDbLine
 10
21.778
 20
108.497
 30
0.0
 11
23.165
 21
108.497
 31
0.0
  0
LINE
  5
141
330
A
100
AcDbEntity
  8
PV
  6
Continuous
 62
     7
100
AcDbLine
 10
21.778
 20
108.497
 30
0.0
 11
22.008
 21
109.805
 31
0.0
  0
LINE
  5
142
330
A
100
AcDbEntity
  8
PV
  6
Continuous
 62
     7
100
AcDbLine
 10
23.395
 20
109.805
 30
0.0
 11
23.464
 21
110.1979999999999
 31
0.0
  0
LINE
  5
143
330
A
100
AcDbEntity
  8
PV
  6
Continuous
 62
     7
100
AcDbLine
 10
23.693
 20
111.492
 30
0.0
 11
23.76599999999999
 21
111.9099999999999
 31
0.0
  0
LINE
  5
144
330
A
100
AcDbEntity
  8
PV
  6
Continuous
 62
     7
100
AcDbLine
 10
22.07699999999999
 20
110.1979999999999
 30
0.0
 11
22.30599999999999
 21
111.492
 31
0.0
  0
LINE
  5
145
330
A
100
AcDbEntity
  8
PV
  6
Continuous
 62
     7
100
AcDbLine
 10
18.174
 20
108.1099999999999
 30
0.0
 11
18.658
 21
108.1099999999999
 31
0.0
  0
LINE
  5
146
330
A
100
AcDbEntity
  8
PV
  6
Continuous
 62
     7
100
AcDbLine
 10
17.504
 20
111.9099999999999
 30
0.0
 11
17.9
 21
111.9099999999999
 31
0.0
  0
LINE
  5
147
330
A
100
AcDbEntity
  8
PV
  6
Continuous
 62
     7
100
AcDbLine
 10
18.658
 20
108.1099999999999
 30
0.0
 11
20.041
 21
111.9099999999999
 31
0.0
  0
LINE
  5
148
330
A
100
AcDbEntity
  8
PV
  6
Continuous
 62
     7
100
AcDbLine
 10
18.46499999999999
 20
108.708
 30
0.0
 11
19.63
 21
111.9099999999999
 31
0.0
  0
LINE
  5
149
330
A
100
AcDbEntity
  8
PV
  6
Continuous
 62
     7
100
AcDbLine
 10
17.9
 20
111.9099999999999
 30
0.0
 11
18.46499999999999
 21
108.708
 31
0.0
  0
LINE
  5
14A
330
A
100
AcDbEntity
  8
PV
  6
Continuous
 62
     7
100
AcDbLine
 10
17.504
 20
111.9099999999999
 30
0.0
 11
18.174
 21
108.1099999999999
 31
0.0
  0
LINE
  5
14B
330
A
100
AcDbEntity
  8
PV
  6
Continuous
 62
     7
100
AcDbLine
 10
19.63
 20
111.9099999999999
 30
0.0
 11
20.041
 21
111.9099999999999
 31
0.0
  0
LINE
  5
14C
330
A
100
AcDbEntity
  8
PV
  6
Continuous
 62
     7
100
AcDbLine
 10
6.923999999999999
 20
108.1099999999999
 30
0.0
 11
7.407999999999999
 21
108.1099999999999
 31
0.0
  0
LINE
  5
14D
330
A
100
AcDbEntity
  8
PV
  6
Continuous
 62
     7
100
AcDbLine
 10
6.253999999999999
 20
111.9099999999999
 30
0.0
 11
6.65
 21
111.9099999999999
 31
0.0
  0
LINE
  5
14E
330
A
100
AcDbEntity
  8
PV
  6
Continuous
 62
     7
100
AcDbLine
 10
7.407999999999999
 20
108.1099999999999
 30
0.0
 11
8.791
 21
111.9099999999999
 31
0.0
  0
LINE
  5
14F
330
A
100
AcDbEntity
  8
PV
  6
Continuous
 62
     7
100
AcDbLine
 10
7.214999999999999
 20
108.708
 30
0.0
 11
8.38
 21
111.9099999999999
 31
0.0
  0
LINE
  5
150
330
A
100
AcDbEntity
  8
PV
  6
Continuous
 62
     7
100
AcDbLine
 10
6.65
 20
111.9099999999999
 30
0.0
 11
7.214999999999999
 21
108.708
 31
0.0
  0
LINE
  5
151
330
A
100
AcDbEntity
  8
PV
  6
Continuous
 62
     7
100
AcDbLine
 10
6.253999999999999
 20
111.9099999999999
 30
0.0
 11
6.923999999999999
 21
108.1099999999999
 31
0.0
  0
LINE
  5
152
330
A
100
AcDbEntity
  8
PV
  6
Continuous
 62
     7
100
AcDbLine
 10
8.38
 20
111.9099999999999
 30
0.0
 11
8.791
 21
111.9099999999999
 31
0.0
  0
LINE
  5
153
330
A
100
AcDbEntity
  8
PV
  6
Continuous
 62
     7
100
AcDbLine
 10
24.96199999999999
 20
108.855
 30
0.0
 11
25.278
 21
109.037
 31
0.0
  0
LINE
  5
154
330
A
100
AcDbEntity
  8
PV
  6
Continuous
 62
     7
100
AcDbLine
 10
27.36699999999999
 20
111.207
 30
0.0
 11
27.05099999999999
 21
111.025
 31
0.0
  0
LINE
  5
155
330
A
100
AcDbEntity
  8
PV
  6
Continuous
 62
     7
100
AcDbLine
 10
25.949
 20
109.8689999999999
 30
0.0
 11
26.349
 21
109.809
 31
0.0
  0
LINE
  5
156
330
A
100
AcDbEntity
  8
PV
  6
Continuous
 62
     7
100
AcDbLine
 10
25.987
 20
110.2489999999999
 30
0.0
 11
26.37999999999999
 21
110.193
 31
0.0
  0
LINE
  5
157
330
A
100
AcDbEntity
  8
PV
  6
Continuous
 62
     7
100
AcDbLine
 10
26.651
 20
118.506
 30
0.0
 11
-16.65099999999999
 21
118.506
 31
0.0
  0
LINE
  5
158
330
A
100
AcDbEntity
  8
PV
  6
Continuous
 62
   254
100
AcDbLine
 10
-3.907999999999999
 20
120.8099999999999
 30
0.0
 11
-3.609999999999999
 21
120.8099999999999
 31
0.0
  0
LINE
  5
159
330
A
100
AcDbEntity
  8
PV
  6
Continuous
 62
     7
100
AcDbLine
 10
3.85
 20
128.366
 30
0.0
 11
3.85
 21
124.816
 31
0.0
  0
LINE
  5
15A
330
A
100
AcDbEntity
  8
PV
  6
Continuous
 62
     7
100
AcDbLine
 10
-0.284
 20
127.4159999999999
 30
0.0
 11
1.615999999999999
 21
127.4159999999999
 31
0.0
  0
LINE
  5
15B
330
A
100
AcDbEntity
  8
PV
  6
Continuous
 62
     7
100
AcDbLine
 10
-0.284
 20
127.4159999999999
 30
0.0
 11
-0.284
 21
124.816
 31
0.0
  0
LINE
  5
15C
330
A
100
AcDbEntity
  8
PV
  6
Continuous
 62
     7
100
AcDbLine
 10
1.615999999999999
 20
127.4159999999999
 30
0.0
 11
1.615999999999999
 21
124.816
 31
0.0
  0
LINE
  5
15D
330
A
100
AcDbEntity
  8
PV
  6
Continuous
 62
     7
100
AcDbLine
 10
-0.284
 20
124.816
 30
0.0
 11
1.615999999999999
 21
124.816
 31
0.0
  0
LINE
  5
15E
330
A
100
AcDbEntity
  8
PV
  6
Continuous
 62
     7
100
AcDbLine
 10
2.299999999999999
 20
128.366
 30
0.0
 11
2.299999999999999
 21
124.816
 31
0.0
  0
LINE
  5
15F
330
A
100
AcDbEntity
  8
PV
  6
Continuous
 62
     7
100
AcDbLine
 10
2.299999999999999
 20
128.366
 30
0.0
 11
3.85
 21
128.366
 31
0.0
  0
LINE
  5
160
330
A
100
AcDbEntity
  8
PV
  6
Continuous
 62
     7
100
AcDbLine
 10
2.299999999999999
 20
124.816
 30
0.0
 11
3.85
 21
124.816
 31
0.0
  0
LINE
  5
161
330
A
100
AcDbEntity
  8
PV
  6
Continuous
 62
     7
100
AcDbLine
 10
5.625
 20
128.366
 30
0.0
 11
5.625
 21
127.566
 31
0.0
  0
LINE
  5
162
330
A
100
AcDbEntity
  8
PV
  6
Continuous
 62
     7
100
AcDbLine
 10
10.401
 20
127.591
 30
0.0
 11
10.401
 21
125.591
 31
0.0
  0
LINE
  5
163
330
A
100
AcDbEntity
  8
PV
  6
Continuous
 62
     7
100
AcDbLine
 10
5.625
 20
125.6159999999999
 30
0.0
 11
5.625
 21
124.816
 31
0.0
  0
LINE
  5
164
330
A
100
AcDbEntity
  8
PV
  6
Continuous
 62
     7
100
AcDbLine
 10
5.625
 20
127.566
 30
0.0
 11
5.625
 21
125.6159999999999
 31
0.0
  0
LINE
  5
165
330
A
100
AcDbEntity
  8
PV
  6
Continuous
 62
   254
100
AcDbLine
 10
-6.339999999999999
 20
121.142
 30
0.0
 11
-5.332999999999999
 21
121.142
 31
0.0
  0
LINE
  5
166
330
A
100
AcDbEntity
  8
PV
  6
Continuous
 62
   254
100
AcDbLine
 10
-11.60099999999999
 20
121.5899999999999
 30
0.0
 11
-11.15299999999999
 21
121.5899999999999
 31
0.0
  0
LINE
  5
167
330
A
100
AcDbEntity
  8
PV
  6
Continuous
 62
   254
100
AcDbLine
 10
-11.60099999999999
 20
119.351
 30
0.0
 11
-11.15299999999999
 21
119.351
 31
0.0
  0
LINE
  5
168
330
A
100
AcDbEntity
  8
PV
  6
Continuous
 62
   254
100
AcDbLine
 10
-11.60099999999999
 20
121.5899999999999
 30
0.0
 11
-11.60099999999999
 21
119.351
 31
0.0
  0
LINE
  5
169
330
A
100
AcDbEntity
  8
PV
  6
Continuous
 62
   254
100
AcDbLine
 10
-11.15299999999999
 20
121.5899999999999
 30
0.0
 11
-11.15299999999999
 21
119.351
 31
0.0
  0
LINE
  5
16A
330
A
100
AcDbEntity
  8
PV
  6
Continuous
 62
   254
100
AcDbLine
 10
-10.70599999999999
 20
121.5899999999999
 30
0.0
 11
-10.70599999999999
 21
120.9179999999999
 31
0.0
  0
LINE
  5
16B
330
A
100
AcDbEntity
  8
PV
  6
Continuous
 62
   254
100
AcDbLine
 10
-10.258
 20
121.142
 30
0.0
 11
-10.258
 21
120.9179999999999
 31
0.0
  0
LINE
  5
16C
330
A
100
AcDbEntity
  8
PV
  6
Continuous
 62
   254
100
AcDbLine
 10
5.302
 20
121.5899999999999
 30
0.0
 11
5.302
 21
121.142
 31
0.0
  0
LINE
  5
16D
330
A
100
AcDbEntity
  8
PV
  6
Continuous
 62
   254
100
AcDbLine
 10
-10.258
 20
120.247
 30
0.0
 11
-9.641
 21
120.247
 31
0.0
  0
LINE
  5
16E
330
A
100
AcDbEntity
  8
PV
  6
Continuous
 62
   254
100
AcDbLine
 10
-9.138999999999999
 20
121.142
 30
0.0
 11
-10.258
 21
121.142
 31
0.0
  0
LINE
  5
16F
330
A
100
AcDbEntity
  8
PV
  6
Continuous
 62
   254
100
AcDbLine
 10
-9.138999999999999
 20
120.694
 30
0.0
 11
-10.258
 21
120.694
 31
0.0
  0
LINE
  5
170
330
A
100
AcDbEntity
  8
PV
  6
Continuous
 62
   254
100
AcDbLine
 10
-10.70599999999999
 20
119.351
 30
0.0
 11
-10.258
 21
119.351
 31
0.0
  0
LINE
  5
171
330
A
100
AcDbEntity
  8
PV
  6
Continuous
 62
   254
100
AcDbLine
 10
-10.70599999999999
 20
121.5899999999999
 30
0.0
 11
-9.138999999999999
 21
121.5899999999999
 31
0.0
  0
LINE
  5
172
330
A
100
AcDbEntity
  8
PV
  6
Continuous
 62
   254
100
AcDbLine
 10
-10.258
 20
120.247
 30
0.0
 11
-10.258
 21
119.351
 31
0.0
  0
LINE
  5
173
330
A
100
AcDbEntity
  8
PV
  6
Continuous
 62
   254
100
AcDbLine
 10
-9.012999999999999
 20
119.351
 30
0.0
 11
-8.467
 21
119.351
 31
0.0
  0
LINE
  5
174
330
A
100
AcDbEntity
  8
PV
  6
Continuous
 62
   254
100
AcDbLine
 10
-8.131
 20
121.5899999999999
 30
0.0
 11
-7.682999999999999
 21
121.5899999999999
 31
0.0
  0
LINE
  5
175
330
A
100
AcDbEntity
  8
PV
  6
Continuous
 62
   254
100
AcDbLine
 10
-8.131
 20
119.351
 30
0.0
 11
-7.682999999999999
 21
119.351
 31
0.0
  0
LINE
  5
176
330
A
100
AcDbEntity
  8
PV
  6
Continuous
 62
   254
100
AcDbLine
 10
-8.131
 20
121.5899999999999
 30
0.0
 11
-8.131
 21
119.351
 31
0.0
  0
LINE
  5
177
330
A
100
AcDbEntity
  8
PV
  6
Continuous
 62
   254
100
AcDbLine
 10
-7.682999999999999
 20
121.5899999999999
 30
0.0
 11
-7.682999999999999
 21
119.351
 31
0.0
  0
LINE
  5
178
330
A
100
AcDbEntity
  8
PV
  6
Continuous
 62
   254
100
AcDbLine
 10
4.293999999999999
 20
121.5899999999999
 30
0.0
 11
5.302
 21
121.5899999999999
 31
0.0
  0
LINE
  5
179
330
A
100
AcDbEntity
  8
PV
  6
Continuous
 62
   254
100
AcDbLine
 10
4.293999999999999
 20
119.351
 30
0.0
 11
5.302
 21
119.351
 31
0.0
  0
LINE
  5
17A
330
A
100
AcDbEntity
  8
PV
  6
Continuous
 62
   254
100
AcDbLine
 10
0.9359999999999999
 20
121.5899999999999
 30
0.0
 11
1.384
 21
121.5899999999999
 31
0.0
  0
LINE
  5
17B
330
A
100
AcDbEntity
  8
PV
  6
Continuous
 62
   254
100
AcDbLine
 10
0.9359999999999999
 20
119.351
 30
0.0
 11
1.384
 21
119.351
 31
0.0
  0
LINE
  5
17C
330
A
100
AcDbEntity
  8
PV
  6
Continuous
 62
   254
100
AcDbLine
 10
3.661
 20
120.247
 30
0.0
 11
5.302
 21
120.247
 31
0.0
  0
LINE
  5
17D
330
A
100
AcDbEntity
  8
PV
  6
Continuous
 62
   254
100
AcDbLine
 10
3.661
 20
120.694
 30
0.0
 11
5.302
 21
120.694
 31
0.0
  0
LINE
  5
17E
330
A
100
AcDbEntity
  8
PV
  6
Continuous
 62
   254
100
AcDbLine
 10
4.293999999999999
 20
119.7989999999999
 30
0.0
 11
5.302
 21
119.7989999999999
 31
0.0
  0
LINE
  5
17F
330
A
100
AcDbEntity
  8
PV
  6
Continuous
 62
   254
100
AcDbLine
 10
4.293999999999999
 20
121.142
 30
0.0
 11
5.302
 21
121.142
 31
0.0
  0
LINE
  5
180
330
A
100
AcDbEntity
  8
PV
  6
Continuous
 62
   254
100
AcDbLine
 10
5.302
 20
120.694
 30
0.0
 11
5.302
 21
120.247
 31
0.0
  0
LINE
  5
181
330
A
100
AcDbEntity
  8
PV
  6
Continuous
 62
   254
100
AcDbLine
 10
5.302
 20
119.7989999999999
 30
0.0
 11
5.302
 21
119.351
 31
0.0
  0
LINE
  5
182
330
A
100
AcDbEntity
  8
PV
  6
Continuous
 62
   254
100
AcDbLine
 10
0.9359999999999999
 20
121.5899999999999
 30
0.0
 11
0.9359999999999999
 21
119.351
 31
0.0
  0
LINE
  5
183
330
A
100
AcDbEntity
  8
PV
  6
Continuous
 62
   254
100
AcDbLine
 10
1.384
 20
121.5899999999999
 30
0.0
 11
1.384
 21
120.804
 31
0.0
  0
LINE
  5
184
330
A
100
AcDbEntity
  8
PV
  6
Continuous
 62
   254
100
AcDbLine
 10
-8.467
 20
119.351
 30
0.0
 11
-9.095
 21
120.2479999999999
 31
0.0
  0
LINE
  5
185
330
A
100
AcDbEntity
  8
PV
  6
Continuous
 62
   254
100
AcDbLine
 10
-9.012999999999999
 20
119.351
 30
0.0
 11
-9.641
 21
120.247
 31
0.0
  0
LINE
  5
186
330
A
100
AcDbEntity
  8
PV
  6
Continuous
 62
   254
100
AcDbLine
 10
3.286999999999999
 20
119.351
 30
0.0
 11
2.366
 21
120.9449999999999
 31
0.0
  0
LINE
  5
187
330
A
100
AcDbEntity
  8
PV
  6
Continuous
 62
   254
100
AcDbLine
 10
3.286999999999999
 20
121.5899999999999
 30
0.0
 11
2.366
 21
120.9449999999999
 31
0.0
  0
LINE
  5
188
330
A
100
AcDbEntity
  8
PV
  6
Continuous
 62
   254
100
AcDbLine
 10
2.505999999999999
 20
121.5899999999999
 30
0.0
 11
1.384
 21
120.804
 31
0.0
  0
LINE
  5
189
330
A
100
AcDbEntity
  8
PV
  6
Continuous
 62
   254
100
AcDbLine
 10
2.77
 20
119.351
 30
0.0
 11
1.998
 21
120.6879999999999
 31
0.0
  0
LINE
  5
18A
330
A
100
AcDbEntity
  8
PV
  6
Continuous
 62
   254
100
AcDbLine
 10
1.998
 20
120.6879999999999
 30
0.0
 11
1.384
 21
120.257
 31
0.0
  0
LINE
  5
18B
330
A
100
AcDbEntity
  8
PV
  6
Continuous
 62
   254
100
AcDbLine
 10
1.384
 20
120.257
 30
0.0
 11
1.384
 21
119.351
 31
0.0
  0
LINE
  5
18C
330
A
100
AcDbEntity
  8
PV
  6
Continuous
 62
   254
100
AcDbLine
 10
2.505999999999999
 20
121.5899999999999
 30
0.0
 11
3.286999999999999
 21
121.5899999999999
 31
0.0
  0
LINE
  5
18D
330
A
100
AcDbEntity
  8
PV
  6
Continuous
 62
   254
100
AcDbLine
 10
2.77
 20
119.351
 30
0.0
 11
3.286999999999999
 21
119.351
 31
0.0
  0
LINE
  5
18E
330
A
100
AcDbEntity
  8
PV
  6
Continuous
 62
   254
100
AcDbLine
 10
12.354
 20
119.351
 30
0.0
 11
12.578
 21
119.351
 31
0.0
  0
LINE
  5
18F
330
A
100
AcDbEntity
  8
PV
  6
Continuous
 62
   254
100
AcDbLine
 10
12.354
 20
121.5899999999999
 30
0.0
 11
12.578
 21
121.5899999999999
 31
0.0
  0
LINE
  5
190
330
A
100
AcDbEntity
  8
PV
  6
Continuous
 62
   254
100
AcDbLine
 10
11.123
 20
119.354
 30
0.0
 11
11.123
 21
119.7989999999999
 31
0.0
  0
LINE
  5
191
330
A
100
AcDbEntity
  8
PV
  6
Continuous
 62
   254
100
AcDbLine
 10
12.354
 20
119.7989999999999
 30
0.0
 11
12.578
 21
119.7989999999999
 31
0.0
  0
LINE
  5
192
330
A
100
AcDbEntity
  8
PV
  6
Continuous
 62
   254
100
AcDbLine
 10
12.354
 20
121.142
 30
0.0
 11
12.578
 21
121.142
 31
0.0
  0
LINE
  5
193
330
A
100
AcDbEntity
  8
PV
  6
Continuous
 62
   254
100
AcDbLine
 10
-3.988999999999999
 20
121.5899999999999
 30
0.0
 11
-3.541
 21
121.5899999999999
 31
0.0
  0
LINE
  5
194
330
A
100
AcDbEntity
  8
PV
  6
Continuous
 62
   254
100
AcDbLine
 10
-3.988999999999999
 20
119.351
 30
0.0
 11
-3.541
 21
119.351
 31
0.0
  0
LINE
  5
195
330
A
100
AcDbEntity
  8
PV
  6
Continuous
 62
   254
100
AcDbLine
 10
-3.988999999999999
 20
121.5899999999999
 30
0.0
 11
-3.988999999999999
 21
119.351
 31
0.0
  0
LINE
  5
196
330
A
100
AcDbEntity
  8
PV
  6
Continuous
 62
   254
100
AcDbLine
 10
-3.541
 20
121.5899999999999
 30
0.0
 11
-3.541
 21
120.804
 31
0.0
  0
LINE
  5
197
330
A
100
AcDbEntity
  8
PV
  6
Continuous
 62
   254
100
AcDbLine
 10
-1.639
 20
119.351
 30
0.0
 11
-2.559
 21
120.9449999999999
 31
0.0
  0
LINE
  5
198
330
A
100
AcDbEntity
  8
PV
  6
Continuous
 62
   254
100
AcDbLine
 10
-1.638
 20
121.5899999999999
 30
0.0
 11
-2.559
 21
120.9449999999999
 31
0.0
  0
LINE
  5
199
330
A
100
AcDbEntity
  8
PV
  6
Continuous
 62
   254
100
AcDbLine
 10
-2.419
 20
121.5899999999999
 30
0.0
 11
-3.541
 21
120.804
 31
0.0
  0
LINE
  5
19A
330
A
100
AcDbEntity
  8
PV
  6
Continuous
 62
   254
100
AcDbLine
 10
-2.156
 20
119.351
 30
0.0
 11
-2.926999999999999
 21
120.6879999999999
 31
0.0
  0
LINE
  5
19B
330
A
100
AcDbEntity
  8
PV
  6
Continuous
 62
   254
100
AcDbLine
 10
-2.926999999999999
 20
120.6879999999999
 30
0.0
 11
-3.541
 21
120.257
 31
0.0
  0
LINE
  5
19C
330
A
100
AcDbEntity
  8
PV
  6
Continuous
 62
   254
100
AcDbLine
 10
-3.541
 20
120.257
 30
0.0
 11
-3.541
 21
119.351
 31
0.0
  0
LINE
  5
19D
330
A
100
AcDbEntity
  8
PV
  6
Continuous
 62
   254
100
AcDbLine
 10
-2.419
 20
121.5899999999999
 30
0.0
 11
-1.639
 21
121.5899999999999
 31
0.0
  0
LINE
  5
19E
330
A
100
AcDbEntity
  8
PV
  6
Continuous
 62
   254
100
AcDbLine
 10
-2.156
 20
119.351
 30
0.0
 11
-1.639
 21
119.351
 31
0.0
  0
LINE
  5
19F
330
A
100
AcDbEntity
  8
PV
  6
Continuous
 62
   254
100
AcDbLine
 10
-5.332999999999999
 20
121.5899999999999
 30
0.0
 11
-5.332999999999999
 21
121.142
 31
0.0
  0
LINE
  5
1A0
330
A
100
AcDbEntity
  8
PV
  6
Continuous
 62
   254
100
AcDbLine
 10
-6.339999999999999
 20
121.5899999999999
 30
0.0
 11
-5.332999999999999
 21
121.5899999999999
 31
0.0
  0
LINE
  5
1A1
330
A
100
AcDbEntity
  8
PV
  6
Continuous
 62
   254
100
AcDbLine
 10
-6.339999999999999
 20
119.351
 30
0.0
 11
-5.332999999999999
 21
119.351
 31
0.0
  0
LINE
  5
1A2
330
A
100
AcDbEntity
  8
PV
  6
Continuous
 62
   254
100
AcDbLine
 10
-6.972999999999999
 20
120.247
 30
0.0
 11
-5.332999999999999
 21
120.247
 31
0.0
  0
LINE
  5
1A3
330
A
100
AcDbEntity
  8
PV
  6
Continuous
 62
   254
100
AcDbLine
 10
-6.972999999999999
 20
120.694
 30
0.0
 11
-5.332999999999999
 21
120.694
 31
0.0
  0
LINE
  5
1A4
330
A
100
AcDbEntity
  8
PV
  6
Continuous
 62
   254
100
AcDbLine
 10
-6.339999999999999
 20
119.7989999999999
 30
0.0
 11
-5.332999999999999
 21
119.7989999999999
 31
0.0
  0
LINE
  5
1A5
330
A
100
AcDbEntity
  8
PV
  6
Continuous
 62
   254
100
AcDbLine
 10
-5.332999999999999
 20
120.694
 30
0.0
 11
-5.332999999999999
 21
120.247
 31
0.0
  0
LINE
  5
1A6
330
A
100
AcDbEntity
  8
PV
  6
Continuous
 62
   254
100
AcDbLine
 10
-5.332999999999999
 20
119.7989999999999
 30
0.0
 11
-5.332999999999999
 21
119.351
 31
0.0
  0
LINE
  5
1A7
330
A
100
AcDbEntity
  8
PV
  6
Continuous
 62
   254
100
AcDbLine
 10
10.00299999999999
 20
119.351
 30
0.0
 11
11.123
 21
119.351
 31
0.0
  0
LINE
  5
1A8
330
A
100
AcDbEntity
  8
PV
  6
Continuous
 62
   254
100
AcDbLine
 10
10.00299999999999
 20
121.5899999999999
 30
0.0
 11
11.123
 21
121.5899999999999
 31
0.0
  0
LINE
  5
1A9
330
A
100
AcDbEntity
  8
PV
  6
Continuous
 62
   254
100
AcDbLine
 10
10.00299999999999
 20
119.7989999999999
 30
0.0
 11
11.123
 21
119.7989999999999
 31
0.0
  0
LINE
  5
1AA
330
A
100
AcDbEntity
  8
PV
  6
Continuous
 62
   254
100
AcDbLine
 10
10.00299999999999
 20
121.142
 30
0.0
 11
11.123
 21
121.142
 31
0.0
  0
LINE
  5
1AB
330
A
100
AcDbEntity
  8
PV
  6
Continuous
 62
   254
100
AcDbLine
 10
11.123
 20
121.142
 30
0.0
 11
11.123
 21
121.5899999999999
 31
0.0
  0
LINE
  5
1AC
330
A
100
AcDbEntity
  8
PV
  6
Continuous
 62
   254
100
AcDbLine
 10
16.048
 20
119.351
 30
0.0
 11
17.167
 21
119.351
 31
0.0
  0
LINE
  5
1AD
330
A
100
AcDbEntity
  8
PV
  6
Continuous
 62
   254
100
AcDbLine
 10
5.639999999999999
 20
119.351
 30
0.0
 11
6.084999999999999
 21
119.351
 31
0.0
  0
LINE
  5
1AE
330
A
100
AcDbEntity
  8
PV
  6
Continuous
 62
   254
100
AcDbLine
 10
6.644999999999999
 20
121.5899999999999
 30
0.0
 11
6.868999999999999
 21
121.5899999999999
 31
0.0
  0
LINE
  5
1AF
330
A
100
AcDbEntity
  8
PV
  6
Continuous
 62
   254
100
AcDbLine
 10
5.637999999999999
 20
120.5829999999999
 30
0.0
 11
5.637999999999999
 21
119.351
 31
0.0
  0
LINE
  5
1B0
330
A
100
AcDbEntity
  8
PV
  6
Continuous
 62
   254
100
AcDbLine
 10
7.876
 20
120.5829999999999
 30
0.0
 11
7.876
 21
119.351
 31
0.0
  0
LINE
  5
1B1
330
A
100
AcDbEntity
  8
PV
  6
Continuous
 62
   254
100
AcDbLine
 10
6.644999999999999
 20
121.142
 30
0.0
 11
6.868999999999999
 21
121.142
 31
0.0
  0
LINE
  5
1B2
330
A
100
AcDbEntity
  8
PV
  6
Continuous
 62
   254
100
AcDbLine
 10
6.084999999999999
 20
120.5829999999999
 30
0.0
 11
6.084999999999999
 21
119.351
 31
0.0
  0
LINE
  5
1B3
330
A
100
AcDbEntity
  8
PV
  6
Continuous
 62
   254
100
AcDbLine
 10
7.428999999999999
 20
120.5829999999999
 30
0.0
 11
7.428999999999999
 21
119.351
 31
0.0
  0
LINE
  5
1B4
330
A
100
AcDbEntity
  8
PV
  6
Continuous
 62
   254
100
AcDbLine
 10
7.428999999999999
 20
119.351
 30
0.0
 11
7.876
 21
119.351
 31
0.0
  0
LINE
  5
1B5
330
A
100
AcDbEntity
  8
PV
  6
Continuous
 62
   254
100
AcDbLine
 10
-0.6310000000000001
 20
119.351
 30
0.0
 11
-0.4070000000000001
 21
119.351
 31
0.0
  0
LINE
  5
1B6
330
A
100
AcDbEntity
  8
PV
  6
Continuous
 62
   254
100
AcDbLine
 10
-0.6310000000000001
 20
121.5899999999999
 30
0.0
 11
-0.4070000000000001
 21
121.5899999999999
 31
0.0
  0
LINE
  5
1B7
330
A
100
AcDbEntity
  8
PV
  6
Continuous
 62
   254
100
AcDbLine
 10
-0.6310000000000001
 20
119.7989999999999
 30
0.0
 11
-0.4070000000000001
 21
119.7989999999999
 31
0.0
  0
LINE
  5
1B8
330
A
100
AcDbEntity
  8
PV
  6
Continuous
 62
   254
100
AcDbLine
 10
14.48599999999999
 20
119.015
 30
0.0
 11
14.852
 21
119.451
 31
0.0
  0
LINE
  5
1B9
330
A
100
AcDbEntity
  8
PV
  6
Continuous
 62
   254
100
AcDbLine
 10
14.31499999999999
 20
119.1589999999999
 30
0.0
 11
14.504
 21
119.385
 31
0.0
  0
LINE
  5
1BA
330
A
100
AcDbEntity
  8
PV
  6
Continuous
 62
   254
100
AcDbLine
 10
14.31499999999999
 20
119.1589999999999
 30
0.0
 11
14.48599999999999
 21
119.015
 31
0.0
  0
LINE
  5
1BB
330
A
100
AcDbEntity
  8
PV
  6
Continuous
 62
   254
100
AcDbLine
 10
15.15299999999999
 20
121.5899999999999
 30
0.0
 11
15.15299999999999
 21
120.247
 31
0.0
  0
LINE
  5
1BC
330
A
100
AcDbEntity
  8
PV
  6
Continuous
 62
   254
100
AcDbLine
 10
17.167
 20
119.7989999999999
 30
0.0
 11
17.167
 21
119.351
 31
0.0
  0
LINE
  5
1BD
330
A
100
AcDbEntity
  8
PV
  6
Continuous
 62
   254
100
AcDbLine
 10
15.6
 20
121.5899999999999
 30
0.0
 11
15.6
 21
120.247
 31
0.0
  0
LINE
  5
1BE
330
A
100
AcDbEntity
  8
PV
  6
Continuous
 62
   254
100
AcDbLine
 10
16.048
 20
119.7989999999999
 30
0.0
 11
17.167
 21
119.7989999999999
 31
0.0
  0
LINE
  5
1BF
330
A
100
AcDbEntity
  8
PV
  6
Continuous
 62
   254
100
AcDbLine
 10
19.40599999999999
 20
119.351
 30
0.0
 11
20.638
 21
119.351
 31
0.0
  0
LINE
  5
1C0
330
A
100
AcDbEntity
  8
PV
  6
Continuous
 62
   254
100
AcDbLine
 10
15.15299999999999
 20
121.5899999999999
 30
0.0
 11
15.6
 21
121.5899999999999
 31
0.0
  0
LINE
  5
1C1
330
A
100
AcDbEntity
  8
PV
  6
Continuous
 62
   254
100
AcDbLine
 10
16.944
 20
121.5899999999999
 30
0.0
 11
19.182
 21
121.5899999999999
 31
0.0
  0
LINE
  5
1C2
330
A
100
AcDbEntity
  8
PV
  6
Continuous
 62
   254
100
AcDbLine
 10
16.944
 20
121.5899999999999
 30
0.0
 11
16.944
 21
121.142
 31
0.0
  0
LINE
  5
1C3
330
A
100
AcDbEntity
  8
PV
  6
Continuous
 62
   254
100
AcDbLine
 10
19.182
 20
121.5899999999999
 30
0.0
 11
19.182
 21
121.142
 31
0.0
  0
LINE
  5
1C4
330
A
100
AcDbEntity
  8
PV
  6
Continuous
 62
   254
100
AcDbLine
 10
16.944
 20
121.142
 30
0.0
 11
17.839
 21
121.142
 31
0.0
  0
LINE
  5
1C5
330
A
100
AcDbEntity
  8
PV
  6
Continuous
 62
   254
100
AcDbLine
 10
18.28699999999999
 20
121.142
 30
0.0
 11
18.28699999999999
 21
119.351
 31
0.0
  0
LINE
  5
1C6
330
A
100
AcDbEntity
  8
PV
  6
Continuous
 62
   254
100
AcDbLine
 10
17.839
 20
121.142
 30
0.0
 11
17.839
 21
119.351
 31
0.0
  0
LINE
  5
1C7
330
A
100
AcDbEntity
  8
PV
  6
Continuous
 62
   254
100
AcDbLine
 10
19.854
 20
121.142
 30
0.0
 11
20.638
 21
121.142
 31
0.0
  0
LINE
  5
1C8
330
A
100
AcDbEntity
  8
PV
  6
Continuous
 62
   254
100
AcDbLine
 10
19.40599999999999
 20
121.5899999999999
 30
0.0
 11
20.638
 21
121.5899999999999
 31
0.0
  0
LINE
  5
1C9
330
A
100
AcDbEntity
  8
PV
  6
Continuous
 62
   254
100
AcDbLine
 10
18.28699999999999
 20
121.142
 30
0.0
 11
19.182
 21
121.142
 31
0.0
  0
LINE
  5
1CA
330
A
100
AcDbEntity
  8
PV
  6
Continuous
 62
   254
100
AcDbLine
 10
17.839
 20
119.351
 30
0.0
 11
18.28699999999999
 21
119.351
 31
0.0
  0
LINE
  5
1CB
330
A
100
AcDbEntity
  8
PV
  6
Continuous
 62
   254
100
AcDbLine
 10
19.40599999999999
 20
121.5899999999999
 30
0.0
 11
19.40599999999999
 21
120.471
 31
0.0
  0
LINE
  5
1CC
330
A
100
AcDbEntity
  8
PV
  6
Continuous
 62
   254
100
AcDbLine
 10
19.854
 20
119.7989999999999
 30
0.0
 11
20.638
 21
119.7989999999999
 31
0.0
  0
LINE
  5
1CD
330
A
100
AcDbEntity
  8
PV
  6
Continuous
 62
   254
100
AcDbLine
 10
19.854
 20
121.142
 30
0.0
 11
19.854
 21
120.471
 31
0.0
  0
LINE
  5
1CE
330
A
100
AcDbEntity
  8
PV
  6
Continuous
 62
   254
100
AcDbLine
 10
-10.70599999999999
 20
120.9179999999999
 30
0.0
 11
-10.70599999999999
 21
119.351
 31
0.0
  0
LINE
  5
1CF
330
A
100
AcDbEntity
  8
PV
  6
Continuous
 62
   254
100
AcDbLine
 10
-10.258
 20
120.9179999999999
 30
0.0
 11
-10.258
 21
120.694
 31
0.0
  0
LINE
  5
1D0
330
A
100
AcDbEntity
  8
PV
  6
Continuous
 62
   254
100
AcDbLine
 10
19.40599999999999
 20
120.471
 30
0.0
 11
19.40599999999999
 21
119.351
 31
0.0
  0
LINE
  5
1D1
330
A
100
AcDbEntity
  8
PV
  6
Continuous
 62
   254
100
AcDbLine
 10
19.854
 20
120.471
 30
0.0
 11
19.854
 21
119.7989999999999
 31
0.0
  0
LINE
  5
1D2
330
A
100
AcDbEntity
  8
PV
  6
Continuous
 62
   254
100
AcDbLine
 10
-0.6310000000000001
 20
121.142
 30
0.0
 11
-0.4070000000000001
 21
121.142
 31
0.0
  0
LINE
  5
1D3
330
A
100
AcDbEntity
  8
PV
  6
Continuous
 62
     7
100
AcDbLine
 10
15.53099999999999
 20
86.553
 30
0.0
 11
17.641
 21
87.675
 31
0.0
  0
LINE
  5
1D4
330
A
100
AcDbEntity
  8
PV
  6
Continuous
 62
     7
100
AcDbLine
 10
16.164
 20
85.79600000000001
 30
0.0
 11
17.641
 21
87.675
 31
0.0
  0
LINE
  5
1D5
330
A
100
AcDbEntity
  8
PV
  6
Continuous
 62
     7
100
AcDbLine
 10
-6.607
 20
86.03200000000001
 30
0.0
 11
-8.083999999999999
 21
87.911
 31
0.0
  0
LINE
  5
1D6
330
A
100
AcDbEntity
  8
PV
  6
Continuous
 62
     7
100
AcDbLine
 10
-5.974
 20
86.789
 30
0.0
 11
-8.083999999999999
 21
87.911
 31
0.0
  0
CIRCLE
  5
1D7
330
A
100
AcDbEntity
  8
PV
  6
Continuous
 62
     7
100
AcDbCircle
 10
5.0
 20
106.006
 30
0.0
 40
25.0
  0
ARC
  5
1D8
330
A
100
AcDbEntity
  8
PV
  6
Continuous
 62
     7
100
AcDbCircle
 10
0.666
 20
127.4159999999999
 30
0.0
 40
0.95
100
AcDbArc
 50
0.0
 51
180.000005
  0
ARC
  5
1D9
330
A
100
AcDbEntity
  8
PV
  6
Continuous
 62
     7
100
AcDbCircle
 10
0.666
 20
127.4159999999999
 30
0.0
 40
0.95
100
AcDbArc
 50
179.9999949999999
 51
0.0
  0
ARC
  5
1DA
330
A
100
AcDbEntity
  8
PV
  6
Continuous
 62
     7
100
AcDbCircle
 10
5.625
 20
126.591
 30
0.0
 40
1.774999999999999
100
AcDbArc
 50
90.00000300000001
 51
270.000001
  0
ARC
  5
1DB
330
A
100
AcDbEntity
  8
PV
  6
Continuous
 62
     7
100
AcDbCircle
 10
5.625
 20
126.591
 30
0.0
 40
0.975
100
AcDbArc
 50
90.00000300000001
 51
270.000001
  0
ARC
  5
1DC
330
A
100
AcDbEntity
  8
PV
  6
Continuous
 62
     7
100
AcDbCircle
 10
5.625
 20
126.591
 30
0.0
 40
0.975
100
AcDbArc
 50
269.9999969999999
 51
90.00000300000001
  0
ARC
  5
1DD
330
A
100
AcDbEntity
  8
PV
  6
Continuous
 62
     7
100
AcDbCircle
 10
8.875999999999999
 20
126.591
 30
0.0
 40
1.774999999999999
100
AcDbArc
 50
34.225552
 51
325.774451
  0
ARC
  5
1DE
330
A
100
AcDbEntity
  8
PV
  6
Continuous
 62
     7
100
AcDbCircle
 10
10.401
 20
126.591
 30
0.0
 40
1.0
100
AcDbArc
 50
90.00000300000001
 51
270.000001
  0
ARC
  5
1DF
330
A
100
AcDbEntity
  8
PV
  6
Continuous
 62
     7
100
AcDbCircle
 10
10.401
 20
126.591
 30
0.0
 40
1.0
100
AcDbArc
 50
269.9999969999999
 51
90.00000300000001
  0
ARC
  5
1E0
330
A
100
AcDbEntity
  8
PV
  6
Continuous
 62
   254
100
AcDbCircle
 10
-9.138999999999999
 20
120.9179999999999
 30
0.0
 40
0.6720000000000001
100
AcDbArc
 50
273.7218359999999
 51
359.999996
  0
ARC
  5
1E1
330
A
100
AcDbEntity
  8
PV
  6
Continuous
 62
   254
100
AcDbCircle
 10
-9.138999999999999
 20
120.9179999999999
 30
0.0
 40
0.224
100
AcDbArc
 50
270.0000109999999
 51
359.999996
  0
ARC
  5
1E2
330
A
100
AcDbEntity
  8
PV
  6
Continuous
 62
   254
100
AcDbCircle
 10
4.293999999999999
 20
120.471
 30
0.0
 40
1.118999999999999
100
AcDbArc
 50
89.999975
 51
270.000001
  0
ARC
  5
1E3
330
A
100
AcDbEntity
  8
PV
  6
Continuous
 62
   254
100
AcDbCircle
 10
4.293999999999999
 20
120.471
 30
0.0
 40
0.6720000000000001
100
AcDbArc
 50
89.999975
 51
160.528775
  0
ARC
  5
1E4
330
A
100
AcDbEntity
  8
PV
  6
Continuous
 62
   254
100
AcDbCircle
 10
4.293999999999999
 20
120.471
 30
0.0
 40
0.6720000000000001
100
AcDbArc
 50
199.471211
 51
270.0000109999999
  0
ARC
  5
1E5
330
A
100
AcDbEntity
  8
PV
  6
Continuous
 62
   254
100
AcDbCircle
 10
12.354
 20
120.471
 30
0.0
 40
1.118999999999999
100
AcDbArc
 50
89.999975
 51
179.99995
  0
ARC
  5
1E6
330
A
100
AcDbEntity
  8
PV
  6
Continuous
 62
   254
100
AcDbCircle
 10
12.578
 20
120.471
 30
0.0
 40
1.118999999999999
100
AcDbArc
 50
270.0000109999999
 51
359.999996
  0
ARC
  5
1E7
330
A
100
AcDbEntity
  8
PV
  6
Continuous
 62
   254
100
AcDbCircle
 10
12.354
 20
120.471
 30
0.0
 40
0.6720000000000001
100
AcDbArc
 50
89.999975
 51
179.99995
  0
ARC
  5
1E8
330
A
100
AcDbEntity
  8
PV
  6
Continuous
 62
   254
100
AcDbCircle
 10
12.578
 20
120.471
 30
0.0
 40
0.6720000000000001
100
AcDbArc
 50
270.0000109999999
 51
359.999996
  0
ARC
  5
1E9
330
A
100
AcDbEntity
  8
PV
  6
Continuous
 62
   254
100
AcDbCircle
 10
-6.339999999999999
 20
120.471
 30
0.0
 40
1.118999999999999
100
AcDbArc
 50
89.999975
 51
270.000001
  0
ARC
  5
1EA
330
A
100
AcDbEntity
  8
PV
  6
Continuous
 62
   254
100
AcDbCircle
 10
-6.339999999999999
 20
120.471
 30
0.0
 40
0.6720000000000001
100
AcDbArc
 50
89.999975
 51
160.528775
  0
ARC
  5
1EB
330
A
100
AcDbEntity
  8
PV
  6
Continuous
 62
   254
100
AcDbCircle
 10
-6.339999999999999
 20
120.471
 30
0.0
 40
0.6720000000000001
100
AcDbArc
 50
199.471211
 51
270.0000109999999
  0
ARC
  5
1EC
330
A
100
AcDbEntity
  8
PV
  6
Continuous
 62
   254
100
AcDbCircle
 10
6.644999999999999
 20
120.5829999999999
 30
0.0
 40
1.007
100
AcDbArc
 50
89.999975
 51
179.99995
  0
ARC
  5
1ED
330
A
100
AcDbEntity
  8
PV
  6
Continuous
 62
   254
100
AcDbCircle
 10
6.868999999999999
 20
120.5829999999999
 30
0.0
 40
1.007
100
AcDbArc
 50
359.999996
 51
89.999975
  0
ARC
  5
1EE
330
A
100
AcDbEntity
  8
PV
  6
Continuous
 62
   254
100
AcDbCircle
 10
6.644999999999999
 20
120.5829999999999
 30
0.0
 40
0.5600000000000001
100
AcDbArc
 50
89.999975
 51
179.99995
  0
ARC
  5
1EF
330
A
100
AcDbEntity
  8
PV
  6
Continuous
 62
   254
100
AcDbCircle
 10
6.868999999999999
 20
120.5829999999999
 30
0.0
 40
0.5600000000000001
100
AcDbArc
 50
359.999996
 51
89.999975
  0
ARC
  5
1F0
330
A
100
AcDbEntity
  8
PV
  6
Continuous
 62
   254
100
AcDbCircle
 10
-0.6310000000000001
 20
120.471
 30
0.0
 40
1.118999999999999
100
AcDbArc
 50
89.999975
 51
179.99995
  0
ARC
  5
1F1
330
A
100
AcDbEntity
  8
PV
  6
Continuous
 62
   254
100
AcDbCircle
 10
-0.4070000000000001
 20
120.471
 30
0.0
 40
1.118999999999999
100
AcDbArc
 50
270.0000109999999
 51
359.999996
  0
ARC
  5
1F2
330
A
100
AcDbEntity
  8
PV
  6
Continuous
 62
   254
100
AcDbCircle
 10
-0.6310000000000001
 20
120.471
 30
0.0
 40
0.6720000000000001
100
AcDbArc
 50
89.999975
 51
179.99995
  0
ARC
  5
1F3
330
A
100
AcDbEntity
  8
PV
  6
Continuous
 62
   254
100
AcDbCircle
 10
-0.4070000000000001
 20
120.471
 30
0.0
 40
0.6720000000000001
100
AcDbArc
 50
270.0000109999999
 51
359.999996
  0
ARC
  5
1F4
330
A
100
AcDbEntity
  8
PV
  6
Continuous
 62
   254
100
AcDbCircle
 10
14.63799999999999
 20
119.6309999999999
 30
0.0
 40
0.28
100
AcDbArc
 50
319.9999189999999
 51
241.536827
  0
CIRCLE
  5
1F5
330
A
100
AcDbEntity
  8
PV
  6
Continuous
 62
   254
100
AcDbCircle
 10
13.921
 20
119.6309999999999
 30
0.0
 40
0.28
  0
ARC
  5
1F6
330
A
100
AcDbEntity
  8
PV
  6
Continuous
 62
   254
100
AcDbCircle
 10
16.048
 20
120.247
 30
0.0
 40
0.8959999999999999
100
AcDbArc
 50
179.999978
 51
270.000001
  0
ARC
  5
1F7
330
A
100
AcDbEntity
  8
PV
  6
Continuous
 62
   254
100
AcDbCircle
 10
16.048
 20
120.247
 30
0.0
 40
0.448
100
AcDbArc
 50
179.999978
 51
270.000001
  0
ARC
  5
1F8
330
A
100
AcDbEntity
  8
PV
  6
Continuous
 62
   254
100
AcDbCircle
 10
20.638
 20
120.471
 30
0.0
 40
1.118999999999999
100
AcDbArc
 50
270.0000109999999
 51
359.999996
  0
ARC
  5
1F9
330
A
100
AcDbEntity
  8
PV
  6
Continuous
 62
   254
100
AcDbCircle
 10
20.638
 20
120.471
 30
0.0
 40
0.6720000000000001
100
AcDbArc
 50
270.0000109999999
 51
359.999996
  0
ARC
  5
1FA
330
A
100
AcDbEntity
  8
PV
  6
Continuous
 62
   254
100
AcDbCircle
 10
10.00299999999999
 20
120.471
 30
0.0
 40
1.118999999999999
100
AcDbArc
 50
89.999975
 51
270.000001
  0
ARC
  5
1FB
330
A
100
AcDbEntity
  8
PV
  6
Continuous
 62
   254
100
AcDbCircle
 10
10.00299999999999
 20
120.471
 30
0.0
 40
0.6720000000000001
100
AcDbArc
 50
89.999975
 51
270.000001
  0
ARC
  5
1FC
330
A
100
AcDbEntity
  8
PV
  6
Continuous
 62
   254
100
AcDbCircle
 10
-9.138999999999999
 20
120.9179999999999
 30
0.0
 40
0.224
100
AcDbArc
 50
359.999996
 51
89.999975
  0
ARC
  5
1FD
330
A
100
AcDbEntity
  8
PV
  6
Continuous
 62
   254
100
AcDbCircle
 10
-9.138999999999999
 20
120.9179999999999
 30
0.0
 40
0.6720000000000001
100
AcDbArc
 50
359.999996
 51
89.999975
  0
ARC
  5
1FE
330
A
100
AcDbEntity
  8
PV
  6
Continuous
 62
   254
100
AcDbCircle
 10
-0.4070000000000001
 20
120.471
 30
0.0
 40
1.118999999999999
100
AcDbArc
 50
359.999996
 51
89.999975
  0
ARC
  5
1FF
330
A
100
AcDbEntity
  8
PV
  6
Continuous
 62
   254
100
AcDbCircle
 10
-0.4070000000000001
 20
120.471
 30
0.0
 40
0.6720000000000001
100
AcDbArc
 50
359.999996
 51
89.999975
  0
ARC
  5
200
330
A
100
AcDbEntity
  8
PV
  6
Continuous
 62
   254
100
AcDbCircle
 10
-0.6310000000000001
 20
120.471
 30
0.0
 40
0.6720000000000001
100
AcDbArc
 50
179.999978
 51
270.000001
  0
ARC
  5
201
330
A
100
AcDbEntity
  8
PV
  6
Continuous
 62
   254
100
AcDbCircle
 10
-0.6310000000000001
 20
120.471
 30
0.0
 40
1.118999999999999
100
AcDbArc
 50
179.999978
 51
270.000001
  0
ARC
  5
202
330
A
100
AcDbEntity
  8
PV
  6
Continuous
 62
   254
100
AcDbCircle
 10
12.354
 20
120.471
 30
0.0
 40
1.118999999999999
100
AcDbArc
 50
179.999978
 51
270.000001
  0
ARC
  5
203
330
A
100
AcDbEntity
  8
PV
  6
Continuous
 62
   254
100
AcDbCircle
 10
12.354
 20
120.471
 30
0.0
 40
0.6720000000000001
100
AcDbArc
 50
179.999978
 51
270.000001
  0
ARC
  5
204
330
A
100
AcDbEntity
  8
PV
  6
Continuous
 62
   254
100
AcDbCircle
 10
12.578
 20
120.471
 30
0.0
 40
0.6720000000000001
100
AcDbArc
 50
359.999996
 51
89.999975
  0
ARC
  5
205
330
A
100
AcDbEntity
  8
PV
  6
Continuous
 62
   254
100
AcDbCircle
 10
12.578
 20
120.471
 30
0.0
 40
1.118999999999999
100
AcDbArc
 50
359.999996
 51
89.999975
  0
ARC
  5
206
330
A
100
AcDbEntity
  8
PV
  6
Continuous
 62
   254
100
AcDbCircle
 10
20.638
 20
120.471
 30
0.0
 40
0.6720000000000001
100
AcDbArc
 50
359.999996
 51
90.00003000000001
  0
ARC
  5
207
330
A
100
AcDbEntity
  8
PV
  6
Continuous
 62
   254
100
AcDbCircle
 10
20.638
 20
120.471
 30
0.0
 40
1.118999999999999
100
AcDbArc
 50
359.999996
 51
90.00003000000001
  0
ARC
  5
208
330
A
100
AcDbEntity
  8
PV
  6
Continuous
 62
     7
100
AcDbCircle
 10
3.381999999999999
 20
100.7989999999999
 30
0.0
 40
17.25
100
AcDbArc
 50
228.339771
 51
243.535371
  0
ARC
  5
209
330
A
100
AcDbEntity
  8
PV
  6
Continuous
 62
     7
100
AcDbCircle
 10
6.174999999999999
 20
100.562
 30
0.0
 40
17.25
100
AcDbArc
 50
294.333537
 51
311.660234
  0
LWPOLYLINE
  5
20A
330
A
100
AcDbEntity
  8
PV
  6
Continuous
 62
     7
100
AcDbPolyline
 90
      113
 70
     0
 43
0.0
 10
-6.560999999999999
 20
111.882
 10
-6.632
 20
111.892
 10
-6.703999999999999
 20
111.8989999999999
 10
-6.775999999999999
 20
111.9029999999999
 10
-6.847999999999999
 20
111.9029999999999
 10
-6.919999999999999
 20
111.8989999999999
 10
-6.992999999999999
 20
111.892
 10
-7.065
 20
111.881
 10
-7.137
 20
111.867
 10
-7.207999999999999
 20
111.8489999999999
 10
-7.278999999999999
 20
111.827
 10
-7.347999999999999
 20
111.802
 10
-7.417999999999999
 20
111.7739999999999
 10
-7.486
 20
111.742
 10
-7.552999999999999
 20
111.707
 10
-7.617999999999999
 20
111.6689999999999
 10
-7.682999999999999
 20
111.6279999999999
 10
-7.745
 20
111.584
 10
-7.807
 20
111.536
 10
-7.866
 20
111.4859999999999
 10
-7.923999999999999
 20
111.433
 10
-7.979
 20
111.377
 10
-8.032999999999999
 20
111.318
 10
-8.083999999999999
 20
111.257
 10
-8.132999999999999
 20
111.194
 10
-8.179999999999999
 20
111.1289999999999
 10
-8.224
 20
111.061
 10
-8.266
 20
110.9909999999999
 10
-8.304999999999999
 20
110.9199999999999
 10
-8.341000000000001
 20
110.846
 10
-8.375
 20
110.7709999999999
 10
-8.406
 20
110.6949999999999
 10
-8.433999999999999
 20
110.617
 10
-8.458999999999999
 20
110.539
 10
-8.480999999999999
 20
110.4589999999999
 10
-8.5
 20
110.3779999999999
 10
-8.516
 20
110.297
 10
-8.528999999999999
 20
110.2149999999999
 10
-8.538
 20
110.1329999999999
 10
-8.544999999999999
 20
110.05
 10
-8.548
 20
109.9679999999999
 10
-8.548999999999999
 20
109.885
 10
-8.545999999999999
 20
109.803
 10
-8.539999999999999
 20
109.721
 10
-8.531
 20
109.64
 10
-8.517999999999998
 20
109.559
 10
-8.503
 20
109.4789999999999
 10
-8.483999999999999
 20
109.401
 10
-8.462999999999999
 20
109.3229999999999
 10
-8.439
 20
109.247
 10
-8.410999999999999
 20
109.172
 10
-8.381
 20
109.0989999999999
 10
-8.347999999999998
 20
109.027
 10
-8.312000000000001
 20
108.9579999999999
 10
-8.272999999999999
 20
108.8899999999999
 10
-8.232000000000001
 20
108.824
 10
-8.187999999999998
 20
108.761
 10
-8.142000000000001
 20
108.6999999999999
 10
-8.092999999999999
 20
108.642
 10
-8.041999999999999
 20
108.586
 10
-7.988999999999999
 20
108.5329999999999
 10
-7.934
 20
108.4829999999999
 10
-7.877
 20
108.4359999999999
 10
-7.817
 20
108.391
 10
-7.757
 20
108.3499999999999
 10
-7.693999999999999
 20
108.312
 10
-7.629999999999999
 20
108.277
 10
-7.565
 20
108.246
 10
-7.497999999999999
 20
108.217
 10
-7.429999999999999
 20
108.193
 10
-7.361
 20
108.171
 10
-7.291
 20
108.1539999999999
 10
-7.221
 20
108.139
 10
-7.15
 20
108.1289999999999
 10
-7.077999999999999
 20
108.121
 10
-7.006
 20
108.118
 10
-6.934
 20
108.118
 10
-6.861
 20
108.122
 10
-6.788999999999999
 20
108.1289999999999
 10
-6.717
 20
108.14
 10
-6.644999999999999
 20
108.1539999999999
 10
-6.573999999999999
 20
108.172
 10
-6.502999999999999
 20
108.193
 10
-6.432999999999999
 20
108.2179999999999
 10
-6.363999999999999
 20
108.247
 10
-6.296
 20
108.2779999999999
 10
-6.229
 20
108.3129999999999
 10
-6.162999999999999
 20
108.352
 10
-6.099
 20
108.3929999999999
 10
-6.036
 20
108.437
 10
-5.974999999999999
 20
108.485
 10
-5.916
 20
108.535
 10
-5.857999999999999
 20
108.5879999999999
 10
-5.802999999999999
 20
108.6439999999999
 10
-5.748999999999999
 20
108.702
 10
-5.697999999999999
 20
108.7629999999999
 10
-5.649
 20
108.827
 10
-5.602
 20
108.892
 10
-5.557999999999999
 20
108.9599999999999
 10
-5.516
 20
109.03
 10
-5.477
 20
109.101
 10
-5.44
 20
109.1739999999999
 10
-5.407
 20
109.2489999999999
 10
-5.376
 20
109.326
 10
-5.347999999999999
 20
109.4029999999999
 10
-5.322999999999999
 20
109.482
 10
-5.301
 20
109.562
 10
-5.282
 20
109.6429999999999
 10
-5.266
 20
109.724
 10
-5.252999999999999
 20
109.806
 10
-5.242999999999999
 20
109.8879999999999
 10
-5.237
 20
109.9709999999999
 10
-5.235
 20
110.01
  0
LWPOLYLINE
  5
20B
330
A
100
AcDbEntity
  8
PV
  6
Continuous
 62
     7
100
AcDbPolyline
 90
       26
 70
     0
 43
0.0
 10
-5.317999999999999
 20
110.6949999999999
 10
-5.318999999999999
 20
110.6979999999999
 10
-5.342999999999999
 20
110.7739999999999
 10
-5.371
 20
110.8489999999999
 10
-5.400999999999999
 20
110.922
 10
-5.434
 20
110.9939999999999
 10
-5.469999999999999
 20
111.063
 10
-5.508999999999999
 20
111.131
 10
-5.549999999999999
 20
111.196
 10
-5.593999999999999
 20
111.26
 10
-5.639999999999999
 20
111.3199999999999
 10
-5.689
 20
111.3789999999999
 10
-5.738999999999999
 20
111.4349999999999
 10
-5.792999999999999
 20
111.488
 10
-5.847999999999999
 20
111.538
 10
-5.905
 20
111.585
 10
-5.963999999999999
 20
111.629
 10
-6.025
 20
111.671
 10
-6.087999999999999
 20
111.709
 10
-6.152
 20
111.7439999999999
 10
-6.217
 20
111.775
 10
-6.283999999999999
 20
111.803
 10
-6.352
 20
111.8279999999999
 10
-6.421
 20
111.8489999999999
 10
-6.49
 20
111.867
 10
-6.560999999999999
 20
111.882
  0
LWPOLYLINE
  5
20C
330
A
100
AcDbEntity
  8
PV
  6
Continuous
 62
     7
100
AcDbPolyline
 90
       94
 70
     0
 43
0.0
 10
24.96199999999999
 20
108.856
 10
24.963
 20
108.851
 10
24.978
 20
108.806
 10
24.994
 20
108.761
 10
25.013
 20
108.717
 10
25.033
 20
108.674
 10
25.055
 20
108.632
 10
25.079
 20
108.591
 10
25.104
 20
108.5509999999999
 10
25.13199999999999
 20
108.5129999999999
 10
25.16
 20
108.4749999999999
 10
25.19
 20
108.4389999999999
 10
25.22199999999999
 20
108.4039999999999
 10
25.255
 20
108.371
 10
25.28999999999999
 20
108.34
 10
25.325
 20
108.3099999999999
 10
25.362
 20
108.281
 10
25.4
 20
108.2549999999999
 10
25.44
 20
108.23
 10
25.48
 20
108.207
 10
25.521
 20
108.1849999999999
 10
25.563
 20
108.166
 10
25.605
 20
108.149
 10
25.649
 20
108.1329999999999
 10
25.693
 20
108.12
 10
25.737
 20
108.1079999999999
 10
25.78199999999999
 20
108.0989999999999
 10
25.82699999999999
 20
108.092
 10
25.873
 20
108.0859999999999
 10
25.919
 20
108.0829999999999
 10
25.965
 20
108.082
 10
26.01
 20
108.0829999999999
 10
26.05599999999999
 20
108.0859999999999
 10
26.10199999999999
 20
108.092
 10
26.147
 20
108.0989999999999
 10
26.19199999999999
 20
108.1079999999999
 10
26.236
 20
108.12
 10
26.28
 20
108.1329999999999
 10
26.324
 20
108.149
 10
26.366
 20
108.166
 10
26.408
 20
108.1849999999999
 10
26.449
 20
108.207
 10
26.49
 20
108.23
 10
26.529
 20
108.2549999999999
 10
26.56699999999999
 20
108.281
 10
26.604
 20
108.3099999999999
 10
26.63899999999999
 20
108.34
 10
26.674
 20
108.371
 10
26.707
 20
108.4039999999999
 10
26.739
 20
108.4389999999999
 10
26.769
 20
108.4749999999999
 10
26.798
 20
108.5129999999999
 10
26.825
 20
108.5509999999999
 10
26.85
 20
108.591
 10
26.874
 20
108.632
 10
26.896
 20
108.674
 10
26.916
 20
108.717
 10
26.935
 20
108.761
 10
26.951
 20
108.806
 10
26.966
 20
108.851
 10
26.979
 20
108.898
 10
26.98999999999999
 20
108.9439999999999
 10
26.999
 20
108.9909999999999
 10
27.006
 20
109.0389999999999
 10
27.011
 20
109.0859999999999
 10
27.014
 20
109.1339999999999
 10
27.015
 20
109.182
 10
27.014
 20
109.23
 10
27.011
 20
109.2779999999999
 10
27.006
 20
109.326
 10
26.999
 20
109.3729999999999
 10
26.98999999999999
 20
109.42
 10
26.979
 20
109.467
 10
26.966
 20
109.5129999999999
 10
26.951
 20
109.5579999999999
 10
26.935
 20
109.603
 10
26.916
 20
109.647
 10
26.896
 20
109.6899999999999
 10
26.874
 20
109.732
 10
26.85
 20
109.773
 10
26.825
 20
109.8129999999999
 10
26.798
 20
109.852
 10
26.769
 20
109.8889999999999
 10
26.739
 20
109.925
 10
26.707
 20
109.9599999999999
 10
26.674
 20
109.993
 10
26.63899999999999
 20
110.025
 10
26.604
 20
110.055
 10
26.56699999999999
 20
110.0829999999999
 10
26.529
 20
110.1099999999999
 10
26.49
 20
110.135
 10
26.449
 20
110.158
 10
26.408
 20
110.179
 10
26.37999999999999
 20
110.192
  0
LWPOLYLINE
  5
20D
330
A
100
AcDbEntity
  8
PV
  6
Continuous
 62
     7
100
AcDbPolyline
 90
       94
 70
     0
 43
0.0
 10
27.36699999999999
 20
111.206
 10
27.366
 20
111.2099999999999
 10
27.351
 20
111.2559999999999
 10
27.335
 20
111.2999999999999
 10
27.316
 20
111.3439999999999
 10
27.296
 20
111.387
 10
27.274
 20
111.429
 10
27.25
 20
111.47
 10
27.225
 20
111.5099999999999
 10
27.198
 20
111.5489999999999
 10
27.169
 20
111.586
 10
27.139
 20
111.6229999999999
 10
27.107
 20
111.657
 10
27.074
 20
111.69
 10
27.039
 20
111.722
 10
27.004
 20
111.752
 10
26.96699999999999
 20
111.78
 10
26.929
 20
111.807
 10
26.89
 20
111.832
 10
26.849
 20
111.855
 10
26.808
 20
111.8759999999999
 10
26.766
 20
111.8959999999999
 10
26.724
 20
111.9129999999999
 10
26.68
 20
111.929
 10
26.636
 20
111.942
 10
26.592
 20
111.9529999999999
 10
26.547
 20
111.9629999999999
 10
26.50199999999999
 20
111.9699999999999
 10
26.45599999999999
 20
111.975
 10
26.41
 20
111.9779999999999
 10
26.36499999999999
 20
111.979
 10
26.319
 20
111.9779999999999
 10
26.273
 20
111.975
 10
26.227
 20
111.9699999999999
 10
26.18199999999999
 20
111.9629999999999
 10
26.13699999999999
 20
111.9529999999999
 10
26.093
 20
111.942
 10
26.049
 20
111.929
 10
26.005
 20
111.9129999999999
 10
25.963
 20
111.8959999999999
 10
25.921
 20
111.8759999999999
 10
25.88
 20
111.855
 10
25.84
 20
111.832
 10
25.8
 20
111.807
 10
25.762
 20
111.78
 10
25.725
 20
111.752
 10
25.69
 20
111.722
 10
25.655
 20
111.69
 10
25.622
 20
111.657
 10
25.59
 20
111.6229999999999
 10
25.56
 20
111.586
 10
25.53199999999999
 20
111.5489999999999
 10
25.504
 20
111.5099999999999
 10
25.479
 20
111.47
 10
25.455
 20
111.429
 10
25.433
 20
111.387
 10
25.413
 20
111.3439999999999
 10
25.394
 20
111.2999999999999
 10
25.378
 20
111.2559999999999
 10
25.363
 20
111.2099999999999
 10
25.35
 20
111.1639999999999
 10
25.339
 20
111.118
 10
25.32999999999999
 20
111.07
 10
25.324
 20
111.023
 10
25.319
 20
110.975
 10
25.316
 20
110.927
 10
25.315
 20
110.8789999999999
 10
25.316
 20
110.831
 10
25.319
 20
110.7839999999999
 10
25.324
 20
110.736
 10
25.32999999999999
 20
110.6879999999999
 10
25.339
 20
110.641
 10
25.35
 20
110.5949999999999
 10
25.363
 20
110.5489999999999
 10
25.378
 20
110.5029999999999
 10
25.394
 20
110.458
 10
25.413
 20
110.415
 10
25.433
 20
110.372
 10
25.455
 20
110.3289999999999
 10
25.479
 20
110.288
 10
25.504
 20
110.2479999999999
 10
25.53199999999999
 20
110.2099999999999
 10
25.56
 20
110.172
 10
25.59
 20
110.136
 10
25.622
 20
110.102
 10
25.655
 20
110.068
 10
25.69
 20
110.037
 10
25.725
 20
110.007
 10
25.762
 20
109.9779999999999
 10
25.8
 20
109.952
 10
25.84
 20
109.927
 10
25.88
 20
109.904
 10
25.921
 20
109.882
 10
25.949
 20
109.8689999999999
  0
MTEXT
  5
20E
330
A
100
AcDbEntity
  8
PV
  6
Continuous
 62
     7
100
AcDbMText
 10
5.003
 20
98.793
 30
0.0
 40
2.0
 41
0.0
 71
     2
 72
     1
  1
\W0.925;\A1;HIGH VACUUM VALVES
 73
     1
 44
1.0
  0
MTEXT
  5
20F
330
A
100
AcDbEntity
  8
PV
  6
Continuous
 62
     7
100
AcDbMText
 10
4.94
 20
93.731
 30
0.0
 40
2.0
 41
0.0
 71
     2
 72
     1
  1
\W0.930;\A1;METAL BELLOWS
 73
     1
 44
1.0
  0
MTEXT
  5
210
330
A
100
AcDbEntity
  8
PV
  6
Continuous
 62
     7
100
AcDbMText
 10
7.852097999999999
 20
84.13117900000001
 30
0.0
 40
1.5
 41
0.0
 71
     2
 72
     1
  1
\W1.048;\A1;O
 11
0.9935718815697162
 21
0.113202986506601
 31
0.0
 73
     1
 44
1.0
  0
MTEXT
  5
211
330
A
100
AcDbEntity
  8
PV
  6
Continuous
 62
     7
100
AcDbMText
 10
9.274473999999999
 20
84.35594399999999
 30
0.0
 40
1.5
 41
0.0
 71
     2
 72
     1
  1
\A1;P
 11
0.9799247035488139
 21
0.1993679396863229
 31
0.0
 73
     1
 44
1.0
  0
MTEXT
  5
212
330
A
100
AcDbEntity
  8
PV
  6
Continuous
 62
     7
100
AcDbMText
 10
10.670989
 20
84.704115
 30
0.0
 40
1.5
 41
0.0
 71
     2
 72
     1
  1
\W0.905;\A1;E
 11
0.9588198501244839
 21
0.2840149556049157
 31
0.0
 73
     1
 44
1.0
  0
MTEXT
  5
213
330
A
100
AcDbEntity
  8
PV
  6
Continuous
 62
     7
100
AcDbMText
 10
-3.176979999999999
 20
85.74747099999999
 30
0.0
 40
1.5
 41
0.0
 71
     2
 72
     1
  1
\A1;C
 11
0.909961315861277
 21
-0.4146931439462357
 31
0.0
 73
     1
 44
1.0
  0
MTEXT
  5
214
330
A
100
AcDbEntity
  8
PV
  6
Continuous
 62
     7
100
AcDbMText
 10
-1.842645
 20
85.207981
 30
0.0
 40
1.5
 41
0.0
 71
     2
 72
     1
  1
\W0.810;\A1;L
 11
0.9426413920776289
 21
-0.3338071388421012
 31
0.0
 73
     1
 44
1.0
  0
MTEXT
  5
215
330
A
100
AcDbEntity
  8
PV
  6
Continuous
 62
     7
100
AcDbMText
 10
-0.466215
 20
84.78711099999999
 30
0.0
 40
1.5
 41
0.0
 71
     2
 72
     1
  1
\W1.048;\A1;O
 11
0.9681476639056603
 21
-0.2503799130801275
 31
0.0
 73
     1
 44
1.0
  0
MTEXT
  5
216
330
A
100
AcDbEntity
  8
PV
  6
Continuous
 62
     7
100
AcDbMText
 10
0.9417860000000001
 20
84.487714
 30
0.0
 40
1.5
 41
0.0
 71
     2
 72
     1
  1
\W0.952;\A1;S
 11
0.9862855482320082
 21
-0.1650479243998155
 31
0.0
 73
     1
 44
1.0
  0
MTEXT
  5
217
330
A
100
AcDbEntity
  8
PV
  6
Continuous
 62
     7
100
AcDbMText
 10
2.370843999999999
 20
84.31268799999999
 30
0.0
 40
1.5
 41
0.0
 71
     2
 72
     1
  1
\W0.905;\A1;E
 11
0.9969173391662902
 21
-0.0784590266929423
 31
0.0
 73
     1
 44
1.0
  0
MTEXT
  5
218
330
A
100
AcDbEntity
  8
PV
  6
Continuous
 62
     7
100
AcDbMText
 10
12.032124
 20
85.172813
 30
0.0
 40
1.5
 41
0.0
 71
     2
 72
     1
  1
\W1.048;\A1;N
 11
0.9304177033247322
 21
0.3665008831366308
 31
0.0
 73
     1
 44
1.0
  0
SOLID
  5
219
330
A
100
AcDbEntity
  8
PV
  6
Continuous
 62
     7
100
AcDbTrace
 10
2.299999999999999
 20
124.816
 30
0.0
 11
3.85
 21
124.816
 31
0.0
 12
2.299999999999999
 22
128.366
 32
0.0
 13
3.85
 23
128.366
 33
0.0
  0
SOLID
  5
21A
330
A
100
AcDbEntity
  8
PV
  6
Continuous
 62
     7
100
AcDbTrace
 10
-11.60099999999999
 20
119.351
 30
0.0
 11
-11.15299999999999
 21
119.351
 31
0.0
 12
-11.60099999999999
 22
121.5899999999999
 32
0.0
 13
-11.15299999999999
 23
121.5899999999999
 33
0.0
  0
SOLID
  5
21B
330
A
100
AcDbEntity
  8
PV
  6
Continuous
 62
     7
100
AcDbTrace
 10
-8.131
 20
119.351
 30
0.0
 11
-7.682999999999999
 21
119.351
 31
0.0
 12
-8.131
 22
121.5899999999999
 32
0.0
 13
-7.682999999999999
 23
121.5899999999999
 33
0.0
  0
LINE
  5
21C
330
A
100
AcDbEntity
  8
PV
  6
Continuous
 62
     7
100
AcDbLine
 10
-26.0
 20
71.542
 30
0.0
 11
-23.0
 21
73.274
 31
0.0
  0
LINE
  5
21D
330
A
100
AcDbEntity
  8
PV
  6
Continuous
 62
     7
100
AcDbLine
 10
-29.0
 20
76.73799999999999
 30
0.0
 11
-26.0
 21
78.47100000000001
 31
0.0
  0
LINE
  5
21E
330
A
100
AcDbEntity
  8
PV
  6
Continuous
 62
     7
100
AcDbLine
 10
-23.0
 20
76.73799999999999
 30
0.0
 11
-23.0
 21
73.274
 31
0.0
  0
LINE
  5
21F
330
A
100
AcDbEntity
  8
PV
  6
Continuous
 62
     7
100
AcDbLine
 10
-29.0
 20
76.73799999999999
 30
0.0
 11
-29.0
 21
73.274
 31
0.0
  0
LINE
  5
220
330
A
100
AcDbEntity
  8
PV
  6
Continuous
 62
     7
100
AcDbLine
 10
-26.0
 20
78.47100000000001
 30
0.0
 11
-23.0
 21
76.73799999999999
 31
0.0
  0
LINE
  5
221
330
A
100
AcDbEntity
  8
PV
  6
Continuous
 62
     7
100
AcDbLine
 10
-29.0
 20
73.274
 30
0.0
 11
-26.0
 21
71.542
 31
0.0
  0
CIRCLE
  5
222
330
A
100
AcDbEntity
  8
PV
  6
Continuous
 62
     7
100
AcDbCircle
 10
-26.0
 20
75.006
 30
0.0
 40
6.5
  0
CIRCLE
  5
223
330
A
100
AcDbEntity
  8
PV
  6
Continuous
 62
     7
100
AcDbCircle
 10
-26.0
 20
75.006
 30
0.0
 40
5.633999999999999
  0
LINE
  5
224
330
A
100
AcDbEntity
  8
PV
  6
Continuous
 62
     7
100
AcDbLine
 10
36.0
 20
71.542
 30
0.0
 11
39.0
 21
73.274
 31
0.0
  0
LINE
  5
225
330
A
100
AcDbEntity
  8
PV
  6
Continuous
 62
     7
100
AcDbLine
 10
33.0
 20
76.73799999999999
 30
0.0
 11
36.0
 21
78.47100000000001
 31
0.0
  0
LINE
  5
226
330
A
100
AcDbEntity
  8
PV
  6
Continuous
 62
     7
100
AcDbLine
 10
39.0
 20
76.73799999999999
 30
0.0
 11
39.0
 21
73.274
 31
0.0
  0
LINE
  5
227
330
A
100
AcDbEntity
  8
PV
  6
Continuous
 62
     7
100
AcDbLine
 10
33.0
 20
76.73799999999999
 30
0.0
 11
33.0
 21
73.274
 31
0.0
  0
LINE
  5
228
330
A
100
AcDbEntity
  8
PV
  6
Continuous
 62
     7
100
AcDbLine
 10
36.0
 20
78.47100000000001
 30
0.0
 11
39.0
 21
76.73799999999999
 31
0.0
  0
LINE
  5
229
330
A
100
AcDbEntity
  8
PV
  6
Continuous
 62
     7
100
AcDbLine
 10
33.0
 20
73.274
 30
0.0
 11
36.0
 21
71.542
 31
0.0
  0
CIRCLE
  5
22A
330
A
100
AcDbEntity
  8
PV
  6
Continuous
 62
     7
100
AcDbCircle
 10
36.0
 20
75.006
 30
0.0
 40
6.5
  0
CIRCLE
  5
22B
330
A
100
AcDbEntity
  8
PV
  6
Continuous
 62
     7
100
AcDbCircle
 10
36.0
 20
75.006
 30
0.0
 40
5.633999999999999
  0
LINE
  5
22C
330
A
100
AcDbEntity
  8
PV
  6
Continuous
 62
     7
100
AcDbLine
 10
36.0
 20
133.542
 30
0.0
 11
39.0
 21
135.274
 31
0.0
  0
LINE
  5
22D
330
A
100
AcDbEntity
  8
PV
  6
Continuous
 62
     7
100
AcDbLine
 10
33.0
 20
138.738
 30
0.0
 11
36.0
 21
140.471
 31
0.0
  0
LINE
  5
22E
330
A
100
AcDbEntity
  8
PV
  6
Continuous
 62
     7
100
AcDbLine
 10
39.0
 20
138.738
 30
0.0
 11
39.0
 21
135.274
 31
0.0
  0
LINE
  5
22F
330
A
100
AcDbEntity
  8
PV
  6
Continuous
 62
     7
100
AcDbLine
 10
33.0
 20
138.738
 30
0.0
 11
33.0
 21
135.274
 31
0.0
  0
LINE
  5
230
330
A
100
AcDbEntity
  8
PV
  6
Continuous
 62
     7
100
AcDbLine
 10
36.0
 20
140.471
 30
0.0
 11
39.0
 21
138.738
 31
0.0
  0
LINE
  5
231
330
A
100
AcDbEntity
  8
PV
  6
Continuous
 62
     7
100
AcDbLine
 10
33.0
 20
135.274
 30
0.0
 11
36.0
 21
133.542
 31
0.0
  0
CIRCLE
  5
232
330
A
100
AcDbEntity
  8
PV
  6
Continuous
 62
     7
100
AcDbCircle
 10
36.0
 20
137.006
 30
0.0
 40
6.5
  0
CIRCLE
  5
233
330
A
100
AcDbEntity
  8
PV
  6
Continuous
 62
     7
100
AcDbCircle
 10
36.0
 20
137.006
 30
0.0
 40
5.633999999999999
  0
LINE
  5
234
330
A
100
AcDbEntity
  8
PV
  6
Continuous
 62
     7
100
AcDbLine
 10
-26.0
 20
133.542
 30
0.0
 11
-23.0
 21
135.274
 31
0.0
  0
LINE
  5
235
330
A
100
AcDbEntity
  8
PV
  6
Continuous
 62
     7
100
AcDbLine
 10
-29.0
 20
138.738
 30
0.0
 11
-26.0
 21
140.471
 31
0.0
  0
LINE
  5
236
330
A
100
AcDbEntity
  8
PV
  6
Continuous
 62
     7
100
AcDbLine
 10
-23.0
 20
138.738
 30
0.0
 11
-23.0
 21
135.274
 31
0.0
  0
LINE
  5
237
330
A
100
AcDbEntity
  8
PV
  6
Continuous
 62
     7
100
AcDbLine
 10
-29.0
 20
138.738
 30
0.0
 11
-29.0
 21
135.274
 31
0.0
  0
LINE
  5
238
330
A
100
AcDbEntity
  8
PV
  6
Continuous
 62
     7
100
AcDbLine
 10
-26.0
 20
140.471
 30
0.0
 11
-23.0
 21
138.738
 31
0.0
  0
LINE
  5
239
330
A
100
AcDbEntity
  8
PV
  6
Continuous
 62
     7
100
AcDbLine
 10
-29.0
 20
135.274
 30
0.0
 11
-26.0
 21
133.542
 31
0.0
  0
CIRCLE
  5
23A
330
A
100
AcDbEntity
  8
PV
  6
Continuous
 62
     7
100
AcDbCircle
 10
-26.0
 20
137.006
 30
0.0
 40
6.5
  0
CIRCLE
  5
23B
330
A
100
AcDbEntity
  8
PV
  6
Continuous
 62
     7
100
AcDbCircle
 10
-26.0
 20
137.006
 30
0.0
 40
5.633999999999999
  0
MTEXT
  5
23C
330
A
100
AcDbEntity
  8
PV
  6
Continuous
 62
     7
100
AcDbMText
 10
-97.378432
 20
148.2351439999999
 30
0.0
 40
6.5
 41
0.0
 71
     2
 72
     1
  1
\A1;PCD 85
 11
0.3578051095526063
 21
0.9337962859093236
 31
0.0
 73
     1
 44
1.0
  0
LINE
  5
23D
330
A
100
AcDbEntity
  8
PV
  6
Continuous
 62
     7
100
AcDbLine
 10
-120.2081249999999
 20
66.32221899999999
 30
0.0
 11
-84.191751
 21
160.3176139999999
 31
0.0
  0
LINE
  5
23E
330
A
100
AcDbEntity
  8
PV
  6
Continuous
 62
     7
100
AcDbLine
 10
-120.2081249999999
 20
66.32221899999999
 30
0.0
 11
-119.217045
 21
68.90816
 31
0.0
  0
LINE
  5
23F
330
A
100
AcDbEntity
  8
PV
  6
Continuous
 62
     7
100
AcDbLine
 10
-120.2081249999999
 20
66.32221899999999
 30
0.0
 11
-119.9103629999999
 21
69.174014
 31
0.0
  0
LINE
  5
240
330
A
100
AcDbEntity
  8
PV
  6
Continuous
 62
     7
100
AcDbLine
 10
-118.523727
 20
68.642306
 30
0.0
 11
-120.2081249999999
 21
66.32221899999999
 31
0.0
  0
LINE
  5
241
330
A
100
AcDbEntity
  8
PV
  6
Continuous
 62
     7
100
AcDbLine
 10
-21.09599999999999
 20
-14.854
 30
0.0
 11
-21.072
 21
-14.88299999999999
 31
0.0
  0
LINE
  5
242
330
A
100
AcDbEntity
  8
PV
  6
Continuous
 62
     7
100
AcDbLine
 10
-21.12
 20
-14.824
 30
0.0
 11
-21.09599999999999
 21
-14.854
 31
0.0
  0
LINE
  5
243
330
A
100
AcDbEntity
  8
PV
  6
Continuous
 62
     7
100
AcDbLine
 10
-21.144
 20
-14.793
 30
0.0
 11
-21.12
 21
-14.824
 31
0.0
  0
LINE
  5
244
330
A
100
AcDbEntity
  8
PV
  6
Continuous
 62
     7
100
AcDbLine
 10
-21.16699999999999
 20
-14.763
 30
0.0
 11
-21.144
 21
-14.793
 31
0.0
  0
LINE
  5
245
330
A
100
AcDbEntity
  8
PV
  6
Continuous
 62
     7
100
AcDbLine
 10
-21.19
 20
-14.732
 30
0.0
 11
-21.16699999999999
 21
-14.763
 31
0.0
  0
LINE
  5
246
330
A
100
AcDbEntity
  8
PV
  6
Continuous
 62
     7
100
AcDbLine
 10
-21.21199999999999
 20
-14.69999999999999
 30
0.0
 11
-21.19
 21
-14.732
 31
0.0
  0
LINE
  5
247
330
A
100
AcDbEntity
  8
PV
  6
Continuous
 62
     7
100
AcDbLine
 10
-21.234
 20
-14.669
 30
0.0
 11
-21.21199999999999
 21
-14.69999999999999
 31
0.0
  0
LINE
  5
248
330
A
100
AcDbEntity
  8
PV
  6
Continuous
 62
     7
100
AcDbLine
 10
-21.25599999999999
 20
-14.637
 30
0.0
 11
-21.234
 21
-14.669
 31
0.0
  0
LINE
  5
249
330
A
100
AcDbEntity
  8
PV
  6
Continuous
 62
     7
100
AcDbLine
 10
-21.27699999999999
 20
-14.605
 30
0.0
 11
-21.25599999999999
 21
-14.637
 31
0.0
  0
LINE
  5
24A
330
A
100
AcDbEntity
  8
PV
  6
Continuous
 62
     7
100
AcDbLine
 10
-21.298
 20
-14.572
 30
0.0
 11
-21.27699999999999
 21
-14.605
 31
0.0
  0
LINE
  5
24B
330
A
100
AcDbEntity
  8
PV
  6
Continuous
 62
     7
100
AcDbLine
 10
-21.318
 20
-14.53999999999999
 30
0.0
 11
-21.298
 21
-14.572
 31
0.0
  0
LINE
  5
24C
330
A
100
AcDbEntity
  8
PV
  6
Continuous
 62
     7
100
AcDbLine
 10
-21.339
 20
-14.507
 30
0.0
 11
-21.318
 21
-14.53999999999999
 31
0.0
  0
LINE
  5
24D
330
A
100
AcDbEntity
  8
PV
  6
Continuous
 62
     7
100
AcDbLine
 10
-21.358
 20
-14.474
 30
0.0
 11
-21.339
 21
-14.507
 31
0.0
  0
LINE
  5
24E
330
A
100
AcDbEntity
  8
PV
  6
Continuous
 62
     7
100
AcDbLine
 10
-21.37799999999999
 20
-14.44099999999999
 30
0.0
 11
-21.358
 21
-14.474
 31
0.0
  0
LINE
  5
24F
330
A
100
AcDbEntity
  8
PV
  6
Continuous
 62
     7
100
AcDbLine
 10
-21.39699999999999
 20
-14.407
 30
0.0
 11
-21.37799999999999
 21
-14.44099999999999
 31
0.0
  0
LINE
  5
250
330
A
100
AcDbEntity
  8
PV
  6
Continuous
 62
     7
100
AcDbLine
 10
-21.41599999999999
 20
-14.374
 30
0.0
 11
-21.39699999999999
 21
-14.407
 31
0.0
  0
LINE
  5
251
330
A
100
AcDbEntity
  8
PV
  6
Continuous
 62
     7
100
AcDbLine
 10
-21.434
 20
-14.34
 30
0.0
 11
-21.41599999999999
 21
-14.374
 31
0.0
  0
LINE
  5
252
330
A
100
AcDbEntity
  8
PV
  6
Continuous
 62
     7
100
AcDbLine
 10
-21.453
 20
-14.306
 30
0.0
 11
-21.434
 21
-14.34
 31
0.0
  0
LINE
  5
253
330
A
100
AcDbEntity
  8
PV
  6
Continuous
 62
     7
100
AcDbLine
 10
-21.46999999999999
 20
-14.272
 30
0.0
 11
-21.453
 21
-14.306
 31
0.0
  0
LINE
  5
254
330
A
100
AcDbEntity
  8
PV
  6
Continuous
 62
     7
100
AcDbLine
 10
-21.488
 20
-14.237
 30
0.0
 11
-21.46999999999999
 21
-14.272
 31
0.0
  0
LINE
  5
255
330
A
100
AcDbEntity
  8
PV
  6
Continuous
 62
     7
100
AcDbLine
 10
-21.505
 20
-14.203
 30
0.0
 11
-21.488
 21
-14.237
 31
0.0
  0
LINE
  5
256
330
A
100
AcDbEntity
  8
PV
  6
Continuous
 62
     7
100
AcDbLine
 10
-21.522
 20
-14.168
 30
0.0
 11
-21.505
 21
-14.203
 31
0.0
  0
LINE
  5
257
330
A
100
AcDbEntity
  8
PV
  6
Continuous
 62
     7
100
AcDbLine
 10
-21.539
 20
-14.134
 30
0.0
 11
-21.522
 21
-14.168
 31
0.0
  0
LINE
  5
258
330
A
100
AcDbEntity
  8
PV
  6
Continuous
 62
     7
100
AcDbLine
 10
-21.55599999999999
 20
-14.099
 30
0.0
 11
-21.539
 21
-14.134
 31
0.0
  0
LINE
  5
259
330
A
100
AcDbEntity
  8
PV
  6
Continuous
 62
     7
100
AcDbLine
 10
-21.572
 20
-14.064
 30
0.0
 11
-21.55599999999999
 21
-14.099
 31
0.0
  0
LINE
  5
25A
330
A
100
AcDbEntity
  8
PV
  6
Continuous
 62
     7
100
AcDbLine
 10
-21.588
 20
-14.029
 30
0.0
 11
-21.572
 21
-14.064
 31
0.0
  0
LINE
  5
25B
330
A
100
AcDbEntity
  8
PV
  6
Continuous
 62
     7
100
AcDbLine
 10
-21.604
 20
-13.994
 30
0.0
 11
-21.588
 21
-14.029
 31
0.0
  0
LINE
  5
25C
330
A
100
AcDbEntity
  8
PV
  6
Continuous
 62
     7
100
AcDbLine
 10
-21.619
 20
-13.959
 30
0.0
 11
-21.604
 21
-13.994
 31
0.0
  0
LINE
  5
25D
330
A
100
AcDbEntity
  8
PV
  6
Continuous
 62
     7
100
AcDbLine
 10
-21.634
 20
-13.923
 30
0.0
 11
-21.619
 21
-13.959
 31
0.0
  0
LINE
  5
25E
330
A
100
AcDbEntity
  8
PV
  6
Continuous
 62
     7
100
AcDbLine
 10
-21.649
 20
-13.888
 30
0.0
 11
-21.634
 21
-13.923
 31
0.0
  0
LINE
  5
25F
330
A
100
AcDbEntity
  8
PV
  6
Continuous
 62
     7
100
AcDbLine
 10
-21.664
 20
-13.852
 30
0.0
 11
-21.649
 21
-13.888
 31
0.0
  0
LINE
  5
260
330
A
100
AcDbEntity
  8
PV
  6
Continuous
 62
     7
100
AcDbLine
 10
-21.679
 20
-13.817
 30
0.0
 11
-21.664
 21
-13.852
 31
0.0
  0
LINE
  5
261
330
A
100
AcDbEntity
  8
PV
  6
Continuous
 62
     7
100
AcDbLine
 10
-21.693
 20
-13.78099999999999
 30
0.0
 11
-21.679
 21
-13.817
 31
0.0
  0
LINE
  5
262
330
A
100
AcDbEntity
  8
PV
  6
Continuous
 62
     7
100
AcDbLine
 10
-21.70699999999999
 20
-13.745
 30
0.0
 11
-21.693
 21
-13.78099999999999
 31
0.0
  0
LINE
  5
263
330
A
100
AcDbEntity
  8
PV
  6
Continuous
 62
     7
100
AcDbLine
 10
-21.72099999999999
 20
-13.709
 30
0.0
 11
-21.70699999999999
 21
-13.745
 31
0.0
  0
LINE
  5
264
330
A
100
AcDbEntity
  8
PV
  6
Continuous
 62
     7
100
AcDbLine
 10
-21.734
 20
-13.673
 30
0.0
 11
-21.72099999999999
 21
-13.709
 31
0.0
  0
LINE
  5
265
330
A
100
AcDbEntity
  8
PV
  6
Continuous
 62
     7
100
AcDbLine
 10
-21.748
 20
-13.637
 30
0.0
 11
-21.734
 21
-13.673
 31
0.0
  0
LINE
  5
266
330
A
100
AcDbEntity
  8
PV
  6
Continuous
 62
     7
100
AcDbLine
 10
-21.76099999999999
 20
-13.601
 30
0.0
 11
-21.748
 21
-13.637
 31
0.0
  0
LINE
  5
267
330
A
100
AcDbEntity
  8
PV
  6
Continuous
 62
     7
100
AcDbLine
 10
-21.774
 20
-13.565
 30
0.0
 11
-21.76099999999999
 21
-13.601
 31
0.0
  0
LINE
  5
268
330
A
100
AcDbEntity
  8
PV
  6
Continuous
 62
     7
100
AcDbLine
 10
-21.787
 20
-13.528
 30
0.0
 11
-21.774
 21
-13.565
 31
0.0
  0
LINE
  5
269
330
A
100
AcDbEntity
  8
PV
  6
Continuous
 62
     7
100
AcDbLine
 10
-21.79899999999999
 20
-13.492
 30
0.0
 11
-21.787
 21
-13.528
 31
0.0
  0
LINE
  5
26A
330
A
100
AcDbEntity
  8
PV
  6
Continuous
 62
     7
100
AcDbLine
 10
-21.811
 20
-13.455
 30
0.0
 11
-21.79899999999999
 21
-13.492
 31
0.0
  0
LINE
  5
26B
330
A
100
AcDbEntity
  8
PV
  6
Continuous
 62
     7
100
AcDbLine
 10
-21.823
 20
-13.419
 30
0.0
 11
-21.811
 21
-13.455
 31
0.0
  0
LINE
  5
26C
330
A
100
AcDbEntity
  8
PV
  6
Continuous
 62
     7
100
AcDbLine
 10
-21.83499999999999
 20
-13.382
 30
0.0
 11
-21.823
 21
-13.419
 31
0.0
  0
LINE
  5
26D
330
A
100
AcDbEntity
  8
PV
  6
Continuous
 62
     7
100
AcDbLine
 10
-21.84699999999999
 20
-13.346
 30
0.0
 11
-21.83499999999999
 21
-13.382
 31
0.0
  0
LINE
  5
26E
330
A
100
AcDbEntity
  8
PV
  6
Continuous
 62
     7
100
AcDbLine
 10
-21.859
 20
-13.309
 30
0.0
 11
-21.84699999999999
 21
-13.346
 31
0.0
  0
LINE
  5
26F
330
A
100
AcDbEntity
  8
PV
  6
Continuous
 62
     7
100
AcDbLine
 10
-21.87
 20
-13.272
 30
0.0
 11
-21.859
 21
-13.309
 31
0.0
  0
LINE
  5
270
330
A
100
AcDbEntity
  8
PV
  6
Continuous
 62
     7
100
AcDbLine
 10
-21.88099999999999
 20
-13.235
 30
0.0
 11
-21.87
 21
-13.272
 31
0.0
  0
LINE
  5
271
330
A
100
AcDbEntity
  8
PV
  6
Continuous
 62
     7
100
AcDbLine
 10
-21.892
 20
-13.198
 30
0.0
 11
-21.88099999999999
 21
-13.235
 31
0.0
  0
LINE
  5
272
330
A
100
AcDbEntity
  8
PV
  6
Continuous
 62
     7
100
AcDbLine
 10
-21.903
 20
-13.162
 30
0.0
 11
-21.892
 21
-13.198
 31
0.0
  0
LINE
  5
273
330
A
100
AcDbEntity
  8
PV
  6
Continuous
 62
     7
100
AcDbLine
 10
-21.913
 20
-13.125
 30
0.0
 11
-21.903
 21
-13.162
 31
0.0
  0
LINE
  5
274
330
A
100
AcDbEntity
  8
PV
  6
Continuous
 62
     7
100
AcDbLine
 10
-21.924
 20
-13.08699999999999
 30
0.0
 11
-21.913
 21
-13.125
 31
0.0
  0
LINE
  5
275
330
A
100
AcDbEntity
  8
PV
  6
Continuous
 62
     7
100
AcDbLine
 10
-21.934
 20
-13.05
 30
0.0
 11
-21.924
 21
-13.08699999999999
 31
0.0
  0
LINE
  5
276
330
A
100
AcDbEntity
  8
PV
  6
Continuous
 62
     7
100
AcDbLine
 10
-21.944
 20
-13.013
 30
0.0
 11
-21.934
 21
-13.05
 31
0.0
  0
LINE
  5
277
330
A
100
AcDbEntity
  8
PV
  6
Continuous
 62
     7
100
AcDbLine
 10
-21.954
 20
-12.976
 30
0.0
 11
-21.944
 21
-13.013
 31
0.0
  0
LINE
  5
278
330
A
100
AcDbEntity
  8
PV
  6
Continuous
 62
     7
100
AcDbLine
 10
-21.963
 20
-12.939
 30
0.0
 11
-21.954
 21
-12.976
 31
0.0
  0
LINE
  5
279
330
A
100
AcDbEntity
  8
PV
  6
Continuous
 62
     7
100
AcDbLine
 10
-21.973
 20
-12.901
 30
0.0
 11
-21.963
 21
-12.939
 31
0.0
  0
LINE
  5
27A
330
A
100
AcDbEntity
  8
PV
  6
Continuous
 62
     7
100
AcDbLine
 10
-21.98199999999999
 20
-12.864
 30
0.0
 11
-21.973
 21
-12.901
 31
0.0
  0
LINE
  5
27B
330
A
100
AcDbEntity
  8
PV
  6
Continuous
 62
     7
100
AcDbLine
 10
-21.991
 20
-12.827
 30
0.0
 11
-21.98199999999999
 21
-12.864
 31
0.0
  0
LINE
  5
27C
330
A
100
AcDbEntity
  8
PV
  6
Continuous
 62
     7
100
AcDbLine
 10
-22.0
 20
-12.789
 30
0.0
 11
-21.991
 21
-12.827
 31
0.0
  0
LINE
  5
27D
330
A
100
AcDbEntity
  8
PV
  6
Continuous
 62
     7
100
AcDbLine
 10
-22.009
 20
-12.752
 30
0.0
 11
-22.0
 21
-12.789
 31
0.0
  0
LINE
  5
27E
330
A
100
AcDbEntity
  8
PV
  6
Continuous
 62
     7
100
AcDbLine
 10
-22.017
 20
-12.714
 30
0.0
 11
-22.009
 21
-12.752
 31
0.0
  0
LINE
  5
27F
330
A
100
AcDbEntity
  8
PV
  6
Continuous
 62
     7
100
AcDbLine
 10
-22.02599999999999
 20
-12.677
 30
0.0
 11
-22.017
 21
-12.714
 31
0.0
  0
LINE
  5
280
330
A
100
AcDbEntity
  8
PV
  6
Continuous
 62
     7
100
AcDbLine
 10
-22.034
 20
-12.639
 30
0.0
 11
-22.02599999999999
 21
-12.677
 31
0.0
  0
LINE
  5
281
330
A
100
AcDbEntity
  8
PV
  6
Continuous
 62
     7
100
AcDbLine
 10
-22.04199999999999
 20
-12.602
 30
0.0
 11
-22.034
 21
-12.639
 31
0.0
  0
LINE
  5
282
330
A
100
AcDbEntity
  8
PV
  6
Continuous
 62
     7
100
AcDbLine
 10
-22.05
 20
-12.564
 30
0.0
 11
-22.04199999999999
 21
-12.602
 31
0.0
  0
LINE
  5
283
330
A
100
AcDbEntity
  8
PV
  6
Continuous
 62
     7
100
AcDbLine
 10
-22.058
 20
-12.526
 30
0.0
 11
-22.05
 21
-12.564
 31
0.0
  0
LINE
  5
284
330
A
100
AcDbEntity
  8
PV
  6
Continuous
 62
     7
100
AcDbLine
 10
-22.065
 20
-12.488
 30
0.0
 11
-22.058
 21
-12.526
 31
0.0
  0
LINE
  5
285
330
A
100
AcDbEntity
  8
PV
  6
Continuous
 62
     7
100
AcDbLine
 10
-22.073
 20
-12.45099999999999
 30
0.0
 11
-22.065
 21
-12.488
 31
0.0
  0
LINE
  5
286
330
A
100
AcDbEntity
  8
PV
  6
Continuous
 62
     7
100
AcDbLine
 10
-22.07999999999999
 20
-12.413
 30
0.0
 11
-22.073
 21
-12.45099999999999
 31
0.0
  0
LINE
  5
287
330
A
100
AcDbEntity
  8
PV
  6
Continuous
 62
     7
100
AcDbLine
 10
-22.08699999999999
 20
-12.375
 30
0.0
 11
-22.07999999999999
 21
-12.413
 31
0.0
  0
LINE
  5
288
330
A
100
AcDbEntity
  8
PV
  6
Continuous
 62
     7
100
AcDbLine
 10
-22.094
 20
-12.337
 30
0.0
 11
-22.08699999999999
 21
-12.375
 31
0.0
  0
LINE
  5
289
330
A
100
AcDbEntity
  8
PV
  6
Continuous
 62
     7
100
AcDbLine
 10
-22.101
 20
-12.299
 30
0.0
 11
-22.094
 21
-12.337
 31
0.0
  0
LINE
  5
28A
330
A
100
AcDbEntity
  8
PV
  6
Continuous
 62
     7
100
AcDbLine
 10
-22.108
 20
-12.262
 30
0.0
 11
-22.101
 21
-12.299
 31
0.0
  0
LINE
  5
28B
330
A
100
AcDbEntity
  8
PV
  6
Continuous
 62
     7
100
AcDbLine
 10
-22.114
 20
-12.224
 30
0.0
 11
-22.108
 21
-12.262
 31
0.0
  0
LINE
  5
28C
330
A
100
AcDbEntity
  8
PV
  6
Continuous
 62
     7
100
AcDbLine
 10
-22.12099999999999
 20
-12.186
 30
0.0
 11
-22.114
 21
-12.224
 31
0.0
  0
LINE
  5
28D
330
A
100
AcDbEntity
  8
PV
  6
Continuous
 62
     7
100
AcDbLine
 10
-22.12699999999999
 20
-12.148
 30
0.0
 11
-22.12099999999999
 21
-12.186
 31
0.0
  0
LINE
  5
28E
330
A
100
AcDbEntity
  8
PV
  6
Continuous
 62
     7
100
AcDbLine
 10
-22.133
 20
-12.11
 30
0.0
 11
-22.12699999999999
 21
-12.148
 31
0.0
  0
LINE
  5
28F
330
A
100
AcDbEntity
  8
PV
  6
Continuous
 62
     7
100
AcDbLine
 10
-22.139
 20
-12.072
 30
0.0
 11
-22.133
 21
-12.11
 31
0.0
  0
LINE
  5
290
330
A
100
AcDbEntity
  8
PV
  6
Continuous
 62
     7
100
AcDbLine
 10
-22.144
 20
-12.034
 30
0.0
 11
-22.139
 21
-12.072
 31
0.0
  0
LINE
  5
291
330
A
100
AcDbEntity
  8
PV
  6
Continuous
 62
     7
100
AcDbLine
 10
-22.14999999999999
 20
-11.996
 30
0.0
 11
-22.144
 21
-12.034
 31
0.0
  0
LINE
  5
292
330
A
100
AcDbEntity
  8
PV
  6
Continuous
 62
     7
100
AcDbLine
 10
-22.15599999999999
 20
-11.957
 30
0.0
 11
-22.14999999999999
 21
-11.996
 31
0.0
  0
LINE
  5
293
330
A
100
AcDbEntity
  8
PV
  6
Continuous
 62
     7
100
AcDbLine
 10
-22.16099999999999
 20
-11.919
 30
0.0
 11
-22.15599999999999
 21
-11.957
 31
0.0
  0
LINE
  5
294
330
A
100
AcDbEntity
  8
PV
  6
Continuous
 62
     7
100
AcDbLine
 10
-22.166
 20
-11.88099999999999
 30
0.0
 11
-22.16099999999999
 21
-11.919
 31
0.0
  0
LINE
  5
295
330
A
100
AcDbEntity
  8
PV
  6
Continuous
 62
     7
100
AcDbLine
 10
-22.17099999999999
 20
-11.843
 30
0.0
 11
-22.166
 21
-11.88099999999999
 31
0.0
  0
LINE
  5
296
330
A
100
AcDbEntity
  8
PV
  6
Continuous
 62
     7
100
AcDbLine
 10
-22.176
 20
-11.805
 30
0.0
 11
-22.17099999999999
 21
-11.843
 31
0.0
  0
LINE
  5
297
330
A
100
AcDbEntity
  8
PV
  6
Continuous
 62
     7
100
AcDbLine
 10
-22.17999999999999
 20
-11.767
 30
0.0
 11
-22.176
 21
-11.805
 31
0.0
  0
LINE
  5
298
330
A
100
AcDbEntity
  8
PV
  6
Continuous
 62
     7
100
AcDbLine
 10
-22.185
 20
-11.728
 30
0.0
 11
-22.17999999999999
 21
-11.767
 31
0.0
  0
LINE
  5
299
330
A
100
AcDbEntity
  8
PV
  6
Continuous
 62
     7
100
AcDbLine
 10
-22.189
 20
-11.69
 30
0.0
 11
-22.185
 21
-11.728
 31
0.0
  0
LINE
  5
29A
330
A
100
AcDbEntity
  8
PV
  6
Continuous
 62
     7
100
AcDbLine
 10
-22.194
 20
-11.652
 30
0.0
 11
-22.189
 21
-11.69
 31
0.0
  0
LINE
  5
29B
330
A
100
AcDbEntity
  8
PV
  6
Continuous
 62
     7
100
AcDbLine
 10
-22.198
 20
-11.614
 30
0.0
 11
-22.194
 21
-11.652
 31
0.0
  0
LINE
  5
29C
330
A
100
AcDbEntity
  8
PV
  6
Continuous
 62
     7
100
AcDbLine
 10
-22.20199999999999
 20
-11.57499999999999
 30
0.0
 11
-22.198
 21
-11.614
 31
0.0
  0
LINE
  5
29D
330
A
100
AcDbEntity
  8
PV
  6
Continuous
 62
     7
100
AcDbLine
 10
-22.206
 20
-11.537
 30
0.0
 11
-22.20199999999999
 21
-11.57499999999999
 31
0.0
  0
LINE
  5
29E
330
A
100
AcDbEntity
  8
PV
  6
Continuous
 62
     7
100
AcDbLine
 10
-22.20899999999999
 20
-11.499
 30
0.0
 11
-22.206
 21
-11.537
 31
0.0
  0
LINE
  5
29F
330
A
100
AcDbEntity
  8
PV
  6
Continuous
 62
     7
100
AcDbLine
 10
-22.213
 20
-11.46099999999999
 30
0.0
 11
-22.20899999999999
 21
-11.499
 31
0.0
  0
LINE
  5
2A0
330
A
100
AcDbEntity
  8
PV
  6
Continuous
 62
     7
100
AcDbLine
 10
-22.216
 20
-11.422
 30
0.0
 11
-22.213
 21
-11.46099999999999
 31
0.0
  0
LINE
  5
2A1
330
A
100
AcDbEntity
  8
PV
  6
Continuous
 62
     7
100
AcDbLine
 10
-22.219
 20
-11.384
 30
0.0
 11
-22.216
 21
-11.422
 31
0.0
  0
LINE
  5
2A2
330
A
100
AcDbEntity
  8
PV
  6
Continuous
 62
     7
100
AcDbLine
 10
-22.223
 20
-11.34599999999999
 30
0.0
 11
-22.219
 21
-11.384
 31
0.0
  0
LINE
  5
2A3
330
A
100
AcDbEntity
  8
PV
  6
Continuous
 62
     7
100
AcDbLine
 10
-22.225
 20
-11.307
 30
0.0
 11
-22.223
 21
-11.34599999999999
 31
0.0
  0
LINE
  5
2A4
330
A
100
AcDbEntity
  8
PV
  6
Continuous
 62
     7
100
AcDbLine
 10
-22.228
 20
-11.269
 30
0.0
 11
-22.225
 21
-11.307
 31
0.0
  0
LINE
  5
2A5
330
A
100
AcDbEntity
  8
PV
  6
Continuous
 62
     7
100
AcDbLine
 10
-22.231
 20
-11.22999999999999
 30
0.0
 11
-22.228
 21
-11.269
 31
0.0
  0
LINE
  5
2A6
330
A
100
AcDbEntity
  8
PV
  6
Continuous
 62
     7
100
AcDbLine
 10
-22.234
 20
-11.19199999999999
 30
0.0
 11
-22.231
 21
-11.22999999999999
 31
0.0
  0
LINE
  5
2A7
330
A
100
AcDbEntity
  8
PV
  6
Continuous
 62
     7
100
AcDbLine
 10
-22.236
 20
-11.154
 30
0.0
 11
-22.234
 21
-11.19199999999999
 31
0.0
  0
LINE
  5
2A8
330
A
100
AcDbEntity
  8
PV
  6
Continuous
 62
     7
100
AcDbLine
 10
-22.238
 20
-11.115
 30
0.0
 11
-22.236
 21
-11.154
 31
0.0
  0
LINE
  5
2A9
330
A
100
AcDbEntity
  8
PV
  6
Continuous
 62
     7
100
AcDbLine
 10
-22.23999999999999
 20
-11.077
 30
0.0
 11
-22.238
 21
-11.115
 31
0.0
  0
LINE
  5
2AA
330
A
100
AcDbEntity
  8
PV
  6
Continuous
 62
     7
100
AcDbLine
 10
-22.24199999999999
 20
-11.038
 30
0.0
 11
-22.23999999999999
 21
-11.077
 31
0.0
  0
LINE
  5
2AB
330
A
100
AcDbEntity
  8
PV
  6
Continuous
 62
     7
100
AcDbLine
 10
-22.244
 20
-11.0
 30
0.0
 11
-22.24199999999999
 21
-11.038
 31
0.0
  0
LINE
  5
2AC
330
A
100
AcDbEntity
  8
PV
  6
Continuous
 62
     7
100
AcDbLine
 10
-22.246
 20
-10.96099999999999
 30
0.0
 11
-22.244
 21
-11.0
 31
0.0
  0
LINE
  5
2AD
330
A
100
AcDbEntity
  8
PV
  6
Continuous
 62
     7
100
AcDbLine
 10
-22.248
 20
-10.923
 30
0.0
 11
-22.246
 21
-10.96099999999999
 31
0.0
  0
LINE
  5
2AE
330
A
100
AcDbEntity
  8
PV
  6
Continuous
 62
     7
100
AcDbLine
 10
-22.249
 20
-10.885
 30
0.0
 11
-22.248
 21
-10.923
 31
0.0
  0
LINE
  5
2AF
330
A
100
AcDbEntity
  8
PV
  6
Continuous
 62
     7
100
AcDbLine
 10
-22.25
 20
-10.84599999999999
 30
0.0
 11
-22.249
 21
-10.885
 31
0.0
  0
LINE
  5
2B0
330
A
100
AcDbEntity
  8
PV
  6
Continuous
 62
     7
100
AcDbLine
 10
-22.25099999999999
 20
-10.80799999999999
 30
0.0
 11
-22.25
 21
-10.84599999999999
 31
0.0
  0
LINE
  5
2B1
330
A
100
AcDbEntity
  8
PV
  6
Continuous
 62
     7
100
AcDbLine
 10
-22.252
 20
-10.76899999999999
 30
0.0
 11
-22.25099999999999
 21
-10.80799999999999
 31
0.0
  0
LINE
  5
2B2
330
A
100
AcDbEntity
  8
PV
  6
Continuous
 62
     7
100
AcDbLine
 10
-22.253
 20
-10.73099999999999
 30
0.0
 11
-22.252
 21
-10.76899999999999
 31
0.0
  0
LINE
  5
2B3
330
A
100
AcDbEntity
  8
PV
  6
Continuous
 62
     7
100
AcDbLine
 10
-22.254
 20
-10.692
 30
0.0
 11
-22.253
 21
-10.73099999999999
 31
0.0
  0
LINE
  5
2B4
330
A
100
AcDbEntity
  8
PV
  6
Continuous
 62
     7
100
AcDbLine
 10
-22.25499999999999
 20
-10.654
 30
0.0
 11
-22.254
 21
-10.692
 31
0.0
  0
LINE
  5
2B5
330
A
100
AcDbEntity
  8
PV
  6
Continuous
 62
     7
100
AcDbLine
 10
-22.25499999999999
 20
-10.615
 30
0.0
 11
-22.25499999999999
 21
-10.654
 31
0.0
  0
LINE
  5
2B6
330
A
100
AcDbEntity
  8
PV
  6
Continuous
 62
     7
100
AcDbLine
 10
-22.256
 20
-10.577
 30
0.0
 11
-22.25499999999999
 21
-10.615
 31
0.0
  0
LINE
  5
2B7
330
A
100
AcDbEntity
  8
PV
  6
Continuous
 62
     7
100
AcDbLine
 10
-22.256
 20
-10.538
 30
0.0
 11
-22.256
 21
-10.577
 31
0.0
  0
LINE
  5
2B8
330
A
100
AcDbEntity
  8
PV
  6
Continuous
 62
     7
100
AcDbLine
 10
-22.256
 20
-10.5
 30
0.0
 11
-22.256
 21
-10.538
 31
0.0
  0
LINE
  5
2B9
330
A
100
AcDbEntity
  8
PV
  6
Continuous
 62
     7
100
AcDbLine
 10
32.256
 20
-10.538
 30
0.0
 11
32.256
 21
-10.5
 31
0.0
  0
LINE
  5
2BA
330
A
100
AcDbEntity
  8
PV
  6
Continuous
 62
     7
100
AcDbLine
 10
32.256
 20
-10.577
 30
0.0
 11
32.256
 21
-10.538
 31
0.0
  0
LINE
  5
2BB
330
A
100
AcDbEntity
  8
PV
  6
Continuous
 62
     7
100
AcDbLine
 10
32.255
 20
-10.615
 30
0.0
 11
32.256
 21
-10.577
 31
0.0
  0
LINE
  5
2BC
330
A
100
AcDbEntity
  8
PV
  6
Continuous
 62
     7
100
AcDbLine
 10
32.255
 20
-10.654
 30
0.0
 11
32.255
 21
-10.615
 31
0.0
  0
LINE
  5
2BD
330
A
100
AcDbEntity
  8
PV
  6
Continuous
 62
     7
100
AcDbLine
 10
32.254
 20
-10.692
 30
0.0
 11
32.255
 21
-10.654
 31
0.0
  0
LINE
  5
2BE
330
A
100
AcDbEntity
  8
PV
  6
Continuous
 62
     7
100
AcDbLine
 10
32.253
 20
-10.73099999999999
 30
0.0
 11
32.254
 21
-10.692
 31
0.0
  0
LINE
  5
2BF
330
A
100
AcDbEntity
  8
PV
  6
Continuous
 62
     7
100
AcDbLine
 10
32.253
 20
-10.76899999999999
 30
0.0
 11
32.253
 21
-10.73099999999999
 31
0.0
  0
LINE
  5
2C0
330
A
100
AcDbEntity
  8
PV
  6
Continuous
 62
     7
100
AcDbLine
 10
32.25099999999999
 20
-10.80799999999999
 30
0.0
 11
32.253
 21
-10.76899999999999
 31
0.0
  0
LINE
  5
2C1
330
A
100
AcDbEntity
  8
PV
  6
Continuous
 62
     7
100
AcDbLine
 10
32.25
 20
-10.84599999999999
 30
0.0
 11
32.25099999999999
 21
-10.80799999999999
 31
0.0
  0
LINE
  5
2C2
330
A
100
AcDbEntity
  8
PV
  6
Continuous
 62
     7
100
AcDbLine
 10
32.249
 20
-10.885
 30
0.0
 11
32.25
 21
-10.84599999999999
 31
0.0
  0
LINE
  5
2C3
330
A
100
AcDbEntity
  8
PV
  6
Continuous
 62
     7
100
AcDbLine
 10
32.248
 20
-10.923
 30
0.0
 11
32.249
 21
-10.885
 31
0.0
  0
LINE
  5
2C4
330
A
100
AcDbEntity
  8
PV
  6
Continuous
 62
     7
100
AcDbLine
 10
32.246
 20
-10.96099999999999
 30
0.0
 11
32.248
 21
-10.923
 31
0.0
  0
LINE
  5
2C5
330
A
100
AcDbEntity
  8
PV
  6
Continuous
 62
     7
100
AcDbLine
 10
32.244
 20
-11.0
 30
0.0
 11
32.246
 21
-10.96099999999999
 31
0.0
  0
LINE
  5
2C6
330
A
100
AcDbEntity
  8
PV
  6
Continuous
 62
     7
100
AcDbLine
 10
32.24199999999999
 20
-11.038
 30
0.0
 11
32.244
 21
-11.0
 31
0.0
  0
LINE
  5
2C7
330
A
100
AcDbEntity
  8
PV
  6
Continuous
 62
     7
100
AcDbLine
 10
32.24
 20
-11.077
 30
0.0
 11
32.24199999999999
 21
-11.038
 31
0.0
  0
LINE
  5
2C8
330
A
100
AcDbEntity
  8
PV
  6
Continuous
 62
     7
100
AcDbLine
 10
32.238
 20
-11.115
 30
0.0
 11
32.24
 21
-11.077
 31
0.0
  0
LINE
  5
2C9
330
A
100
AcDbEntity
  8
PV
  6
Continuous
 62
     7
100
AcDbLine
 10
32.23599999999999
 20
-11.154
 30
0.0
 11
32.238
 21
-11.115
 31
0.0
  0
LINE
  5
2CA
330
A
100
AcDbEntity
  8
PV
  6
Continuous
 62
     7
100
AcDbLine
 10
32.234
 20
-11.19199999999999
 30
0.0
 11
32.23599999999999
 21
-11.154
 31
0.0
  0
LINE
  5
2CB
330
A
100
AcDbEntity
  8
PV
  6
Continuous
 62
     7
100
AcDbLine
 10
32.231
 20
-11.22999999999999
 30
0.0
 11
32.234
 21
-11.19199999999999
 31
0.0
  0
LINE
  5
2CC
330
A
100
AcDbEntity
  8
PV
  6
Continuous
 62
     7
100
AcDbLine
 10
32.228
 20
-11.269
 30
0.0
 11
32.231
 21
-11.22999999999999
 31
0.0
  0
LINE
  5
2CD
330
A
100
AcDbEntity
  8
PV
  6
Continuous
 62
     7
100
AcDbLine
 10
32.22599999999999
 20
-11.307
 30
0.0
 11
32.228
 21
-11.269
 31
0.0
  0
LINE
  5
2CE
330
A
100
AcDbEntity
  8
PV
  6
Continuous
 62
     7
100
AcDbLine
 10
32.223
 20
-11.34599999999999
 30
0.0
 11
32.22599999999999
 21
-11.307
 31
0.0
  0
LINE
  5
2CF
330
A
100
AcDbEntity
  8
PV
  6
Continuous
 62
     7
100
AcDbLine
 10
32.219
 20
-11.384
 30
0.0
 11
32.223
 21
-11.34599999999999
 31
0.0
  0
LINE
  5
2D0
330
A
100
AcDbEntity
  8
PV
  6
Continuous
 62
     7
100
AcDbLine
 10
32.216
 20
-11.422
 30
0.0
 11
32.219
 21
-11.384
 31
0.0
  0
LINE
  5
2D1
330
A
100
AcDbEntity
  8
PV
  6
Continuous
 62
     7
100
AcDbLine
 10
32.213
 20
-11.46099999999999
 30
0.0
 11
32.216
 21
-11.422
 31
0.0
  0
LINE
  5
2D2
330
A
100
AcDbEntity
  8
PV
  6
Continuous
 62
     7
100
AcDbLine
 10
32.209
 20
-11.499
 30
0.0
 11
32.213
 21
-11.46099999999999
 31
0.0
  0
LINE
  5
2D3
330
A
100
AcDbEntity
  8
PV
  6
Continuous
 62
     7
100
AcDbLine
 10
32.20599999999999
 20
-11.537
 30
0.0
 11
32.209
 21
-11.499
 31
0.0
  0
LINE
  5
2D4
330
A
100
AcDbEntity
  8
PV
  6
Continuous
 62
     7
100
AcDbLine
 10
32.202
 20
-11.57499999999999
 30
0.0
 11
32.20599999999999
 21
-11.537
 31
0.0
  0
LINE
  5
2D5
330
A
100
AcDbEntity
  8
PV
  6
Continuous
 62
     7
100
AcDbLine
 10
32.198
 20
-11.614
 30
0.0
 11
32.202
 21
-11.57499999999999
 31
0.0
  0
LINE
  5
2D6
330
A
100
AcDbEntity
  8
PV
  6
Continuous
 62
     7
100
AcDbLine
 10
32.194
 20
-11.652
 30
0.0
 11
32.198
 21
-11.614
 31
0.0
  0
LINE
  5
2D7
330
A
100
AcDbEntity
  8
PV
  6
Continuous
 62
     7
100
AcDbLine
 10
32.189
 20
-11.69
 30
0.0
 11
32.194
 21
-11.652
 31
0.0
  0
LINE
  5
2D8
330
A
100
AcDbEntity
  8
PV
  6
Continuous
 62
     7
100
AcDbLine
 10
32.185
 20
-11.728
 30
0.0
 11
32.189
 21
-11.69
 31
0.0
  0
LINE
  5
2D9
330
A
100
AcDbEntity
  8
PV
  6
Continuous
 62
     7
100
AcDbLine
 10
32.17999999999999
 20
-11.767
 30
0.0
 11
32.185
 21
-11.728
 31
0.0
  0
LINE
  5
2DA
330
A
100
AcDbEntity
  8
PV
  6
Continuous
 62
     7
100
AcDbLine
 10
32.176
 20
-11.805
 30
0.0
 11
32.17999999999999
 21
-11.767
 31
0.0
  0
LINE
  5
2DB
330
A
100
AcDbEntity
  8
PV
  6
Continuous
 62
     7
100
AcDbLine
 10
32.171
 20
-11.843
 30
0.0
 11
32.176
 21
-11.805
 31
0.0
  0
LINE
  5
2DC
330
A
100
AcDbEntity
  8
PV
  6
Continuous
 62
     7
100
AcDbLine
 10
32.16599999999999
 20
-11.88099999999999
 30
0.0
 11
32.171
 21
-11.843
 31
0.0
  0
LINE
  5
2DD
330
A
100
AcDbEntity
  8
PV
  6
Continuous
 62
     7
100
AcDbLine
 10
32.161
 20
-11.919
 30
0.0
 11
32.16599999999999
 21
-11.88099999999999
 31
0.0
  0
LINE
  5
2DE
330
A
100
AcDbEntity
  8
PV
  6
Continuous
 62
     7
100
AcDbLine
 10
32.156
 20
-11.957
 30
0.0
 11
32.161
 21
-11.919
 31
0.0
  0
LINE
  5
2DF
330
A
100
AcDbEntity
  8
PV
  6
Continuous
 62
     7
100
AcDbLine
 10
32.14999999999999
 20
-11.996
 30
0.0
 11
32.156
 21
-11.957
 31
0.0
  0
LINE
  5
2E0
330
A
100
AcDbEntity
  8
PV
  6
Continuous
 62
     7
100
AcDbLine
 10
32.145
 20
-12.034
 30
0.0
 11
32.14999999999999
 21
-11.996
 31
0.0
  0
LINE
  5
2E1
330
A
100
AcDbEntity
  8
PV
  6
Continuous
 62
     7
100
AcDbLine
 10
32.139
 20
-12.072
 30
0.0
 11
32.145
 21
-12.034
 31
0.0
  0
LINE
  5
2E2
330
A
100
AcDbEntity
  8
PV
  6
Continuous
 62
     7
100
AcDbLine
 10
32.133
 20
-12.11
 30
0.0
 11
32.139
 21
-12.072
 31
0.0
  0
LINE
  5
2E3
330
A
100
AcDbEntity
  8
PV
  6
Continuous
 62
     7
100
AcDbLine
 10
32.12699999999999
 20
-12.148
 30
0.0
 11
32.133
 21
-12.11
 31
0.0
  0
LINE
  5
2E4
330
A
100
AcDbEntity
  8
PV
  6
Continuous
 62
     7
100
AcDbLine
 10
32.121
 20
-12.186
 30
0.0
 11
32.12699999999999
 21
-12.148
 31
0.0
  0
LINE
  5
2E5
330
A
100
AcDbEntity
  8
PV
  6
Continuous
 62
     7
100
AcDbLine
 10
32.114
 20
-12.224
 30
0.0
 11
32.121
 21
-12.186
 31
0.0
  0
LINE
  5
2E6
330
A
100
AcDbEntity
  8
PV
  6
Continuous
 62
     7
100
AcDbLine
 10
32.108
 20
-12.262
 30
0.0
 11
32.114
 21
-12.224
 31
0.0
  0
LINE
  5
2E7
330
A
100
AcDbEntity
  8
PV
  6
Continuous
 62
     7
100
AcDbLine
 10
32.101
 20
-12.299
 30
0.0
 11
32.108
 21
-12.262
 31
0.0
  0
LINE
  5
2E8
330
A
100
AcDbEntity
  8
PV
  6
Continuous
 62
     7
100
AcDbLine
 10
32.094
 20
-12.337
 30
0.0
 11
32.101
 21
-12.299
 31
0.0
  0
LINE
  5
2E9
330
A
100
AcDbEntity
  8
PV
  6
Continuous
 62
     7
100
AcDbLine
 10
32.08699999999999
 20
-12.375
 30
0.0
 11
32.094
 21
-12.337
 31
0.0
  0
LINE
  5
2EA
330
A
100
AcDbEntity
  8
PV
  6
Continuous
 62
     7
100
AcDbLine
 10
32.08
 20
-12.413
 30
0.0
 11
32.08699999999999
 21
-12.375
 31
0.0
  0
LINE
  5
2EB
330
A
100
AcDbEntity
  8
PV
  6
Continuous
 62
     7
100
AcDbLine
 10
32.073
 20
-12.45099999999999
 30
0.0
 11
32.08
 21
-12.413
 31
0.0
  0
LINE
  5
2EC
330
A
100
AcDbEntity
  8
PV
  6
Continuous
 62
     7
100
AcDbLine
 10
32.065
 20
-12.488
 30
0.0
 11
32.073
 21
-12.45099999999999
 31
0.0
  0
LINE
  5
2ED
330
A
100
AcDbEntity
  8
PV
  6
Continuous
 62
     7
100
AcDbLine
 10
32.05799999999999
 20
-12.526
 30
0.0
 11
32.065
 21
-12.488
 31
0.0
  0
LINE
  5
2EE
330
A
100
AcDbEntity
  8
PV
  6
Continuous
 62
     7
100
AcDbLine
 10
32.05
 20
-12.564
 30
0.0
 11
32.05799999999999
 21
-12.526
 31
0.0
  0
LINE
  5
2EF
330
A
100
AcDbEntity
  8
PV
  6
Continuous
 62
     7
100
AcDbLine
 10
32.042
 20
-12.602
 30
0.0
 11
32.05
 21
-12.564
 31
0.0
  0
LINE
  5
2F0
330
A
100
AcDbEntity
  8
PV
  6
Continuous
 62
     7
100
AcDbLine
 10
32.034
 20
-12.639
 30
0.0
 11
32.042
 21
-12.602
 31
0.0
  0
LINE
  5
2F1
330
A
100
AcDbEntity
  8
PV
  6
Continuous
 62
     7
100
AcDbLine
 10
32.02599999999999
 20
-12.677
 30
0.0
 11
32.034
 21
-12.639
 31
0.0
  0
LINE
  5
2F2
330
A
100
AcDbEntity
  8
PV
  6
Continuous
 62
     7
100
AcDbLine
 10
32.01699999999999
 20
-12.714
 30
0.0
 11
32.02599999999999
 21
-12.677
 31
0.0
  0
LINE
  5
2F3
330
A
100
AcDbEntity
  8
PV
  6
Continuous
 62
     7
100
AcDbLine
 10
32.009
 20
-12.752
 30
0.0
 11
32.01699999999999
 21
-12.714
 31
0.0
  0
LINE
  5
2F4
330
A
100
AcDbEntity
  8
PV
  6
Continuous
 62
     7
100
AcDbLine
 10
32.0
 20
-12.789
 30
0.0
 11
32.009
 21
-12.752
 31
0.0
  0
LINE
  5
2F5
330
A
100
AcDbEntity
  8
PV
  6
Continuous
 62
     7
100
AcDbLine
 10
31.991
 20
-12.827
 30
0.0
 11
32.0
 21
-12.789
 31
0.0
  0
LINE
  5
2F6
330
A
100
AcDbEntity
  8
PV
  6
Continuous
 62
     7
100
AcDbLine
 10
31.98199999999999
 20
-12.864
 30
0.0
 11
31.991
 21
-12.827
 31
0.0
  0
LINE
  5
2F7
330
A
100
AcDbEntity
  8
PV
  6
Continuous
 62
     7
100
AcDbLine
 10
31.973
 20
-12.901
 30
0.0
 11
31.98199999999999
 21
-12.864
 31
0.0
  0
LINE
  5
2F8
330
A
100
AcDbEntity
  8
PV
  6
Continuous
 62
     7
100
AcDbLine
 10
31.963
 20
-12.939
 30
0.0
 11
31.973
 21
-12.901
 31
0.0
  0
LINE
  5
2F9
330
A
100
AcDbEntity
  8
PV
  6
Continuous
 62
     7
100
AcDbLine
 10
31.954
 20
-12.976
 30
0.0
 11
31.963
 21
-12.939
 31
0.0
  0
LINE
  5
2FA
330
A
100
AcDbEntity
  8
PV
  6
Continuous
 62
     7
100
AcDbLine
 10
31.944
 20
-13.013
 30
0.0
 11
31.954
 21
-12.976
 31
0.0
  0
LINE
  5
2FB
330
A
100
AcDbEntity
  8
PV
  6
Continuous
 62
     7
100
AcDbLine
 10
31.934
 20
-13.05
 30
0.0
 11
31.944
 21
-13.013
 31
0.0
  0
LINE
  5
2FC
330
A
100
AcDbEntity
  8
PV
  6
Continuous
 62
     7
100
AcDbLine
 10
31.924
 20
-13.08699999999999
 30
0.0
 11
31.934
 21
-13.05
 31
0.0
  0
LINE
  5
2FD
330
A
100
AcDbEntity
  8
PV
  6
Continuous
 62
     7
100
AcDbLine
 10
31.913
 20
-13.125
 30
0.0
 11
31.924
 21
-13.08699999999999
 31
0.0
  0
LINE
  5
2FE
330
A
100
AcDbEntity
  8
PV
  6
Continuous
 62
     7
100
AcDbLine
 10
31.903
 20
-13.162
 30
0.0
 11
31.913
 21
-13.125
 31
0.0
  0
LINE
  5
2FF
330
A
100
AcDbEntity
  8
PV
  6
Continuous
 62
     7
100
AcDbLine
 10
31.892
 20
-13.198
 30
0.0
 11
31.903
 21
-13.162
 31
0.0
  0
LINE
  5
300
330
A
100
AcDbEntity
  8
PV
  6
Continuous
 62
     7
100
AcDbLine
 10
31.881
 20
-13.235
 30
0.0
 11
31.892
 21
-13.198
 31
0.0
  0
LINE
  5
301
330
A
100
AcDbEntity
  8
PV
  6
Continuous
 62
     7
100
AcDbLine
 10
31.87
 20
-13.272
 30
0.0
 11
31.881
 21
-13.235
 31
0.0
  0
LINE
  5
302
330
A
100
AcDbEntity
  8
PV
  6
Continuous
 62
     7
100
AcDbLine
 10
31.859
 20
-13.309
 30
0.0
 11
31.87
 21
-13.272
 31
0.0
  0
LINE
  5
303
330
A
100
AcDbEntity
  8
PV
  6
Continuous
 62
     7
100
AcDbLine
 10
31.84699999999999
 20
-13.346
 30
0.0
 11
31.859
 21
-13.309
 31
0.0
  0
LINE
  5
304
330
A
100
AcDbEntity
  8
PV
  6
Continuous
 62
     7
100
AcDbLine
 10
31.835
 20
-13.382
 30
0.0
 11
31.84699999999999
 21
-13.346
 31
0.0
  0
LINE
  5
305
330
A
100
AcDbEntity
  8
PV
  6
Continuous
 62
     7
100
AcDbLine
 10
31.823
 20
-13.419
 30
0.0
 11
31.835
 21
-13.382
 31
0.0
  0
LINE
  5
306
330
A
100
AcDbEntity
  8
PV
  6
Continuous
 62
     7
100
AcDbLine
 10
31.811
 20
-13.455
 30
0.0
 11
31.823
 21
-13.419
 31
0.0
  0
LINE
  5
307
330
A
100
AcDbEntity
  8
PV
  6
Continuous
 62
     7
100
AcDbLine
 10
31.79899999999999
 20
-13.492
 30
0.0
 11
31.811
 21
-13.455
 31
0.0
  0
LINE
  5
308
330
A
100
AcDbEntity
  8
PV
  6
Continuous
 62
     7
100
AcDbLine
 10
31.787
 20
-13.528
 30
0.0
 11
31.79899999999999
 21
-13.492
 31
0.0
  0
LINE
  5
309
330
A
100
AcDbEntity
  8
PV
  6
Continuous
 62
     7
100
AcDbLine
 10
31.774
 20
-13.565
 30
0.0
 11
31.787
 21
-13.528
 31
0.0
  0
LINE
  5
30A
330
A
100
AcDbEntity
  8
PV
  6
Continuous
 62
     7
100
AcDbLine
 10
31.76099999999999
 20
-13.601
 30
0.0
 11
31.774
 21
-13.565
 31
0.0
  0
LINE
  5
30B
330
A
100
AcDbEntity
  8
PV
  6
Continuous
 62
     7
100
AcDbLine
 10
31.748
 20
-13.637
 30
0.0
 11
31.76099999999999
 21
-13.601
 31
0.0
  0
LINE
  5
30C
330
A
100
AcDbEntity
  8
PV
  6
Continuous
 62
     7
100
AcDbLine
 10
31.734
 20
-13.673
 30
0.0
 11
31.748
 21
-13.637
 31
0.0
  0
LINE
  5
30D
330
A
100
AcDbEntity
  8
PV
  6
Continuous
 62
     7
100
AcDbLine
 10
31.721
 20
-13.709
 30
0.0
 11
31.734
 21
-13.673
 31
0.0
  0
LINE
  5
30E
330
A
100
AcDbEntity
  8
PV
  6
Continuous
 62
     7
100
AcDbLine
 10
31.707
 20
-13.745
 30
0.0
 11
31.721
 21
-13.709
 31
0.0
  0
LINE
  5
30F
330
A
100
AcDbEntity
  8
PV
  6
Continuous
 62
     7
100
AcDbLine
 10
31.693
 20
-13.78099999999999
 30
0.0
 11
31.707
 21
-13.745
 31
0.0
  0
LINE
  5
310
330
A
100
AcDbEntity
  8
PV
  6
Continuous
 62
     7
100
AcDbLine
 10
31.679
 20
-13.817
 30
0.0
 11
31.693
 21
-13.78099999999999
 31
0.0
  0
LINE
  5
311
330
A
100
AcDbEntity
  8
PV
  6
Continuous
 62
     7
100
AcDbLine
 10
31.664
 20
-13.852
 30
0.0
 11
31.679
 21
-13.817
 31
0.0
  0
LINE
  5
312
330
A
100
AcDbEntity
  8
PV
  6
Continuous
 62
     7
100
AcDbLine
 10
31.649
 20
-13.888
 30
0.0
 11
31.664
 21
-13.852
 31
0.0
  0
LINE
  5
313
330
A
100
AcDbEntity
  8
PV
  6
Continuous
 62
     7
100
AcDbLine
 10
31.634
 20
-13.923
 30
0.0
 11
31.649
 21
-13.888
 31
0.0
  0
LINE
  5
314
330
A
100
AcDbEntity
  8
PV
  6
Continuous
 62
     7
100
AcDbLine
 10
31.619
 20
-13.959
 30
0.0
 11
31.634
 21
-13.923
 31
0.0
  0
LINE
  5
315
330
A
100
AcDbEntity
  8
PV
  6
Continuous
 62
     7
100
AcDbLine
 10
31.604
 20
-13.994
 30
0.0
 11
31.619
 21
-13.959
 31
0.0
  0
LINE
  5
316
330
A
100
AcDbEntity
  8
PV
  6
Continuous
 62
     7
100
AcDbLine
 10
31.588
 20
-14.029
 30
0.0
 11
31.604
 21
-13.994
 31
0.0
  0
LINE
  5
317
330
A
100
AcDbEntity
  8
PV
  6
Continuous
 62
     7
100
AcDbLine
 10
31.572
 20
-14.064
 30
0.0
 11
31.588
 21
-14.029
 31
0.0
  0
LINE
  5
318
330
A
100
AcDbEntity
  8
PV
  6
Continuous
 62
     7
100
AcDbLine
 10
31.55599999999999
 20
-14.099
 30
0.0
 11
31.572
 21
-14.064
 31
0.0
  0
LINE
  5
319
330
A
100
AcDbEntity
  8
PV
  6
Continuous
 62
     7
100
AcDbLine
 10
31.539
 20
-14.134
 30
0.0
 11
31.55599999999999
 21
-14.099
 31
0.0
  0
LINE
  5
31A
330
A
100
AcDbEntity
  8
PV
  6
Continuous
 62
     7
100
AcDbLine
 10
31.522
 20
-14.168
 30
0.0
 11
31.539
 21
-14.134
 31
0.0
  0
LINE
  5
31B
330
A
100
AcDbEntity
  8
PV
  6
Continuous
 62
     7
100
AcDbLine
 10
31.505
 20
-14.203
 30
0.0
 11
31.522
 21
-14.168
 31
0.0
  0
LINE
  5
31C
330
A
100
AcDbEntity
  8
PV
  6
Continuous
 62
     7
100
AcDbLine
 10
31.488
 20
-14.237
 30
0.0
 11
31.505
 21
-14.203
 31
0.0
  0
LINE
  5
31D
330
A
100
AcDbEntity
  8
PV
  6
Continuous
 62
     7
100
AcDbLine
 10
31.47
 20
-14.272
 30
0.0
 11
31.488
 21
-14.237
 31
0.0
  0
LINE
  5
31E
330
A
100
AcDbEntity
  8
PV
  6
Continuous
 62
     7
100
AcDbLine
 10
31.453
 20
-14.306
 30
0.0
 11
31.47
 21
-14.272
 31
0.0
  0
LINE
  5
31F
330
A
100
AcDbEntity
  8
PV
  6
Continuous
 62
     7
100
AcDbLine
 10
31.434
 20
-14.34
 30
0.0
 11
31.453
 21
-14.306
 31
0.0
  0
LINE
  5
320
330
A
100
AcDbEntity
  8
PV
  6
Continuous
 62
     7
100
AcDbLine
 10
31.416
 20
-14.374
 30
0.0
 11
31.434
 21
-14.34
 31
0.0
  0
LINE
  5
321
330
A
100
AcDbEntity
  8
PV
  6
Continuous
 62
     7
100
AcDbLine
 10
31.39699999999999
 20
-14.407
 30
0.0
 11
31.416
 21
-14.374
 31
0.0
  0
LINE
  5
322
330
A
100
AcDbEntity
  8
PV
  6
Continuous
 62
     7
100
AcDbLine
 10
31.378
 20
-14.44099999999999
 30
0.0
 11
31.39699999999999
 21
-14.407
 31
0.0
  0
LINE
  5
323
330
A
100
AcDbEntity
  8
PV
  6
Continuous
 62
     7
100
AcDbLine
 10
31.358
 20
-14.474
 30
0.0
 11
31.378
 21
-14.44099999999999
 31
0.0
  0
LINE
  5
324
330
A
100
AcDbEntity
  8
PV
  6
Continuous
 62
     7
100
AcDbLine
 10
31.339
 20
-14.507
 30
0.0
 11
31.358
 21
-14.474
 31
0.0
  0
LINE
  5
325
330
A
100
AcDbEntity
  8
PV
  6
Continuous
 62
     7
100
AcDbLine
 10
31.318
 20
-14.53999999999999
 30
0.0
 11
31.339
 21
-14.507
 31
0.0
  0
LINE
  5
326
330
A
100
AcDbEntity
  8
PV
  6
Continuous
 62
     7
100
AcDbLine
 10
31.298
 20
-14.572
 30
0.0
 11
31.318
 21
-14.53999999999999
 31
0.0
  0
LINE
  5
327
330
A
100
AcDbEntity
  8
PV
  6
Continuous
 62
     7
100
AcDbLine
 10
31.27699999999999
 20
-14.605
 30
0.0
 11
31.298
 21
-14.572
 31
0.0
  0
LINE
  5
328
330
A
100
AcDbEntity
  8
PV
  6
Continuous
 62
     7
100
AcDbLine
 10
31.256
 20
-14.637
 30
0.0
 11
31.27699999999999
 21
-14.605
 31
0.0
  0
LINE
  5
329
330
A
100
AcDbEntity
  8
PV
  6
Continuous
 62
     7
100
AcDbLine
 10
31.234
 20
-14.669
 30
0.0
 11
31.256
 21
-14.637
 31
0.0
  0
LINE
  5
32A
330
A
100
AcDbEntity
  8
PV
  6
Continuous
 62
     7
100
AcDbLine
 10
31.21199999999999
 20
-14.69999999999999
 30
0.0
 11
31.234
 21
-14.669
 31
0.0
  0
LINE
  5
32B
330
A
100
AcDbEntity
  8
PV
  6
Continuous
 62
     7
100
AcDbLine
 10
31.19
 20
-14.732
 30
0.0
 11
31.21199999999999
 21
-14.69999999999999
 31
0.0
  0
LINE
  5
32C
330
A
100
AcDbEntity
  8
PV
  6
Continuous
 62
     7
100
AcDbLine
 10
31.16699999999999
 20
-14.763
 30
0.0
 11
31.19
 21
-14.732
 31
0.0
  0
LINE
  5
32D
330
A
100
AcDbEntity
  8
PV
  6
Continuous
 62
     7
100
AcDbLine
 10
31.144
 20
-14.793
 30
0.0
 11
31.16699999999999
 21
-14.763
 31
0.0
  0
LINE
  5
32E
330
A
100
AcDbEntity
  8
PV
  6
Continuous
 62
     7
100
AcDbLine
 10
31.12
 20
-14.824
 30
0.0
 11
31.144
 21
-14.793
 31
0.0
  0
LINE
  5
32F
330
A
100
AcDbEntity
  8
PV
  6
Continuous
 62
     7
100
AcDbLine
 10
31.096
 20
-14.854
 30
0.0
 11
31.12
 21
-14.824
 31
0.0
  0
LINE
  5
330
330
A
100
AcDbEntity
  8
PV
  6
Continuous
 62
     7
100
AcDbLine
 10
31.072
 20
-14.88299999999999
 30
0.0
 11
31.096
 21
-14.854
 31
0.0
  0
MTEXT
  5
331
330
A
100
AcDbEntity
  8
PV
  6
Continuous
 62
     7
100
AcDbMText
 10
60.518998
 20
31.5
 30
0.0
 40
6.5
 41
0.0
 71
     2
 72
     1
  1
\A1;38.5～53.5
 11
0.0
 21
1.0
 31
0.0
 73
     1
 44
1.0
  0
LINE
  5
332
330
A
100
AcDbEntity
  8
PV
  6
Continuous
 62
     7
100
AcDbLine
 10
33.967
 20
4.5
 30
0.0
 11
70.905
 21
4.5
 31
0.0
  0
LINE
  5
333
330
A
100
AcDbEntity
  8
PV
  6
Continuous
 62
     7
100
AcDbLine
 10
68.619
 20
4.5
 30
0.0
 11
68.619
 21
-34.0
 31
0.0
  0
LINE
  5
334
330
A
100
AcDbEntity
  8
PV
  6
Continuous
 62
     7
100
AcDbLine
 10
68.619
 20
-34.0
 30
0.0
 11
68.619
 21
-31.23
 31
0.0
  0
LINE
  5
335
330
A
100
AcDbEntity
  8
PV
  6
Continuous
 62
     7
100
AcDbLine
 10
68.619
 20
-34.0
 30
0.0
 11
67.877
 21
-31.23
 31
0.0
  0
LINE
  5
336
330
A
100
AcDbEntity
  8
PV
  6
Continuous
 62
     7
100
AcDbLine
 10
69.36199999999999
 20
-31.23
 30
0.0
 11
68.619
 21
-34.0
 31
0.0
  0
LINE
  5
337
330
A
100
AcDbEntity
  8
PV
  6
Continuous
 62
     7
100
AcDbLine
 10
68.619
 20
4.5
 30
0.0
 11
68.619
 21
1.729999999999999
 31
0.0
  0
LINE
  5
338
330
A
100
AcDbEntity
  8
PV
  6
Continuous
 62
     7
100
AcDbLine
 10
68.619
 20
4.5
 30
0.0
 11
69.36199999999999
 21
1.729999999999999
 31
0.0
  0
LINE
  5
339
330
A
100
AcDbEntity
  8
PV
  6
Continuous
 62
     7
100
AcDbLine
 10
67.877
 20
1.729999999999999
 30
0.0
 11
68.619
 21
4.5
 31
0.0
  0
MTEXT
  5
33A
330
A
100
AcDbEntity
  8
PV
  6
Continuous
 62
     7
100
AcDbMText
 10
40.548
 20
-8.5
 30
0.0
 40
6.5
 41
0.0
 71
     2
 72
     1
  1
\W0.952;\A1;26
 11
0.0
 21
1.0
 31
0.0
 73
     1
 44
1.0
  0
LINE
  5
33B
330
A
100
AcDbEntity
  8
PV
  6
Continuous
 62
     7
100
AcDbLine
 10
37.54
 20
-21.49999999999999
 30
0.0
 11
50.93399999999999
 21
-21.49999999999999
 31
0.0
  0
LINE
  5
33C
330
A
100
AcDbEntity
  8
PV
  6
Continuous
 62
     7
100
AcDbLine
 10
48.648
 20
4.5
 30
0.0
 11
48.648
 21
-21.49999999999999
 31
0.0
  0
LINE
  5
33D
330
A
100
AcDbEntity
  8
PV
  6
Continuous
 62
     7
100
AcDbLine
 10
48.648
 20
-21.49999999999999
 30
0.0
 11
48.648
 21
-18.73
 31
0.0
  0
LINE
  5
33E
330
A
100
AcDbEntity
  8
PV
  6
Continuous
 62
     7
100
AcDbLine
 10
48.648
 20
-21.49999999999999
 30
0.0
 11
47.905
 21
-18.73
 31
0.0
  0
LINE
  5
33F
330
A
100
AcDbEntity
  8
PV
  6
Continuous
 62
     7
100
AcDbLine
 10
49.39
 20
-18.73
 30
0.0
 11
48.648
 21
-21.49999999999999
 31
0.0
  0
LINE
  5
340
330
A
100
AcDbEntity
  8
PV
  6
Continuous
 62
     7
100
AcDbLine
 10
48.648
 20
4.5
 30
0.0
 11
48.648
 21
1.729999999999999
 31
0.0
  0
LINE
  5
341
330
A
100
AcDbEntity
  8
PV
  6
Continuous
 62
     7
100
AcDbLine
 10
48.648
 20
4.5
 30
0.0
 11
49.39
 21
1.729999999999999
 31
0.0
  0
LINE
  5
342
330
A
100
AcDbEntity
  8
PV
  6
Continuous
 62
     7
100
AcDbLine
 10
47.905
 20
1.729999999999999
 30
0.0
 11
48.648
 21
4.5
 31
0.0
  0
MTEXT
  5
343
330
A
100
AcDbEntity
  8
PV
  6
Continuous
 62
     7
100
AcDbMText
 10
5.0
 20
34.70599999999999
 30
0.0
 40
6.5
 41
0.0
 71
     2
 72
     1
  1
\T1.020;\W1.004;\A1;\U+220560
 73
     1
 44
1.0
  0
LINE
  5
344
330
A
100
AcDbEntity
  8
PV
  6
Continuous
 62
     7
100
AcDbLine
 10
35.0
 20
-18.96
 30
0.0
 11
35.0
 21
29.892
 31
0.0
  0
LINE
  5
345
330
A
100
AcDbEntity
  8
PV
  6
Continuous
 62
     7
100
AcDbLine
 10
-25.0
 20
-18.96
 30
0.0
 11
-25.0
 21
29.892
 31
0.0
  0
LINE
  5
346
330
A
100
AcDbEntity
  8
PV
  6
Continuous
 62
     7
100
AcDbLine
 10
-25.0
 20
27.606
 30
0.0
 11
35.0
 21
27.606
 31
0.0
  0
LINE
  5
347
330
A
100
AcDbEntity
  8
PV
  6
Continuous
 62
     7
100
AcDbLine
 10
35.0
 20
27.606
 30
0.0
 11
32.22999999999999
 21
27.606
 31
0.0
  0
LINE
  5
348
330
A
100
AcDbEntity
  8
PV
  6
Continuous
 62
     7
100
AcDbLine
 10
35.0
 20
27.606
 30
0.0
 11
32.22999999999999
 21
26.864
 31
0.0
  0
LINE
  5
349
330
A
100
AcDbEntity
  8
PV
  6
Continuous
 62
     7
100
AcDbLine
 10
32.22999999999999
 20
28.348
 30
0.0
 11
35.0
 21
27.606
 31
0.0
  0
LINE
  5
34A
330
A
100
AcDbEntity
  8
PV
  6
Continuous
 62
     7
100
AcDbLine
 10
-25.0
 20
27.606
 30
0.0
 11
-22.23
 21
27.606
 31
0.0
  0
LINE
  5
34B
330
A
100
AcDbEntity
  8
PV
  6
Continuous
 62
     7
100
AcDbLine
 10
-25.0
 20
27.606
 30
0.0
 11
-22.23
 21
28.348
 31
0.0
  0
LINE
  5
34C
330
A
100
AcDbEntity
  8
PV
  6
Continuous
 62
     7
100
AcDbLine
 10
-22.23
 20
26.864
 30
0.0
 11
-25.0
 21
27.606
 31
0.0
  0
MTEXT
  5
34D
330
A
100
AcDbEntity
  8
PV
  6
Continuous
 62
     7
100
AcDbMText
 10
49.315998
 20
28.49
 30
0.0
 40
6.5
 41
0.0
 71
     2
 72
     1
  1
\A1;7.5～22.5
 11
0.0
 21
1.0
 31
0.0
 73
     1
 44
1.0
  0
LINE
  5
34E
330
A
100
AcDbEntity
  8
PV
  6
Continuous
 62
     7
100
AcDbLine
 10
57.416
 20
-20.188
 30
0.0
 11
57.416
 21
49.737515
 31
0.0
  0
LINE
  5
34F
330
A
100
AcDbEntity
  8
PV
  6
Continuous
 62
     7
100
AcDbLine
 10
48.648
 20
-25.25
 30
0.0
 11
57.416
 21
-20.188
 31
0.0
  0
LINE
  5
350
330
A
100
AcDbEntity
  8
PV
  6
Continuous
 62
     7
100
AcDbLine
 10
33.54
 20
-29.0
 30
0.0
 11
50.93399999999999
 21
-29.0
 31
0.0
  0
LINE
  5
351
330
A
100
AcDbEntity
  8
PV
  6
Continuous
 62
     7
100
AcDbLine
 10
48.648
 20
-21.49999999999999
 30
0.0
 11
48.648
 21
-29.0
 31
0.0
  0
LINE
  5
352
330
A
100
AcDbEntity
  8
PV
  6
Continuous
 62
     7
100
AcDbLine
 10
48.648
 20
-29.0
 30
0.0
 11
48.648
 21
-26.23
 31
0.0
  0
LINE
  5
353
330
A
100
AcDbEntity
  8
PV
  6
Continuous
 62
     7
100
AcDbLine
 10
48.648
 20
-29.0
 30
0.0
 11
47.905
 21
-26.23
 31
0.0
  0
LINE
  5
354
330
A
100
AcDbEntity
  8
PV
  6
Continuous
 62
     7
100
AcDbLine
 10
49.39
 20
-26.23
 30
0.0
 11
48.648
 21
-29.0
 31
0.0
  0
LINE
  5
355
330
A
100
AcDbEntity
  8
PV
  6
Continuous
 62
     7
100
AcDbLine
 10
48.648
 20
-21.49999999999999
 30
0.0
 11
48.648
 21
-24.27
 31
0.0
  0
LINE
  5
356
330
A
100
AcDbEntity
  8
PV
  6
Continuous
 62
     7
100
AcDbLine
 10
48.648
 20
-21.49999999999999
 30
0.0
 11
49.39
 21
-24.27
 31
0.0
  0
LINE
  5
357
330
A
100
AcDbEntity
  8
PV
  6
Continuous
 62
     7
100
AcDbLine
 10
47.905
 20
-24.27
 30
0.0
 11
48.648
 21
-21.49999999999999
 31
0.0
  0
LINE
  5
358
330
A
100
AcDbEntity
  8
PV
  6
Continuous
 62
     7
100
AcDbLine
 10
48.648
 20
-25.25
 30
0.0
 11
51.04600000000001
 21
-23.86499999999999
 31
0.0
  0
LINE
  5
359
330
A
100
AcDbEntity
  8
PV
  6
Continuous
 62
     7
100
AcDbLine
 10
48.648
 20
-25.25
 30
0.0
 11
50.67499999999999
 21
-23.222
 31
0.0
  0
LINE
  5
35A
330
A
100
AcDbEntity
  8
PV
  6
Continuous
 62
     7
100
AcDbLine
 10
51.41799999999999
 20
-24.508
 30
0.0
 11
48.648
 21
-25.25
 31
0.0
  0
MTEXT
  5
35B
330
A
100
AcDbEntity
  8
PV
  6
Continuous
 62
     7
100
AcDbMText
 10
16.532
 20
-62.768
 30
0.0
 40
6.5
 41
0.0
 71
     2
 72
     1
  1
\T0.891;\W1.089;\A1;\U+220576
 73
     1
 44
1.0
  0
LINE
  5
35C
330
A
100
AcDbEntity
  8
PV
  6
Continuous
 62
     7
100
AcDbLine
 10
-33.0
 20
-69.86799999999999
 30
0.0
 11
43.0
 21
-69.86799999999999
 31
0.0
  0
LINE
  5
35D
330
A
100
AcDbEntity
  8
PV
  6
Continuous
 62
     7
100
AcDbLine
 10
43.0
 20
-69.86799999999999
 30
0.0
 11
40.22999999999999
 21
-69.86799999999999
 31
0.0
  0
LINE
  5
35E
330
A
100
AcDbEntity
  8
PV
  6
Continuous
 62
     7
100
AcDbLine
 10
43.0
 20
-69.86799999999999
 30
0.0
 11
40.22999999999999
 21
-70.60999999999999
 31
0.0
  0
LINE
  5
35F
330
A
100
AcDbEntity
  8
PV
  6
Continuous
 62
     7
100
AcDbLine
 10
40.22999999999999
 20
-69.12600000000001
 30
0.0
 11
43.0
 21
-69.86799999999999
 31
0.0
  0
LINE
  5
360
330
A
100
AcDbEntity
  8
PV
  6
Continuous
 62
     7
100
AcDbLine
 10
-33.0
 20
-69.86799999999999
 30
0.0
 11
-30.23
 21
-69.86799999999999
 31
0.0
  0
LINE
  5
361
330
A
100
AcDbEntity
  8
PV
  6
Continuous
 62
     7
100
AcDbLine
 10
-33.0
 20
-69.86799999999999
 30
0.0
 11
-30.23
 21
-69.12600000000001
 31
0.0
  0
LINE
  5
362
330
A
100
AcDbEntity
  8
PV
  6
Continuous
 62
     7
100
AcDbLine
 10
-30.23
 20
-70.60999999999999
 30
0.0
 11
-33.0
 21
-69.86799999999999
 31
0.0
  0
MTEXT
  5
363
330
A
100
AcDbEntity
  8
PV
  6
Continuous
 62
     7
100
AcDbMText
 10
18.93299999999999
 20
-168.2829999999999
 30
0.0
 40
6.5
 41
0.0
 71
     2
 72
     1
  1
\A1;\U+2205105
 73
     1
 44
1.0
  0
LINE
  5
364
330
A
100
AcDbEntity
  8
PV
  6
Continuous
 62
     7
100
AcDbLine
 10
-47.5
 20
-164.621162
 30
0.0
 11
-47.5
 21
-177.669
 31
0.0
  0
LINE
  5
365
330
A
100
AcDbEntity
  8
PV
  6
Continuous
 62
     7
100
AcDbLine
 10
57.5
 20
-164.621162
 30
0.0
 11
57.5
 21
-177.669
 31
0.0
  0
LINE
  5
366
330
A
100
AcDbEntity
  8
PV
  6
Continuous
 62
     7
100
AcDbLine
 10
57.5
 20
-175.3829999999999
 30
0.0
 11
-47.5
 21
-175.3829999999999
 31
0.0
  0
LINE
  5
367
330
A
100
AcDbEntity
  8
PV
  6
Continuous
 62
     7
100
AcDbLine
 10
-47.5
 20
-175.3829999999999
 30
0.0
 11
-44.72999999999999
 21
-175.3829999999999
 31
0.0
  0
LINE
  5
368
330
A
100
AcDbEntity
  8
PV
  6
Continuous
 62
     7
100
AcDbLine
 10
-47.5
 20
-175.3829999999999
 30
0.0
 11
-44.72999999999999
 21
-174.641
 31
0.0
  0
LINE
  5
369
330
A
100
AcDbEntity
  8
PV
  6
Continuous
 62
     7
100
AcDbLine
 10
-44.72999999999999
 20
-176.1259999999999
 30
0.0
 11
-47.5
 21
-175.3829999999999
 31
0.0
  0
LINE
  5
36A
330
A
100
AcDbEntity
  8
PV
  6
Continuous
 62
     7
100
AcDbLine
 10
57.5
 20
-175.3829999999999
 30
0.0
 11
54.72999999999999
 21
-175.3829999999999
 31
0.0
  0
LINE
  5
36B
330
A
100
AcDbEntity
  8
PV
  6
Continuous
 62
     7
100
AcDbLine
 10
57.5
 20
-175.3829999999999
 30
0.0
 11
54.72999999999999
 21
-176.1259999999999
 31
0.0
  0
LINE
  5
36C
330
A
100
AcDbEntity
  8
PV
  6
Continuous
 62
     7
100
AcDbLine
 10
54.72999999999999
 20
-174.641
 30
0.0
 11
57.5
 21
-175.3829999999999
 31
0.0
  0
MTEXT
  5
36D
330
A
100
AcDbEntity
  8
PV
  6
Continuous
 62
     7
100
AcDbMText
 10
-29.29199999999999
 20
-191.59
 30
0.0
 40
6.5
 41
0.0
 71
     2
 72
     1
  1
\A1;70
 73
     1
 44
1.0
  0
LINE
  5
36E
330
A
100
AcDbEntity
  8
PV
  6
Continuous
 62
     7
100
AcDbLine
 10
-65.0
 20
-149.519327
 30
0.0
 11
-65.0
 21
-200.9759999999999
 31
0.0
  0
LINE
  5
36F
330
A
100
AcDbEntity
  8
PV
  6
Continuous
 62
     7
100
AcDbLine
 10
5.0
 20
-171.525326
 30
0.0
 11
5.0
 21
-200.9759999999999
 31
0.0
  0
LINE
  5
370
330
A
100
AcDbEntity
  8
PV
  6
Continuous
 62
     7
100
AcDbLine
 10
5.0
 20
-198.69
 30
0.0
 11
-65.0
 21
-198.69
 31
0.0
  0
LINE
  5
371
330
A
100
AcDbEntity
  8
PV
  6
Continuous
 62
     7
100
AcDbLine
 10
-65.0
 20
-198.69
 30
0.0
 11
-62.22999999999999
 21
-198.69
 31
0.0
  0
LINE
  5
372
330
A
100
AcDbEntity
  8
PV
  6
Continuous
 62
     7
100
AcDbLine
 10
-65.0
 20
-198.69
 30
0.0
 11
-62.22999999999999
 21
-197.9479999999999
 31
0.0
  0
LINE
  5
373
330
A
100
AcDbEntity
  8
PV
  6
Continuous
 62
     7
100
AcDbLine
 10
-62.22999999999999
 20
-199.432
 30
0.0
 11
-65.0
 21
-198.69
 31
0.0
  0
LINE
  5
374
330
A
100
AcDbEntity
  8
PV
  6
Continuous
 62
     7
100
AcDbLine
 10
5.0
 20
-198.69
 30
0.0
 11
2.229999999999999
 21
-198.69
 31
0.0
  0
LINE
  5
375
330
A
100
AcDbEntity
  8
PV
  6
Continuous
 62
     7
100
AcDbLine
 10
5.0
 20
-198.69
 30
0.0
 11
2.229999999999999
 21
-199.432
 31
0.0
  0
LINE
  5
376
330
A
100
AcDbEntity
  8
PV
  6
Continuous
 62
     7
100
AcDbLine
 10
2.229999999999999
 20
-197.9479999999999
 30
0.0
 11
5.0
 21
-198.69
 31
0.0
  0
MTEXT
  5
377
330
A
100
AcDbEntity
  8
PV
  6
Continuous
 62
     7
100
AcDbMText
 10
-86.00299999999998
 20
-78.318
 30
0.0
 40
6.5
 41
0.0
 71
     2
 72
     1
  1
\A1;\U+2205105
 11
0.0
 21
1.0
 31
0.0
 73
     1
 44
1.0
  0
LINE
  5
378
330
A
100
AcDbEntity
  8
PV
  6
Continuous
 62
     7
100
AcDbLine
 10
-66.54
 20
-41.0
 30
0.0
 11
-80.189
 21
-41.0
 31
0.0
  0
LINE
  5
379
330
A
100
AcDbEntity
  8
PV
  6
Continuous
 62
     7
100
AcDbLine
 10
-66.54
 20
-146.0
 30
0.0
 11
-80.189
 21
-146.0
 31
0.0
  0
LINE
  5
37A
330
A
100
AcDbEntity
  8
PV
  6
Continuous
 62
     7
100
AcDbLine
 10
-77.90300000000001
 20
-146.0
 30
0.0
 11
-77.90300000000001
 21
-41.0
 31
0.0
  0
LINE
  5
37B
330
A
100
AcDbEntity
  8
PV
  6
Continuous
 62
     7
100
AcDbLine
 10
-77.90300000000001
 20
-41.0
 30
0.0
 11
-77.90300000000001
 21
-43.77
 31
0.0
  0
LINE
  5
37C
330
A
100
AcDbEntity
  8
PV
  6
Continuous
 62
     7
100
AcDbLine
 10
-77.90300000000001
 20
-41.0
 30
0.0
 11
-77.161
 21
-43.77
 31
0.0
  0
LINE
  5
37D
330
A
100
AcDbEntity
  8
PV
  6
Continuous
 62
     7
100
AcDbLine
 10
-78.64499999999999
 20
-43.77
 30
0.0
 11
-77.90300000000001
 21
-41.0
 31
0.0
  0
LINE
  5
37E
330
A
100
AcDbEntity
  8
PV
  6
Continuous
 62
     7
100
AcDbLine
 10
-77.90300000000001
 20
-146.0
 30
0.0
 11
-77.90300000000001
 21
-143.2299999999999
 31
0.0
  0
LINE
  5
37F
330
A
100
AcDbEntity
  8
PV
  6
Continuous
 62
     7
100
AcDbLine
 10
-77.90300000000001
 20
-146.0
 30
0.0
 11
-78.64499999999999
 21
-143.2299999999999
 31
0.0
  0
LINE
  5
380
330
A
100
AcDbEntity
  8
PV
  6
Continuous
 62
     7
100
AcDbLine
 10
-77.161
 20
-143.2299999999999
 30
0.0
 11
-77.90300000000001
 21
-146.0
 31
0.0
  0
MTEXT
  5
381
330
A
100
AcDbEntity
  8
PV
  6
Continuous
 62
     7
100
AcDbMText
 10
-97.694
 20
-128.4999999999999
 30
0.0
 40
6.5
 41
0.0
 71
     2
 72
     1
  1
\A1;70
 11
0.0
 21
1.0
 31
0.0
 73
     1
 44
1.0
  0
LINE
  5
382
330
A
100
AcDbEntity
  8
PV
  6
Continuous
 62
     7
100
AcDbLine
 10
-77.51999999999999
 20
-93.49999999999999
 30
0.0
 11
-91.88
 21
-93.49999999999999
 31
0.0
  0
LINE
  5
383
330
A
100
AcDbEntity
  8
PV
  6
Continuous
 62
     7
100
AcDbLine
 10
-49.03999999999999
 20
-163.4999999999999
 30
0.0
 11
-91.88
 21
-163.4999999999999
 31
0.0
  0
LINE
  5
384
330
A
100
AcDbEntity
  8
PV
  6
Continuous
 62
     7
100
AcDbLine
 10
-89.594
 20
-163.4999999999999
 30
0.0
 11
-89.594
 21
-93.49999999999999
 31
0.0
  0
LINE
  5
385
330
A
100
AcDbEntity
  8
PV
  6
Continuous
 62
     7
100
AcDbLine
 10
-89.594
 20
-93.49999999999999
 30
0.0
 11
-89.594
 21
-96.27
 31
0.0
  0
LINE
  5
386
330
A
100
AcDbEntity
  8
PV
  6
Continuous
 62
     7
100
AcDbLine
 10
-89.594
 20
-93.49999999999999
 30
0.0
 11
-88.85099999999999
 21
-96.27
 31
0.0
  0
LINE
  5
387
330
A
100
AcDbEntity
  8
PV
  6
Continuous
 62
     7
100
AcDbLine
 10
-90.33599999999999
 20
-96.27
 30
0.0
 11
-89.594
 21
-93.49999999999999
 31
0.0
  0
LINE
  5
388
330
A
100
AcDbEntity
  8
PV
  6
Continuous
 62
     7
100
AcDbLine
 10
-89.594
 20
-163.4999999999999
 30
0.0
 11
-89.594
 21
-160.7299999999999
 31
0.0
  0
LINE
  5
389
330
A
100
AcDbEntity
  8
PV
  6
Continuous
 62
     7
100
AcDbLine
 10
-89.594
 20
-163.4999999999999
 30
0.0
 11
-90.33599999999999
 21
-160.7299999999999
 31
0.0
  0
LINE
  5
38A
330
A
100
AcDbEntity
  8
PV
  6
Continuous
 62
     7
100
AcDbLine
 10
-88.85099999999999
 20
-160.7299999999999
 30
0.0
 11
-89.594
 21
-163.4999999999999
 31
0.0
  0
MTEXT
  5
38B
330
A
100
AcDbEntity
  8
PV
  6
Continuous
 62
     7
100
AcDbMText
 10
60.51899999999999
 20
-98.75
 30
0.0
 40
6.5
 41
0.0
 71
     2
 72
     1
  1
\A1;129.5
 11
0.0
 21
1.0
 31
0.0
 73
     1
 44
1.0
  0
LINE
  5
38C
330
A
100
AcDbEntity
  8
PV
  6
Continuous
 62
     7
100
AcDbLine
 10
59.03999999999999
 20
-163.4999999999999
 30
0.0
 11
70.905
 21
-163.4999999999999
 31
0.0
  0
LINE
  5
38D
330
A
100
AcDbEntity
  8
PV
  6
Continuous
 62
     7
100
AcDbLine
 10
47.03999999999999
 20
-34.0
 30
0.0
 11
70.905
 21
-34.0
 31
0.0
  0
LINE
  5
38E
330
A
100
AcDbEntity
  8
PV
  6
Continuous
 62
     7
100
AcDbLine
 10
68.619
 20
-34.0
 30
0.0
 11
68.619
 21
-163.4999999999999
 31
0.0
  0
LINE
  5
38F
330
A
100
AcDbEntity
  8
PV
  6
Continuous
 62
     7
100
AcDbLine
 10
68.619
 20
-163.4999999999999
 30
0.0
 11
68.619
 21
-160.7299999999999
 31
0.0
  0
LINE
  5
390
330
A
100
AcDbEntity
  8
PV
  6
Continuous
 62
     7
100
AcDbLine
 10
68.619
 20
-163.4999999999999
 30
0.0
 11
67.877
 21
-160.7299999999999
 31
0.0
  0
LINE
  5
391
330
A
100
AcDbEntity
  8
PV
  6
Continuous
 62
     7
100
AcDbLine
 10
69.36199999999999
 20
-160.7299999999999
 30
0.0
 11
68.619
 21
-163.4999999999999
 31
0.0
  0
LINE
  5
392
330
A
100
AcDbEntity
  8
PV
  6
Continuous
 62
     7
100
AcDbLine
 10
68.619
 20
-34.0
 30
0.0
 11
68.619
 21
-36.77
 31
0.0
  0
LINE
  5
393
330
A
100
AcDbEntity
  8
PV
  6
Continuous
 62
     7
100
AcDbLine
 10
68.619
 20
-34.0
 30
0.0
 11
69.36199999999999
 21
-36.77
 31
0.0
  0
LINE
  5
394
330
A
100
AcDbEntity
  8
PV
  6
Continuous
 62
     7
100
AcDbLine
 10
67.877
 20
-36.77
 30
0.0
 11
68.619
 21
-34.0
 31
0.0
  0
MTEXT
  5
395
330
A
100
AcDbEntity
  8
PV
  6
Continuous
 62
     7
100
AcDbMText
 10
-2.5
 20
183.3159999999999
 30
0.0
 40
6.5
 41
0.0
 71
     2
 72
     1
  1
\A1;125
 73
     1
 44
1.0
  0
LINE
  5
396
330
A
100
AcDbEntity
  8
PV
  6
Continuous
 62
     7
100
AcDbLine
 10
60.0
 20
108.546
 30
0.0
 11
60.0
 21
178.502
 31
0.0
  0
LINE
  5
397
330
A
100
AcDbEntity
  8
PV
  6
Continuous
 62
     7
100
AcDbLine
 10
-65.0
 20
160.0459999999999
 30
0.0
 11
-65.0
 21
178.502
 31
0.0
  0
LINE
  5
398
330
A
100
AcDbEntity
  8
PV
  6
Continuous
 62
     7
100
AcDbLine
 10
-65.0
 20
176.2159999999999
 30
0.0
 11
60.0
 21
176.2159999999999
 31
0.0
  0
LINE
  5
399
330
A
100
AcDbEntity
  8
PV
  6
Continuous
 62
     7
100
AcDbLine
 10
60.0
 20
176.2159999999999
 30
0.0
 11
57.22999999999999
 21
176.2159999999999
 31
0.0
  0
LINE
  5
39A
330
A
100
AcDbEntity
  8
PV
  6
Continuous
 62
     7
100
AcDbLine
 10
60.0
 20
176.2159999999999
 30
0.0
 11
57.22999999999999
 21
175.474
 31
0.0
  0
LINE
  5
39B
330
A
100
AcDbEntity
  8
PV
  6
Continuous
 62
     7
100
AcDbLine
 10
57.22999999999999
 20
176.9579999999999
 30
0.0
 11
60.0
 21
176.2159999999999
 31
0.0
  0
LINE
  5
39C
330
A
100
AcDbEntity
  8
PV
  6
Continuous
 62
     7
100
AcDbLine
 10
-65.0
 20
176.2159999999999
 30
0.0
 11
-62.22999999999999
 21
176.2159999999999
 31
0.0
  0
LINE
  5
39D
330
A
100
AcDbEntity
  8
PV
  6
Continuous
 62
     7
100
AcDbLine
 10
-65.0
 20
176.2159999999999
 30
0.0
 11
-62.22999999999999
 21
176.9579999999999
 31
0.0
  0
LINE
  5
39E
330
A
100
AcDbEntity
  8
PV
  6
Continuous
 62
     7
100
AcDbLine
 10
-62.22999999999999
 20
175.474
 30
0.0
 11
-65.0
 21
176.2159999999999
 31
0.0
  0
MTEXT
  5
39F
330
A
100
AcDbEntity
  8
PV
  6
Continuous
 62
     7
100
AcDbMText
 10
71.90000000000001
 20
-79.5
 30
0.0
 40
6.5
 41
0.0
 71
     2
 72
     1
  1
\A1;168～183
 11
0.0
 21
1.0
 31
0.0
 73
     1
 44
1.0
  0
LINE
  5
3A0
330
A
100
AcDbEntity
  8
PV
  6
Continuous
 62
     7
100
AcDbLine
 10
59.03999999999999
 20
-163.4999999999999
 30
0.0
 11
82.286
 21
-163.4999999999999
 31
0.0
  0
LINE
  5
3A1
330
A
100
AcDbEntity
  8
PV
  6
Continuous
 62
     7
100
AcDbLine
 10
33.04
 20
4.5
 30
0.0
 11
82.286
 21
4.5
 31
0.0
  0
LINE
  5
3A2
330
A
100
AcDbEntity
  8
PV
  6
Continuous
 62
     7
100
AcDbLine
 10
80.0
 20
4.5
 30
0.0
 11
80.0
 21
-163.4999999999999
 31
0.0
  0
LINE
  5
3A3
330
A
100
AcDbEntity
  8
PV
  6
Continuous
 62
     7
100
AcDbLine
 10
80.0
 20
-163.4999999999999
 30
0.0
 11
80.0
 21
-160.7299999999999
 31
0.0
  0
LINE
  5
3A4
330
A
100
AcDbEntity
  8
PV
  6
Continuous
 62
     7
100
AcDbLine
 10
80.0
 20
-163.4999999999999
 30
0.0
 11
79.25799999999999
 21
-160.7299999999999
 31
0.0
  0
LINE
  5
3A5
330
A
100
AcDbEntity
  8
PV
  6
Continuous
 62
     7
100
AcDbLine
 10
80.74200000000001
 20
-160.7299999999999
 30
0.0
 11
80.0
 21
-163.4999999999999
 31
0.0
  0
LINE
  5
3A6
330
A
100
AcDbEntity
  8
PV
  6
Continuous
 62
     7
100
AcDbLine
 10
80.0
 20
4.5
 30
0.0
 11
80.0
 21
1.729999999999999
 31
0.0
  0
LINE
  5
3A7
330
A
100
AcDbEntity
  8
PV
  6
Continuous
 62
     7
100
AcDbLine
 10
80.0
 20
4.5
 30
0.0
 11
80.74200000000001
 21
1.729999999999999
 31
0.0
  0
LINE
  5
3A8
330
A
100
AcDbEntity
  8
PV
  6
Continuous
 62
     7
100
AcDbLine
 10
79.25799999999999
 20
1.729999999999999
 30
0.0
 11
80.0
 21
4.5
 31
0.0
  0
MTEXT
  5
3A9
330
A
100
AcDbEntity
  8
PV
  6
Continuous
 62
     7
100
AcDbMText
 10
78.262
 20
106.006
 30
0.0
 40
6.5
 41
0.0
 71
     2
 72
     1
  1
\A1;□81
 11
0.0
 21
1.0
 31
0.0
 73
     1
 44
1.0
  0
LINE
  5
3AA
330
A
100
AcDbEntity
  8
PV
  6
Continuous
 62
     7
100
AcDbLine
 10
41.72699999999999
 20
65.506
 30
0.0
 11
88.648
 21
65.506
 31
0.0
  0
LINE
  5
3AB
330
A
100
AcDbEntity
  8
PV
  6
Continuous
 62
     7
100
AcDbLine
 10
41.72699999999999
 20
146.506
 30
0.0
 11
88.648
 21
146.506
 31
0.0
  0
LINE
  5
3AC
330
A
100
AcDbEntity
  8
PV
  6
Continuous
 62
     7
100
AcDbLine
 10
86.362
 20
146.506
 30
0.0
 11
86.362
 21
65.506
 31
0.0
  0
LINE
  5
3AD
330
A
100
AcDbEntity
  8
PV
  6
Continuous
 62
     7
100
AcDbLine
 10
86.362
 20
65.506
 30
0.0
 11
86.362
 21
68.27600000000001
 31
0.0
  0
LINE
  5
3AE
330
A
100
AcDbEntity
  8
PV
  6
Continuous
 62
     7
100
AcDbLine
 10
86.362
 20
65.506
 30
0.0
 11
85.61899999999999
 21
68.27600000000001
 31
0.0
  0
LINE
  5
3AF
330
A
100
AcDbEntity
  8
PV
  6
Continuous
 62
     7
100
AcDbLine
 10
87.10399999999999
 20
68.27600000000001
 30
0.0
 11
86.362
 21
65.506
 31
0.0
  0
LINE
  5
3B0
330
A
100
AcDbEntity
  8
PV
  6
Continuous
 62
     7
100
AcDbLine
 10
86.362
 20
146.506
 30
0.0
 11
86.362
 21
143.7359999999999
 31
0.0
  0
LINE
  5
3B1
330
A
100
AcDbEntity
  8
PV
  6
Continuous
 62
     7
100
AcDbLine
 10
86.362
 20
146.506
 30
0.0
 11
87.10399999999999
 21
143.7359999999999
 31
0.0
  0
LINE
  5
3B2
330
A
100
AcDbEntity
  8
PV
  6
Continuous
 62
     7
100
AcDbLine
 10
85.61899999999999
 20
143.7359999999999
 30
0.0
 11
86.362
 21
146.506
 31
0.0
  0
ENDSEC
  0
SECTION
  2
OBJECTS
  0
DICTIONARY
  5
19
330
0
100
AcDbDictionary
281
     1
  3
ACAD_GROUP
350
1A
  3
ACAD_LAYOUT
350
1E
  3
ACAD_MLINESTYLE
350
1B
  3
ACAD_PLOTSETTINGS
350
22
  3
ACAD_PLOTSTYLENAME
350
1F
  0
DICTIONARY
  5
1A
102
{ACAD_REACTORS
330
19
102
}
330
19
100
AcDbDictionary
281
     1
  0
DICTIONARY
  5
1E
102
{ACAD_REACTORS
330
19
102
}
330
19
100
AcDbDictionary
281
     1
  3
Layout1
350
21
  3
Model
350
20
  0
DICTIONARY
  5
1B
102
{ACAD_REACTORS
330
19
102
}
330
19
100
AcDbDictionary
281
     1
  3
Standard
350
1C
  0
DICTIONARY
  5
22
102
{ACAD_REACTORS
330
19
102
}
330
19
100
AcDbDictionary
281
     1
  0
ACDBDICTIONARYWDFLT
  5
1F
102
{ACAD_REACTORS
330
19
102
}
330
19
100
AcDbDictionary
281
     1
  3
Normal
350
1D
100
AcDbDictionaryWithDefault
340
1D
  0
LAYOUT
  5
21
102
{ACAD_REACTORS
330
1E
102
}
330
1E
100
AcDbPlotSettings
  1

  2

  4

  6

 40
0.0
 41
0.0
 42
0.0
 43
0.0
 44
0.0
 45
0.0
 46
0.0
 47
0.0
 48
0.0
 49
0.0
140
0.0
141
0.0
142
1.0
143
1.0
 70
     0
 72
     0
 73
     0
 74
     0
  7

 75
     0
147
1.0
148
0.0
149
0.0
100
AcDbLayout
  1
Layout1
 70
     0
 71
     1
 10
0.0
 20
0.0
 11
12.0
 21
9.0
 12
0.0
 22
0.0
 32
0.0
 14
1.000000000000000E+20
 24
1.000000000000000E+20
 34
1.000000000000000E+20
 15
-1.000000000000000E+20
 25
-1.000000000000000E+20
 35
-1.000000000000000E+20
146
0.0
 13
0.0
 23
0.0
 33
0.0
 16
1.0
 26
0.0
 36
0.0
 17
0.0
 27
1.0
 37
0.0
 76
     0
330
B
  0
LAYOUT
  5
20
102
{ACAD_REACTORS
330
1E
102
}
330
1E
100
AcDbPlotSettings
  1

  2
Adobe PDF
  4
A4
  6

 40
3.174999952316284
 41
3.174999952316284
 42
3.175003051757812
 43
3.17498779296875
 44
209.9098358154297
 45
297.0318298339843
 46
11.61
 47
0.0
 48
0.0
 49
0.0
140
0.0
141
0.0
142
1.0
143
1.329490222791677
 70
 11284
 72
     1
 73
     0
 74
     2
  7

 75
     0
147
0.7521679985733102
148
151.116
149
200.9759999999999
100
AcDbLayout
  1
Model
 70
     0
 71
     0
 10
0.0
 20
0.0
 11
0.0
 21
0.0
 12
0.0
 22
0.0
 32
0.0
 14
0.0
 24
0.0
 34
0.0
 15
0.0
 25
0.0
 35
0.0
146
0.0
 13
0.0
 23
0.0
 33
0.0
 16
0.0
 26
0.0
 36
0.0
 17
0.0
 27
0.0
 37
0.0
 76
     0
330
A
  0
MLINESTYLE
  5
1C
102
{ACAD_REACTORS
330
1B
102
}
330
1B
100
AcDbMlineStyle
  2
STANDARD
 70
     0
  3

 62
     0
 51
90.0
 52
90.0
 71
     2
 49
0.5
 62
   256
  6
BYLAYER
 49
-0.5
 62
   256
  6
BYLAYER
  0
ACDBPLACEHOLDER
  5
1D
102
{ACAD_REACTORS
330
1F
102
}
330
1F
  0
ENDSEC
  0
EOF
