  0
SECTION
  2
HEADER
  9
$ACADVER
  1
AC1015
  9
$ACADMAINTVER
 70
    10
  9
$DWGCODEPAGE
  3
ANSI_932
  9
$INSBASE
 10
0.0
 20
0.0
 30
0.0
  9
$EXTMIN
 10
-158.8721900336671
 20
-182.9382984137037
 30
-0.0015258207003583
  9
$EXTMAX
 10
207.8531917412612
 20
185.1638575521132
 30
0.0000000349246037
  9
$LIMMIN
 10
-158.8609999999999
 20
-182.927
  9
$LIMMAX
 10
207.842
 20
187.327668
  9
$ORTHOMODE
 70
     0
  9
$REGENMODE
 70
     1
  9
$FILLMODE
 70
     1
  9
$QTEXTMODE
 70
     0
  9
$MIRRTEXT
 70
     1
  9
$LTSCALE
 40
0.3
  9
$ATTMODE
 70
     1
  9
$TEXTSIZE
 40
3.2
  9
$TRACEWID
 40
0.05
  9
$TEXTSTYLE
  7
MX_NOTE_STANDARD
  9
$CLAYER
  8
0
  9
$CELTYPE
  6
CONTINUOUS
  9
$CECOLOR
 62
   256
  9
$CELTSCALE
 40
1.0
  9
$DISPSILH
 70
     0
  9
$DIMSCALE
 40
1.0
  9
$DIMASZ
 40
2.5
  9
$DIMEXO
 40
2.54
  9
$DIMDLI
 40
3.75
  9
$DIMRND
 40
0.0
  9
$DIMDLE
 40
0.0
  9
$DIMEXE
 40
2.286
  9
$DIMTP
 40
0.0
  9
$DIMTM
 40
0.0
  9
$DIMTXT
 40
3.2
  9
$DIMCEN
 40
2.5
  9
$DIMTSZ
 40
0.0
  9
$DIMTOL
 70
     0
  9
$DIMLIM
 70
     0
  9
$DIMTIH
 70
     0
  9
$DIMTOH
 70
     0
  9
$DIMSE1
 70
     0
  9
$DIMSE2
 70
     0
  9
$DIMTAD
 70
     1
  9
$DIMZIN
 70
     8
  9
$DIMBLK
  1

  9
$DIMASO
 70
     1
  9
$DIMSHO
 70
     1
  9
$DIMPOST
  1

  9
$DIMAPOST
  1

  9
$DIMALT
 70
     0
  9
$DIMALTD
 70
     4
  9
$DIMALTF
 40
0.03937
  9
$DIMLFAC
 40
1.0
  9
$DIMTOFL
 70
     1
  9
$DIMTVP
 40
0.0
  9
$DIMTIX
 70
     0
  9
$DIMSOXD
 70
     0
  9
$DIMSAH
 70
     1
  9
$DIMBLK1
  1
OPEN30
  9
$DIMBLK2
  1
OPEN30
  9
$DIMSTYLE
  2
MXDIMSTYLE
  9
$DIMCLRD
 70
     0
  9
$DIMCLRE
 70
     0
  9
$DIMCLRT
 70
     0
  9
$DIMTFAC
 40
1.0
  9
$DIMGAP
 40
1.0
  9
$DIMJUST
 70
     0
  9
$DIMSD1
 70
     0
  9
$DIMSD2
 70
     0
  9
$DIMTOLJ
 70
     0
  9
$DIMTZIN
 70
     0
  9
$DIMALTZ
 70
     0
  9
$DIMALTTZ
 70
     0
  9
$DIMUPT
 70
     1
  9
$DIMDEC
 70
     2
  9
$DIMTDEC
 70
     2
  9
$DIMALTU
 70
     2
  9
$DIMALTTD
 70
     4
  9
$DIMTXSTY
  7
MX_NOTE_STANDARD
  9
$DIMAUNIT
 70
     0
  9
$DIMADEC
 70
     0
  9
$DIMALTRND
 40
0.0
  9
$DIMAZIN
 70
     0
  9
$DIMDSEP
 70
    46
  9
$DIMATFIT
 70
     3
  9
$DIMFRAC
 70
     0
  9
$DIMLDRBLK
  1
OPEN30
  9
$DIMLUNIT
 70
     2
  9
$DIMLWD
 70
    -2
  9
$DIMLWE
 70
    -2
  9
$DIMTMOVE
 70
     0
  9
$LUNITS
 70
     2
  9
$LUPREC
 70
     4
  9
$SKETCHINC
 40
0.1
  9
$FILLETRAD
 40
0.0
  9
$AUNITS
 70
     0
  9
$AUPREC
 70
     0
  9
$MENU
  1
acad
  9
$ELEVATION
 40
0.0
  9
$PELEVATION
 40
0.0
  9
$THICKNESS
 40
0.0
  9
$LIMCHECK
 70
     0
  9
$CHAMFERA
 40
0.0
  9
$CHAMFERB
 40
0.0
  9
$CHAMFERC
 40
0.0
  9
$CHAMFERD
 40
0.0
  9
$SKPOLY
 70
     0
  9
$TDCREATE
 40
2455289.561559907
  9
$TDUCREATE
 40
2455289.186559907
  9
$TDUPDATE
 40
2455289.572628761
  9
$TDUUPDATE
 40
2455289.197628761
  9
$TDINDWG
 40
0.0110695833
  9
$TDUSRTIMER
 40
0.0110695833
  9
$USRTIMER
 70
     1
  9
$ANGBASE
 50
0.0
  9
$ANGDIR
 70
     0
  9
$PDMODE
 70
     0
  9
$PDSIZE
 40
0.0
  9
$PLINEWID
 40
0.0
  9
$SPLFRAME
 70
     0
  9
$SPLINETYPE
 70
     6
  9
$SPLINESEGS
 70
     8
  9
$HANDSEED
  5
349
  9
$SURFTAB1
 70
     6
  9
$SURFTAB2
 70
     6
  9
$SURFTYPE
 70
     6
  9
$SURFU
 70
     6
  9
$SURFV
 70
     6
  9
$UCSBASE
  2

  9
$UCSNAME
  2

  9
$UCSORG
 10
0.0
 20
0.0
 30
0.0
  9
$UCSXDIR
 10
1.0
 20
0.0
 30
0.0
  9
$UCSYDIR
 10
0.0
 20
1.0
 30
0.0
  9
$UCSORTHOREF
  2

  9
$UCSORTHOVIEW
 70
     0
  9
$UCSORGTOP
 10
0.0
 20
0.0
 30
0.0
  9
$UCSORGBOTTOM
 10
0.0
 20
0.0
 30
0.0
  9
$UCSORGLEFT
 10
0.0
 20
0.0
 30
0.0
  9
$UCSORGRIGHT
 10
0.0
 20
0.0
 30
0.0
  9
$UCSORGFRONT
 10
0.0
 20
0.0
 30
0.0
  9
$UCSORGBACK
 10
0.0
 20
0.0
 30
0.0
  9
$PUCSBASE
  2

  9
$PUCSNAME
  2

  9
$PUCSORG
 10
0.0
 20
0.0
 30
0.0
  9
$PUCSXDIR
 10
1.0
 20
0.0
 30
0.0
  9
$PUCSYDIR
 10
0.0
 20
1.0
 30
0.0
  9
$PUCSORTHOREF
  2

  9
$PUCSORTHOVIEW
 70
     0
  9
$PUCSORGTOP
 10
0.0
 20
0.0
 30
0.0
  9
$PUCSORGBOTTOM
 10
0.0
 20
0.0
 30
0.0
  9
$PUCSORGLEFT
 10
0.0
 20
0.0
 30
0.0
  9
$PUCSORGRIGHT
 10
0.0
 20
0.0
 30
0.0
  9
$PUCSORGFRONT
 10
0.0
 20
0.0
 30
0.0
  9
$PUCSORGBACK
 10
0.0
 20
0.0
 30
0.0
  9
$USERI1
 70
     0
  9
$USERI2
 70
     0
  9
$USERI3
 70
     0
  9
$USERI4
 70
     0
  9
$USERI5
 70
     0
  9
$USERR1
 40
0.0
  9
$USERR2
 40
0.0
  9
$USERR3
 40
0.0
  9
$USERR4
 40
0.0
  9
$USERR5
 40
0.0
  9
$WORLDVIEW
 70
     1
  9
$SHADEDGE
 70
     3
  9
$SHADEDIF
 70
    70
  9
$TILEMODE
 70
     1
  9
$MAXACTVP
 70
    16
  9
$PINSBASE
 10
0.0
 20
0.0
 30
0.0
  9
$PLIMCHECK
 70
     0
  9
$PEXTMIN
 10
1.000000000000000E+20
 20
1.000000000000000E+20
 30
1.000000000000000E+20
  9
$PEXTMAX
 10
-1.000000000000000E+20
 20
-1.000000000000000E+20
 30
-1.000000000000000E+20
  9
$PLIMMIN
 10
0.0
 20
0.0
  9
$PLIMMAX
 10
12.0
 20
9.0
  9
$UNITMODE
 70
     0
  9
$VISRETAIN
 70
     0
  9
$PLINEGEN
 70
     1
  9
$PSLTSCALE
 70
     0
  9
$TREEDEPTH
 70
  3020
  9
$CMLSTYLE
  2
Standard
  9
$CMLJUST
 70
     0
  9
$CMLSCALE
 40
1.0
  9
$PROXYGRAPHICS
 70
     0
  9
$MEASUREMENT
 70
     1
  9
$CELWEIGHT
370
     0
  9
$ENDCAPS
280
     0
  9
$JOINSTYLE
280
     0
  9
$LWDISPLAY
290
     0
  9
$INSUNITS
 70
     0
  9
$HYPERLINKBASE
  1

  9
$STYLESHEET
  1

  9
$XEDIT
290
     1
  9
$CEPSNTYPE
380
     0
  9
$PSTYLEMODE
290
     1
  9
$FINGERPRINTGUID
  2

  9
$VERSIONGUID
  2
{1C2DC744-D12A-4AA0-91F1-BDF54B40D8D9}
  9
$EXTNAMES
290
     1
  9
$PSVPSCALE
 40
0.0
  9
$OLESTARTUP
290
     0
  0
ENDSEC
  0
SECTION
  2
CLASSES
  0
CLASS
  1
LWPOLYLINE
  2
AcDbPolyline
  3
AutoCAD 2000
 90
    32768
280
     0
281
     1
  0
CLASS
  1
IMAGE
  2
AcDbRasterImage
  3
ISM
 90
    32895
280
     0
281
     1
  0
CLASS
  1
OLE2FRAME
  2
AcDbOle2Frame
  3
AutoCAD 2000
 90
    32768
280
     0
281
     1
  0
CLASS
  1
HATCH
  2
AcDbHatch
  3
AutoCAD 2000
 90
    32768
280
     0
281
     1
  0
CLASS
  1
DICTIONARYVAR
  2
AcDbDictionaryVar
  3
AutoCAD 2000
 90
    32768
280
     0
281
     0
  0
CLASS
  1
RASTERVARIABLES
  2
AcDbRasterVariables
  3
ISM
 90
    32768
280
     0
281
     0
  0
CLASS
  1
IMAGEDEF
  2
AcDbRasterImageDef
  3
ISM
 90
    32768
280
     0
281
     0
  0
CLASS
  1
IMAGEDEF_REACTOR
  2
AcDbRasterImageDefReactor
  3
ISM
 90
    32769
280
     0
281
     0
  0
CLASS
  1
IDBUFFER
  2
AcDbIdBuffer
  3
AutoCAD 2000
 90
    32768
280
     0
281
     0
  0
CLASS
  1
SPATIAL_FILTER
  2
AcDbSpatialFilter
  3
AutoCAD 2000
 90
    32768
280
     0
281
     0
  0
CLASS
  1
XRECORD
  2
AcDbXrecord
  3
AutoCAD 2000
 90
    32768
280
     0
281
     0
  0
CLASS
  1
SORTENTSTABLE
  2
AcDbSortentsTable
  3
AutoCAD 2000
 90
    32768
280
     0
281
     0
  0
CLASS
  1
LAYER_INDEX
  2
AcDbLayerIndex
  3
AutoCAD 2000
 90
    32768
280
     0
281
     0
  0
CLASS
  1
SPATIAL_INDEX
  2
AcDbSpatialIndex
  3
AutoCAD 2000
 90
    32768
280
     0
281
     0
  0
CLASS
  1
OBJECT_PTR
  2
CAseDLPNTableRecord
  3
"ASE-LPNTableRecord"
 90
    32769
280
     0
281
     0
  0
CLASS
  1
LAYOUT
  2
AcDbLayout
  3
AutoCAD 2000
 90
        0
280
     0
281
     0
  0
CLASS
  1
PLOTSETTINGS
  2
AcDbPlotSettings
  3
AutoCAD 2000
 90
    32768
280
     0
281
     0
  0
CLASS
  1
ACDBDICTIONARYWDFLT
  2
AcDbDictionaryWithDefault
  3
AutoCAD 2000
 90
        0
280
     0
281
     0
  0
CLASS
  1
ACDBPLACEHOLDER
  2
AcDbPlaceHolder
  3
AutoCAD 2000
 90
        0
280
     0
281
     0
  0
ENDSEC
  0
SECTION
  2
TABLES
  0
TABLE
  2
VPORT
  5
7
330
0
100
AcDbSymbolTable
 70
     2
  0
VPORT
  5
348
330
7
100
AcDbSymbolTableRecord
100
AcDbViewportTableRecord
  2
*Active
 70
     0
 10
0.0
 20
0.0
 11
1.0
 21
1.0
 12
24.49049999999999
 22
26.10501840750683
 13
0.0
 23
0.0
 14
1.0
 24
1.0
 15
0.0
 25
0.0
 16
0.0
 26
0.0
 36
1.0
 17
0.0
 27
0.0
 37
0.0
 40
421.7665828150137
 41
1.535714285714285
 42
50.0
 43
0.0
 44
0.0
 50
0.0
 51
0.0
 71
     0
 72
   100
 73
     1
 74
     1
 75
     0
 76
     0
 77
     0
 78
     0
281
     0
 65
     0
110
0.0
120
0.0
130
0.0
111
1.0
121
0.0
131
0.0
112
0.0
122
1.0
132
0.0
 79
     0
146
0.0
  0
ENDTAB
  0
TABLE
  2
LTYPE
  5
4
330
0
100
AcDbSymbolTable
 70
     3
  0
LTYPE
  5
11
330
4
100
AcDbSymbolTableRecord
100
AcDbLinetypeTableRecord
  2
BYBLOCK
 70
     0
  3

 72
    65
 73
     0
 40
0.0
  0
LTYPE
  5
12
330
4
100
AcDbSymbolTableRecord
100
AcDbLinetypeTableRecord
  2
BYLAYER
 70
     0
  3

 72
    65
 73
     0
 40
0.0
  0
LTYPE
  5
13
330
4
100
AcDbSymbolTableRecord
100
AcDbLinetypeTableRecord
  2
CONTINUOUS
 70
     0
  3
Solid line
 72
    65
 73
     0
 40
0.0
  0
LTYPE
  5
40
330
4
100
AcDbSymbolTableRecord
100
AcDbLinetypeTableRecord
  2
CENTER
 70
     0
  3
Center ____ _ ____ _ ____ _ ____ _ ____ _ ____
 72
    65
 73
     4
 40
50.8
 49
31.75
 74
     0
 49
-6.349999999999999
 74
     0
 49
6.349999999999999
 74
     0
 49
-6.349999999999999
 74
     0
  0
LTYPE
  5
E6
330
4
100
AcDbSymbolTableRecord
100
AcDbLinetypeTableRecord
  2
DASHED
 70
     0
  3
Dashed __ __ __ __ __ __ __ __ __ __ __ __ __ _
 72
    65
 73
     2
 40
19.05
 49
12.7
 74
     0
 49
-6.349999999999999
 74
     0
  0
ENDTAB
  0
TABLE
  2
LAYER
  5
2
330
0
100
AcDbSymbolTable
 70
     6
  0
LAYER
  5
14
330
2
100
AcDbSymbolTableRecord
100
AcDbLayerTableRecord
  2
0
 70
     0
 62
     7
  6
CONTINUOUS
370
    -3
390
1D
  0
LAYER
  5
23
330
2
100
AcDbSymbolTableRecord
100
AcDbLayerTableRecord
  2
AV
 70
     0
 62
     7
  6
CONTINUOUS
370
    -3
390
1D
  0
LAYER
  5
24
330
2
100
AcDbSymbolTableRecord
100
AcDbLayerTableRecord
  2
BV
 70
     0
 62
     7
  6
CONTINUOUS
370
    -3
390
1D
  0
LAYER
  5
25
330
2
100
AcDbSymbolTableRecord
100
AcDbLayerTableRecord
  2
DEFPOINTS
 70
     0
 62
     7
  6
CONTINUOUS
290
     0
370
    -3
390
1D
  0
LAYER
  5
26
330
2
100
AcDbSymbolTableRecord
100
AcDbLayerTableRecord
  2
PV
 70
     0
 62
     7
  6
CONTINUOUS
370
    -3
390
1D
  0
LAYER
  5
27
330
2
100
AcDbSymbolTableRecord
100
AcDbLayerTableRecord
  2
WV
 70
     0
 62
     7
  6
CONTINUOUS
370
    -3
390
1D
  0
ENDTAB
  0
TABLE
  2
STYLE
  5
3
330
0
100
AcDbSymbolTable
 70
     2
  0
STYLE
  5
17
330
3
100
AcDbSymbolTableRecord
100
AcDbTextStyleTableRecord
  2
MX_NOTE_STANDARD
 70
     0
 40
0.0
 41
1.0
 50
0.0
 71
     0
 42
3.2
  3
txt.shx
  4
extfont.shx
  0
STYLE
  5
344
330
3
100
AcDbSymbolTableRecord
100
AcDbTextStyleTableRecord
  2
Standard
 70
     0
 40
0.0
 41
1.0
 50
0.0
 71
     0
 42
0.2
  3

  4

  0
ENDTAB
  0
TABLE
  2
VIEW
  5
5
330
0
100
AcDbSymbolTable
 70
     0
  0
ENDTAB
  0
TABLE
  2
UCS
  5
6
330
0
100
AcDbSymbolTable
 70
     0
  0
ENDTAB
  0
TABLE
  2
APPID
  5
8
330
0
100
AcDbSymbolTable
 70
     1
  0
APPID
  5
16
330
8
100
AcDbSymbolTableRecord
100
AcDbRegAppTableRecord
  2
ACAD
 70
     0
  0
ENDTAB
  0
TABLE
  2
DIMSTYLE
  5
9
330
0
100
AcDbSymbolTable
 70
     1
100
AcDbDimStyleTable
 71
     0
  0
DIMSTYLE
105
18
102
{ACAD_REACTORS
330
3F
102
}
330
9
100
AcDbSymbolTableRecord
100
AcDbDimStyleTableRecord
  2
MXDIMSTYLE
 70
     0
 41
2.5
 42
2.54
 43
3.75
 44
2.286
 73
     0
 74
     0
 77
     1
 78
     8
140
3.2
141
2.5
143
0.03937
147
1.0
171
     4
172
     1
173
     1
271
     2
272
     2
274
     4
283
     0
288
     1
340
17
341
28
343
28
344
28
  0
ENDTAB
  0
TABLE
  2
BLOCK_RECORD
  5
1
330
0
100
AcDbSymbolTable
 70
     3
  0
BLOCK_RECORD
  5
A
330
1
100
AcDbSymbolTableRecord
100
AcDbBlockTableRecord
  2
*MODEL_SPACE
340
20
  0
BLOCK_RECORD
  5
B
330
1
100
AcDbSymbolTableRecord
100
AcDbBlockTableRecord
  2
*PAPER_SPACE
340
21
  0
BLOCK_RECORD
  5
28
330
1
100
AcDbSymbolTableRecord
100
AcDbBlockTableRecord
  2
_OPEN30
340
0
102
{BLKREFS
331
36
102
}
  0
BLOCK_RECORD
  5
31
330
1
100
AcDbSymbolTableRecord
100
AcDbBlockTableRecord
  2
*D1
340
0
  0
BLOCK_RECORD
  5
37
330
1
100
AcDbSymbolTableRecord
100
AcDbBlockTableRecord
  2
_NONE
340
0
  0
ENDTAB
  0
ENDSEC
  0
SECTION
  2
BLOCKS
  0
BLOCK
  5
D
330
A
100
AcDbEntity
  8
0
100
AcDbBlockBegin
  2
*MODEL_SPACE
 70
     0
 10
0.0
 20
0.0
 30
0.0
  3
*MODEL_SPACE
  1

  0
ENDBLK
  5
E
330
A
100
AcDbEntity
  8
0
100
AcDbBlockEnd
  0
BLOCK
  5
F
330
B
100
AcDbEntity
 67
     1
  8
0
100
AcDbBlockBegin
  2
*PAPER_SPACE
 70
     0
 10
0.0
 20
0.0
 30
0.0
  3
*PAPER_SPACE
  1

  0
ENDBLK
  5
10
330
B
100
AcDbEntity
 67
     1
  8
0
100
AcDbBlockEnd
  0
BLOCK
  5
29
330
28
100
AcDbEntity
  8
0
  6
ByBlock
 62
     0
370
    -2
100
AcDbBlockBegin
  2
_OPEN30
 70
     2
 10
0.0
 20
0.0
 30
0.0
  3
_OPEN30
  1

  0
LINE
  5
2A
330
28
100
AcDbEntity
  8
0
  6
ByBlock
 62
     0
370
    -2
100
AcDbLine
 10
-1.0
 20
0.267949
 30
0.0
 11
0.0
 21
0.0
 31
0.0
  0
LINE
  5
2B
330
28
100
AcDbEntity
  8
0
  6
ByBlock
 62
     0
370
    -2
100
AcDbLine
 10
0.0
 20
0.0
 30
0.0
 11
-1.0
 21
-0.267949
 31
0.0
  0
LINE
  5
2C
330
28
100
AcDbEntity
  8
0
  6
ByBlock
 62
     0
370
    -2
100
AcDbLine
 10
0.0
 20
0.0
 30
0.0
 11
-1.0
 21
0.0
 31
0.0
  0
ENDBLK
  5
2D
330
28
100
AcDbEntity
  8
0
  6
ByBlock
 62
     0
370
    -2
100
AcDbBlockEnd
  0
BLOCK
  5
32
330
31
100
AcDbEntity
  8
0
  6
ByBlock
 62
     0
370
    -2
100
AcDbBlockBegin
  2
*D1
 70
     1
 10
0.0
 20
0.0
 30
0.0
  3
*D1
  1

  0
LINE
  5
33
330
31
100
AcDbEntity
  8
0
  6
Continuous
 62
     7
100
AcDbLine
 10
-142.576775
 20
83.30083700000001
 30
0.0
 11
-154.2088099999999
 21
53.720286
 31
0.0
  0
LINE
  5
34
330
31
100
AcDbEntity
  8
0
  6
Continuous
 62
     7
100
AcDbLine
 10
-154.2088099999999
 20
53.720286
 30
0.0
 11
-91.79016
 21
53.720286
 31
0.0
  0
LINE
  5
35
330
31
100
AcDbEntity
  8
0
  6
Continuous
 62
     7
100
AcDbLine
 10
-142.576775
 20
83.30083700000001
 30
0.0
 11
-144.900589
 21
77.39131999999999
 31
0.0
  0
INSERT
  5
36
330
31
100
AcDbEntity
  8
0
  6
Continuous
 62
     7
100
AcDbBlockReference
  2
_OPEN30
 10
-142.576775
 20
83.30083700000001
 30
0.0
 41
2.77
 42
2.77
 43
2.77
 50
68.53363399999999
  0
MTEXT
  5
3B
330
31
100
AcDbEntity
  8
0
  6
Continuous
 62
     7
100
AcDbMText
 10
-121.215161
 20
57.470286
 30
0.0
 40
5.5
 41
0.0
 71
     5
 72
     1
  1
\A1;4-10キリ（等配）
 73
     1
 44
0.9
  0
POINT
  5
3C
330
31
100
AcDbEntity
  8
DEFPOINTS
  6
Continuous
 62
     0
100
AcDbPoint
 10
-142.576775
 20
83.30083700000001
 30
0.0
  0
POINT
  5
3D
330
31
100
AcDbEntity
  8
DEFPOINTS
  6
Continuous
 62
     0
100
AcDbPoint
 10
-138.917225
 20
92.607163
 30
0.0
  0
ENDBLK
  5
3E
330
31
100
AcDbEntity
  8
0
  6
ByBlock
 62
     0
370
    -2
100
AcDbBlockEnd
  0
BLOCK
  5
38
330
37
100
AcDbEntity
  8
0
  6
ByBlock
 62
     0
370
    -2
100
AcDbBlockBegin
  2
_NONE
 70
     2
 10
0.0
 20
0.0
 30
0.0
  3
_NONE
  1

  0
CIRCLE
  5
39
330
37
100
AcDbEntity
  8
0
  6
ByBlock
 62
     0
370
    -2
100
AcDbCircle
 10
0.0
 20
0.0
 30
0.0
 40
0.25
  0
ENDBLK
  5
3A
330
37
100
AcDbEntity
  8
0
  6
ByBlock
 62
     0
370
    -2
100
AcDbBlockEnd
  0
ENDSEC
  0
SECTION
  2
ENTITIES
  0
LEADER
  5
2E
330
A
100
AcDbEntity
  8
0
  6
Continuous
 62
     7
100
AcDbLeader
  3
MXDIMSTYLE
 74
     0
 76
     3
 10
140.929
 20
5.5
 30
0.0
 10
173.429181
 20
53.04141
 30
0.0
 10
206.739909
 20
53.04141
 30
0.0
1001
ACAD
1000
DSTYLE
1002
{
1070
    41
1040
2.77
1002
}
  0
MTEXT
  5
2F
330
A
100
AcDbEntity
  8
0
  6
Continuous
 62
     7
100
AcDbMText
 10
173.739909
 20
58.16641
 30
0.0
 40
5.5
 41
0.0
 71
     4
 72
     1
  1
\W1.023;\A1;Rc　1/8
 73
     1
 44
0.9
  0
LEADER
  5
30
330
A
100
AcDbEntity
  8
0
  6
Continuous
 62
     7
100
AcDbLeader
  3
MXDIMSTYLE
 74
     0
 76
     2
 10
140.929
 20
-27.5
 30
0.0
 10
173.429181
 20
53.04141
 30
0.0
1001
ACAD
1000
DSTYLE
1002
{
1070
    41
1040
2.77
1002
}
  0
DIMENSION
  5
3F
330
A
100
AcDbEntity
  8
0
  6
Continuous
 62
     7
100
AcDbDimension
  2
*D1
 10
-138.917225
 20
92.607163
 30
0.0
 11
-121.215161
 21
53.720286
 31
0.0
 70
   131
  1
4-<>
 71
     5
 41
0.9
 42
10.0
  3
MXDIMSTYLE
100
AcDbDiametricDimension
 15
-142.576775
 25
83.30083700000001
 35
0.0
 40
0.0
1001
ACAD
1000
DSTYLE
1002
{
1070
     6
1000
_NONE
1070
    41
1040
2.77
1070
    73
1070
     1
1070
    74
1070
     1
1070
   140
1040
5.5
1070
   141
1040
0.0
1070
   172
1070
     0
1070
   271
1070
     0
1070
   284
1070
     8
1070
   343
1005
37
1002
}
  0
LINE
  5
41
330
A
100
AcDbEntity
  8
PV
  6
CENTER
 62
     7
100
AcDbLine
 10
-158.8609999999999
 20
118.006
 30
0.0
 11
-105.1949999999999
 21
118.006
 31
0.0
  0
LINE
  5
42
330
A
100
AcDbEntity
  8
PV
  6
Continuous
 62
     7
100
AcDbLine
 10
-65.0
 20
66.506
 30
0.0
 11
-65.0
 21
169.5059999999999
 31
0.0
  0
LINE
  5
43
330
A
100
AcDbEntity
  8
PV
  6
Continuous
 62
     7
100
AcDbLine
 10
-65.0
 20
139.5059999999999
 30
0.0
 11
-45.49999999999999
 21
139.5059999999999
 31
0.0
  0
LINE
  5
44
330
A
100
AcDbEntity
  8
PV
  6
CENTER
 62
     7
100
AcDbLine
 10
45.49199999999999
 20
118.006
 30
0.0
 11
-79.167
 21
118.006
 31
0.0
  0
LINE
  5
45
330
A
100
AcDbEntity
  8
PV
  6
CENTER
 62
     7
100
AcDbLine
 10
-5.0
 20
160.852
 30
0.0
 11
-5.0
 21
74.406
 31
0.0
  0
LINE
  5
46
330
A
100
AcDbEntity
  8
PV
  6
Continuous
 62
     7
100
AcDbLine
 10
39.0
 20
133.506
 30
0.0
 11
39.0
 21
102.506
 31
0.0
  0
LINE
  5
47
330
A
100
AcDbEntity
  8
PV
  6
Continuous
 62
     7
100
AcDbLine
 10
7.099999999999999
 20
78.506
 30
0.0
 11
6.2
 21
78.506
 31
0.0
  0
LINE
  5
48
330
A
100
AcDbEntity
  8
PV
  6
Continuous
 62
     7
100
AcDbLine
 10
7.099999999999999
 20
78.506
 30
0.0
 11
7.099999999999999
 21
82.20600000000001
 31
0.0
  0
LINE
  5
49
330
A
100
AcDbEntity
  8
PV
  6
Continuous
 62
     7
100
AcDbLine
 10
7.099999999999999
 20
82.20600000000001
 30
0.0
 11
0.9
 21
82.20600000000001
 31
0.0
  0
LINE
  5
4A
330
A
100
AcDbEntity
  8
PV
  6
Continuous
 62
     7
100
AcDbLine
 10
0.9
 20
78.506
 30
0.0
 11
0.9
 21
82.20600000000001
 31
0.0
  0
LINE
  5
4B
330
A
100
AcDbEntity
  8
PV
  6
Continuous
 62
     7
100
AcDbLine
 10
1.8
 20
78.506
 30
0.0
 11
0.9
 21
78.506
 31
0.0
  0
LINE
  5
4C
330
A
100
AcDbEntity
  8
PV
  6
Continuous
 62
     7
100
AcDbLine
 10
-10.9
 20
78.506
 30
0.0
 11
-11.8
 21
78.506
 31
0.0
  0
LINE
  5
4D
330
A
100
AcDbEntity
  8
PV
  6
Continuous
 62
     7
100
AcDbLine
 10
-10.9
 20
78.506
 30
0.0
 11
-10.9
 21
82.20600000000001
 31
0.0
  0
LINE
  5
4E
330
A
100
AcDbEntity
  8
PV
  6
Continuous
 62
     7
100
AcDbLine
 10
-10.9
 20
82.20600000000001
 30
0.0
 11
-17.1
 21
82.20600000000001
 31
0.0
  0
LINE
  5
4F
330
A
100
AcDbEntity
  8
PV
  6
Continuous
 62
     7
100
AcDbLine
 10
-17.1
 20
78.506
 30
0.0
 11
-17.1
 21
82.20600000000001
 31
0.0
  0
LINE
  5
50
330
A
100
AcDbEntity
  8
PV
  6
Continuous
 62
     7
100
AcDbLine
 10
-16.2
 20
78.506
 30
0.0
 11
-17.1
 21
78.506
 31
0.0
  0
LINE
  5
51
330
A
100
AcDbEntity
  8
PV
  6
Continuous
 62
     7
100
AcDbLine
 10
37.0
 20
100.506
 30
0.0
 11
35.5
 21
100.506
 31
0.0
  0
LINE
  5
52
330
A
100
AcDbEntity
  8
PV
  6
Continuous
 62
     7
100
AcDbLine
 10
37.0
 20
135.5059999999999
 30
0.0
 11
35.5
 21
135.5059999999999
 31
0.0
  0
LINE
  5
53
330
A
100
AcDbEntity
  8
PV
  6
Continuous
 62
     7
100
AcDbLine
 10
1.8
 20
77.506
 30
0.0
 11
1.8
 21
78.506
 31
0.0
  0
LINE
  5
54
330
A
100
AcDbEntity
  8
PV
  6
Continuous
 62
     7
100
AcDbLine
 10
6.2
 20
77.506
 30
0.0
 11
6.2
 21
78.506
 31
0.0
  0
LINE
  5
55
330
A
100
AcDbEntity
  8
PV
  6
Continuous
 62
     7
100
AcDbLine
 10
-11.8
 20
77.506
 30
0.0
 11
-11.8
 21
78.506
 31
0.0
  0
LINE
  5
56
330
A
100
AcDbEntity
  8
PV
  6
Continuous
 62
     7
100
AcDbLine
 10
-16.2
 20
77.506
 30
0.0
 11
-16.2
 21
78.506
 31
0.0
  0
LINE
  5
57
330
A
100
AcDbEntity
  8
PV
  6
Continuous
 62
     7
100
AcDbLine
 10
-65.0
 20
96.506
 30
0.0
 11
-45.49999999999999
 21
96.506
 31
0.0
  0
LINE
  5
58
330
A
100
AcDbEntity
  8
PV
  6
CENTER
 62
     7
100
AcDbLine
 10
-46.0
 20
87.00599999999999
 30
0.0
 11
-26.0
 21
87.00599999999999
 31
0.0
  0
LINE
  5
59
330
A
100
AcDbEntity
  8
PV
  6
CENTER
 62
     7
100
AcDbLine
 10
-36.0
 20
97.00600000000001
 30
0.0
 11
-36.0
 21
77.006
 31
0.0
  0
LINE
  5
5A
330
A
100
AcDbEntity
  8
PV
  6
Continuous
 62
     7
100
AcDbLine
 10
29.95699999999999
 20
77.506
 30
0.0
 11
-39.957
 21
77.506
 31
0.0
  0
LINE
  5
5B
330
A
100
AcDbEntity
  8
PV
  6
Continuous
 62
     7
100
AcDbLine
 10
29.95699999999999
 20
158.506
 30
0.0
 11
8.971
 21
158.506
 31
0.0
  0
LINE
  5
5C
330
A
100
AcDbEntity
  8
PV
  6
Continuous
 62
     7
100
AcDbLine
 10
-45.49999999999999
 20
152.964
 30
0.0
 11
-45.49999999999999
 21
83.04899999999999
 31
0.0
  0
LINE
  5
5D
330
A
100
AcDbEntity
  8
PV
  6
Continuous
 62
     7
100
AcDbLine
 10
35.5
 20
152.964
 30
0.0
 11
35.5
 21
135.5059999999999
 31
0.0
  0
LINE
  5
5E
330
A
100
AcDbEntity
  8
PV
  6
Continuous
 62
     7
100
AcDbLine
 10
35.5
 20
100.506
 30
0.0
 11
35.5
 21
83.04899999999999
 31
0.0
  0
LINE
  5
5F
330
A
100
AcDbEntity
  8
PV
  6
CENTER
 62
     7
100
AcDbLine
 10
26.0
 20
97.00600000000001
 30
0.0
 11
26.0
 21
77.006
 31
0.0
  0
LINE
  5
60
330
A
100
AcDbEntity
  8
PV
  6
CENTER
 62
     7
100
AcDbLine
 10
36.0
 20
87.00599999999999
 30
0.0
 11
16.0
 21
87.00599999999999
 31
0.0
  0
LINE
  5
61
330
A
100
AcDbEntity
  8
PV
  6
CENTER
 62
     7
100
AcDbLine
 10
-36.0
 20
139.006
 30
0.0
 11
-36.0
 21
159.006
 31
0.0
  0
LINE
  5
62
330
A
100
AcDbEntity
  8
PV
  6
CENTER
 62
     7
100
AcDbLine
 10
-46.0
 20
149.0059999999999
 30
0.0
 11
-26.0
 21
149.0059999999999
 31
0.0
  0
LINE
  5
63
330
A
100
AcDbEntity
  8
PV
  6
CENTER
 62
     7
100
AcDbLine
 10
26.0
 20
139.006
 30
0.0
 11
26.0
 21
159.006
 31
0.0
  0
LINE
  5
64
330
A
100
AcDbEntity
  8
PV
  6
CENTER
 62
     7
100
AcDbLine
 10
36.0
 20
149.0059999999999
 30
0.0
 11
16.0
 21
149.0059999999999
 31
0.0
  0
LINE
  5
65
330
A
100
AcDbEntity
  8
PV
  6
Continuous
 62
     7
100
AcDbLine
 10
-19.14099999999999
 20
158.506
 30
0.0
 11
-39.957
 21
158.506
 31
0.0
  0
LINE
  5
66
330
A
100
AcDbEntity
  8
PV
  6
Continuous
 62
     7
100
AcDbLine
 10
9.099999999999999
 20
158.506
 30
0.0
 11
-19.26999999999999
 21
158.506
 31
0.0
  0
LINE
  5
67
330
A
100
AcDbEntity
  8
PV
  6
Continuous
 62
     7
100
AcDbLine
 10
-17.1
 20
157.506
 30
0.0
 11
-17.1
 21
153.806
 31
0.0
  0
LINE
  5
68
330
A
100
AcDbEntity
  8
PV
  6
Continuous
 62
     7
100
AcDbLine
 10
-10.9
 20
153.806
 30
0.0
 11
-17.1
 21
153.806
 31
0.0
  0
LINE
  5
69
330
A
100
AcDbEntity
  8
PV
  6
Continuous
 62
     7
100
AcDbLine
 10
-10.9
 20
157.506
 30
0.0
 11
-10.9
 21
153.806
 31
0.0
  0
LINE
  5
6A
330
A
100
AcDbEntity
  8
PV
  6
Continuous
 62
     7
100
AcDbLine
 10
-10.9
 20
157.506
 30
0.0
 11
-11.8
 21
157.506
 31
0.0
  0
LINE
  5
6B
330
A
100
AcDbEntity
  8
PV
  6
Continuous
 62
     7
100
AcDbLine
 10
-16.2
 20
157.506
 30
0.0
 11
-17.1
 21
157.506
 31
0.0
  0
LINE
  5
6C
330
A
100
AcDbEntity
  8
PV
  6
Continuous
 62
     7
100
AcDbLine
 10
-16.2
 20
158.506
 30
0.0
 11
-16.2
 21
157.506
 31
0.0
  0
LINE
  5
6D
330
A
100
AcDbEntity
  8
PV
  6
Continuous
 62
     7
100
AcDbLine
 10
-11.8
 20
158.506
 30
0.0
 11
-11.8
 21
157.506
 31
0.0
  0
LINE
  5
6E
330
A
100
AcDbEntity
  8
PV
  6
Continuous
 62
     7
100
AcDbLine
 10
7.099999999999999
 20
153.806
 30
0.0
 11
0.9
 21
153.806
 31
0.0
  0
LINE
  5
6F
330
A
100
AcDbEntity
  8
PV
  6
Continuous
 62
     7
100
AcDbLine
 10
0.9
 20
157.506
 30
0.0
 11
0.9
 21
153.806
 31
0.0
  0
LINE
  5
70
330
A
100
AcDbEntity
  8
PV
  6
Continuous
 62
     7
100
AcDbLine
 10
1.8
 20
157.506
 30
0.0
 11
0.9
 21
157.506
 31
0.0
  0
LINE
  5
71
330
A
100
AcDbEntity
  8
PV
  6
Continuous
 62
     7
100
AcDbLine
 10
1.8
 20
158.506
 30
0.0
 11
1.8
 21
157.506
 31
0.0
  0
LINE
  5
72
330
A
100
AcDbEntity
  8
PV
  6
Continuous
 62
     7
100
AcDbLine
 10
7.099999999999999
 20
157.506
 30
0.0
 11
7.099999999999999
 21
153.806
 31
0.0
  0
LINE
  5
73
330
A
100
AcDbEntity
  8
PV
  6
Continuous
 62
     7
100
AcDbLine
 10
7.099999999999999
 20
157.506
 30
0.0
 11
6.2
 21
157.506
 31
0.0
  0
LINE
  5
74
330
A
100
AcDbEntity
  8
PV
  6
Continuous
 62
     7
100
AcDbLine
 10
6.2
 20
158.506
 30
0.0
 11
6.2
 21
157.506
 31
0.0
  0
LINE
  5
75
330
A
100
AcDbEntity
  8
PV
  6
Continuous
 62
     7
100
AcDbLine
 10
-75.0
 20
66.006
 30
0.0
 11
-75.0
 21
170.0059999999999
 31
0.0
  0
LINE
  5
76
330
A
100
AcDbEntity
  8
PV
  6
Continuous
 62
     7
100
AcDbLine
 10
-74.5
 20
170.5059999999999
 30
0.0
 11
-66.0
 21
170.5059999999999
 31
0.0
  0
LINE
  5
77
330
A
100
AcDbEntity
  8
PV
  6
Continuous
 62
     7
100
AcDbLine
 10
-74.5
 20
65.506
 30
0.0
 11
-66.0
 21
65.506
 31
0.0
  0
LINE
  5
78
330
A
100
AcDbEntity
  8
PV
  6
Continuous
 62
     7
100
AcDbLine
 10
-66.0
 20
170.5059999999999
 30
0.0
 11
-65.0
 21
169.5059999999999
 31
0.0
  0
LINE
  5
79
330
A
100
AcDbEntity
  8
PV
  6
Continuous
 62
     7
100
AcDbLine
 10
-66.0
 20
65.506
 30
0.0
 11
-65.0
 21
66.506
 31
0.0
  0
LINE
  5
7A
330
A
100
AcDbEntity
  8
PV
  6
Continuous
 62
     7
100
AcDbLine
 10
-75.0
 20
66.006
 30
0.0
 11
-74.5
 21
65.506
 31
0.0
  0
LINE
  5
7B
330
A
100
AcDbEntity
  8
PV
  6
Continuous
 62
     7
100
AcDbLine
 10
-75.0
 20
170.0059999999999
 30
0.0
 11
-74.5
 21
170.5059999999999
 31
0.0
  0
LINE
  5
7C
330
A
100
AcDbEntity
  8
PV
  6
Continuous
 62
     7
100
AcDbLine
 10
-43.0
 20
-58.65
 30
0.0
 11
-65.0
 21
-58.65
 31
0.0
  0
LINE
  5
7D
330
A
100
AcDbEntity
  8
PV
  6
Continuous
 62
     7
100
AcDbLine
 10
-43.0
 20
-101.35
 30
0.0
 11
-65.0
 21
-101.35
 31
0.0
  0
LINE
  5
7E
330
A
100
AcDbEntity
  8
PV
  6
Continuous
 62
     7
100
AcDbLine
 10
192.429
 20
-140.0
 30
0.0
 11
89.42899999999999
 21
-140.0
 31
0.0
  0
LINE
  5
7F
330
A
100
AcDbEntity
  8
PV
  6
Continuous
 62
     7
100
AcDbLine
 10
88.429
 20
-149.5
 30
0.0
 11
88.429
 21
-141.0
 31
0.0
  0
LINE
  5
80
330
A
100
AcDbEntity
  8
PV
  6
Continuous
 62
     7
100
AcDbLine
 10
193.429
 20
-149.5
 30
0.0
 11
193.429
 21
-141.0
 31
0.0
  0
LINE
  5
81
330
A
100
AcDbEntity
  8
PV
  6
Continuous
 62
     7
100
AcDbLine
 10
88.429
 20
-141.0
 30
0.0
 11
89.42899999999999
 21
-140.0
 31
0.0
  0
LINE
  5
82
330
A
100
AcDbEntity
  8
PV
  6
Continuous
 62
     7
100
AcDbLine
 10
193.429
 20
-141.0
 30
0.0
 11
192.429
 21
-140.0
 31
0.0
  0
LINE
  5
83
330
A
100
AcDbEntity
  8
PV
  6
Continuous
 62
     7
100
AcDbLine
 10
192.929
 20
-150.0
 30
0.0
 11
193.429
 21
-149.5
 31
0.0
  0
LINE
  5
84
330
A
100
AcDbEntity
  8
PV
  6
Continuous
 62
     7
100
AcDbLine
 10
88.929
 20
-150.0
 30
0.0
 11
88.429
 21
-149.5
 31
0.0
  0
LINE
  5
85
330
A
100
AcDbEntity
  8
PV
  6
Continuous
 62
     7
100
AcDbLine
 10
192.929
 20
-150.0
 30
0.0
 11
88.929
 21
-150.0
 31
0.0
  0
LINE
  5
86
330
A
100
AcDbEntity
  8
PV
  6
Continuous
 62
     7
100
AcDbLine
 10
-65.0
 20
-131.4999999999999
 30
0.0
 11
-65.0
 21
-28.5
 31
0.0
  0
LINE
  5
87
330
A
100
AcDbEntity
  8
PV
  6
Continuous
 62
     7
100
AcDbLine
 10
-74.5
 20
-27.5
 30
0.0
 11
-66.0
 21
-27.5
 31
0.0
  0
LINE
  5
88
330
A
100
AcDbEntity
  8
PV
  6
Continuous
 62
     7
100
AcDbLine
 10
-66.0
 20
-27.5
 30
0.0
 11
-65.0
 21
-28.5
 31
0.0
  0
LINE
  5
89
330
A
100
AcDbEntity
  8
PV
  6
Continuous
 62
     7
100
AcDbLine
 10
-75.0
 20
-28.0
 30
0.0
 11
-74.5
 21
-27.5
 31
0.0
  0
LINE
  5
8A
330
A
100
AcDbEntity
  8
PV
  6
Continuous
 62
     7
100
AcDbLine
 10
-75.0
 20
-132.0
 30
0.0
 11
-74.5
 21
-132.4999999999999
 31
0.0
  0
LINE
  5
8B
330
A
100
AcDbEntity
  8
PV
  6
Continuous
 62
     7
100
AcDbLine
 10
-75.0
 20
-132.0
 30
0.0
 11
-75.0
 21
-28.0
 31
0.0
  0
LINE
  5
8C
330
A
100
AcDbEntity
  8
PV
  6
Continuous
 62
     7
100
AcDbLine
 10
-74.5
 20
-132.4999999999999
 30
0.0
 11
-66.0
 21
-132.4999999999999
 31
0.0
  0
LINE
  5
8D
330
A
100
AcDbEntity
  8
PV
  6
Continuous
 62
     7
100
AcDbLine
 10
-66.0
 20
-132.4999999999999
 30
0.0
 11
-65.0
 21
-131.4999999999999
 31
0.0
  0
LINE
  5
8E
330
A
100
AcDbEntity
  8
PV
  6
CENTER
 62
     7
100
AcDbLine
 10
98.429
 20
-130.5399999999999
 30
0.0
 11
98.429
 21
-157.889
 31
0.0
  0
LINE
  5
8F
330
A
100
AcDbEntity
  8
PV
  6
CENTER
 62
     7
100
AcDbLine
 10
183.429
 20
-130.5399999999999
 30
0.0
 11
183.429
 21
-157.889
 31
0.0
  0
LINE
  5
90
330
A
100
AcDbEntity
  8
PV
  6
CENTER
 62
     7
100
AcDbLine
 10
-81.22800000000001
 20
-37.5
 30
0.0
 11
-57.847
 21
-37.5
 31
0.0
  0
LINE
  5
91
330
A
100
AcDbEntity
  8
PV
  6
CENTER
 62
     7
100
AcDbLine
 10
-53.95
 20
75.506
 30
0.0
 11
-81.339
 21
75.506
 31
0.0
  0
LINE
  5
92
330
A
100
AcDbEntity
  8
PV
  6
CENTER
 62
     7
100
AcDbLine
 10
-53.95
 20
160.5059999999999
 30
0.0
 11
-85.12500000000001
 21
160.5059999999999
 31
0.0
  0
LINE
  5
93
330
A
100
AcDbEntity
  8
PV
  6
CENTER
 62
     7
100
AcDbLine
 10
-134.132
 20
141.4429999999999
 30
0.0
 11
-146.804
 21
154.115
 31
0.0
  0
LINE
  5
94
330
A
100
AcDbEntity
  8
PV
  6
CENTER
 62
     7
100
AcDbLine
 10
-110.6949999999999
 20
70.417
 30
0.0
 11
-110.6949999999999
 21
165.417
 31
0.0
  0
LINE
  5
95
330
A
100
AcDbEntity
  8
PV
  6
CENTER
 62
     7
100
AcDbLine
 10
-84.05799999999999
 20
-80.0
 30
0.0
 11
-26.283
 21
-80.0
 31
0.0
  0
LINE
  5
96
330
A
100
AcDbEntity
  8
PV
  6
CENTER
 62
     7
100
AcDbLine
 10
-134.132
 20
94.569
 30
0.0
 11
-146.804
 21
81.897
 31
0.0
  0
LINE
  5
97
330
A
100
AcDbEntity
  8
PV
  6
Continuous
 62
     7
100
AcDbLine
 10
119.5789999999999
 20
-112.0
 30
0.0
 11
119.5789999999999
 21
-140.0
 31
0.0
  0
LINE
  5
98
330
A
100
AcDbEntity
  8
PV
  6
Continuous
 62
     7
100
AcDbLine
 10
162.2789999999999
 20
-112.0
 30
0.0
 11
162.2789999999999
 21
-140.0
 31
0.0
  0
LINE
  5
99
330
A
100
AcDbEntity
  8
PV
  6
Continuous
 62
     7
100
AcDbLine
 10
9.199999999999999
 20
-36.385
 30
0.0
 11
9.199999999999999
 21
23.02499999999999
 31
0.0
  0
LINE
  5
9A
330
A
100
AcDbEntity
  8
PV
  6
Continuous
 62
     7
100
AcDbLine
 10
4.799999999999999
 20
-36.385
 30
0.0
 11
4.799999999999999
 21
23.02499999999999
 31
0.0
  0
LINE
  5
9B
330
A
100
AcDbEntity
  8
PV
  6
Continuous
 62
     7
100
AcDbLine
 10
-14.8
 20
-36.204
 30
0.0
 11
-14.8
 21
23.0
 31
0.0
  0
LINE
  5
9C
330
A
100
AcDbEntity
  8
PV
  6
Continuous
 62
     7
100
AcDbLine
 10
-19.19999999999999
 20
-36.204
 30
0.0
 11
-19.19999999999999
 21
23.0
 31
0.0
  0
LINE
  5
9D
330
A
100
AcDbEntity
  8
PV
  6
Continuous
 62
     7
100
AcDbLine
 10
26.0
 20
-112.0
 30
0.0
 11
-36.0
 21
-112.0
 31
0.0
  0
LINE
  5
9E
330
A
100
AcDbEntity
  8
PV
  6
Continuous
 62
     7
100
AcDbLine
 10
-45.49999999999999
 20
23.0
 30
0.0
 11
39.0
 21
23.0
 31
0.0
  0
LINE
  5
9F
330
A
100
AcDbEntity
  8
PV
  6
CENTER
 62
     7
100
AcDbLine
 10
-5.0
 20
29.083
 30
0.0
 11
-5.0
 21
-156.114999
 31
0.0
  0
LINE
  5
A0
330
A
100
AcDbEntity
  8
PV
  6
CENTER
 62
     7
100
AcDbLine
 10
-36.0
 20
28.41699999999999
 30
0.0
 11
-36.0
 21
-50.61199999999999
 31
0.0
  0
LINE
  5
A1
330
A
100
AcDbEntity
  8
PV
  6
CENTER
 62
     7
100
AcDbLine
 10
26.0
 20
28.083
 30
0.0
 11
26.0
 21
-50.415
 31
0.0
  0
LINE
  5
A2
330
A
100
AcDbEntity
  8
PV
  6
Continuous
 62
     7
100
AcDbLine
 10
-45.49999999999999
 20
-36.5
 30
0.0
 11
39.0
 21
-36.5
 31
0.0
  0
LINE
  5
A3
330
A
100
AcDbEntity
  8
PV
  6
Continuous
 62
     7
100
AcDbLine
 10
39.0
 20
23.0
 30
0.0
 11
39.0
 21
-36.5
 31
0.0
  0
LINE
  5
A4
330
A
100
AcDbEntity
  8
PV
  6
CENTER
 62
     7
100
AcDbLine
 10
41.82
 20
-27.5
 30
0.0
 11
22.589
 21
-27.5
 31
0.0
  0
LINE
  5
A5
330
A
100
AcDbEntity
  8
PV
  6
CENTER
 62
     7
100
AcDbLine
 10
41.82
 20
5.5
 30
0.0
 11
22.789
 21
5.5
 31
0.0
  0
LINE
  5
A6
330
A
100
AcDbEntity
  8
PV
  6
Continuous
 62
     7
100
AcDbLine
 10
35.5
 20
-36.512
 30
0.0
 11
35.5
 21
-48.0
 31
0.0
  0
LINE
  5
A7
330
A
100
AcDbEntity
  8
PV
  6
Continuous
 62
     7
100
AcDbLine
 10
-45.49999999999999
 20
-36.512
 30
0.0
 11
-45.49999999999999
 21
-48.0
 31
0.0
  0
LINE
  5
A8
330
A
100
AcDbEntity
  8
PV
  6
Continuous
 62
     7
100
AcDbLine
 10
-45.49999999999999
 20
23.0
 30
0.0
 11
-45.49999999999999
 21
-36.5
 31
0.0
  0
LINE
  5
A9
330
A
100
AcDbEntity
  8
PV
  6
Continuous
 62
     7
100
AcDbLine
 10
35.5
 20
23.0
 30
0.0
 11
35.5
 21
-36.5
 31
0.0
  0
LINE
  5
AA
330
A
100
AcDbEntity
  8
PV
  6
Continuous
 62
     7
100
AcDbLine
 10
35.5
 20
-48.0
 30
0.0
 11
-45.49999999999999
 21
-48.0
 31
0.0
  0
LINE
  5
AB
330
A
100
AcDbEntity
  8
PV
  6
Continuous
 62
     7
100
AcDbLine
 10
33.0
 20
-48.00399999999999
 30
0.0
 11
33.0
 21
-105.0
 31
0.0
  0
LINE
  5
AC
330
A
100
AcDbEntity
  8
PV
  6
Continuous
 62
     7
100
AcDbLine
 10
-43.0
 20
-48.143
 30
0.0
 11
-43.0
 21
-58.44699999999999
 31
0.0
  0
LINE
  5
AD
330
A
100
AcDbEntity
  8
PV
  6
Continuous
 62
     7
100
AcDbLine
 10
-43.0
 20
-101.35
 30
0.0
 11
-43.0
 21
-105.0
 31
0.0
  0
LINE
  5
AE
330
A
100
AcDbEntity
  8
PV
  6
Continuous
 62
     7
100
AcDbLine
 10
33.0
 20
-105.0
 30
0.0
 11
26.0
 21
-112.0
 31
0.0
  0
LINE
  5
AF
330
A
100
AcDbEntity
  8
PV
  6
Continuous
 62
     7
100
AcDbLine
 10
-36.0
 20
-112.0
 30
0.0
 11
-43.0
 21
-105.0
 31
0.0
  0
LINE
  5
B0
330
A
100
AcDbEntity
  8
PV
  6
Continuous
 62
     7
100
AcDbLine
 10
33.0
 20
-105.0
 30
0.0
 11
-43.0
 21
-105.0
 31
0.0
  0
LINE
  5
B1
330
A
100
AcDbEntity
  8
PV
  6
Continuous
 62
     7
100
AcDbLine
 10
171.9289999999999
 20
-112.0
 30
0.0
 11
109.929
 21
-112.0
 31
0.0
  0
LINE
  5
B2
330
A
100
AcDbEntity
  8
PV
  6
Continuous
 62
     7
100
AcDbLine
 10
100.429
 20
23.0
 30
0.0
 11
181.4289999999999
 21
23.0
 31
0.0
  0
LINE
  5
B3
330
A
100
AcDbEntity
  8
PV
  6
CENTER
 62
     7
100
AcDbLine
 10
140.929
 20
28.75
 30
0.0
 11
140.929
 21
-162.999
 31
0.0
  0
LINE
  5
B4
330
A
100
AcDbEntity
  8
PV
  6
CENTER
 62
     7
100
AcDbLine
 10
109.929
 20
27.75
 30
0.0
 11
109.929
 21
-50.61199999999999
 31
0.0
  0
LINE
  5
B5
330
A
100
AcDbEntity
  8
PV
  6
CENTER
 62
     7
100
AcDbLine
 10
171.9289999999999
 20
26.75
 30
0.0
 11
171.9289999999999
 21
-50.415
 31
0.0
  0
LINE
  5
B6
330
A
100
AcDbEntity
  8
PV
  6
Continuous
 62
     7
100
AcDbLine
 10
100.429
 20
-36.5
 30
0.0
 11
181.4289999999999
 21
-36.5
 31
0.0
  0
LINE
  5
B7
330
A
100
AcDbEntity
  8
PV
  6
CENTER
 62
     7
100
AcDbLine
 10
148.3689999999999
 20
-27.5
 30
0.0
 11
132.1069999999999
 21
-27.5
 31
0.0
  0
LINE
  5
B8
330
A
100
AcDbEntity
  8
PV
  6
CENTER
 62
     7
100
AcDbLine
 10
148.1229999999999
 20
5.5
 30
0.0
 11
132.969
 21
5.5
 31
0.0
  0
LINE
  5
B9
330
A
100
AcDbEntity
  8
PV
  6
Continuous
 62
     7
100
AcDbLine
 10
181.4289999999999
 20
-36.512
 30
0.0
 11
181.4289999999999
 21
-48.0
 31
0.0
  0
LINE
  5
BA
330
A
100
AcDbEntity
  8
PV
  6
Continuous
 62
     7
100
AcDbLine
 10
100.429
 20
-36.512
 30
0.0
 11
100.429
 21
-48.0
 31
0.0
  0
LINE
  5
BB
330
A
100
AcDbEntity
  8
PV
  6
Continuous
 62
     7
100
AcDbLine
 10
100.429
 20
23.0
 30
0.0
 11
100.429
 21
-36.5
 31
0.0
  0
LINE
  5
BC
330
A
100
AcDbEntity
  8
PV
  6
Continuous
 62
     7
100
AcDbLine
 10
181.4289999999999
 20
23.0
 30
0.0
 11
181.4289999999999
 21
-36.5
 31
0.0
  0
LINE
  5
BD
330
A
100
AcDbEntity
  8
PV
  6
Continuous
 62
     7
100
AcDbLine
 10
181.4289999999999
 20
-48.0
 30
0.0
 11
100.429
 21
-48.0
 31
0.0
  0
LINE
  5
BE
330
A
100
AcDbEntity
  8
PV
  6
Continuous
 62
     7
100
AcDbLine
 10
178.929
 20
-48.00399999999999
 30
0.0
 11
178.929
 21
-105.0
 31
0.0
  0
LINE
  5
BF
330
A
100
AcDbEntity
  8
PV
  6
Continuous
 62
     7
100
AcDbLine
 10
102.929
 20
-48.143
 30
0.0
 11
102.929
 21
-105.0
 31
0.0
  0
LINE
  5
C0
330
A
100
AcDbEntity
  8
PV
  6
Continuous
 62
     7
100
AcDbLine
 10
178.929
 20
-105.0
 30
0.0
 11
171.9289999999999
 21
-112.0
 31
0.0
  0
LINE
  5
C1
330
A
100
AcDbEntity
  8
PV
  6
Continuous
 62
     7
100
AcDbLine
 10
109.929
 20
-112.0
 30
0.0
 11
102.929
 21
-105.0
 31
0.0
  0
LINE
  5
C2
330
A
100
AcDbEntity
  8
PV
  6
Continuous
 62
     7
100
AcDbLine
 10
178.929
 20
-105.0
 30
0.0
 11
102.929
 21
-105.0
 31
0.0
  0
LINE
  5
C3
330
A
100
AcDbEntity
  8
PV
  6
Continuous
 62
     7
100
AcDbLine
 10
158.429
 20
23.0
 30
0.0
 11
158.429
 21
-36.5
 31
0.0
  0
LINE
  5
C4
330
A
100
AcDbEntity
  8
PV
  6
Continuous
 62
     7
100
AcDbLine
 10
123.429
 20
23.0
 30
0.0
 11
123.429
 21
-36.5
 31
0.0
  0
LINE
  5
C5
330
A
100
AcDbEntity
  8
PV
  6
Continuous
 62
     7
100
AcDbLine
 10
-39.957
 20
23.0
 30
0.0
 11
-39.957
 21
-48.0
 31
0.0
  0
LINE
  5
C6
330
A
100
AcDbEntity
  8
PV
  6
Continuous
 62
     7
100
AcDbLine
 10
29.95699999999999
 20
23.0
 30
0.0
 11
29.95699999999999
 21
-48.0
 31
0.0
  0
LINE
  5
C7
330
A
100
AcDbEntity
  8
PV
  6
Continuous
 62
     7
100
AcDbLine
 10
105.9719999999999
 20
23.0
 30
0.0
 11
105.9719999999999
 21
-48.0
 31
0.0
  0
LINE
  5
C8
330
A
100
AcDbEntity
  8
PV
  6
Continuous
 62
     7
100
AcDbLine
 10
175.886
 20
23.0
 30
0.0
 11
175.886
 21
-48.0
 31
0.0
  0
LINE
  5
C9
330
A
100
AcDbEntity
  8
PV
  6
Continuous
 62
     7
100
AcDbLine
 10
-66.0
 20
-27.5
 30
0.0
 11
-66.0
 21
-132.4999999999999
 31
0.0
  0
LINE
  5
CA
330
A
100
AcDbEntity
  8
PV
  6
Continuous
 62
     7
100
AcDbLine
 10
-74.5
 20
-27.5
 30
0.0
 11
-74.5
 21
-132.4999999999999
 31
0.0
  0
LINE
  5
CB
330
A
100
AcDbEntity
  8
PV
  6
Continuous
 62
     7
100
AcDbLine
 10
88.429
 20
-149.5
 30
0.0
 11
193.429
 21
-149.5
 31
0.0
  0
LINE
  5
CC
330
A
100
AcDbEntity
  8
PV
  6
Continuous
 62
     7
100
AcDbLine
 10
88.429
 20
-141.0
 30
0.0
 11
193.429
 21
-141.0
 31
0.0
  0
LINE
  5
CD
330
A
100
AcDbEntity
  8
PV
  6
CENTER
 62
     7
100
AcDbLine
 10
-81.22800000000001
 20
-122.5
 30
0.0
 11
-57.847
 21
-122.5
 31
0.0
  0
LINE
  5
CE
330
A
100
AcDbEntity
  8
PV
  6
Continuous
 62
     7
100
AcDbLine
 10
46.5
 20
-140.0
 30
0.0
 11
-56.5
 21
-140.0
 31
0.0
  0
LINE
  5
CF
330
A
100
AcDbEntity
  8
PV
  6
Continuous
 62
     7
100
AcDbLine
 10
-57.5
 20
-149.5
 30
0.0
 11
-57.5
 21
-141.0
 31
0.0
  0
LINE
  5
D0
330
A
100
AcDbEntity
  8
PV
  6
Continuous
 62
     7
100
AcDbLine
 10
47.5
 20
-149.5
 30
0.0
 11
47.5
 21
-141.0
 31
0.0
  0
LINE
  5
D1
330
A
100
AcDbEntity
  8
PV
  6
Continuous
 62
     7
100
AcDbLine
 10
-57.5
 20
-141.0
 30
0.0
 11
-56.5
 21
-140.0
 31
0.0
  0
LINE
  5
D2
330
A
100
AcDbEntity
  8
PV
  6
Continuous
 62
     7
100
AcDbLine
 10
47.5
 20
-141.0
 30
0.0
 11
46.5
 21
-140.0
 31
0.0
  0
LINE
  5
D3
330
A
100
AcDbEntity
  8
PV
  6
Continuous
 62
     7
100
AcDbLine
 10
47.0
 20
-150.0
 30
0.0
 11
47.5
 21
-149.5
 31
0.0
  0
LINE
  5
D4
330
A
100
AcDbEntity
  8
PV
  6
Continuous
 62
     7
100
AcDbLine
 10
-57.0
 20
-150.0
 30
0.0
 11
-57.5
 21
-149.5
 31
0.0
  0
LINE
  5
D5
330
A
100
AcDbEntity
  8
PV
  6
Continuous
 62
     7
100
AcDbLine
 10
47.0
 20
-150.0
 30
0.0
 11
-57.0
 21
-150.0
 31
0.0
  0
LINE
  5
D6
330
A
100
AcDbEntity
  8
PV
  6
CENTER
 62
     7
100
AcDbLine
 10
-47.5
 20
-130.5399999999999
 30
0.0
 11
-47.5
 21
-157.889
 31
0.0
  0
LINE
  5
D7
330
A
100
AcDbEntity
  8
PV
  6
CENTER
 62
     7
100
AcDbLine
 10
37.5
 20
-130.5399999999999
 30
0.0
 11
37.5
 21
-157.889
 31
0.0
  0
LINE
  5
D8
330
A
100
AcDbEntity
  8
PV
  6
Continuous
 62
     7
100
AcDbLine
 10
-26.35
 20
-112.0
 30
0.0
 11
-26.35
 21
-140.0
 31
0.0
  0
LINE
  5
D9
330
A
100
AcDbEntity
  8
PV
  6
Continuous
 62
     7
100
AcDbLine
 10
16.35
 20
-112.0
 30
0.0
 11
16.35
 21
-140.0
 31
0.0
  0
LINE
  5
DA
330
A
100
AcDbEntity
  8
PV
  6
Continuous
 62
     7
100
AcDbLine
 10
-57.5
 20
-141.0
 30
0.0
 11
47.5
 21
-141.0
 31
0.0
  0
LINE
  5
DB
330
A
100
AcDbEntity
  8
PV
  6
Continuous
 62
     7
100
AcDbLine
 10
-57.5
 20
-149.5
 30
0.0
 11
47.5
 21
-149.5
 31
0.0
  0
LINE
  5
DC
330
A
100
AcDbEntity
  8
PV
  6
Continuous
 62
     7
100
AcDbLine
 10
-66.0
 20
170.5059999999999
 30
0.0
 11
-66.0
 21
65.506
 31
0.0
  0
LINE
  5
DD
330
A
100
AcDbEntity
  8
PV
  6
Continuous
 62
     7
100
AcDbLine
 10
-74.5
 20
170.5059999999999
 30
0.0
 11
-74.5
 21
65.506
 31
0.0
  0
LINE
  5
DE
330
A
100
AcDbEntity
  8
PV
  6
CENTER
 62
     7
100
AcDbLine
 10
128.929
 20
22.30099999999999
 30
0.0
 11
128.929
 21
15.569
 31
0.0
  0
LINE
  5
DF
330
A
100
AcDbEntity
  8
PV
  6
CENTER
 62
     7
100
AcDbLine
 10
125.8159999999999
 20
19.0
 30
0.0
 11
132.0289999999999
 21
19.0
 31
0.0
  0
LINE
  5
E0
330
A
100
AcDbEntity
  8
PV
  6
CENTER
 62
     7
100
AcDbLine
 10
152.929
 20
22.30099999999999
 30
0.0
 11
152.929
 21
15.569
 31
0.0
  0
LINE
  5
E1
330
A
100
AcDbEntity
  8
PV
  6
CENTER
 62
     7
100
AcDbLine
 10
156.042
 20
19.0
 30
0.0
 11
149.828
 21
19.0
 31
0.0
  0
LINE
  5
E2
330
A
100
AcDbEntity
  8
PV
  6
CENTER
 62
     7
100
AcDbLine
 10
128.929
 20
-35.801
 30
0.0
 11
128.929
 21
-29.069
 31
0.0
  0
LINE
  5
E3
330
A
100
AcDbEntity
  8
PV
  6
CENTER
 62
     7
100
AcDbLine
 10
125.8159999999999
 20
-32.5
 30
0.0
 11
132.0289999999999
 21
-32.5
 31
0.0
  0
LINE
  5
E4
330
A
100
AcDbEntity
  8
PV
  6
CENTER
 62
     7
100
AcDbLine
 10
152.929
 20
-35.801
 30
0.0
 11
152.929
 21
-29.069
 31
0.0
  0
LINE
  5
E5
330
A
100
AcDbEntity
  8
PV
  6
CENTER
 62
     7
100
AcDbLine
 10
156.042
 20
-32.5
 30
0.0
 11
149.828
 21
-32.5
 31
0.0
  0
LINE
  5
E7
330
A
100
AcDbEntity
  8
PV
  6
DASHED
 62
     7
100
AcDbLine
 10
-75.0
 20
-107.4999999999999
 30
0.0
 11
-72.0
 21
-107.4999999999999
 31
0.0
  0
LINE
  5
E8
330
A
100
AcDbEntity
  8
PV
  6
DASHED
 62
     7
100
AcDbLine
 10
-72.0
 20
-112.5
 30
0.0
 11
-72.0
 21
-107.4999999999999
 31
0.0
  0
LINE
  5
E9
330
A
100
AcDbEntity
  8
PV
  6
DASHED
 62
     7
100
AcDbLine
 10
-75.0
 20
-112.5
 30
0.0
 11
-72.0
 21
-112.5
 31
0.0
  0
LINE
  5
EA
330
A
100
AcDbEntity
  8
PV
  6
DASHED
 62
     7
100
AcDbLine
 10
-75.0
 20
-47.5
 30
0.0
 11
-72.0
 21
-47.5
 31
0.0
  0
LINE
  5
EB
330
A
100
AcDbEntity
  8
PV
  6
DASHED
 62
     7
100
AcDbLine
 10
-75.0
 20
-52.5
 30
0.0
 11
-72.0
 21
-52.5
 31
0.0
  0
LINE
  5
EC
330
A
100
AcDbEntity
  8
PV
  6
DASHED
 62
     7
100
AcDbLine
 10
-72.0
 20
-47.5
 30
0.0
 11
-72.0
 21
-52.5
 31
0.0
  0
LINE
  5
ED
330
A
100
AcDbEntity
  8
PV
  6
DASHED
 62
     7
100
AcDbLine
 10
-75.0
 20
150.506
 30
0.0
 11
-72.0
 21
150.506
 31
0.0
  0
LINE
  5
EE
330
A
100
AcDbEntity
  8
PV
  6
DASHED
 62
     7
100
AcDbLine
 10
-75.0
 20
145.506
 30
0.0
 11
-72.0
 21
145.506
 31
0.0
  0
LINE
  5
EF
330
A
100
AcDbEntity
  8
PV
  6
DASHED
 62
     7
100
AcDbLine
 10
-72.0
 20
150.506
 30
0.0
 11
-72.0
 21
145.506
 31
0.0
  0
LINE
  5
F0
330
A
100
AcDbEntity
  8
PV
  6
DASHED
 62
     7
100
AcDbLine
 10
-75.0
 20
85.50600000000001
 30
0.0
 11
-72.0
 21
85.50600000000001
 31
0.0
  0
LINE
  5
F1
330
A
100
AcDbEntity
  8
PV
  6
DASHED
 62
     7
100
AcDbLine
 10
-75.0
 20
90.50600000000001
 30
0.0
 11
-72.0
 21
90.50600000000001
 31
0.0
  0
LINE
  5
F2
330
A
100
AcDbEntity
  8
PV
  6
DASHED
 62
     7
100
AcDbLine
 10
-72.0
 20
85.50600000000001
 30
0.0
 11
-72.0
 21
90.50600000000001
 31
0.0
  0
ARC
  5
F3
330
A
100
AcDbEntity
  8
PV
  6
Continuous
 62
     7
100
AcDbCircle
 10
37.0
 20
133.506
 30
0.0
 40
2.0
100
AcDbArc
 50
0.0
 51
90.00000300000001
  0
ARC
  5
F4
330
A
100
AcDbEntity
  8
PV
  6
Continuous
 62
     7
100
AcDbCircle
 10
37.0
 20
102.506
 30
0.0
 40
2.0
100
AcDbArc
 50
269.9999969999999
 51
0.0
  0
CIRCLE
  5
F5
330
A
100
AcDbEntity
  8
PV
  6
Continuous
 62
     7
100
AcDbCircle
 10
26.0
 20
149.0059999999999
 30
0.0
 40
7.0
  0
CIRCLE
  5
F6
330
A
100
AcDbEntity
  8
PV
  6
Continuous
 62
     7
100
AcDbCircle
 10
-36.0
 20
149.0059999999999
 30
0.0
 40
7.0
  0
CIRCLE
  5
F7
330
A
100
AcDbEntity
  8
PV
  6
Continuous
 62
     7
100
AcDbCircle
 10
-36.0
 20
149.0059999999999
 30
0.0
 40
7.0
  0
CIRCLE
  5
F8
330
A
100
AcDbEntity
  8
PV
  6
Continuous
 62
     7
100
AcDbCircle
 10
-36.0
 20
87.00599999999999
 30
0.0
 40
7.0
  0
CIRCLE
  5
F9
330
A
100
AcDbEntity
  8
PV
  6
Continuous
 62
     7
100
AcDbCircle
 10
26.0
 20
87.00599999999999
 30
0.0
 40
7.0
  0
ARC
  5
FA
330
A
100
AcDbEntity
  8
PV
  6
Continuous
 62
     7
100
AcDbCircle
 10
-5.0
 20
118.006
 30
0.0
 40
53.5
100
AcDbArc
 50
130.798737
 51
139.2012499999999
  0
ARC
  5
FB
330
A
100
AcDbEntity
  8
PV
  6
Continuous
 62
     7
100
AcDbCircle
 10
-5.0
 20
118.006
 30
0.0
 40
53.5
100
AcDbArc
 50
40.79874799999999
 51
49.201264
  0
ARC
  5
FC
330
A
100
AcDbEntity
  8
PV
  6
Continuous
 62
     7
100
AcDbCircle
 10
-5.0
 20
118.006
 30
0.0
 40
53.5
100
AcDbArc
 50
310.7987459999999
 51
319.201252
  0
ARC
  5
FD
330
A
100
AcDbEntity
  8
PV
  6
Continuous
 62
     7
100
AcDbCircle
 10
-5.0
 20
118.006
 30
0.0
 40
53.5
100
AcDbArc
 50
220.79875
 51
229.201249
  0
ARC
  5
FE
330
A
100
AcDbEntity
  8
PV
  6
Continuous
 62
     7
100
AcDbCircle
 10
-5.0
 20
118.006
 30
0.0
 40
55.0
100
AcDbArc
 50
0.0
 51
156.6528069999999
  0
ARC
  5
FF
330
A
100
AcDbEntity
  8
PV
  6
Continuous
 62
     7
100
AcDbCircle
 10
-5.0
 20
118.006
 30
0.0
 40
55.0
100
AcDbArc
 50
203.011107
 51
0.0
  0
ARC
  5
100
330
A
100
AcDbEntity
  8
PV
  6
CENTER
 62
     7
100
AcDbCircle
 10
-110.6949999999999
 20
118.006
 30
0.0
 40
42.5
100
AcDbArc
 50
90.00000300000001
 51
270.000001
  0
CIRCLE
  5
101
330
A
100
AcDbEntity
  8
PV
  6
Continuous
 62
     7
100
AcDbCircle
 10
-140.747
 20
148.0579999999999
 30
0.0
 40
5.0
  0
CIRCLE
  5
102
330
A
100
AcDbEntity
  8
PV
  6
Continuous
 62
     7
100
AcDbCircle
 10
-140.747
 20
87.95399999999998
 30
0.0
 40
5.0
  0
ARC
  5
103
330
A
100
AcDbEntity
  8
PV
  6
Continuous
 62
     7
100
AcDbCircle
 10
-74.435
 20
-80.0
 30
0.0
 40
38.0
100
AcDbArc
 50
325.79806
 51
34.16692499999999
  0
CIRCLE
  5
104
330
A
100
AcDbEntity
  8
PV
  6
Continuous
 62
     7
100
AcDbCircle
 10
140.929
 20
-27.5
 30
0.0
 40
4.849999999999999
  0
CIRCLE
  5
105
330
A
100
AcDbEntity
  8
PV
  6
Continuous
 62
     7
100
AcDbCircle
 10
140.929
 20
-27.5
 30
0.0
 40
3.85
  0
CIRCLE
  5
106
330
A
100
AcDbEntity
  8
PV
  6
Continuous
 62
     7
100
AcDbCircle
 10
140.929
 20
5.5
 30
0.0
 40
3.85
  0
CIRCLE
  5
107
330
A
100
AcDbEntity
  8
PV
  6
Continuous
 62
     7
100
AcDbCircle
 10
140.929
 20
5.5
 30
0.0
 40
4.849999999999999
  0
CIRCLE
  5
108
330
A
100
AcDbEntity
  8
PV
  6
Continuous
 62
     7
100
AcDbCircle
 10
128.929
 20
19.0
 30
0.0
 40
1.5
  0
CIRCLE
  5
109
330
A
100
AcDbEntity
  8
PV
  6
Continuous
 62
     7
100
AcDbCircle
 10
128.929
 20
19.0
 30
0.0
 40
1.199999999999999
  0
CIRCLE
  5
10A
330
A
100
AcDbEntity
  8
PV
  6
Continuous
 62
     7
100
AcDbCircle
 10
152.929
 20
19.0
 30
0.0
 40
1.5
  0
CIRCLE
  5
10B
330
A
100
AcDbEntity
  8
PV
  6
Continuous
 62
     7
100
AcDbCircle
 10
152.929
 20
19.0
 30
0.0
 40
1.199999999999999
  0
CIRCLE
  5
10C
330
A
100
AcDbEntity
  8
PV
  6
Continuous
 62
     7
100
AcDbCircle
 10
128.929
 20
-32.5
 30
0.0
 40
1.5
  0
CIRCLE
  5
10D
330
A
100
AcDbEntity
  8
PV
  6
Continuous
 62
     7
100
AcDbCircle
 10
128.929
 20
-32.5
 30
0.0
 40
1.199999999999999
  0
CIRCLE
  5
10E
330
A
100
AcDbEntity
  8
PV
  6
Continuous
 62
     7
100
AcDbCircle
 10
152.929
 20
-32.5
 30
0.0
 40
1.5
  0
CIRCLE
  5
10F
330
A
100
AcDbEntity
  8
PV
  6
Continuous
 62
     7
100
AcDbCircle
 10
152.929
 20
-32.5
 30
0.0
 40
1.199999999999999
  0
ARC
  5
110
330
A
100
AcDbEntity
  8
PV
  6
Continuous
 62
     7
100
AcDbCircle
 10
140.929
 20
-80.0
 30
0.0
 40
52.5
100
AcDbArc
 50
0.0
 51
39.517654
  0
ARC
  5
111
330
A
100
AcDbEntity
  8
PV
  6
CENTER
 62
     7
100
AcDbCircle
 10
140.929
 20
-80.0
 30
0.0
 40
42.5
100
AcDbArc
 50
153.395312
 51
206.604685
  0
ARC
  5
112
330
A
100
AcDbEntity
  8
PV
  6
CENTER
 62
     7
100
AcDbCircle
 10
140.929
 20
-80.0
 30
0.0
 40
42.5
100
AcDbArc
 50
228.8457919999999
 51
239.844214
  0
ARC
  5
113
330
A
100
AcDbEntity
  8
PV
  6
CENTER
 62
     7
100
AcDbCircle
 10
140.929
 20
-80.0
 30
0.0
 40
42.5
100
AcDbArc
 50
300.155788
 51
311.1542029999999
  0
ARC
  5
114
330
A
100
AcDbEntity
  8
PV
  6
CENTER
 62
     7
100
AcDbCircle
 10
140.929
 20
-80.0
 30
0.0
 40
42.5
100
AcDbArc
 50
333.3953189999999
 51
26.604681
  0
ARC
  5
115
330
A
100
AcDbEntity
  8
PV
  6
Continuous
 62
     7
100
AcDbCircle
 10
140.929
 20
-80.0
 30
0.0
 40
52.5
100
AcDbArc
 50
293.995606
 51
0.0
  0
ARC
  5
116
330
A
100
AcDbEntity
  8
PV
  6
Continuous
 62
     7
100
AcDbCircle
 10
140.929
 20
-80.0
 30
0.0
 40
52.5
100
AcDbArc
 50
140.482347
 51
246.004399
  0
LINE
  5
117
330
A
100
AcDbEntity
  8
PV
  6
Continuous
 62
     7
100
AcDbLine
 10
20.88999999999999
 20
135.5059999999999
 30
0.0
 11
-30.89
 21
135.5059999999999
 31
0.0
  0
LINE
  5
118
330
A
100
AcDbEntity
  8
PV
  6
Continuous
 62
   254
100
AcDbLine
 10
-13.908
 20
137.81
 30
0.0
 11
-13.60999999999999
 21
137.81
 31
0.0
  0
LINE
  5
119
330
A
100
AcDbEntity
  8
PV
  6
Continuous
 62
     7
100
AcDbLine
 10
-6.15
 20
145.366
 30
0.0
 11
-6.15
 21
141.816
 31
0.0
  0
LINE
  5
11A
330
A
100
AcDbEntity
  8
PV
  6
Continuous
 62
     7
100
AcDbLine
 10
-10.284
 20
144.4159999999999
 30
0.0
 11
-8.384
 21
144.4159999999999
 31
0.0
  0
LINE
  5
11B
330
A
100
AcDbEntity
  8
PV
  6
Continuous
 62
     7
100
AcDbLine
 10
-10.284
 20
144.4159999999999
 30
0.0
 11
-10.284
 21
141.816
 31
0.0
  0
LINE
  5
11C
330
A
100
AcDbEntity
  8
PV
  6
Continuous
 62
     7
100
AcDbLine
 10
-8.384
 20
144.4159999999999
 30
0.0
 11
-8.384
 21
141.816
 31
0.0
  0
LINE
  5
11D
330
A
100
AcDbEntity
  8
PV
  6
Continuous
 62
     7
100
AcDbLine
 10
-10.284
 20
141.816
 30
0.0
 11
-8.384
 21
141.816
 31
0.0
  0
LINE
  5
11E
330
A
100
AcDbEntity
  8
PV
  6
Continuous
 62
     7
100
AcDbLine
 10
-7.7
 20
145.366
 30
0.0
 11
-7.7
 21
141.816
 31
0.0
  0
LINE
  5
11F
330
A
100
AcDbEntity
  8
PV
  6
Continuous
 62
     7
100
AcDbLine
 10
-7.7
 20
145.366
 30
0.0
 11
-6.15
 21
145.366
 31
0.0
  0
LINE
  5
120
330
A
100
AcDbEntity
  8
PV
  6
Continuous
 62
     7
100
AcDbLine
 10
-7.7
 20
141.816
 30
0.0
 11
-6.15
 21
141.816
 31
0.0
  0
LINE
  5
121
330
A
100
AcDbEntity
  8
PV
  6
Continuous
 62
     7
100
AcDbLine
 10
-4.375
 20
145.366
 30
0.0
 11
-4.375
 21
144.5659999999999
 31
0.0
  0
LINE
  5
122
330
A
100
AcDbEntity
  8
PV
  6
Continuous
 62
     7
100
AcDbLine
 10
0.401
 20
144.591
 30
0.0
 11
0.401
 21
142.591
 31
0.0
  0
LINE
  5
123
330
A
100
AcDbEntity
  8
PV
  6
Continuous
 62
     7
100
AcDbLine
 10
-4.375
 20
142.616
 30
0.0
 11
-4.375
 21
141.816
 31
0.0
  0
LINE
  5
124
330
A
100
AcDbEntity
  8
PV
  6
Continuous
 62
     7
100
AcDbLine
 10
-4.375
 20
144.5659999999999
 30
0.0
 11
-4.375
 21
142.616
 31
0.0
  0
LINE
  5
125
330
A
100
AcDbEntity
  8
PV
  6
Continuous
 62
   254
100
AcDbLine
 10
-16.34
 20
138.142
 30
0.0
 11
-15.333
 21
138.142
 31
0.0
  0
LINE
  5
126
330
A
100
AcDbEntity
  8
PV
  6
Continuous
 62
   254
100
AcDbLine
 10
-21.60099999999999
 20
138.59
 30
0.0
 11
-21.153
 21
138.59
 31
0.0
  0
LINE
  5
127
330
A
100
AcDbEntity
  8
PV
  6
Continuous
 62
   254
100
AcDbLine
 10
-21.60099999999999
 20
136.3509999999999
 30
0.0
 11
-21.153
 21
136.3509999999999
 31
0.0
  0
LINE
  5
128
330
A
100
AcDbEntity
  8
PV
  6
Continuous
 62
   254
100
AcDbLine
 10
-21.60099999999999
 20
138.59
 30
0.0
 11
-21.60099999999999
 21
136.3509999999999
 31
0.0
  0
LINE
  5
129
330
A
100
AcDbEntity
  8
PV
  6
Continuous
 62
   254
100
AcDbLine
 10
-21.153
 20
138.59
 30
0.0
 11
-21.153
 21
136.3509999999999
 31
0.0
  0
LINE
  5
12A
330
A
100
AcDbEntity
  8
PV
  6
Continuous
 62
   254
100
AcDbLine
 10
-20.706
 20
138.59
 30
0.0
 11
-20.706
 21
137.918
 31
0.0
  0
LINE
  5
12B
330
A
100
AcDbEntity
  8
PV
  6
Continuous
 62
   254
100
AcDbLine
 10
-20.25799999999999
 20
138.142
 30
0.0
 11
-20.25799999999999
 21
137.918
 31
0.0
  0
LINE
  5
12C
330
A
100
AcDbEntity
  8
PV
  6
Continuous
 62
   254
100
AcDbLine
 10
-4.698
 20
138.59
 30
0.0
 11
-4.698
 21
138.142
 31
0.0
  0
LINE
  5
12D
330
A
100
AcDbEntity
  8
PV
  6
Continuous
 62
   254
100
AcDbLine
 10
-20.25799999999999
 20
137.247
 30
0.0
 11
-19.641
 21
137.247
 31
0.0
  0
LINE
  5
12E
330
A
100
AcDbEntity
  8
PV
  6
Continuous
 62
   254
100
AcDbLine
 10
-19.13899999999999
 20
138.142
 30
0.0
 11
-20.25799999999999
 21
138.142
 31
0.0
  0
LINE
  5
12F
330
A
100
AcDbEntity
  8
PV
  6
Continuous
 62
   254
100
AcDbLine
 10
-19.13899999999999
 20
137.6939999999999
 30
0.0
 11
-20.25799999999999
 21
137.6939999999999
 31
0.0
  0
LINE
  5
130
330
A
100
AcDbEntity
  8
PV
  6
Continuous
 62
   254
100
AcDbLine
 10
-20.706
 20
136.3509999999999
 30
0.0
 11
-20.25799999999999
 21
136.3509999999999
 31
0.0
  0
LINE
  5
131
330
A
100
AcDbEntity
  8
PV
  6
Continuous
 62
   254
100
AcDbLine
 10
-20.706
 20
138.59
 30
0.0
 11
-19.13899999999999
 21
138.59
 31
0.0
  0
LINE
  5
132
330
A
100
AcDbEntity
  8
PV
  6
Continuous
 62
   254
100
AcDbLine
 10
-20.25799999999999
 20
137.247
 30
0.0
 11
-20.25799999999999
 21
136.3509999999999
 31
0.0
  0
LINE
  5
133
330
A
100
AcDbEntity
  8
PV
  6
Continuous
 62
   254
100
AcDbLine
 10
-19.01299999999999
 20
136.3509999999999
 30
0.0
 11
-18.467
 21
136.3509999999999
 31
0.0
  0
LINE
  5
134
330
A
100
AcDbEntity
  8
PV
  6
Continuous
 62
   254
100
AcDbLine
 10
-18.131
 20
138.59
 30
0.0
 11
-17.68299999999999
 21
138.59
 31
0.0
  0
LINE
  5
135
330
A
100
AcDbEntity
  8
PV
  6
Continuous
 62
   254
100
AcDbLine
 10
-18.131
 20
136.3509999999999
 30
0.0
 11
-17.68299999999999
 21
136.3509999999999
 31
0.0
  0
LINE
  5
136
330
A
100
AcDbEntity
  8
PV
  6
Continuous
 62
   254
100
AcDbLine
 10
-18.131
 20
138.59
 30
0.0
 11
-18.131
 21
136.3509999999999
 31
0.0
  0
LINE
  5
137
330
A
100
AcDbEntity
  8
PV
  6
Continuous
 62
   254
100
AcDbLine
 10
-17.68299999999999
 20
138.59
 30
0.0
 11
-17.68299999999999
 21
136.3509999999999
 31
0.0
  0
LINE
  5
138
330
A
100
AcDbEntity
  8
PV
  6
Continuous
 62
   254
100
AcDbLine
 10
-5.706
 20
138.59
 30
0.0
 11
-4.698
 21
138.59
 31
0.0
  0
LINE
  5
139
330
A
100
AcDbEntity
  8
PV
  6
Continuous
 62
   254
100
AcDbLine
 10
-5.706
 20
136.3509999999999
 30
0.0
 11
-4.698
 21
136.3509999999999
 31
0.0
  0
LINE
  5
13A
330
A
100
AcDbEntity
  8
PV
  6
Continuous
 62
   254
100
AcDbLine
 10
-9.064
 20
138.59
 30
0.0
 11
-8.615999999999999
 21
138.59
 31
0.0
  0
LINE
  5
13B
330
A
100
AcDbEntity
  8
PV
  6
Continuous
 62
   254
100
AcDbLine
 10
-9.064
 20
136.3509999999999
 30
0.0
 11
-8.615999999999999
 21
136.3509999999999
 31
0.0
  0
LINE
  5
13C
330
A
100
AcDbEntity
  8
PV
  6
Continuous
 62
   254
100
AcDbLine
 10
-6.338999999999999
 20
137.247
 30
0.0
 11
-4.698
 21
137.247
 31
0.0
  0
LINE
  5
13D
330
A
100
AcDbEntity
  8
PV
  6
Continuous
 62
   254
100
AcDbLine
 10
-6.338999999999999
 20
137.6939999999999
 30
0.0
 11
-4.698
 21
137.6939999999999
 31
0.0
  0
LINE
  5
13E
330
A
100
AcDbEntity
  8
PV
  6
Continuous
 62
   254
100
AcDbLine
 10
-5.706
 20
136.799
 30
0.0
 11
-4.698
 21
136.799
 31
0.0
  0
LINE
  5
13F
330
A
100
AcDbEntity
  8
PV
  6
Continuous
 62
   254
100
AcDbLine
 10
-5.706
 20
138.142
 30
0.0
 11
-4.698
 21
138.142
 31
0.0
  0
LINE
  5
140
330
A
100
AcDbEntity
  8
PV
  6
Continuous
 62
   254
100
AcDbLine
 10
-4.698
 20
137.6939999999999
 30
0.0
 11
-4.698
 21
137.247
 31
0.0
  0
LINE
  5
141
330
A
100
AcDbEntity
  8
PV
  6
Continuous
 62
   254
100
AcDbLine
 10
-4.698
 20
136.799
 30
0.0
 11
-4.698
 21
136.3509999999999
 31
0.0
  0
LINE
  5
142
330
A
100
AcDbEntity
  8
PV
  6
Continuous
 62
   254
100
AcDbLine
 10
-9.064
 20
138.59
 30
0.0
 11
-9.064
 21
136.3509999999999
 31
0.0
  0
LINE
  5
143
330
A
100
AcDbEntity
  8
PV
  6
Continuous
 62
   254
100
AcDbLine
 10
-8.615999999999999
 20
138.59
 30
0.0
 11
-8.615999999999999
 21
137.804
 31
0.0
  0
LINE
  5
144
330
A
100
AcDbEntity
  8
PV
  6
Continuous
 62
   254
100
AcDbLine
 10
-18.467
 20
136.3509999999999
 30
0.0
 11
-19.09499999999999
 21
137.2479999999999
 31
0.0
  0
LINE
  5
145
330
A
100
AcDbEntity
  8
PV
  6
Continuous
 62
   254
100
AcDbLine
 10
-19.01299999999999
 20
136.3509999999999
 30
0.0
 11
-19.641
 21
137.247
 31
0.0
  0
LINE
  5
146
330
A
100
AcDbEntity
  8
PV
  6
Continuous
 62
   254
100
AcDbLine
 10
-6.712999999999999
 20
136.3509999999999
 30
0.0
 11
-7.633999999999999
 21
137.945
 31
0.0
  0
LINE
  5
147
330
A
100
AcDbEntity
  8
PV
  6
Continuous
 62
   254
100
AcDbLine
 10
-6.712999999999999
 20
138.59
 30
0.0
 11
-7.633999999999999
 21
137.945
 31
0.0
  0
LINE
  5
148
330
A
100
AcDbEntity
  8
PV
  6
Continuous
 62
   254
100
AcDbLine
 10
-7.493999999999999
 20
138.59
 30
0.0
 11
-8.615999999999999
 21
137.804
 31
0.0
  0
LINE
  5
149
330
A
100
AcDbEntity
  8
PV
  6
Continuous
 62
   254
100
AcDbLine
 10
-7.23
 20
136.3509999999999
 30
0.0
 11
-8.002
 21
137.6879999999999
 31
0.0
  0
LINE
  5
14A
330
A
100
AcDbEntity
  8
PV
  6
Continuous
 62
   254
100
AcDbLine
 10
-8.002
 20
137.6879999999999
 30
0.0
 11
-8.615999999999999
 21
137.257
 31
0.0
  0
LINE
  5
14B
330
A
100
AcDbEntity
  8
PV
  6
Continuous
 62
   254
100
AcDbLine
 10
-8.615999999999999
 20
137.257
 30
0.0
 11
-8.615999999999999
 21
136.3509999999999
 31
0.0
  0
LINE
  5
14C
330
A
100
AcDbEntity
  8
PV
  6
Continuous
 62
   254
100
AcDbLine
 10
-7.493999999999999
 20
138.59
 30
0.0
 11
-6.712999999999999
 21
138.59
 31
0.0
  0
LINE
  5
14D
330
A
100
AcDbEntity
  8
PV
  6
Continuous
 62
   254
100
AcDbLine
 10
-7.23
 20
136.3509999999999
 30
0.0
 11
-6.712999999999999
 21
136.3509999999999
 31
0.0
  0
LINE
  5
14E
330
A
100
AcDbEntity
  8
PV
  6
Continuous
 62
   254
100
AcDbLine
 10
2.354
 20
136.3509999999999
 30
0.0
 11
2.578
 21
136.3509999999999
 31
0.0
  0
LINE
  5
14F
330
A
100
AcDbEntity
  8
PV
  6
Continuous
 62
   254
100
AcDbLine
 10
2.354
 20
138.59
 30
0.0
 11
2.578
 21
138.59
 31
0.0
  0
LINE
  5
150
330
A
100
AcDbEntity
  8
PV
  6
Continuous
 62
   254
100
AcDbLine
 10
1.122999999999999
 20
136.3539999999999
 30
0.0
 11
1.122999999999999
 21
136.799
 31
0.0
  0
LINE
  5
151
330
A
100
AcDbEntity
  8
PV
  6
Continuous
 62
   254
100
AcDbLine
 10
2.354
 20
136.799
 30
0.0
 11
2.578
 21
136.799
 31
0.0
  0
LINE
  5
152
330
A
100
AcDbEntity
  8
PV
  6
Continuous
 62
   254
100
AcDbLine
 10
2.354
 20
138.142
 30
0.0
 11
2.578
 21
138.142
 31
0.0
  0
LINE
  5
153
330
A
100
AcDbEntity
  8
PV
  6
Continuous
 62
   254
100
AcDbLine
 10
-13.989
 20
138.59
 30
0.0
 11
-13.54099999999999
 21
138.59
 31
0.0
  0
LINE
  5
154
330
A
100
AcDbEntity
  8
PV
  6
Continuous
 62
   254
100
AcDbLine
 10
-13.989
 20
136.3509999999999
 30
0.0
 11
-13.54099999999999
 21
136.3509999999999
 31
0.0
  0
LINE
  5
155
330
A
100
AcDbEntity
  8
PV
  6
Continuous
 62
   254
100
AcDbLine
 10
-13.989
 20
138.59
 30
0.0
 11
-13.989
 21
136.3509999999999
 31
0.0
  0
LINE
  5
156
330
A
100
AcDbEntity
  8
PV
  6
Continuous
 62
   254
100
AcDbLine
 10
-13.54099999999999
 20
138.59
 30
0.0
 11
-13.54099999999999
 21
137.804
 31
0.0
  0
LINE
  5
157
330
A
100
AcDbEntity
  8
PV
  6
Continuous
 62
   254
100
AcDbLine
 10
-11.639
 20
136.3509999999999
 30
0.0
 11
-12.559
 21
137.945
 31
0.0
  0
LINE
  5
158
330
A
100
AcDbEntity
  8
PV
  6
Continuous
 62
   254
100
AcDbLine
 10
-11.63799999999999
 20
138.59
 30
0.0
 11
-12.559
 21
137.945
 31
0.0
  0
LINE
  5
159
330
A
100
AcDbEntity
  8
PV
  6
Continuous
 62
   254
100
AcDbLine
 10
-12.419
 20
138.59
 30
0.0
 11
-13.54099999999999
 21
137.804
 31
0.0
  0
LINE
  5
15A
330
A
100
AcDbEntity
  8
PV
  6
Continuous
 62
   254
100
AcDbLine
 10
-12.156
 20
136.3509999999999
 30
0.0
 11
-12.92699999999999
 21
137.6879999999999
 31
0.0
  0
LINE
  5
15B
330
A
100
AcDbEntity
  8
PV
  6
Continuous
 62
   254
100
AcDbLine
 10
-12.92699999999999
 20
137.6879999999999
 30
0.0
 11
-13.54099999999999
 21
137.257
 31
0.0
  0
LINE
  5
15C
330
A
100
AcDbEntity
  8
PV
  6
Continuous
 62
   254
100
AcDbLine
 10
-13.54099999999999
 20
137.257
 30
0.0
 11
-13.54099999999999
 21
136.3509999999999
 31
0.0
  0
LINE
  5
15D
330
A
100
AcDbEntity
  8
PV
  6
Continuous
 62
   254
100
AcDbLine
 10
-12.419
 20
138.59
 30
0.0
 11
-11.639
 21
138.59
 31
0.0
  0
LINE
  5
15E
330
A
100
AcDbEntity
  8
PV
  6
Continuous
 62
   254
100
AcDbLine
 10
-12.156
 20
136.3509999999999
 30
0.0
 11
-11.639
 21
136.3509999999999
 31
0.0
  0
LINE
  5
15F
330
A
100
AcDbEntity
  8
PV
  6
Continuous
 62
   254
100
AcDbLine
 10
-15.333
 20
138.59
 30
0.0
 11
-15.333
 21
138.142
 31
0.0
  0
LINE
  5
160
330
A
100
AcDbEntity
  8
PV
  6
Continuous
 62
   254
100
AcDbLine
 10
-16.34
 20
138.59
 30
0.0
 11
-15.333
 21
138.59
 31
0.0
  0
LINE
  5
161
330
A
100
AcDbEntity
  8
PV
  6
Continuous
 62
   254
100
AcDbLine
 10
-16.34
 20
136.3509999999999
 30
0.0
 11
-15.333
 21
136.3509999999999
 31
0.0
  0
LINE
  5
162
330
A
100
AcDbEntity
  8
PV
  6
Continuous
 62
   254
100
AcDbLine
 10
-16.973
 20
137.247
 30
0.0
 11
-15.333
 21
137.247
 31
0.0
  0
LINE
  5
163
330
A
100
AcDbEntity
  8
PV
  6
Continuous
 62
   254
100
AcDbLine
 10
-16.973
 20
137.6939999999999
 30
0.0
 11
-15.333
 21
137.6939999999999
 31
0.0
  0
LINE
  5
164
330
A
100
AcDbEntity
  8
PV
  6
Continuous
 62
   254
100
AcDbLine
 10
-16.34
 20
136.799
 30
0.0
 11
-15.333
 21
136.799
 31
0.0
  0
LINE
  5
165
330
A
100
AcDbEntity
  8
PV
  6
Continuous
 62
   254
100
AcDbLine
 10
-15.333
 20
137.6939999999999
 30
0.0
 11
-15.333
 21
137.247
 31
0.0
  0
LINE
  5
166
330
A
100
AcDbEntity
  8
PV
  6
Continuous
 62
   254
100
AcDbLine
 10
-15.333
 20
136.799
 30
0.0
 11
-15.333
 21
136.3509999999999
 31
0.0
  0
LINE
  5
167
330
A
100
AcDbEntity
  8
PV
  6
Continuous
 62
   254
100
AcDbLine
 10
0.003
 20
136.3509999999999
 30
0.0
 11
1.122999999999999
 21
136.3509999999999
 31
0.0
  0
LINE
  5
168
330
A
100
AcDbEntity
  8
PV
  6
Continuous
 62
   254
100
AcDbLine
 10
0.003
 20
138.59
 30
0.0
 11
1.122999999999999
 21
138.59
 31
0.0
  0
LINE
  5
169
330
A
100
AcDbEntity
  8
PV
  6
Continuous
 62
   254
100
AcDbLine
 10
0.003
 20
136.799
 30
0.0
 11
1.122999999999999
 21
136.799
 31
0.0
  0
LINE
  5
16A
330
A
100
AcDbEntity
  8
PV
  6
Continuous
 62
   254
100
AcDbLine
 10
0.003
 20
138.142
 30
0.0
 11
1.122999999999999
 21
138.142
 31
0.0
  0
LINE
  5
16B
330
A
100
AcDbEntity
  8
PV
  6
Continuous
 62
   254
100
AcDbLine
 10
1.122999999999999
 20
138.142
 30
0.0
 11
1.122999999999999
 21
138.59
 31
0.0
  0
LINE
  5
16C
330
A
100
AcDbEntity
  8
PV
  6
Continuous
 62
   254
100
AcDbLine
 10
6.047999999999999
 20
136.3509999999999
 30
0.0
 11
7.167
 21
136.3509999999999
 31
0.0
  0
LINE
  5
16D
330
A
100
AcDbEntity
  8
PV
  6
Continuous
 62
   254
100
AcDbLine
 10
-4.36
 20
136.3509999999999
 30
0.0
 11
-3.915
 21
136.3509999999999
 31
0.0
  0
LINE
  5
16E
330
A
100
AcDbEntity
  8
PV
  6
Continuous
 62
   254
100
AcDbLine
 10
-3.354999999999999
 20
138.59
 30
0.0
 11
-3.131
 21
138.59
 31
0.0
  0
LINE
  5
16F
330
A
100
AcDbEntity
  8
PV
  6
Continuous
 62
   254
100
AcDbLine
 10
-4.362
 20
137.583
 30
0.0
 11
-4.362
 21
136.3509999999999
 31
0.0
  0
LINE
  5
170
330
A
100
AcDbEntity
  8
PV
  6
Continuous
 62
   254
100
AcDbLine
 10
-2.124
 20
137.583
 30
0.0
 11
-2.124
 21
136.3509999999999
 31
0.0
  0
LINE
  5
171
330
A
100
AcDbEntity
  8
PV
  6
Continuous
 62
   254
100
AcDbLine
 10
-3.354999999999999
 20
138.142
 30
0.0
 11
-3.131
 21
138.142
 31
0.0
  0
LINE
  5
172
330
A
100
AcDbEntity
  8
PV
  6
Continuous
 62
   254
100
AcDbLine
 10
-3.915
 20
137.583
 30
0.0
 11
-3.915
 21
136.3509999999999
 31
0.0
  0
LINE
  5
173
330
A
100
AcDbEntity
  8
PV
  6
Continuous
 62
   254
100
AcDbLine
 10
-2.571
 20
137.583
 30
0.0
 11
-2.571
 21
136.3509999999999
 31
0.0
  0
LINE
  5
174
330
A
100
AcDbEntity
  8
PV
  6
Continuous
 62
   254
100
AcDbLine
 10
-2.571
 20
136.3509999999999
 30
0.0
 11
-2.124
 21
136.3509999999999
 31
0.0
  0
LINE
  5
175
330
A
100
AcDbEntity
  8
PV
  6
Continuous
 62
   254
100
AcDbLine
 10
-10.63099999999999
 20
136.3509999999999
 30
0.0
 11
-10.40699999999999
 21
136.3509999999999
 31
0.0
  0
LINE
  5
176
330
A
100
AcDbEntity
  8
PV
  6
Continuous
 62
   254
100
AcDbLine
 10
-10.63099999999999
 20
138.59
 30
0.0
 11
-10.40699999999999
 21
138.59
 31
0.0
  0
LINE
  5
177
330
A
100
AcDbEntity
  8
PV
  6
Continuous
 62
   254
100
AcDbLine
 10
-10.63099999999999
 20
136.799
 30
0.0
 11
-10.40699999999999
 21
136.799
 31
0.0
  0
LINE
  5
178
330
A
100
AcDbEntity
  8
PV
  6
Continuous
 62
   254
100
AcDbLine
 10
4.486
 20
136.0149999999999
 30
0.0
 11
4.852
 21
136.4509999999999
 31
0.0
  0
LINE
  5
179
330
A
100
AcDbEntity
  8
PV
  6
Continuous
 62
   254
100
AcDbLine
 10
4.315
 20
136.1589999999999
 30
0.0
 11
4.503999999999999
 21
136.385
 31
0.0
  0
LINE
  5
17A
330
A
100
AcDbEntity
  8
PV
  6
Continuous
 62
   254
100
AcDbLine
 10
4.315
 20
136.1589999999999
 30
0.0
 11
4.486
 21
136.0149999999999
 31
0.0
  0
LINE
  5
17B
330
A
100
AcDbEntity
  8
PV
  6
Continuous
 62
   254
100
AcDbLine
 10
5.152999999999999
 20
138.59
 30
0.0
 11
5.152999999999999
 21
137.247
 31
0.0
  0
LINE
  5
17C
330
A
100
AcDbEntity
  8
PV
  6
Continuous
 62
   254
100
AcDbLine
 10
7.167
 20
136.799
 30
0.0
 11
7.167
 21
136.3509999999999
 31
0.0
  0
LINE
  5
17D
330
A
100
AcDbEntity
  8
PV
  6
Continuous
 62
   254
100
AcDbLine
 10
5.599999999999999
 20
138.59
 30
0.0
 11
5.599999999999999
 21
137.247
 31
0.0
  0
LINE
  5
17E
330
A
100
AcDbEntity
  8
PV
  6
Continuous
 62
   254
100
AcDbLine
 10
6.047999999999999
 20
136.799
 30
0.0
 11
7.167
 21
136.799
 31
0.0
  0
LINE
  5
17F
330
A
100
AcDbEntity
  8
PV
  6
Continuous
 62
   254
100
AcDbLine
 10
9.406
 20
136.3509999999999
 30
0.0
 11
10.638
 21
136.3509999999999
 31
0.0
  0
LINE
  5
180
330
A
100
AcDbEntity
  8
PV
  6
Continuous
 62
   254
100
AcDbLine
 10
5.152999999999999
 20
138.59
 30
0.0
 11
5.599999999999999
 21
138.59
 31
0.0
  0
LINE
  5
181
330
A
100
AcDbEntity
  8
PV
  6
Continuous
 62
   254
100
AcDbLine
 10
6.943999999999999
 20
138.59
 30
0.0
 11
9.182
 21
138.59
 31
0.0
  0
LINE
  5
182
330
A
100
AcDbEntity
  8
PV
  6
Continuous
 62
   254
100
AcDbLine
 10
6.943999999999999
 20
138.59
 30
0.0
 11
6.943999999999999
 21
138.142
 31
0.0
  0
LINE
  5
183
330
A
100
AcDbEntity
  8
PV
  6
Continuous
 62
   254
100
AcDbLine
 10
9.182
 20
138.59
 30
0.0
 11
9.182
 21
138.142
 31
0.0
  0
LINE
  5
184
330
A
100
AcDbEntity
  8
PV
  6
Continuous
 62
   254
100
AcDbLine
 10
6.943999999999999
 20
138.142
 30
0.0
 11
7.838999999999999
 21
138.142
 31
0.0
  0
LINE
  5
185
330
A
100
AcDbEntity
  8
PV
  6
Continuous
 62
   254
100
AcDbLine
 10
8.287
 20
138.142
 30
0.0
 11
8.287
 21
136.3509999999999
 31
0.0
  0
LINE
  5
186
330
A
100
AcDbEntity
  8
PV
  6
Continuous
 62
   254
100
AcDbLine
 10
7.838999999999999
 20
138.142
 30
0.0
 11
7.838999999999999
 21
136.3509999999999
 31
0.0
  0
LINE
  5
187
330
A
100
AcDbEntity
  8
PV
  6
Continuous
 62
   254
100
AcDbLine
 10
9.853999999999999
 20
138.142
 30
0.0
 11
10.638
 21
138.142
 31
0.0
  0
LINE
  5
188
330
A
100
AcDbEntity
  8
PV
  6
Continuous
 62
   254
100
AcDbLine
 10
9.406
 20
138.59
 30
0.0
 11
10.638
 21
138.59
 31
0.0
  0
LINE
  5
189
330
A
100
AcDbEntity
  8
PV
  6
Continuous
 62
   254
100
AcDbLine
 10
8.287
 20
138.142
 30
0.0
 11
9.182
 21
138.142
 31
0.0
  0
LINE
  5
18A
330
A
100
AcDbEntity
  8
PV
  6
Continuous
 62
   254
100
AcDbLine
 10
7.838999999999999
 20
136.3509999999999
 30
0.0
 11
8.287
 21
136.3509999999999
 31
0.0
  0
LINE
  5
18B
330
A
100
AcDbEntity
  8
PV
  6
Continuous
 62
   254
100
AcDbLine
 10
9.406
 20
138.59
 30
0.0
 11
9.406
 21
137.471
 31
0.0
  0
LINE
  5
18C
330
A
100
AcDbEntity
  8
PV
  6
Continuous
 62
   254
100
AcDbLine
 10
9.853999999999999
 20
136.799
 30
0.0
 11
10.638
 21
136.799
 31
0.0
  0
LINE
  5
18D
330
A
100
AcDbEntity
  8
PV
  6
Continuous
 62
   254
100
AcDbLine
 10
9.853999999999999
 20
138.142
 30
0.0
 11
9.853999999999999
 21
137.471
 31
0.0
  0
LINE
  5
18E
330
A
100
AcDbEntity
  8
PV
  6
Continuous
 62
   254
100
AcDbLine
 10
-20.706
 20
137.918
 30
0.0
 11
-20.706
 21
136.3509999999999
 31
0.0
  0
LINE
  5
18F
330
A
100
AcDbEntity
  8
PV
  6
Continuous
 62
   254
100
AcDbLine
 10
-20.25799999999999
 20
137.918
 30
0.0
 11
-20.25799999999999
 21
137.6939999999999
 31
0.0
  0
LINE
  5
190
330
A
100
AcDbEntity
  8
PV
  6
Continuous
 62
   254
100
AcDbLine
 10
9.406
 20
137.471
 30
0.0
 11
9.406
 21
136.3509999999999
 31
0.0
  0
LINE
  5
191
330
A
100
AcDbEntity
  8
PV
  6
Continuous
 62
   254
100
AcDbLine
 10
9.853999999999999
 20
137.471
 30
0.0
 11
9.853999999999999
 21
136.799
 31
0.0
  0
LINE
  5
192
330
A
100
AcDbEntity
  8
PV
  6
Continuous
 62
   254
100
AcDbLine
 10
-10.63099999999999
 20
138.142
 30
0.0
 11
-10.40699999999999
 21
138.142
 31
0.0
  0
ARC
  5
193
330
A
100
AcDbEntity
  8
PV
  6
Continuous
 62
     7
100
AcDbCircle
 10
-9.333999999999999
 20
144.4159999999999
 30
0.0
 40
0.95
100
AcDbArc
 50
0.0
 51
180.000005
  0
ARC
  5
194
330
A
100
AcDbEntity
  8
PV
  6
Continuous
 62
     7
100
AcDbCircle
 10
-9.333999999999999
 20
144.4159999999999
 30
0.0
 40
0.95
100
AcDbArc
 50
179.9999909999999
 51
0.00001
  0
ARC
  5
195
330
A
100
AcDbEntity
  8
PV
  6
Continuous
 62
     7
100
AcDbCircle
 10
-4.375
 20
143.5909999999999
 30
0.0
 40
1.774999999999999
100
AcDbArc
 50
90.00000300000001
 51
270.000001
  0
ARC
  5
196
330
A
100
AcDbEntity
  8
PV
  6
Continuous
 62
     7
100
AcDbCircle
 10
-4.375
 20
143.5909999999999
 30
0.0
 40
0.975
100
AcDbArc
 50
90.00000300000001
 51
270.000001
  0
ARC
  5
197
330
A
100
AcDbEntity
  8
PV
  6
Continuous
 62
     7
100
AcDbCircle
 10
-4.375
 20
143.5909999999999
 30
0.0
 40
0.975
100
AcDbArc
 50
269.9999969999999
 51
90.00000300000001
  0
ARC
  5
198
330
A
100
AcDbEntity
  8
PV
  6
Continuous
 62
     7
100
AcDbCircle
 10
-1.124
 20
143.5909999999999
 30
0.0
 40
1.774999999999999
100
AcDbArc
 50
34.225552
 51
325.774451
  0
ARC
  5
199
330
A
100
AcDbEntity
  8
PV
  6
Continuous
 62
     7
100
AcDbCircle
 10
0.401
 20
143.5909999999999
 30
0.0
 40
1.0
100
AcDbArc
 50
90.00000300000001
 51
270.000001
  0
ARC
  5
19A
330
A
100
AcDbEntity
  8
PV
  6
Continuous
 62
     7
100
AcDbCircle
 10
0.401
 20
143.5909999999999
 30
0.0
 40
1.0
100
AcDbArc
 50
269.9999969999999
 51
90.00000300000001
  0
ARC
  5
19B
330
A
100
AcDbEntity
  8
PV
  6
Continuous
 62
   254
100
AcDbCircle
 10
-19.13899999999999
 20
137.918
 30
0.0
 40
0.6720000000000001
100
AcDbArc
 50
273.7218359999999
 51
359.999996
  0
ARC
  5
19C
330
A
100
AcDbEntity
  8
PV
  6
Continuous
 62
   254
100
AcDbCircle
 10
-19.13899999999999
 20
137.918
 30
0.0
 40
0.224
100
AcDbArc
 50
270.0000109999999
 51
359.999996
  0
ARC
  5
19D
330
A
100
AcDbEntity
  8
PV
  6
Continuous
 62
   254
100
AcDbCircle
 10
-5.706
 20
137.471
 30
0.0
 40
1.118999999999999
100
AcDbArc
 50
89.999975
 51
270.000001
  0
ARC
  5
19E
330
A
100
AcDbEntity
  8
PV
  6
Continuous
 62
   254
100
AcDbCircle
 10
-5.706
 20
137.471
 30
0.0
 40
0.6720000000000001
100
AcDbArc
 50
89.999975
 51
160.528775
  0
ARC
  5
19F
330
A
100
AcDbEntity
  8
PV
  6
Continuous
 62
   254
100
AcDbCircle
 10
-5.706
 20
137.471
 30
0.0
 40
0.6720000000000001
100
AcDbArc
 50
199.471211
 51
270.0000109999999
  0
ARC
  5
1A0
330
A
100
AcDbEntity
  8
PV
  6
Continuous
 62
   254
100
AcDbCircle
 10
2.354
 20
137.471
 30
0.0
 40
1.118999999999999
100
AcDbArc
 50
89.999975
 51
179.99995
  0
ARC
  5
1A1
330
A
100
AcDbEntity
  8
PV
  6
Continuous
 62
   254
100
AcDbCircle
 10
2.578
 20
137.471
 30
0.0
 40
1.118999999999999
100
AcDbArc
 50
270.0000109999999
 51
359.999996
  0
ARC
  5
1A2
330
A
100
AcDbEntity
  8
PV
  6
Continuous
 62
   254
100
AcDbCircle
 10
2.354
 20
137.471
 30
0.0
 40
0.6720000000000001
100
AcDbArc
 50
89.999975
 51
179.99995
  0
ARC
  5
1A3
330
A
100
AcDbEntity
  8
PV
  6
Continuous
 62
   254
100
AcDbCircle
 10
2.578
 20
137.471
 30
0.0
 40
0.6720000000000001
100
AcDbArc
 50
270.0000109999999
 51
359.999996
  0
ARC
  5
1A4
330
A
100
AcDbEntity
  8
PV
  6
Continuous
 62
   254
100
AcDbCircle
 10
-16.34
 20
137.471
 30
0.0
 40
1.118999999999999
100
AcDbArc
 50
89.999975
 51
270.000001
  0
ARC
  5
1A5
330
A
100
AcDbEntity
  8
PV
  6
Continuous
 62
   254
100
AcDbCircle
 10
-16.34
 20
137.471
 30
0.0
 40
0.6720000000000001
100
AcDbArc
 50
89.999975
 51
160.528775
  0
ARC
  5
1A6
330
A
100
AcDbEntity
  8
PV
  6
Continuous
 62
   254
100
AcDbCircle
 10
-16.34
 20
137.471
 30
0.0
 40
0.6720000000000001
100
AcDbArc
 50
199.471211
 51
270.0000109999999
  0
ARC
  5
1A7
330
A
100
AcDbEntity
  8
PV
  6
Continuous
 62
   254
100
AcDbCircle
 10
-3.354999999999999
 20
137.583
 30
0.0
 40
1.007
100
AcDbArc
 50
89.999975
 51
179.99995
  0
ARC
  5
1A8
330
A
100
AcDbEntity
  8
PV
  6
Continuous
 62
   254
100
AcDbCircle
 10
-3.131
 20
137.583
 30
0.0
 40
1.007
100
AcDbArc
 50
359.999996
 51
89.999975
  0
ARC
  5
1A9
330
A
100
AcDbEntity
  8
PV
  6
Continuous
 62
   254
100
AcDbCircle
 10
-3.354999999999999
 20
137.583
 30
0.0
 40
0.5600000000000001
100
AcDbArc
 50
89.999975
 51
179.99995
  0
ARC
  5
1AA
330
A
100
AcDbEntity
  8
PV
  6
Continuous
 62
   254
100
AcDbCircle
 10
-3.131
 20
137.583
 30
0.0
 40
0.5600000000000001
100
AcDbArc
 50
359.999996
 51
89.999975
  0
ARC
  5
1AB
330
A
100
AcDbEntity
  8
PV
  6
Continuous
 62
   254
100
AcDbCircle
 10
-10.63099999999999
 20
137.471
 30
0.0
 40
1.118999999999999
100
AcDbArc
 50
89.999975
 51
179.99995
  0
ARC
  5
1AC
330
A
100
AcDbEntity
  8
PV
  6
Continuous
 62
   254
100
AcDbCircle
 10
-10.40699999999999
 20
137.471
 30
0.0
 40
1.118999999999999
100
AcDbArc
 50
270.0000109999999
 51
359.999996
  0
ARC
  5
1AD
330
A
100
AcDbEntity
  8
PV
  6
Continuous
 62
   254
100
AcDbCircle
 10
-10.63099999999999
 20
137.471
 30
0.0
 40
0.6720000000000001
100
AcDbArc
 50
89.999975
 51
179.99995
  0
ARC
  5
1AE
330
A
100
AcDbEntity
  8
PV
  6
Continuous
 62
   254
100
AcDbCircle
 10
-10.40699999999999
 20
137.471
 30
0.0
 40
0.6720000000000001
100
AcDbArc
 50
270.0000109999999
 51
359.999996
  0
ARC
  5
1AF
330
A
100
AcDbEntity
  8
PV
  6
Continuous
 62
   254
100
AcDbCircle
 10
4.637999999999999
 20
136.631
 30
0.0
 40
0.28
100
AcDbArc
 50
319.9999189999999
 51
241.536827
  0
CIRCLE
  5
1B0
330
A
100
AcDbEntity
  8
PV
  6
Continuous
 62
   254
100
AcDbCircle
 10
3.921
 20
136.631
 30
0.0
 40
0.28
  0
ARC
  5
1B1
330
A
100
AcDbEntity
  8
PV
  6
Continuous
 62
   254
100
AcDbCircle
 10
6.047999999999999
 20
137.247
 30
0.0
 40
0.8959999999999999
100
AcDbArc
 50
179.999978
 51
270.000001
  0
ARC
  5
1B2
330
A
100
AcDbEntity
  8
PV
  6
Continuous
 62
   254
100
AcDbCircle
 10
6.047999999999999
 20
137.247
 30
0.0
 40
0.448
100
AcDbArc
 50
179.999978
 51
270.000001
  0
ARC
  5
1B3
330
A
100
AcDbEntity
  8
PV
  6
Continuous
 62
   254
100
AcDbCircle
 10
10.638
 20
137.471
 30
0.0
 40
1.118999999999999
100
AcDbArc
 50
270.0000109999999
 51
359.999996
  0
ARC
  5
1B4
330
A
100
AcDbEntity
  8
PV
  6
Continuous
 62
   254
100
AcDbCircle
 10
10.638
 20
137.471
 30
0.0
 40
0.6720000000000001
100
AcDbArc
 50
270.0000109999999
 51
359.999996
  0
ARC
  5
1B5
330
A
100
AcDbEntity
  8
PV
  6
Continuous
 62
   254
100
AcDbCircle
 10
0.003
 20
137.471
 30
0.0
 40
1.118999999999999
100
AcDbArc
 50
89.999975
 51
270.000001
  0
ARC
  5
1B6
330
A
100
AcDbEntity
  8
PV
  6
Continuous
 62
   254
100
AcDbCircle
 10
0.003
 20
137.471
 30
0.0
 40
0.6720000000000001
100
AcDbArc
 50
89.999975
 51
270.000001
  0
ARC
  5
1B7
330
A
100
AcDbEntity
  8
PV
  6
Continuous
 62
   254
100
AcDbCircle
 10
-19.13899999999999
 20
137.918
 30
0.0
 40
0.224
100
AcDbArc
 50
359.999996
 51
89.999975
  0
ARC
  5
1B8
330
A
100
AcDbEntity
  8
PV
  6
Continuous
 62
   254
100
AcDbCircle
 10
-19.13899999999999
 20
137.918
 30
0.0
 40
0.6720000000000001
100
AcDbArc
 50
359.999996
 51
89.999975
  0
ARC
  5
1B9
330
A
100
AcDbEntity
  8
PV
  6
Continuous
 62
   254
100
AcDbCircle
 10
-10.40699999999999
 20
137.471
 30
0.0
 40
1.118999999999999
100
AcDbArc
 50
359.999996
 51
89.999975
  0
ARC
  5
1BA
330
A
100
AcDbEntity
  8
PV
  6
Continuous
 62
   254
100
AcDbCircle
 10
-10.40699999999999
 20
137.471
 30
0.0
 40
0.6720000000000001
100
AcDbArc
 50
359.999996
 51
89.999975
  0
ARC
  5
1BB
330
A
100
AcDbEntity
  8
PV
  6
Continuous
 62
   254
100
AcDbCircle
 10
-10.63099999999999
 20
137.471
 30
0.0
 40
0.6720000000000001
100
AcDbArc
 50
179.999978
 51
270.000001
  0
ARC
  5
1BC
330
A
100
AcDbEntity
  8
PV
  6
Continuous
 62
   254
100
AcDbCircle
 10
-10.63099999999999
 20
137.471
 30
0.0
 40
1.118999999999999
100
AcDbArc
 50
179.999978
 51
270.000001
  0
ARC
  5
1BD
330
A
100
AcDbEntity
  8
PV
  6
Continuous
 62
   254
100
AcDbCircle
 10
2.354
 20
137.471
 30
0.0
 40
1.118999999999999
100
AcDbArc
 50
179.999978
 51
270.000001
  0
ARC
  5
1BE
330
A
100
AcDbEntity
  8
PV
  6
Continuous
 62
   254
100
AcDbCircle
 10
2.354
 20
137.471
 30
0.0
 40
0.6720000000000001
100
AcDbArc
 50
179.999978
 51
270.000001
  0
ARC
  5
1BF
330
A
100
AcDbEntity
  8
PV
  6
Continuous
 62
   254
100
AcDbCircle
 10
2.578
 20
137.471
 30
0.0
 40
0.6720000000000001
100
AcDbArc
 50
359.999996
 51
89.999975
  0
ARC
  5
1C0
330
A
100
AcDbEntity
  8
PV
  6
Continuous
 62
   254
100
AcDbCircle
 10
2.578
 20
137.471
 30
0.0
 40
1.118999999999999
100
AcDbArc
 50
359.999996
 51
89.999975
  0
ARC
  5
1C1
330
A
100
AcDbEntity
  8
PV
  6
Continuous
 62
   254
100
AcDbCircle
 10
10.638
 20
137.471
 30
0.0
 40
0.6720000000000001
100
AcDbArc
 50
359.999996
 51
90.00003000000001
  0
ARC
  5
1C2
330
A
100
AcDbEntity
  8
PV
  6
Continuous
 62
   254
100
AcDbCircle
 10
10.638
 20
137.471
 30
0.0
 40
1.118999999999999
100
AcDbArc
 50
359.999996
 51
90.00003000000001
  0
CIRCLE
  5
1C3
330
A
100
AcDbEntity
  8
PV
  6
Continuous
 62
     7
100
AcDbCircle
 10
-5.0
 20
118.006
 30
0.0
 40
31.5
  0
CIRCLE
  5
1C4
330
A
100
AcDbEntity
  8
PV
  6
Continuous
 62
     7
100
AcDbCircle
 10
-5.0
 20
118.006
 30
0.0
 40
31.25
  0
MTEXT
  5
1C5
330
A
100
AcDbEntity
  8
PV
  6
Continuous
 62
     7
100
AcDbMText
 10
-4.996999999999999
 20
110.0929999999999
 30
0.0
 40
2.6
 41
0.0
 71
     2
 72
     1
  1
\W0.925;\A1;HIGH VACUUM VALVES
 73
     1
 44
1.0
  0
MTEXT
  5
1C6
330
A
100
AcDbEntity
  8
PV
  6
Continuous
 62
     7
100
AcDbMText
 10
-4.636999999999999
 20
103.506
 30
0.0
 40
2.6
 41
0.0
 71
     2
 72
     1
  1
\W0.930;\A1;METAL BELLOWS
 73
     1
 44
1.0
  0
MTEXT
  5
1C7
330
A
100
AcDbEntity
  8
PV
  6
Continuous
 62
     7
100
AcDbMText
 10
-5.362999999999999
 20
96.22200000000001
 30
0.0
 40
1.5
 41
0.0
 71
     2
 72
     1
  1
\W0.980;\A1;MADE IN JAPAN
 73
     1
 44
1.0
  0
SOLID
  5
1C8
330
A
100
AcDbEntity
  8
PV
  6
Continuous
 62
     7
100
AcDbTrace
 10
-7.7
 20
141.816
 30
0.0
 11
-6.15
 21
141.816
 31
0.0
 12
-7.7
 22
145.366
 32
0.0
 13
-6.15
 23
145.366
 33
0.0
  0
SOLID
  5
1C9
330
A
100
AcDbEntity
  8
PV
  6
Continuous
 62
     7
100
AcDbTrace
 10
-21.60099999999999
 20
136.3509999999999
 30
0.0
 11
-21.153
 21
136.3509999999999
 31
0.0
 12
-21.60099999999999
 22
138.59
 32
0.0
 13
-21.153
 23
138.59
 33
0.0
  0
SOLID
  5
1CA
330
A
100
AcDbEntity
  8
PV
  6
Continuous
 62
     7
100
AcDbTrace
 10
-18.131
 20
136.3509999999999
 30
0.0
 11
-17.68299999999999
 21
136.3509999999999
 31
0.0
 12
-18.131
 22
138.59
 32
0.0
 13
-17.68299999999999
 23
138.59
 33
0.0
  0
LINE
  5
1CB
330
A
100
AcDbEntity
  8
PV
  6
Continuous
 62
     7
100
AcDbLine
 10
20.02299999999999
 20
126.0059999999999
 30
0.0
 11
21.25199999999999
 21
126.0059999999999
 31
0.0
  0
LINE
  5
1CC
330
A
100
AcDbEntity
  8
PV
  6
Continuous
 62
     7
100
AcDbLine
 10
15.372
 20
126.0059999999999
 30
0.0
 11
17.50499999999999
 21
126.0059999999999
 31
0.0
  0
LINE
  5
1CD
330
A
100
AcDbEntity
  8
PV
  6
Continuous
 62
     7
100
AcDbLine
 10
12.525
 20
126.0059999999999
 30
0.0
 11
13.018
 21
126.0059999999999
 31
0.0
  0
LINE
  5
1CE
330
A
100
AcDbEntity
  8
PV
  6
Continuous
 62
     7
100
AcDbLine
 10
10.02
 20
126.0059999999999
 30
0.0
 11
10.49499999999999
 21
126.0059999999999
 31
0.0
  0
LINE
  5
1CF
330
A
100
AcDbEntity
  8
PV
  6
Continuous
 62
     7
100
AcDbLine
 10
6.559999999999999
 20
126.0059999999999
 30
0.0
 11
7.035
 21
126.0059999999999
 31
0.0
  0
LINE
  5
1D0
330
A
100
AcDbEntity
  8
PV
  6
Continuous
 62
     7
100
AcDbLine
 10
2.266999999999999
 20
126.0059999999999
 30
0.0
 11
2.817999999999999
 21
126.0059999999999
 31
0.0
  0
LINE
  5
1D1
330
A
100
AcDbEntity
  8
PV
  6
Continuous
 62
     7
100
AcDbLine
 10
-0.975
 20
126.0059999999999
 30
0.0
 11
-0.4820000000000001
 21
126.0059999999999
 31
0.0
  0
LINE
  5
1D2
330
A
100
AcDbEntity
  8
PV
  6
Continuous
 62
     7
100
AcDbLine
 10
-3.479999999999999
 20
126.0059999999999
 30
0.0
 11
-3.004999999999999
 21
126.0059999999999
 31
0.0
  0
LINE
  5
1D3
330
A
100
AcDbEntity
  8
PV
  6
Continuous
 62
     7
100
AcDbLine
 10
-10.18799999999999
 20
126.0059999999999
 30
0.0
 11
-8.054999999999999
 21
126.0059999999999
 31
0.0
  0
LINE
  5
1D4
330
A
100
AcDbEntity
  8
PV
  6
Continuous
 62
     7
100
AcDbLine
 10
-14.8
 20
126.0059999999999
 30
0.0
 11
-14.325
 21
126.0059999999999
 31
0.0
  0
LINE
  5
1D5
330
A
100
AcDbEntity
  8
PV
  6
Continuous
 62
     7
100
AcDbLine
 10
-19.687
 20
126.0059999999999
 30
0.0
 11
-18.665
 21
126.0059999999999
 31
0.0
  0
LINE
  5
1D6
330
A
100
AcDbEntity
  8
PV
  6
Continuous
 62
     7
100
AcDbLine
 10
-23.259
 20
126.0059999999999
 30
0.0
 11
-22.795
 21
126.0059999999999
 31
0.0
  0
LINE
  5
1D7
330
A
100
AcDbEntity
  8
PV
  6
Continuous
 62
     7
100
AcDbLine
 10
-25.896
 20
126.0059999999999
 30
0.0
 11
-25.438
 21
126.0059999999999
 31
0.0
  0
LINE
  5
1D8
330
A
100
AcDbEntity
  8
PV
  6
Continuous
 62
     7
100
AcDbLine
 10
-30.493
 20
126.0059999999999
 30
0.0
 11
-29.94199999999999
 21
126.0059999999999
 31
0.0
  0
LINE
  5
1D9
330
A
100
AcDbEntity
  8
PV
  6
Continuous
 62
     7
100
AcDbLine
 10
19.386
 20
125.0059999999999
 30
0.0
 11
19.80999999999999
 21
125.0059999999999
 31
0.0
  0
LINE
  5
1DA
330
A
100
AcDbEntity
  8
PV
  6
Continuous
 62
     7
100
AcDbLine
 10
15.195
 20
125.0059999999999
 30
0.0
 11
15.664
 21
125.0059999999999
 31
0.0
  0
LINE
  5
1DB
330
A
100
AcDbEntity
  8
PV
  6
Continuous
 62
     7
100
AcDbLine
 10
12.16099999999999
 20
125.0059999999999
 30
0.0
 11
12.654
 21
125.0059999999999
 31
0.0
  0
LINE
  5
1DC
330
A
100
AcDbEntity
  8
PV
  6
Continuous
 62
     7
100
AcDbLine
 10
10.197
 20
125.0059999999999
 30
0.0
 11
10.67099999999999
 21
125.0059999999999
 31
0.0
  0
LINE
  5
1DD
330
A
100
AcDbEntity
  8
PV
  6
Continuous
 62
     7
100
AcDbLine
 10
6.382999999999999
 20
125.0059999999999
 30
0.0
 11
6.857999999999999
 21
125.0059999999999
 31
0.0
  0
LINE
  5
1DE
330
A
100
AcDbEntity
  8
PV
  6
Continuous
 62
     7
100
AcDbLine
 10
2.613999999999999
 20
125.0059999999999
 30
0.0
 11
3.086
 21
125.0059999999999
 31
0.0
  0
LINE
  5
1DF
330
A
100
AcDbEntity
  8
PV
  6
Continuous
 62
     7
100
AcDbLine
 10
1.903
 20
125.0059999999999
 30
0.0
 11
2.389
 21
125.0059999999999
 31
0.0
  0
LINE
  5
1E0
330
A
100
AcDbEntity
  8
PV
  6
Continuous
 62
     7
100
AcDbLine
 10
-1.338999999999999
 20
125.0059999999999
 30
0.0
 11
-0.8459999999999999
 21
125.0059999999999
 31
0.0
  0
LINE
  5
1E1
330
A
100
AcDbEntity
  8
PV
  6
Continuous
 62
     7
100
AcDbLine
 10
-3.302999999999999
 20
125.0059999999999
 30
0.0
 11
-2.828999999999999
 21
125.0059999999999
 31
0.0
  0
LINE
  5
1E2
330
A
100
AcDbEntity
  8
PV
  6
Continuous
 62
     7
100
AcDbLine
 10
-10.36499999999999
 20
125.0059999999999
 30
0.0
 11
-9.896
 21
125.0059999999999
 31
0.0
  0
LINE
  5
1E3
330
A
100
AcDbEntity
  8
PV
  6
Continuous
 62
     7
100
AcDbLine
 10
-14.977
 20
125.0059999999999
 30
0.0
 11
-14.502
 21
125.0059999999999
 31
0.0
  0
LINE
  5
1E4
330
A
100
AcDbEntity
  8
PV
  6
Continuous
 62
     7
100
AcDbLine
 10
-18.08699999999999
 20
125.0059999999999
 30
0.0
 11
-17.52799999999999
 21
125.0059999999999
 31
0.0
  0
LINE
  5
1E5
330
A
100
AcDbEntity
  8
PV
  6
Continuous
 62
     7
100
AcDbLine
 10
-20.908
 20
125.0059999999999
 30
0.0
 11
-20.325
 21
125.0059999999999
 31
0.0
  0
LINE
  5
1E6
330
A
100
AcDbEntity
  8
PV
  6
Continuous
 62
     7
100
AcDbLine
 10
-23.43599999999999
 20
125.0059999999999
 30
0.0
 11
-22.97099999999999
 21
125.0059999999999
 31
0.0
  0
LINE
  5
1E7
330
A
100
AcDbEntity
  8
PV
  6
Continuous
 62
     7
100
AcDbLine
 10
-25.535
 20
125.0059999999999
 30
0.0
 11
-25.014
 21
125.0059999999999
 31
0.0
  0
LINE
  5
1E8
330
A
100
AcDbEntity
  8
PV
  6
Continuous
 62
     7
100
AcDbLine
 10
-26.072
 20
125.0059999999999
 30
0.0
 11
-25.59099999999999
 21
125.0059999999999
 31
0.0
  0
LINE
  5
1E9
330
A
100
AcDbEntity
  8
PV
  6
Continuous
 62
     7
100
AcDbLine
 10
-30.146
 20
125.0059999999999
 30
0.0
 11
-29.67399999999999
 21
125.0059999999999
 31
0.0
  0
LINE
  5
1EA
330
A
100
AcDbEntity
  8
PV
  6
Continuous
 62
     7
100
AcDbLine
 10
-30.857
 20
125.0059999999999
 30
0.0
 11
-30.371
 21
125.0059999999999
 31
0.0
  0
LINE
  5
1EB
330
A
100
AcDbEntity
  8
PV
  6
Continuous
 62
     7
100
AcDbLine
 10
19.672
 20
124.0059999999999
 30
0.0
 11
20.705
 21
124.0059999999999
 31
0.0
  0
LINE
  5
1EC
330
A
100
AcDbEntity
  8
PV
  6
Continuous
 62
     7
100
AcDbLine
 10
15.019
 20
124.0059999999999
 30
0.0
 11
17.152
 21
124.0059999999999
 31
0.0
  0
LINE
  5
1ED
330
A
100
AcDbEntity
  8
PV
  6
Continuous
 62
     7
100
AcDbLine
 10
11.797
 20
124.0059999999999
 30
0.0
 11
12.29
 21
124.0059999999999
 31
0.0
  0
LINE
  5
1EE
330
A
100
AcDbEntity
  8
PV
  6
Continuous
 62
     7
100
AcDbLine
 10
10.37299999999999
 20
124.0059999999999
 30
0.0
 11
10.84799999999999
 21
124.0059999999999
 31
0.0
  0
LINE
  5
1EF
330
A
100
AcDbEntity
  8
PV
  6
Continuous
 62
     7
100
AcDbLine
 10
6.207
 20
124.0059999999999
 30
0.0
 11
6.682
 21
124.0059999999999
 31
0.0
  0
LINE
  5
1F0
330
A
100
AcDbEntity
  8
PV
  6
Continuous
 62
     7
100
AcDbLine
 10
2.881999999999999
 20
124.0059999999999
 30
0.0
 11
3.353999999999999
 21
124.0059999999999
 31
0.0
  0
LINE
  5
1F1
330
A
100
AcDbEntity
  8
PV
  6
Continuous
 62
     7
100
AcDbLine
 10
1.539
 20
124.0059999999999
 30
0.0
 11
2.024999999999999
 21
124.0059999999999
 31
0.0
  0
LINE
  5
1F2
330
A
100
AcDbEntity
  8
PV
  6
Continuous
 62
     7
100
AcDbLine
 10
-1.703
 20
124.0059999999999
 30
0.0
 11
-1.209999999999999
 21
124.0059999999999
 31
0.0
  0
LINE
  5
1F3
330
A
100
AcDbEntity
  8
PV
  6
Continuous
 62
     7
100
AcDbLine
 10
-3.126999999999999
 20
124.0059999999999
 30
0.0
 11
-2.651999999999999
 21
124.0059999999999
 31
0.0
  0
LINE
  5
1F4
330
A
100
AcDbEntity
  8
PV
  6
Continuous
 62
     7
100
AcDbLine
 10
-10.54099999999999
 20
124.0059999999999
 30
0.0
 11
-8.407999999999999
 21
124.0059999999999
 31
0.0
  0
LINE
  5
1F5
330
A
100
AcDbEntity
  8
PV
  6
Continuous
 62
     7
100
AcDbLine
 10
-15.15299999999999
 20
124.0059999999999
 30
0.0
 11
-14.67799999999999
 21
124.0059999999999
 31
0.0
  0
LINE
  5
1F6
330
A
100
AcDbEntity
  8
PV
  6
Continuous
 62
     7
100
AcDbLine
 10
-21.24099999999999
 20
124.0059999999999
 30
0.0
 11
-20.75499999999999
 21
124.0059999999999
 31
0.0
  0
LINE
  5
1F7
330
A
100
AcDbEntity
  8
PV
  6
Continuous
 62
     7
100
AcDbLine
 10
-23.61199999999999
 20
124.0059999999999
 30
0.0
 11
-23.14699999999999
 21
124.0059999999999
 31
0.0
  0
LINE
  5
1F8
330
A
100
AcDbEntity
  8
PV
  6
Continuous
 62
     7
100
AcDbLine
 10
-25.111
 20
124.0059999999999
 30
0.0
 11
-24.589
 21
124.0059999999999
 31
0.0
  0
LINE
  5
1F9
330
A
100
AcDbEntity
  8
PV
  6
Continuous
 62
     7
100
AcDbLine
 10
-26.248
 20
124.0059999999999
 30
0.0
 11
-25.768
 21
124.0059999999999
 31
0.0
  0
LINE
  5
1FA
330
A
100
AcDbEntity
  8
PV
  6
Continuous
 62
     7
100
AcDbLine
 10
-29.878
 20
124.0059999999999
 30
0.0
 11
-29.40599999999999
 21
124.0059999999999
 31
0.0
  0
LINE
  5
1FB
330
A
100
AcDbEntity
  8
PV
  6
Continuous
 62
     7
100
AcDbLine
 10
-31.221
 20
124.0059999999999
 30
0.0
 11
-30.735
 21
124.0059999999999
 31
0.0
  0
LINE
  5
1FC
330
A
100
AcDbEntity
  8
PV
  6
Continuous
 62
     7
100
AcDbLine
 10
20.978
 20
123.0059999999999
 30
0.0
 11
21.404
 21
123.0059999999999
 31
0.0
  0
LINE
  5
1FD
330
A
100
AcDbEntity
  8
PV
  6
Continuous
 62
     7
100
AcDbLine
 10
14.843
 20
123.0059999999999
 30
0.0
 11
15.311
 21
123.0059999999999
 31
0.0
  0
LINE
  5
1FE
330
A
100
AcDbEntity
  8
PV
  6
Continuous
 62
     7
100
AcDbLine
 10
11.43299999999999
 20
123.0059999999999
 30
0.0
 11
11.92599999999999
 21
123.0059999999999
 31
0.0
  0
LINE
  5
1FF
330
A
100
AcDbEntity
  8
PV
  6
Continuous
 62
     7
100
AcDbLine
 10
10.549
 20
123.0059999999999
 30
0.0
 11
11.024
 21
123.0059999999999
 31
0.0
  0
LINE
  5
200
330
A
100
AcDbEntity
  8
PV
  6
Continuous
 62
     7
100
AcDbLine
 10
6.031
 20
123.0059999999999
 30
0.0
 11
6.506
 21
123.0059999999999
 31
0.0
  0
LINE
  5
201
330
A
100
AcDbEntity
  8
PV
  6
Continuous
 62
     7
100
AcDbLine
 10
3.149999999999999
 20
123.0059999999999
 30
0.0
 11
3.621999999999999
 21
123.0059999999999
 31
0.0
  0
LINE
  5
202
330
A
100
AcDbEntity
  8
PV
  6
Continuous
 62
     7
100
AcDbLine
 10
1.175
 20
123.0059999999999
 30
0.0
 11
1.661
 21
123.0059999999999
 31
0.0
  0
LINE
  5
203
330
A
100
AcDbEntity
  8
PV
  6
Continuous
 62
     7
100
AcDbLine
 10
-2.066999999999999
 20
123.0059999999999
 30
0.0
 11
-1.574
 21
123.0059999999999
 31
0.0
  0
LINE
  5
204
330
A
100
AcDbEntity
  8
PV
  6
Continuous
 62
     7
100
AcDbLine
 10
-2.951
 20
123.0059999999999
 30
0.0
 11
-2.475999999999999
 21
123.0059999999999
 31
0.0
  0
LINE
  5
205
330
A
100
AcDbEntity
  8
PV
  6
Continuous
 62
     7
100
AcDbLine
 10
-10.717
 20
123.0059999999999
 30
0.0
 11
-10.249
 21
123.0059999999999
 31
0.0
  0
LINE
  5
206
330
A
100
AcDbEntity
  8
PV
  6
Continuous
 62
     7
100
AcDbLine
 10
-15.329
 20
123.0059999999999
 30
0.0
 11
-14.854
 21
123.0059999999999
 31
0.0
  0
LINE
  5
207
330
A
100
AcDbEntity
  8
PV
  6
Continuous
 62
     7
100
AcDbLine
 10
-17.96699999999999
 20
123.0059999999999
 30
0.0
 11
-17.445
 21
123.0059999999999
 31
0.0
  0
LINE
  5
208
330
A
100
AcDbEntity
  8
PV
  6
Continuous
 62
     7
100
AcDbLine
 10
-21.162
 20
123.0059999999999
 30
0.0
 11
-20.65599999999999
 21
123.0059999999999
 31
0.0
  0
LINE
  5
209
330
A
100
AcDbEntity
  8
PV
  6
Continuous
 62
     7
100
AcDbLine
 10
-23.788
 20
123.0059999999999
 30
0.0
 11
-23.324
 21
123.0059999999999
 31
0.0
  0
LINE
  5
20A
330
A
100
AcDbEntity
  8
PV
  6
Continuous
 62
     7
100
AcDbLine
 10
-24.686
 20
123.0059999999999
 30
0.0
 11
-24.165
 21
123.0059999999999
 31
0.0
  0
LINE
  5
20B
330
A
100
AcDbEntity
  8
PV
  6
Continuous
 62
     7
100
AcDbLine
 10
-26.424
 20
123.0059999999999
 30
0.0
 11
-25.944
 21
123.0059999999999
 31
0.0
  0
LINE
  5
20C
330
A
100
AcDbEntity
  8
PV
  6
Continuous
 62
     7
100
AcDbLine
 10
-29.61
 20
123.0059999999999
 30
0.0
 11
-29.138
 21
123.0059999999999
 31
0.0
  0
LINE
  5
20D
330
A
100
AcDbEntity
  8
PV
  6
Continuous
 62
     7
100
AcDbLine
 10
-31.585
 20
123.0059999999999
 30
0.0
 11
-31.099
 21
123.0059999999999
 31
0.0
  0
LINE
  5
20E
330
A
100
AcDbEntity
  8
PV
  6
Continuous
 62
     7
100
AcDbLine
 10
20.519
 20
122.0059999999999
 30
0.0
 11
21.15199999999999
 21
122.0059999999999
 31
0.0
  0
LINE
  5
20F
330
A
100
AcDbEntity
  8
PV
  6
Continuous
 62
     7
100
AcDbLine
 10
19.163
 20
122.0059999999999
 30
0.0
 11
19.79599999999999
 21
122.0059999999999
 31
0.0
  0
LINE
  5
210
330
A
100
AcDbEntity
  8
PV
  6
Continuous
 62
     7
100
AcDbLine
 10
14.66599999999999
 20
122.0059999999999
 30
0.0
 11
15.135
 21
122.0059999999999
 31
0.0
  0
LINE
  5
211
330
A
100
AcDbEntity
  8
PV
  6
Continuous
 62
     7
100
AcDbLine
 10
10.72599999999999
 20
122.0059999999999
 30
0.0
 11
11.562
 21
122.0059999999999
 31
0.0
  0
LINE
  5
212
330
A
100
AcDbEntity
  8
PV
  6
Continuous
 62
     7
100
AcDbLine
 10
5.854
 20
122.0059999999999
 30
0.0
 11
8.324999999999999
 21
122.0059999999999
 31
0.0
  0
LINE
  5
213
330
A
100
AcDbEntity
  8
PV
  6
Continuous
 62
     7
100
AcDbLine
 10
3.418
 20
122.0059999999999
 30
0.0
 11
3.89
 21
122.0059999999999
 31
0.0
  0
LINE
  5
214
330
A
100
AcDbEntity
  8
PV
  6
Continuous
 62
     7
100
AcDbLine
 10
0.812
 20
122.0059999999999
 30
0.0
 11
1.296999999999999
 21
122.0059999999999
 31
0.0
  0
LINE
  5
215
330
A
100
AcDbEntity
  8
PV
  6
Continuous
 62
     7
100
AcDbLine
 10
-2.773999999999999
 20
122.0059999999999
 30
0.0
 11
-1.938
 21
122.0059999999999
 31
0.0
  0
LINE
  5
216
330
A
100
AcDbEntity
  8
PV
  6
Continuous
 62
     7
100
AcDbLine
 10
-10.894
 20
122.0059999999999
 30
0.0
 11
-10.425
 21
122.0059999999999
 31
0.0
  0
LINE
  5
217
330
A
100
AcDbEntity
  8
PV
  6
Continuous
 62
     7
100
AcDbLine
 10
-15.506
 20
122.0059999999999
 30
0.0
 11
-13.035
 21
122.0059999999999
 31
0.0
  0
LINE
  5
218
330
A
100
AcDbEntity
  8
PV
  6
Continuous
 62
     7
100
AcDbLine
 10
-20.552
 20
122.0059999999999
 30
0.0
 11
-18.139
 21
122.0059999999999
 31
0.0
  0
LINE
  5
219
330
A
100
AcDbEntity
  8
PV
  6
Continuous
 62
     7
100
AcDbLine
 10
-24.26199999999999
 20
122.0059999999999
 30
0.0
 11
-23.5
 21
122.0059999999999
 31
0.0
  0
LINE
  5
21A
330
A
100
AcDbEntity
  8
PV
  6
Continuous
 62
     7
100
AcDbLine
 10
-26.60099999999999
 20
122.0059999999999
 30
0.0
 11
-26.12
 21
122.0059999999999
 31
0.0
  0
LINE
  5
21B
330
A
100
AcDbEntity
  8
PV
  6
Continuous
 62
     7
100
AcDbLine
 10
-29.342
 20
122.0059999999999
 30
0.0
 11
-28.87
 21
122.0059999999999
 31
0.0
  0
LINE
  5
21C
330
A
100
AcDbEntity
  8
PV
  6
Continuous
 62
     7
100
AcDbLine
 10
-31.949
 20
122.0059999999999
 30
0.0
 11
-31.463
 21
122.0059999999999
 31
0.0
  0
LINE
  5
21D
330
A
100
AcDbEntity
  8
PV
  6
Continuous
 62
     7
100
AcDbLine
 10
-26.68499999999999
 20
121.531
 30
0.0
 11
-26.204
 21
121.531
 31
0.0
  0
LINE
  5
21E
330
A
100
AcDbEntity
  8
PV
  6
Continuous
 62
     7
100
AcDbLine
 10
-25.881
 20
126.091
 30
0.0
 11
-25.474
 21
126.091
 31
0.0
  0
LINE
  5
21F
330
A
100
AcDbEntity
  8
PV
  6
Continuous
 62
     7
100
AcDbLine
 10
-23.584
 20
121.531
 30
0.0
 11
-22.78
 21
126.091
 31
0.0
  0
LINE
  5
220
330
A
100
AcDbEntity
  8
PV
  6
Continuous
 62
     7
100
AcDbLine
 10
-23.899
 20
122.3789999999999
 30
0.0
 11
-23.244
 21
126.091
 31
0.0
  0
LINE
  5
221
330
A
100
AcDbEntity
  8
PV
  6
Continuous
 62
     7
100
AcDbLine
 10
-26.204
 20
121.531
 30
0.0
 11
-25.575
 21
125.0999999999999
 31
0.0
  0
LINE
  5
222
330
A
100
AcDbEntity
  8
PV
  6
Continuous
 62
     7
100
AcDbLine
 10
-26.68499999999999
 20
121.531
 30
0.0
 11
-25.881
 21
126.091
 31
0.0
  0
LINE
  5
223
330
A
100
AcDbEntity
  8
PV
  6
Continuous
 62
     7
100
AcDbLine
 10
-25.575
 20
125.0999999999999
 30
0.0
 11
-24.06
 21
121.531
 31
0.0
  0
LINE
  5
224
330
A
100
AcDbEntity
  8
PV
  6
Continuous
 62
     7
100
AcDbLine
 10
-25.474
 20
126.091
 30
0.0
 11
-23.899
 21
122.3789999999999
 31
0.0
  0
LINE
  5
225
330
A
100
AcDbEntity
  8
PV
  6
Continuous
 62
     7
100
AcDbLine
 10
-24.06
 20
121.531
 30
0.0
 11
-23.584
 21
121.531
 31
0.0
  0
LINE
  5
226
330
A
100
AcDbEntity
  8
PV
  6
Continuous
 62
     7
100
AcDbLine
 10
-23.244
 20
126.091
 30
0.0
 11
-22.78
 21
126.091
 31
0.0
  0
LINE
  5
227
330
A
100
AcDbEntity
  8
PV
  6
Continuous
 62
     7
100
AcDbLine
 10
-18.663
 20
123.811
 30
0.0
 11
-17.282
 21
123.811
 31
0.0
  0
LINE
  5
228
330
A
100
AcDbEntity
  8
PV
  6
Continuous
 62
     7
100
AcDbLine
 10
-17.83299999999999
 20
124.468
 30
0.0
 11
-17.381
 21
124.632
 31
0.0
  0
LINE
  5
229
330
A
100
AcDbEntity
  8
PV
  6
Continuous
 62
     7
100
AcDbLine
 10
-18.74299999999999
 20
123.355
 30
0.0
 11
-18.663
 21
123.811
 31
0.0
  0
LINE
  5
22A
330
A
100
AcDbEntity
  8
PV
  6
Continuous
 62
     7
100
AcDbLine
 10
-18.74299999999999
 20
123.355
 30
0.0
 11
-17.83599999999999
 21
123.355
 31
0.0
  0
LINE
  5
22B
330
A
100
AcDbEntity
  8
PV
  6
Continuous
 62
     7
100
AcDbLine
 10
-32.121
 20
121.531
 30
0.0
 11
-31.636
 21
121.531
 31
0.0
  0
LINE
  5
22C
330
A
100
AcDbEntity
  8
PV
  6
Continuous
 62
     7
100
AcDbLine
 10
-30.462
 20
126.091
 30
0.0
 11
-29.965
 21
126.091
 31
0.0
  0
LINE
  5
22D
330
A
100
AcDbEntity
  8
PV
  6
Continuous
 62
     7
100
AcDbLine
 10
-32.121
 20
121.531
 30
0.0
 11
-30.462
 21
126.091
 31
0.0
  0
LINE
  5
22E
330
A
100
AcDbEntity
  8
PV
  6
Continuous
 62
     7
100
AcDbLine
 10
-31.636
 20
121.531
 30
0.0
 11
-31.284
 21
122.499
 31
0.0
  0
LINE
  5
22F
330
A
100
AcDbEntity
  8
PV
  6
Continuous
 62
     7
100
AcDbLine
 10
-29.965
 20
126.091
 30
0.0
 11
-28.743
 21
121.531
 31
0.0
  0
LINE
  5
230
330
A
100
AcDbEntity
  8
PV
  6
Continuous
 62
     7
100
AcDbLine
 10
-30.24199999999999
 20
125.363
 30
0.0
 11
-29.601
 21
122.9739999999999
 31
0.0
  0
LINE
  5
231
330
A
100
AcDbEntity
  8
PV
  6
Continuous
 62
     7
100
AcDbLine
 10
-29.21499999999999
 20
121.531
 30
0.0
 11
-28.743
 21
121.531
 31
0.0
  0
LINE
  5
232
330
A
100
AcDbEntity
  8
PV
  6
Continuous
 62
     7
100
AcDbLine
 10
-31.284
 20
122.499
 30
0.0
 11
-29.474
 21
122.499
 31
0.0
  0
LINE
  5
233
330
A
100
AcDbEntity
  8
PV
  6
Continuous
 62
     7
100
AcDbLine
 10
-31.111
 20
122.9739999999999
 30
0.0
 11
-29.601
 21
122.9739999999999
 31
0.0
  0
LINE
  5
234
330
A
100
AcDbEntity
  8
PV
  6
Continuous
 62
     7
100
AcDbLine
 10
-31.111
 20
122.9739999999999
 30
0.0
 11
-30.24199999999999
 21
125.363
 31
0.0
  0
LINE
  5
235
330
A
100
AcDbEntity
  8
PV
  6
Continuous
 62
     7
100
AcDbLine
 10
-29.474
 20
122.499
 30
0.0
 11
-29.21499999999999
 21
121.531
 31
0.0
  0
LINE
  5
236
330
A
100
AcDbEntity
  8
PV
  6
Continuous
 62
     7
100
AcDbLine
 10
-15.589
 20
121.531
 30
0.0
 11
-13.119
 21
121.531
 31
0.0
  0
LINE
  5
237
330
A
100
AcDbEntity
  8
PV
  6
Continuous
 62
     7
100
AcDbLine
 10
-14.785
 20
126.091
 30
0.0
 11
-14.31
 21
126.091
 31
0.0
  0
LINE
  5
238
330
A
100
AcDbEntity
  8
PV
  6
Continuous
 62
     7
100
AcDbLine
 10
-13.119
 20
121.531
 30
0.0
 11
-13.033
 21
122.016
 31
0.0
  0
LINE
  5
239
330
A
100
AcDbEntity
  8
PV
  6
Continuous
 62
     7
100
AcDbLine
 10
-15.589
 20
121.531
 30
0.0
 11
-14.785
 21
126.091
 31
0.0
  0
LINE
  5
23A
330
A
100
AcDbEntity
  8
PV
  6
Continuous
 62
     7
100
AcDbLine
 10
-15.029
 20
122.016
 30
0.0
 11
-14.31
 21
126.091
 31
0.0
  0
LINE
  5
23B
330
A
100
AcDbEntity
  8
PV
  6
Continuous
 62
     7
100
AcDbLine
 10
-15.029
 20
122.016
 30
0.0
 11
-13.033
 21
122.016
 31
0.0
  0
LINE
  5
23C
330
A
100
AcDbEntity
  8
PV
  6
Continuous
 62
     7
100
AcDbLine
 10
-10.173
 20
126.091
 30
0.0
 11
-8.039999999999999
 21
126.091
 31
0.0
  0
LINE
  5
23D
330
A
100
AcDbEntity
  8
PV
  6
Continuous
 62
     7
100
AcDbLine
 10
-10.977
 20
121.531
 30
0.0
 11
-8.843999999999999
 21
121.531
 31
0.0
  0
LINE
  5
23E
330
A
100
AcDbEntity
  8
PV
  6
Continuous
 62
     7
100
AcDbLine
 10
-10.978
 20
121.531
 30
0.0
 11
-10.173
 21
126.091
 31
0.0
  0
LINE
  5
23F
330
A
100
AcDbEntity
  8
PV
  6
Continuous
 62
     7
100
AcDbLine
 10
-8.843999999999999
 20
121.531
 30
0.0
 11
-8.762999999999999
 21
121.995
 31
0.0
  0
LINE
  5
240
330
A
100
AcDbEntity
  8
PV
  6
Continuous
 62
     7
100
AcDbLine
 10
-10.15
 20
123.5649999999999
 30
0.0
 11
-8.486
 21
123.5649999999999
 31
0.0
  0
LINE
  5
241
330
A
100
AcDbEntity
  8
PV
  6
Continuous
 62
     7
100
AcDbLine
 10
-10.067
 20
124.036
 30
0.0
 11
-8.402999999999998
 21
124.036
 31
0.0
  0
LINE
  5
242
330
A
100
AcDbEntity
  8
PV
  6
Continuous
 62
     7
100
AcDbLine
 10
-9.792999999999999
 20
125.59
 30
0.0
 11
-8.128999999999999
 21
125.59
 31
0.0
  0
LINE
  5
243
330
A
100
AcDbEntity
  8
PV
  6
Continuous
 62
     7
100
AcDbLine
 10
-10.42699999999999
 20
121.995
 30
0.0
 11
-8.762999999999999
 21
121.995
 31
0.0
  0
LINE
  5
244
330
A
100
AcDbEntity
  8
PV
  6
Continuous
 62
     7
100
AcDbLine
 10
-10.42699999999999
 20
121.995
 30
0.0
 11
-10.15
 21
123.5649999999999
 31
0.0
  0
LINE
  5
245
330
A
100
AcDbEntity
  8
PV
  6
Continuous
 62
     7
100
AcDbLine
 10
-8.486
 20
123.5649999999999
 30
0.0
 11
-8.402999999999998
 21
124.036
 31
0.0
  0
LINE
  5
246
330
A
100
AcDbEntity
  8
PV
  6
Continuous
 62
     7
100
AcDbLine
 10
-8.128999999999999
 20
125.59
 30
0.0
 11
-8.039999999999999
 21
126.091
 31
0.0
  0
LINE
  5
247
330
A
100
AcDbEntity
  8
PV
  6
Continuous
 62
     7
100
AcDbLine
 10
-10.067
 20
124.036
 30
0.0
 11
-9.792999999999999
 21
125.59
 31
0.0
  0
LINE
  5
248
330
A
100
AcDbEntity
  8
PV
  6
Continuous
 62
     7
100
AcDbLine
 10
0.6390000000000001
 20
121.531
 30
0.0
 11
1.124
 21
121.531
 31
0.0
  0
LINE
  5
249
330
A
100
AcDbEntity
  8
PV
  6
Continuous
 62
     7
100
AcDbLine
 10
2.298
 20
126.091
 30
0.0
 11
2.794999999999999
 21
126.091
 31
0.0
  0
LINE
  5
24A
330
A
100
AcDbEntity
  8
PV
  6
Continuous
 62
     7
100
AcDbLine
 10
0.6390000000000001
 20
121.531
 30
0.0
 11
2.298
 21
126.091
 31
0.0
  0
LINE
  5
24B
330
A
100
AcDbEntity
  8
PV
  6
Continuous
 62
     7
100
AcDbLine
 10
1.124
 20
121.531
 30
0.0
 11
1.475999999999999
 21
122.499
 31
0.0
  0
LINE
  5
24C
330
A
100
AcDbEntity
  8
PV
  6
Continuous
 62
     7
100
AcDbLine
 10
2.794999999999999
 20
126.091
 30
0.0
 11
4.016999999999999
 21
121.531
 31
0.0
  0
LINE
  5
24D
330
A
100
AcDbEntity
  8
PV
  6
Continuous
 62
     7
100
AcDbLine
 10
2.518
 20
125.363
 30
0.0
 11
3.158999999999999
 21
122.9739999999999
 31
0.0
  0
LINE
  5
24E
330
A
100
AcDbEntity
  8
PV
  6
Continuous
 62
     7
100
AcDbLine
 10
3.544999999999999
 20
121.531
 30
0.0
 11
4.016999999999999
 21
121.531
 31
0.0
  0
LINE
  5
24F
330
A
100
AcDbEntity
  8
PV
  6
Continuous
 62
     7
100
AcDbLine
 10
1.475999999999999
 20
122.499
 30
0.0
 11
3.286
 21
122.499
 31
0.0
  0
LINE
  5
250
330
A
100
AcDbEntity
  8
PV
  6
Continuous
 62
     7
100
AcDbLine
 10
1.649
 20
122.9739999999999
 30
0.0
 11
3.158999999999999
 21
122.9739999999999
 31
0.0
  0
LINE
  5
251
330
A
100
AcDbEntity
  8
PV
  6
Continuous
 62
     7
100
AcDbLine
 10
1.649
 20
122.9739999999999
 30
0.0
 11
2.518
 21
125.363
 31
0.0
  0
LINE
  5
252
330
A
100
AcDbEntity
  8
PV
  6
Continuous
 62
     7
100
AcDbLine
 10
3.286
 20
122.499
 30
0.0
 11
3.544999999999999
 21
121.531
 31
0.0
  0
LINE
  5
253
330
A
100
AcDbEntity
  8
PV
  6
Continuous
 62
     7
100
AcDbLine
 10
5.770999999999999
 20
121.531
 30
0.0
 11
8.240999999999999
 21
121.531
 31
0.0
  0
LINE
  5
254
330
A
100
AcDbEntity
  8
PV
  6
Continuous
 62
     7
100
AcDbLine
 10
6.575
 20
126.091
 30
0.0
 11
7.049999999999999
 21
126.091
 31
0.0
  0
LINE
  5
255
330
A
100
AcDbEntity
  8
PV
  6
Continuous
 62
     7
100
AcDbLine
 10
15.387
 20
126.091
 30
0.0
 11
17.51999999999999
 21
126.091
 31
0.0
  0
LINE
  5
256
330
A
100
AcDbEntity
  8
PV
  6
Continuous
 62
     7
100
AcDbLine
 10
14.582
 20
121.531
 30
0.0
 11
16.71599999999999
 21
121.531
 31
0.0
  0
LINE
  5
257
330
A
100
AcDbEntity
  8
PV
  6
Continuous
 62
     7
100
AcDbLine
 10
8.240999999999999
 20
121.531
 30
0.0
 11
8.326999999999999
 21
122.016
 31
0.0
  0
LINE
  5
258
330
A
100
AcDbEntity
  8
PV
  6
Continuous
 62
     7
100
AcDbLine
 10
5.770999999999999
 20
121.531
 30
0.0
 11
6.575
 21
126.091
 31
0.0
  0
LINE
  5
259
330
A
100
AcDbEntity
  8
PV
  6
Continuous
 62
     7
100
AcDbLine
 10
6.331
 20
122.016
 30
0.0
 11
7.049999999999999
 21
126.091
 31
0.0
  0
LINE
  5
25A
330
A
100
AcDbEntity
  8
PV
  6
Continuous
 62
     7
100
AcDbLine
 10
6.331
 20
122.016
 30
0.0
 11
8.326999999999999
 21
122.016
 31
0.0
  0
LINE
  5
25B
330
A
100
AcDbEntity
  8
PV
  6
Continuous
 62
     7
100
AcDbLine
 10
14.583
 20
121.531
 30
0.0
 11
15.387
 21
126.091
 31
0.0
  0
LINE
  5
25C
330
A
100
AcDbEntity
  8
PV
  6
Continuous
 62
     7
100
AcDbLine
 10
16.71599999999999
 20
121.531
 30
0.0
 11
16.797
 21
121.995
 31
0.0
  0
LINE
  5
25D
330
A
100
AcDbEntity
  8
PV
  6
Continuous
 62
     7
100
AcDbLine
 10
15.41
 20
123.5649999999999
 30
0.0
 11
17.074
 21
123.5649999999999
 31
0.0
  0
LINE
  5
25E
330
A
100
AcDbEntity
  8
PV
  6
Continuous
 62
     7
100
AcDbLine
 10
15.493
 20
124.036
 30
0.0
 11
17.157
 21
124.036
 31
0.0
  0
LINE
  5
25F
330
A
100
AcDbEntity
  8
PV
  6
Continuous
 62
     7
100
AcDbLine
 10
15.767
 20
125.59
 30
0.0
 11
17.43099999999999
 21
125.59
 31
0.0
  0
LINE
  5
260
330
A
100
AcDbEntity
  8
PV
  6
Continuous
 62
     7
100
AcDbLine
 10
15.133
 20
121.995
 30
0.0
 11
16.797
 21
121.995
 31
0.0
  0
LINE
  5
261
330
A
100
AcDbEntity
  8
PV
  6
Continuous
 62
     7
100
AcDbLine
 10
15.133
 20
121.995
 30
0.0
 11
15.41
 21
123.5649999999999
 31
0.0
  0
LINE
  5
262
330
A
100
AcDbEntity
  8
PV
  6
Continuous
 62
     7
100
AcDbLine
 10
17.074
 20
123.5649999999999
 30
0.0
 11
17.157
 21
124.036
 31
0.0
  0
LINE
  5
263
330
A
100
AcDbEntity
  8
PV
  6
Continuous
 62
     7
100
AcDbLine
 10
17.43099999999999
 20
125.59
 30
0.0
 11
17.51999999999999
 21
126.091
 31
0.0
  0
LINE
  5
264
330
A
100
AcDbEntity
  8
PV
  6
Continuous
 62
     7
100
AcDbLine
 10
15.493
 20
124.036
 30
0.0
 11
15.767
 21
125.59
 31
0.0
  0
LINE
  5
265
330
A
100
AcDbEntity
  8
PV
  6
Continuous
 62
     7
100
AcDbLine
 10
10.809
 20
121.531
 30
0.0
 11
11.389
 21
121.531
 31
0.0
  0
LINE
  5
266
330
A
100
AcDbEntity
  8
PV
  6
Continuous
 62
     7
100
AcDbLine
 10
10.005
 20
126.091
 30
0.0
 11
10.48
 21
126.091
 31
0.0
  0
LINE
  5
267
330
A
100
AcDbEntity
  8
PV
  6
Continuous
 62
     7
100
AcDbLine
 10
11.389
 20
121.531
 30
0.0
 11
13.049
 21
126.091
 31
0.0
  0
LINE
  5
268
330
A
100
AcDbEntity
  8
PV
  6
Continuous
 62
     7
100
AcDbLine
 10
11.15799999999999
 20
122.249
 30
0.0
 11
12.556
 21
126.091
 31
0.0
  0
LINE
  5
269
330
A
100
AcDbEntity
  8
PV
  6
Continuous
 62
     7
100
AcDbLine
 10
10.48
 20
126.091
 30
0.0
 11
11.15799999999999
 21
122.249
 31
0.0
  0
LINE
  5
26A
330
A
100
AcDbEntity
  8
PV
  6
Continuous
 62
     7
100
AcDbLine
 10
10.005
 20
126.091
 30
0.0
 11
10.809
 21
121.531
 31
0.0
  0
LINE
  5
26B
330
A
100
AcDbEntity
  8
PV
  6
Continuous
 62
     7
100
AcDbLine
 10
12.556
 20
126.091
 30
0.0
 11
13.049
 21
126.091
 31
0.0
  0
LINE
  5
26C
330
A
100
AcDbEntity
  8
PV
  6
Continuous
 62
     7
100
AcDbLine
 10
-2.691
 20
121.531
 30
0.0
 11
-2.110999999999999
 21
121.531
 31
0.0
  0
LINE
  5
26D
330
A
100
AcDbEntity
  8
PV
  6
Continuous
 62
     7
100
AcDbLine
 10
-3.495
 20
126.091
 30
0.0
 11
-3.02
 21
126.091
 31
0.0
  0
LINE
  5
26E
330
A
100
AcDbEntity
  8
PV
  6
Continuous
 62
     7
100
AcDbLine
 10
-2.110999999999999
 20
121.531
 30
0.0
 11
-0.451
 21
126.091
 31
0.0
  0
LINE
  5
26F
330
A
100
AcDbEntity
  8
PV
  6
Continuous
 62
     7
100
AcDbLine
 10
-2.342
 20
122.249
 30
0.0
 11
-0.9440000000000001
 21
126.091
 31
0.0
  0
LINE
  5
270
330
A
100
AcDbEntity
  8
PV
  6
Continuous
 62
     7
100
AcDbLine
 10
-3.02
 20
126.091
 30
0.0
 11
-2.342
 21
122.249
 31
0.0
  0
LINE
  5
271
330
A
100
AcDbEntity
  8
PV
  6
Continuous
 62
     7
100
AcDbLine
 10
-3.495
 20
126.091
 30
0.0
 11
-2.691
 21
121.531
 31
0.0
  0
LINE
  5
272
330
A
100
AcDbEntity
  8
PV
  6
Continuous
 62
     7
100
AcDbLine
 10
-0.9440000000000001
 20
126.091
 30
0.0
 11
-0.451
 21
126.091
 31
0.0
  0
LINE
  5
273
330
A
100
AcDbEntity
  8
PV
  6
Continuous
 62
     7
100
AcDbLine
 10
18.955
 20
122.425
 30
0.0
 11
19.333
 21
122.6429999999999
 31
0.0
  0
LINE
  5
274
330
A
100
AcDbEntity
  8
PV
  6
Continuous
 62
     7
100
AcDbLine
 10
21.84
 20
125.247
 30
0.0
 11
21.46199999999999
 21
125.0279999999999
 31
0.0
  0
LINE
  5
275
330
A
100
AcDbEntity
  8
PV
  6
Continuous
 62
     7
100
AcDbLine
 10
20.139
 20
123.641
 30
0.0
 11
20.619
 21
123.5689999999999
 31
0.0
  0
LINE
  5
276
330
A
100
AcDbEntity
  8
PV
  6
Continuous
 62
     7
100
AcDbLine
 10
20.184
 20
124.0979999999999
 30
0.0
 11
20.65599999999999
 21
124.0299999999999
 31
0.0
  0
LWPOLYLINE
  5
277
330
A
100
AcDbEntity
  8
PV
  6
Continuous
 62
     7
100
AcDbPolyline
 90
      113
 70
     0
 43
0.0
 10
-18.873
 20
126.0569999999999
 10
-18.95799999999999
 20
126.069
 10
-19.045
 20
126.078
 10
-19.131
 20
126.082
 10
-19.218
 20
126.082
 10
-19.304
 20
126.078
 10
-19.39099999999999
 20
126.069
 10
-19.47799999999999
 20
126.0559999999999
 10
-19.564
 20
126.039
 10
-19.649
 20
126.017
 10
-19.734
 20
125.991
 10
-19.81799999999999
 20
125.9619999999999
 10
-19.90099999999999
 20
125.9279999999999
 10
-19.983
 20
125.89
 10
-20.06299999999999
 20
125.848
 10
-20.142
 20
125.802
 10
-20.219
 20
125.752
 10
-20.294
 20
125.699
 10
-20.36799999999999
 20
125.642
 10
-20.439
 20
125.582
 10
-20.508
 20
125.5179999999999
 10
-20.575
 20
125.451
 10
-20.63899999999999
 20
125.381
 10
-20.701
 20
125.3079999999999
 10
-20.76
 20
125.232
 10
-20.81599999999999
 20
125.153
 10
-20.86899999999999
 20
125.072
 10
-20.919
 20
124.988
 10
-20.966
 20
124.902
 10
-21.01
 20
124.814
 10
-21.04999999999999
 20
124.7239999999999
 10
-21.087
 20
124.6329999999999
 10
-21.12099999999999
 20
124.54
 10
-21.15099999999999
 20
124.445
 10
-21.177
 20
124.3489999999999
 10
-21.2
 20
124.2529999999999
 10
-21.219
 20
124.1549999999999
 10
-21.234
 20
124.0569999999999
 10
-21.246
 20
123.9579999999999
 10
-21.254
 20
123.859
 10
-21.258
 20
123.76
 10
-21.258
 20
123.6609999999999
 10
-21.255
 20
123.562
 10
-21.248
 20
123.4639999999999
 10
-21.23699999999999
 20
123.3659999999999
 10
-21.22199999999999
 20
123.2699999999999
 10
-21.204
 20
123.174
 10
-21.18099999999999
 20
123.079
 10
-21.156
 20
122.986
 10
-21.126
 20
122.8949999999999
 10
-21.093
 20
122.805
 10
-21.057
 20
122.717
 10
-21.017
 20
122.631
 10
-20.97399999999999
 20
122.5479999999999
 10
-20.92799999999999
 20
122.467
 10
-20.878
 20
122.3879999999999
 10
-20.826
 20
122.312
 10
-20.76999999999999
 20
122.2389999999999
 10
-20.712
 20
122.1689999999999
 10
-20.651
 20
122.1019999999999
 10
-20.58699999999999
 20
122.039
 10
-20.521
 20
121.9779999999999
 10
-20.452
 20
121.922
 10
-20.381
 20
121.8679999999999
 10
-20.308
 20
121.819
 10
-20.233
 20
121.7729999999999
 10
-20.156
 20
121.731
 10
-20.078
 20
121.693
 10
-19.99699999999999
 20
121.6599999999999
 10
-19.916
 20
121.6299999999999
 10
-19.83299999999999
 20
121.604
 10
-19.75
 20
121.5829999999999
 10
-19.66499999999999
 20
121.5659999999999
 10
-19.579
 20
121.5529999999999
 10
-19.493
 20
121.544
 10
-19.407
 20
121.54
 10
-19.32
 20
121.54
 10
-19.233
 20
121.545
 10
-19.147
 20
121.5529999999999
 10
-19.05999999999999
 20
121.5659999999999
 10
-18.974
 20
121.584
 10
-18.88899999999999
 20
121.605
 10
-18.804
 20
121.631
 10
-18.71999999999999
 20
121.6609999999999
 10
-18.637
 20
121.6949999999999
 10
-18.555
 20
121.733
 10
-18.475
 20
121.775
 10
-18.396
 20
121.821
 10
-18.319
 20
121.87
 10
-18.24399999999999
 20
121.9229999999999
 10
-18.17
 20
121.9799999999999
 10
-18.099
 20
122.0409999999999
 10
-18.03
 20
122.1049999999999
 10
-17.963
 20
122.172
 10
-17.899
 20
122.242
 10
-17.837
 20
122.3149999999999
 10
-17.778
 20
122.391
 10
-17.722
 20
122.469
 10
-17.669
 20
122.551
 10
-17.61899999999999
 20
122.6339999999999
 10
-17.572
 20
122.72
 10
-17.52799999999999
 20
122.808
 10
-17.488
 20
122.8979999999999
 10
-17.451
 20
122.9899999999999
 10
-17.417
 20
123.083
 10
-17.387
 20
123.177
 10
-17.361
 20
123.2729999999999
 10
-17.338
 20
123.37
 10
-17.319
 20
123.467
 10
-17.304
 20
123.5659999999999
 10
-17.292
 20
123.6639999999999
 10
-17.284
 20
123.763
 10
-17.282
 20
123.811
  0
LWPOLYLINE
  5
278
330
A
100
AcDbEntity
  8
PV
  6
Continuous
 62
     7
100
AcDbPolyline
 90
       26
 70
     0
 43
0.0
 10
-17.381
 20
124.6329999999999
 10
-17.382
 20
124.636
 10
-17.412
 20
124.7279999999999
 10
-17.445
 20
124.817
 10
-17.48099999999999
 20
124.9049999999999
 10
-17.521
 20
124.991
 10
-17.564
 20
125.075
 10
-17.61
 20
125.156
 10
-17.66
 20
125.234
 10
-17.712
 20
125.31
 10
-17.768
 20
125.383
 10
-17.826
 20
125.4529999999999
 10
-17.887
 20
125.52
 10
-17.951
 20
125.584
 10
-18.017
 20
125.644
 10
-18.086
 20
125.701
 10
-18.157
 20
125.7539999999999
 10
-18.23
 20
125.804
 10
-18.30499999999999
 20
125.8489999999999
 10
-18.382
 20
125.8909999999999
 10
-18.46
 20
125.929
 10
-18.54
 20
125.963
 10
-18.62199999999999
 20
125.992
 10
-18.70499999999999
 20
126.0179999999999
 10
-18.788
 20
126.039
 10
-18.873
 20
126.0569999999999
  0
LWPOLYLINE
  5
279
330
A
100
AcDbEntity
  8
PV
  6
Continuous
 62
     7
100
AcDbPolyline
 90
       94
 70
     0
 43
0.0
 10
18.954
 20
122.426
 10
18.95599999999999
 20
122.4199999999999
 10
18.97299999999999
 20
122.3659999999999
 10
18.993
 20
122.312
 10
19.015
 20
122.26
 10
19.03999999999999
 20
122.208
 10
19.066
 20
122.157
 10
19.09499999999999
 20
122.1079999999999
 10
19.125
 20
122.06
 10
19.158
 20
122.014
 10
19.192
 20
121.9689999999999
 10
19.22799999999999
 20
121.926
 10
19.26599999999999
 20
121.8839999999999
 10
19.30599999999999
 20
121.8439999999999
 10
19.348
 20
121.8059999999999
 10
19.39
 20
121.77
 10
19.435
 20
121.7359999999999
 10
19.48
 20
121.7039999999999
 10
19.527
 20
121.6739999999999
 10
19.576
 20
121.647
 10
19.625
 20
121.621
 10
19.675
 20
121.598
 10
19.72599999999999
 20
121.577
 10
19.77899999999999
 20
121.5589999999999
 10
19.831
 20
121.5419999999999
 10
19.885
 20
121.5289999999999
 10
19.939
 20
121.517
 10
19.99299999999999
 20
121.509
 10
20.04799999999999
 20
121.502
 10
20.102
 20
121.499
 10
20.157
 20
121.497
 10
20.21199999999999
 20
121.499
 10
20.26699999999999
 20
121.502
 10
20.322
 20
121.509
 10
20.37599999999999
 20
121.517
 10
20.43
 20
121.5289999999999
 10
20.484
 20
121.5419999999999
 10
20.53599999999999
 20
121.5589999999999
 10
20.588
 20
121.577
 10
20.64
 20
121.598
 10
20.69
 20
121.621
 10
20.739
 20
121.647
 10
20.78699999999999
 20
121.6739999999999
 10
20.834
 20
121.7039999999999
 10
20.88
 20
121.7359999999999
 10
20.924
 20
121.77
 10
20.96699999999999
 20
121.8059999999999
 10
21.009
 20
121.8439999999999
 10
21.048
 20
121.8839999999999
 10
21.086
 20
121.926
 10
21.123
 20
121.9689999999999
 10
21.15699999999999
 20
122.014
 10
21.19
 20
122.06
 10
21.21999999999999
 20
122.1079999999999
 10
21.249
 20
122.157
 10
21.27499999999999
 20
122.208
 10
21.299
 20
122.26
 10
21.322
 20
122.312
 10
21.34099999999999
 20
122.3659999999999
 10
21.359
 20
122.4199999999999
 10
21.375
 20
122.476
 10
21.388
 20
122.532
 10
21.398
 20
122.5879999999999
 10
21.40699999999999
 20
122.645
 10
21.413
 20
122.702
 10
21.41599999999999
 20
122.76
 10
21.41699999999999
 20
122.817
 10
21.41599999999999
 20
122.875
 10
21.413
 20
122.9319999999999
 10
21.40699999999999
 20
122.9899999999999
 10
21.398
 20
123.047
 10
21.388
 20
123.103
 10
21.375
 20
123.1589999999999
 10
21.359
 20
123.214
 10
21.34099999999999
 20
123.2689999999999
 10
21.322
 20
123.323
 10
21.299
 20
123.375
 10
21.27499999999999
 20
123.427
 10
21.249
 20
123.477
 10
21.21999999999999
 20
123.527
 10
21.19
 20
123.575
 10
21.15699999999999
 20
123.621
 10
21.123
 20
123.666
 10
21.086
 20
123.709
 10
21.048
 20
123.751
 10
21.009
 20
123.791
 10
20.96699999999999
 20
123.8289999999999
 10
20.924
 20
123.865
 10
20.88
 20
123.899
 10
20.834
 20
123.9309999999999
 10
20.78699999999999
 20
123.961
 10
20.739
 20
123.988
 10
20.69
 20
124.014
 10
20.65599999999999
 20
124.0289999999999
  0
LWPOLYLINE
  5
27A
330
A
100
AcDbEntity
  8
PV
  6
Continuous
 62
     7
100
AcDbPolyline
 90
       94
 70
     0
 43
0.0
 10
21.84099999999999
 20
125.246
 10
21.839
 20
125.251
 10
21.82099999999999
 20
125.3049999999999
 10
21.802
 20
125.3589999999999
 10
21.779
 20
125.412
 10
21.75499999999999
 20
125.4639999999999
 10
21.72899999999999
 20
125.5139999999999
 10
21.69999999999999
 20
125.5629999999999
 10
21.67
 20
125.611
 10
21.63699999999999
 20
125.6579999999999
 10
21.603
 20
125.7029999999999
 10
21.566
 20
125.746
 10
21.528
 20
125.787
 10
21.489
 20
125.827
 10
21.44699999999999
 20
125.865
 10
21.404
 20
125.901
 10
21.36
 20
125.9349999999999
 10
21.314
 20
125.967
 10
21.267
 20
125.997
 10
21.219
 20
126.025
 10
21.17
 20
126.0499999999999
 10
21.12
 20
126.0739999999999
 10
21.068
 20
126.0939999999999
 10
21.01599999999999
 20
126.113
 10
20.964
 20
126.129
 10
20.91
 20
126.1429999999999
 10
20.85599999999999
 20
126.1539999999999
 10
20.802
 20
126.163
 10
20.74699999999999
 20
126.1689999999999
 10
20.69199999999999
 20
126.1729999999999
 10
20.63699999999999
 20
126.1739999999999
 10
20.58199999999999
 20
126.1729999999999
 10
20.528
 20
126.1689999999999
 10
20.47299999999999
 20
126.163
 10
20.419
 20
126.1539999999999
 10
20.36499999999999
 20
126.1429999999999
 10
20.31099999999999
 20
126.129
 10
20.259
 20
126.113
 10
20.207
 20
126.0939999999999
 10
20.155
 20
126.0739999999999
 10
20.10499999999999
 20
126.0499999999999
 10
20.05599999999999
 20
126.025
 10
20.007
 20
125.997
 10
19.96
 20
125.967
 10
19.915
 20
125.9349999999999
 10
19.87
 20
125.901
 10
19.828
 20
125.865
 10
19.78599999999999
 20
125.827
 10
19.74599999999999
 20
125.787
 10
19.70799999999999
 20
125.746
 10
19.672
 20
125.7029999999999
 10
19.63799999999999
 20
125.6579999999999
 10
19.605
 20
125.611
 10
19.57499999999999
 20
125.5629999999999
 10
19.546
 20
125.5139999999999
 10
19.51999999999999
 20
125.4639999999999
 10
19.496
 20
125.412
 10
19.473
 20
125.3589999999999
 10
19.45299999999999
 20
125.3049999999999
 10
19.43599999999999
 20
125.251
 10
19.42
 20
125.1959999999999
 10
19.407
 20
125.14
 10
19.397
 20
125.083
 10
19.38799999999999
 20
125.026
 10
19.382
 20
124.9689999999999
 10
19.379
 20
124.912
 10
19.37699999999999
 20
124.8539999999999
 10
19.379
 20
124.796
 10
19.382
 20
124.7389999999999
 10
19.38799999999999
 20
124.682
 10
19.397
 20
124.625
 10
19.407
 20
124.5679999999999
 10
19.42
 20
124.512
 10
19.43599999999999
 20
124.457
 10
19.45299999999999
 20
124.4029999999999
 10
19.473
 20
124.3489999999999
 10
19.496
 20
124.296
 10
19.51999999999999
 20
124.245
 10
19.546
 20
124.194
 10
19.57499999999999
 20
124.1449999999999
 10
19.605
 20
124.097
 10
19.63799999999999
 20
124.0499999999999
 10
19.672
 20
124.0059999999999
 10
19.70799999999999
 20
123.962
 10
19.74599999999999
 20
123.921
 10
19.78599999999999
 20
123.8809999999999
 10
19.828
 20
123.8429999999999
 10
19.87
 20
123.807
 10
19.915
 20
123.7729999999999
 10
19.96
 20
123.741
 10
20.007
 20
123.7109999999999
 10
20.05599999999999
 20
123.6829999999999
 10
20.10499999999999
 20
123.6579999999999
 10
20.13799999999999
 20
123.642
  0
LINE
  5
27B
330
A
100
AcDbEntity
  8
PV
  6
Continuous
 62
     7
100
AcDbLine
 10
26.0
 20
145.5419999999999
 30
0.0
 11
29.0
 21
147.2739999999999
 31
0.0
  0
LINE
  5
27C
330
A
100
AcDbEntity
  8
PV
  6
Continuous
 62
     7
100
AcDbLine
 10
23.0
 20
150.7379999999999
 30
0.0
 11
26.0
 21
152.4709999999999
 31
0.0
  0
LINE
  5
27D
330
A
100
AcDbEntity
  8
PV
  6
Continuous
 62
     7
100
AcDbLine
 10
29.0
 20
150.7379999999999
 30
0.0
 11
29.0
 21
147.2739999999999
 31
0.0
  0
LINE
  5
27E
330
A
100
AcDbEntity
  8
PV
  6
Continuous
 62
     7
100
AcDbLine
 10
23.0
 20
150.7379999999999
 30
0.0
 11
23.0
 21
147.2739999999999
 31
0.0
  0
LINE
  5
27F
330
A
100
AcDbEntity
  8
PV
  6
Continuous
 62
     7
100
AcDbLine
 10
26.0
 20
152.4709999999999
 30
0.0
 11
29.0
 21
150.7379999999999
 31
0.0
  0
LINE
  5
280
330
A
100
AcDbEntity
  8
PV
  6
Continuous
 62
     7
100
AcDbLine
 10
23.0
 20
147.2739999999999
 30
0.0
 11
26.0
 21
145.5419999999999
 31
0.0
  0
CIRCLE
  5
281
330
A
100
AcDbEntity
  8
PV
  6
Continuous
 62
     7
100
AcDbCircle
 10
26.0
 20
149.0059999999999
 30
0.0
 40
6.5
  0
CIRCLE
  5
282
330
A
100
AcDbEntity
  8
PV
  6
Continuous
 62
     7
100
AcDbCircle
 10
26.0
 20
149.0059999999999
 30
0.0
 40
5.633999999999999
  0
LINE
  5
283
330
A
100
AcDbEntity
  8
PV
  6
Continuous
 62
     7
100
AcDbLine
 10
-36.0
 20
145.5419999999999
 30
0.0
 11
-33.0
 21
147.2739999999999
 31
0.0
  0
LINE
  5
284
330
A
100
AcDbEntity
  8
PV
  6
Continuous
 62
     7
100
AcDbLine
 10
-39.0
 20
150.7379999999999
 30
0.0
 11
-36.0
 21
152.4709999999999
 31
0.0
  0
LINE
  5
285
330
A
100
AcDbEntity
  8
PV
  6
Continuous
 62
     7
100
AcDbLine
 10
-33.0
 20
150.7379999999999
 30
0.0
 11
-33.0
 21
147.2739999999999
 31
0.0
  0
LINE
  5
286
330
A
100
AcDbEntity
  8
PV
  6
Continuous
 62
     7
100
AcDbLine
 10
-39.0
 20
150.7379999999999
 30
0.0
 11
-39.0
 21
147.2739999999999
 31
0.0
  0
LINE
  5
287
330
A
100
AcDbEntity
  8
PV
  6
Continuous
 62
     7
100
AcDbLine
 10
-36.0
 20
152.4709999999999
 30
0.0
 11
-33.0
 21
150.7379999999999
 31
0.0
  0
LINE
  5
288
330
A
100
AcDbEntity
  8
PV
  6
Continuous
 62
     7
100
AcDbLine
 10
-39.0
 20
147.2739999999999
 30
0.0
 11
-36.0
 21
145.5419999999999
 31
0.0
  0
CIRCLE
  5
289
330
A
100
AcDbEntity
  8
PV
  6
Continuous
 62
     7
100
AcDbCircle
 10
-36.0
 20
149.0059999999999
 30
0.0
 40
6.5
  0
CIRCLE
  5
28A
330
A
100
AcDbEntity
  8
PV
  6
Continuous
 62
     7
100
AcDbCircle
 10
-36.0
 20
149.0059999999999
 30
0.0
 40
5.633999999999999
  0
LINE
  5
28B
330
A
100
AcDbEntity
  8
PV
  6
Continuous
 62
     7
100
AcDbLine
 10
-36.0
 20
145.5419999999999
 30
0.0
 11
-33.0
 21
147.2739999999999
 31
0.0
  0
LINE
  5
28C
330
A
100
AcDbEntity
  8
PV
  6
Continuous
 62
     7
100
AcDbLine
 10
-39.0
 20
150.7379999999999
 30
0.0
 11
-36.0
 21
152.4709999999999
 31
0.0
  0
LINE
  5
28D
330
A
100
AcDbEntity
  8
PV
  6
Continuous
 62
     7
100
AcDbLine
 10
-33.0
 20
150.7379999999999
 30
0.0
 11
-33.0
 21
147.2739999999999
 31
0.0
  0
LINE
  5
28E
330
A
100
AcDbEntity
  8
PV
  6
Continuous
 62
     7
100
AcDbLine
 10
-39.0
 20
150.7379999999999
 30
0.0
 11
-39.0
 21
147.2739999999999
 31
0.0
  0
LINE
  5
28F
330
A
100
AcDbEntity
  8
PV
  6
Continuous
 62
     7
100
AcDbLine
 10
-36.0
 20
152.4709999999999
 30
0.0
 11
-33.0
 21
150.7379999999999
 31
0.0
  0
LINE
  5
290
330
A
100
AcDbEntity
  8
PV
  6
Continuous
 62
     7
100
AcDbLine
 10
-39.0
 20
147.2739999999999
 30
0.0
 11
-36.0
 21
145.5419999999999
 31
0.0
  0
CIRCLE
  5
291
330
A
100
AcDbEntity
  8
PV
  6
Continuous
 62
     7
100
AcDbCircle
 10
-36.0
 20
149.0059999999999
 30
0.0
 40
6.5
  0
CIRCLE
  5
292
330
A
100
AcDbEntity
  8
PV
  6
Continuous
 62
     7
100
AcDbCircle
 10
-36.0
 20
149.0059999999999
 30
0.0
 40
5.633999999999999
  0
LINE
  5
293
330
A
100
AcDbEntity
  8
PV
  6
Continuous
 62
     7
100
AcDbLine
 10
-36.0
 20
83.542
 30
0.0
 11
-33.0
 21
85.274
 31
0.0
  0
LINE
  5
294
330
A
100
AcDbEntity
  8
PV
  6
Continuous
 62
     7
100
AcDbLine
 10
-39.0
 20
88.73800000000001
 30
0.0
 11
-36.0
 21
90.471
 31
0.0
  0
LINE
  5
295
330
A
100
AcDbEntity
  8
PV
  6
Continuous
 62
     7
100
AcDbLine
 10
-33.0
 20
88.73800000000001
 30
0.0
 11
-33.0
 21
85.274
 31
0.0
  0
LINE
  5
296
330
A
100
AcDbEntity
  8
PV
  6
Continuous
 62
     7
100
AcDbLine
 10
-39.0
 20
88.73800000000001
 30
0.0
 11
-39.0
 21
85.274
 31
0.0
  0
LINE
  5
297
330
A
100
AcDbEntity
  8
PV
  6
Continuous
 62
     7
100
AcDbLine
 10
-36.0
 20
90.471
 30
0.0
 11
-33.0
 21
88.73800000000001
 31
0.0
  0
LINE
  5
298
330
A
100
AcDbEntity
  8
PV
  6
Continuous
 62
     7
100
AcDbLine
 10
-39.0
 20
85.274
 30
0.0
 11
-36.0
 21
83.542
 31
0.0
  0
CIRCLE
  5
299
330
A
100
AcDbEntity
  8
PV
  6
Continuous
 62
     7
100
AcDbCircle
 10
-36.0
 20
87.00599999999999
 30
0.0
 40
6.5
  0
CIRCLE
  5
29A
330
A
100
AcDbEntity
  8
PV
  6
Continuous
 62
     7
100
AcDbCircle
 10
-36.0
 20
87.00599999999999
 30
0.0
 40
5.633999999999999
  0
LINE
  5
29B
330
A
100
AcDbEntity
  8
PV
  6
Continuous
 62
     7
100
AcDbLine
 10
26.0
 20
83.542
 30
0.0
 11
29.0
 21
85.274
 31
0.0
  0
LINE
  5
29C
330
A
100
AcDbEntity
  8
PV
  6
Continuous
 62
     7
100
AcDbLine
 10
23.0
 20
88.73800000000001
 30
0.0
 11
26.0
 21
90.471
 31
0.0
  0
LINE
  5
29D
330
A
100
AcDbEntity
  8
PV
  6
Continuous
 62
     7
100
AcDbLine
 10
29.0
 20
88.73800000000001
 30
0.0
 11
29.0
 21
85.274
 31
0.0
  0
LINE
  5
29E
330
A
100
AcDbEntity
  8
PV
  6
Continuous
 62
     7
100
AcDbLine
 10
23.0
 20
88.73800000000001
 30
0.0
 11
23.0
 21
85.274
 31
0.0
  0
LINE
  5
29F
330
A
100
AcDbEntity
  8
PV
  6
Continuous
 62
     7
100
AcDbLine
 10
26.0
 20
90.471
 30
0.0
 11
29.0
 21
88.73800000000001
 31
0.0
  0
LINE
  5
2A0
330
A
100
AcDbEntity
  8
PV
  6
Continuous
 62
     7
100
AcDbLine
 10
23.0
 20
85.274
 30
0.0
 11
26.0
 21
83.542
 31
0.0
  0
CIRCLE
  5
2A1
330
A
100
AcDbEntity
  8
PV
  6
Continuous
 62
     7
100
AcDbCircle
 10
26.0
 20
87.00599999999999
 30
0.0
 40
6.5
  0
CIRCLE
  5
2A2
330
A
100
AcDbEntity
  8
PV
  6
Continuous
 62
     7
100
AcDbCircle
 10
26.0
 20
87.00599999999999
 30
0.0
 40
5.633999999999999
  0
POINT
  5
2A3
330
A
100
AcDbEntity
  8
PV
  6
Continuous
 62
     7
100
AcDbPoint
 10
-106.191
 20
120.1389999999999
 30
0.0
  0
POINT
  5
2A4
330
A
100
AcDbEntity
  8
PV
  6
Continuous
 62
     7
100
AcDbPoint
 10
-128.430218
 20
79.384084
 30
0.0
  0
MTEXT
  5
2A5
330
A
100
AcDbEntity
  8
PV
  6
Continuous
 62
     7
100
AcDbMText
 10
-103.492293
 20
149.7939
 30
0.0
 40
5.5
 41
0.0
 71
     2
 72
     1
  1
\A1;P.C.D 85
 11
0.4173100743237656
 21
0.9087641618527289
 31
0.0
 73
     1
 44
1.0
  0
LINE
  5
2A6
330
A
100
AcDbEntity
  8
PV
  6
Continuous
 62
     7
100
AcDbLine
 10
-90.45515599999999
 20
162.0833799999999
 30
0.0
 11
-128.430218
 21
79.384084
 31
0.0
  0
LINE
  5
2A7
330
A
100
AcDbEntity
  8
PV
  6
Continuous
 62
     7
100
AcDbLine
 10
-128.430218
 20
79.384084
 30
0.0
 11
-127.274512
 21
81.90074399999998
 31
0.0
  0
LINE
  5
2A8
330
A
100
AcDbEntity
  8
PV
  6
Continuous
 62
     7
100
AcDbLine
 10
-128.430218
 20
79.384084
 30
0.0
 11
-127.948659
 21
82.210996
 31
0.0
  0
LINE
  5
2A9
330
A
100
AcDbEntity
  8
PV
  6
Continuous
 62
     7
100
AcDbLine
 10
-126.6002429999999
 20
81.5919
 30
0.0
 11
-128.430218
 21
79.384084
 31
0.0
  0
POINT
  5
2AA
330
A
100
AcDbEntity
  8
PV
  6
Continuous
 62
     7
100
AcDbPoint
 10
-43.0
 20
-123.9779999999999
 30
0.0
  0
POINT
  5
2AB
330
A
100
AcDbEntity
  8
PV
  6
Continuous
 62
     7
100
AcDbPoint
 10
-43.0
 20
-105.2489999999999
 30
0.0
  0
POINT
  5
2AC
330
A
100
AcDbEntity
  8
PV
  6
Continuous
 62
     7
100
AcDbPoint
 10
33.0
 20
-105.0
 30
0.0
  0
MTEXT
  5
2AD
330
A
100
AcDbEntity
  8
PV
  6
Continuous
 62
     7
100
AcDbMText
 10
5.552
 20
-115.8779989999999
 30
0.0
 40
6.5
 41
0.0
 71
     2
 72
     1
  1
\T0.891;\W1.089;\A1;\U+220576
 73
     1
 44
1.0
  0
LINE
  5
2AE
330
A
100
AcDbEntity
  8
PV
  6
Continuous
 62
     7
100
AcDbLine
 10
-43.0
 20
-107.789
 30
0.0
 11
-43.0
 21
-126.2639999999999
 31
0.0
  0
LINE
  5
2AF
330
A
100
AcDbEntity
  8
PV
  6
Continuous
 62
     7
100
AcDbLine
 10
33.0
 20
-107.54
 30
0.0
 11
33.0
 21
-126.2639999999999
 31
0.0
  0
LINE
  5
2B0
330
A
100
AcDbEntity
  8
PV
  6
Continuous
 62
     7
100
AcDbLine
 10
33.0
 20
-123.9779999999999
 30
0.0
 11
-43.0
 21
-123.9779999999999
 31
0.0
  0
LINE
  5
2B1
330
A
100
AcDbEntity
  8
PV
  6
Continuous
 62
     7
100
AcDbLine
 10
-43.0
 20
-123.9779999999999
 30
0.0
 11
-40.22999999999999
 21
-123.9779999999999
 31
0.0
  0
LINE
  5
2B2
330
A
100
AcDbEntity
  8
PV
  6
Continuous
 62
     7
100
AcDbLine
 10
-43.0
 20
-123.9779999999999
 30
0.0
 11
-40.22999999999999
 21
-123.236
 31
0.0
  0
LINE
  5
2B3
330
A
100
AcDbEntity
  8
PV
  6
Continuous
 62
     7
100
AcDbLine
 10
-40.22999999999999
 20
-124.721
 30
0.0
 11
-43.0
 21
-123.9779999999999
 31
0.0
  0
LINE
  5
2B4
330
A
100
AcDbEntity
  8
PV
  6
Continuous
 62
     7
100
AcDbLine
 10
33.0
 20
-123.9779999999999
 30
0.0
 11
30.23
 21
-123.9779999999999
 31
0.0
  0
LINE
  5
2B5
330
A
100
AcDbEntity
  8
PV
  6
Continuous
 62
     7
100
AcDbLine
 10
33.0
 20
-123.9779999999999
 30
0.0
 11
30.23
 21
-124.721
 31
0.0
  0
LINE
  5
2B6
330
A
100
AcDbEntity
  8
PV
  6
Continuous
 62
     7
100
AcDbLine
 10
30.23
 20
-123.236
 30
0.0
 11
33.0
 21
-123.9779999999999
 31
0.0
  0
POINT
  5
2B7
330
A
100
AcDbEntity
  8
PV
  6
Continuous
 62
     7
100
AcDbPoint
 10
62.75999999999999
 20
-36.5
 30
0.0
  0
POINT
  5
2B8
330
A
100
AcDbEntity
  8
PV
  6
Continuous
 62
     7
100
AcDbPoint
 10
39.0
 20
-36.5
 30
0.0
  0
POINT
  5
2B9
330
A
100
AcDbEntity
  8
PV
  6
Continuous
 62
     7
100
AcDbPoint
 10
39.0
 20
23.0
 30
0.0
  0
MTEXT
  5
2BA
330
A
100
AcDbEntity
  8
PV
  6
Continuous
 62
     7
100
AcDbMText
 10
54.65999899999999
 20
-6.75
 30
0.0
 40
6.5
 41
0.0
 71
     2
 72
     1
  1
\A1;59.5
 11
0.0
 21
1.0
 31
0.0
 73
     1
 44
1.0
  0
LINE
  5
2BB
330
A
100
AcDbEntity
  8
PV
  6
Continuous
 62
     7
100
AcDbLine
 10
41.53999999999999
 20
-36.5
 30
0.0
 11
65.046
 21
-36.5
 31
0.0
  0
LINE
  5
2BC
330
A
100
AcDbEntity
  8
PV
  6
Continuous
 62
     7
100
AcDbLine
 10
62.75999999999999
 20
23.0
 30
0.0
 11
62.75999999999999
 21
-36.5
 31
0.0
  0
LINE
  5
2BD
330
A
100
AcDbEntity
  8
PV
  6
Continuous
 62
     7
100
AcDbLine
 10
62.75999999999999
 20
-36.5
 30
0.0
 11
62.75999999999999
 21
-33.72999999999999
 31
0.0
  0
LINE
  5
2BE
330
A
100
AcDbEntity
  8
PV
  6
Continuous
 62
     7
100
AcDbLine
 10
62.75999999999999
 20
-36.5
 30
0.0
 11
62.018
 21
-33.72999999999999
 31
0.0
  0
LINE
  5
2BF
330
A
100
AcDbEntity
  8
PV
  6
Continuous
 62
     7
100
AcDbLine
 10
63.502
 20
-33.72999999999999
 30
0.0
 11
62.75999999999999
 21
-36.5
 31
0.0
  0
LINE
  5
2C0
330
A
100
AcDbEntity
  8
PV
  6
Continuous
 62
     7
100
AcDbLine
 10
62.75999999999999
 20
23.0
 30
0.0
 11
62.75999999999999
 21
20.23
 31
0.0
  0
LINE
  5
2C1
330
A
100
AcDbEntity
  8
PV
  6
Continuous
 62
     7
100
AcDbLine
 10
62.75999999999999
 20
23.0
 30
0.0
 11
63.502
 21
20.23
 31
0.0
  0
LINE
  5
2C2
330
A
100
AcDbEntity
  8
PV
  6
Continuous
 62
     7
100
AcDbLine
 10
62.018
 20
20.23
 30
0.0
 11
62.75999999999999
 21
23.0
 31
0.0
  0
POINT
  5
2C3
330
A
100
AcDbEntity
  8
PV
  6
Continuous
 62
     7
100
AcDbPoint
 10
205.5559999999999
 20
-27.5
 30
0.0
  0
POINT
  5
2C4
330
A
100
AcDbEntity
  8
PV
  6
Continuous
 62
     7
100
AcDbPoint
 10
148.3689999999999
 20
-27.5
 30
0.0
  0
POINT
  5
2C5
330
A
100
AcDbEntity
  8
PV
  6
Continuous
 62
     7
100
AcDbPoint
 10
148.1229999999999
 20
5.5
 30
0.0
  0
MTEXT
  5
2C6
330
A
100
AcDbEntity
  8
PV
  6
Continuous
 62
     7
100
AcDbMText
 10
197.4559989999999
 20
-11.0
 30
0.0
 40
6.5
 41
0.0
 71
     2
 72
     1
  1
\W0.952;\A1;33
 11
0.0
 21
1.0
 31
0.0
 73
     1
 44
1.0
  0
LINE
  5
2C7
330
A
100
AcDbEntity
  8
PV
  6
Continuous
 62
     7
100
AcDbLine
 10
150.6629999999999
 20
5.5
 30
0.0
 11
207.842
 21
5.5
 31
0.0
  0
LINE
  5
2C8
330
A
100
AcDbEntity
  8
PV
  6
Continuous
 62
     7
100
AcDbLine
 10
205.5559999999999
 20
5.5
 30
0.0
 11
205.5559999999999
 21
-27.5
 31
0.0
  0
LINE
  5
2C9
330
A
100
AcDbEntity
  8
PV
  6
Continuous
 62
     7
100
AcDbLine
 10
205.5559999999999
 20
-27.5
 30
0.0
 11
205.5559999999999
 21
-24.73
 31
0.0
  0
LINE
  5
2CA
330
A
100
AcDbEntity
  8
PV
  6
Continuous
 62
     7
100
AcDbLine
 10
205.5559999999999
 20
-27.5
 30
0.0
 11
204.814
 21
-24.73
 31
0.0
  0
LINE
  5
2CB
330
A
100
AcDbEntity
  8
PV
  6
Continuous
 62
     7
100
AcDbLine
 10
206.298
 20
-24.73
 30
0.0
 11
205.5559999999999
 21
-27.5
 31
0.0
  0
LINE
  5
2CC
330
A
100
AcDbEntity
  8
PV
  6
Continuous
 62
     7
100
AcDbLine
 10
205.5559999999999
 20
5.5
 30
0.0
 11
205.5559999999999
 21
2.729999999999999
 31
0.0
  0
LINE
  5
2CD
330
A
100
AcDbEntity
  8
PV
  6
Continuous
 62
     7
100
AcDbLine
 10
205.5559999999999
 20
5.5
 30
0.0
 11
206.298
 21
2.729999999999999
 31
0.0
  0
LINE
  5
2CE
330
A
100
AcDbEntity
  8
PV
  6
Continuous
 62
     7
100
AcDbLine
 10
204.814
 20
2.729999999999999
 30
0.0
 11
205.5559999999999
 21
5.5
 31
0.0
  0
POINT
  5
2CF
330
A
100
AcDbEntity
  8
PV
  6
Continuous
 62
     7
100
AcDbPoint
 10
62.75999999999999
 20
-150.0
 30
0.0
  0
POINT
  5
2D0
330
A
100
AcDbEntity
  8
PV
  6
Continuous
 62
     7
100
AcDbPoint
 10
46.5
 20
-150.0
 30
0.0
  0
POINT
  5
2D1
330
A
100
AcDbEntity
  8
PV
  6
Continuous
 62
     7
100
AcDbPoint
 10
39.0
 20
-36.5
 30
0.0
  0
MTEXT
  5
2D2
330
A
100
AcDbEntity
  8
PV
  6
Continuous
 62
     7
100
AcDbMText
 10
54.65999899999999
 20
-93.25000000000001
 30
0.0
 40
6.5
 41
0.0
 71
     2
 72
     1
  1
\A1;113.5
 11
0.0
 21
1.0
 31
0.0
 73
     1
 44
1.0
  0
LINE
  5
2D3
330
A
100
AcDbEntity
  8
PV
  6
Continuous
 62
     7
100
AcDbLine
 10
62.75999999999999
 20
-36.5
 30
0.0
 11
62.75999999999999
 21
-150.0
 31
0.0
  0
LINE
  5
2D4
330
A
100
AcDbEntity
  8
PV
  6
Continuous
 62
     7
100
AcDbLine
 10
62.75999999999999
 20
-150.0
 30
0.0
 11
62.75999999999999
 21
-147.2299999999999
 31
0.0
  0
LINE
  5
2D5
330
A
100
AcDbEntity
  8
PV
  6
Continuous
 62
     7
100
AcDbLine
 10
62.75999999999999
 20
-150.0
 30
0.0
 11
62.018
 21
-147.2299999999999
 31
0.0
  0
LINE
  5
2D6
330
A
100
AcDbEntity
  8
PV
  6
Continuous
 62
     7
100
AcDbLine
 10
63.502
 20
-147.2299999999999
 30
0.0
 11
62.75999999999999
 21
-150.0
 31
0.0
  0
LINE
  5
2D7
330
A
100
AcDbEntity
  8
PV
  6
Continuous
 62
     7
100
AcDbLine
 10
62.75999999999999
 20
-36.5
 30
0.0
 11
62.75999999999999
 21
-39.27
 31
0.0
  0
LINE
  5
2D8
330
A
100
AcDbEntity
  8
PV
  6
Continuous
 62
     7
100
AcDbLine
 10
62.75999999999999
 20
-36.5
 30
0.0
 11
63.502
 21
-39.27
 31
0.0
  0
LINE
  5
2D9
330
A
100
AcDbEntity
  8
PV
  6
Continuous
 62
     7
100
AcDbLine
 10
62.018
 20
-39.27
 30
0.0
 11
62.75999999999999
 21
-36.5
 31
0.0
  0
POINT
  5
2DA
330
A
100
AcDbEntity
  8
PV
  6
Continuous
 62
     7
100
AcDbPoint
 10
205.5559999999999
 20
-150.0
 30
0.0
  0
POINT
  5
2DB
330
A
100
AcDbEntity
  8
PV
  6
Continuous
 62
     7
100
AcDbPoint
 10
192.429
 20
-150.0
 30
0.0
  0
POINT
  5
2DC
330
A
100
AcDbEntity
  8
PV
  6
Continuous
 62
     7
100
AcDbPoint
 10
148.3689999999999
 20
-27.5
 30
0.0
  0
MTEXT
  5
2DD
330
A
100
AcDbEntity
  8
PV
  6
Continuous
 62
     7
100
AcDbMText
 10
197.4559989999999
 20
-88.75
 30
0.0
 40
6.5
 41
0.0
 71
     2
 72
     1
  1
\A1;122.5
 11
0.0
 21
1.0
 31
0.0
 73
     1
 44
1.0
  0
LINE
  5
2DE
330
A
100
AcDbEntity
  8
PV
  6
Continuous
 62
     7
100
AcDbLine
 10
194.969
 20
-150.0
 30
0.0
 11
207.842
 21
-150.0
 31
0.0
  0
LINE
  5
2DF
330
A
100
AcDbEntity
  8
PV
  6
Continuous
 62
     7
100
AcDbLine
 10
150.909
 20
-27.5
 30
0.0
 11
207.842
 21
-27.5
 31
0.0
  0
LINE
  5
2E0
330
A
100
AcDbEntity
  8
PV
  6
Continuous
 62
     7
100
AcDbLine
 10
205.5559999999999
 20
-27.5
 30
0.0
 11
205.5559999999999
 21
-150.0
 31
0.0
  0
LINE
  5
2E1
330
A
100
AcDbEntity
  8
PV
  6
Continuous
 62
     7
100
AcDbLine
 10
205.5559999999999
 20
-150.0
 30
0.0
 11
205.5559999999999
 21
-147.2299999999999
 31
0.0
  0
LINE
  5
2E2
330
A
100
AcDbEntity
  8
PV
  6
Continuous
 62
     7
100
AcDbLine
 10
205.5559999999999
 20
-150.0
 30
0.0
 11
204.814
 21
-147.2299999999999
 31
0.0
  0
LINE
  5
2E3
330
A
100
AcDbEntity
  8
PV
  6
Continuous
 62
     7
100
AcDbLine
 10
206.298
 20
-147.2299999999999
 30
0.0
 11
205.5559999999999
 21
-150.0
 31
0.0
  0
LINE
  5
2E4
330
A
100
AcDbEntity
  8
PV
  6
Continuous
 62
     7
100
AcDbLine
 10
205.5559999999999
 20
-27.5
 30
0.0
 11
205.5559999999999
 21
-30.27
 31
0.0
  0
LINE
  5
2E5
330
A
100
AcDbEntity
  8
PV
  6
Continuous
 62
     7
100
AcDbLine
 10
205.5559999999999
 20
-27.5
 30
0.0
 11
206.298
 21
-30.27
 31
0.0
  0
LINE
  5
2E6
330
A
100
AcDbEntity
  8
PV
  6
Continuous
 62
     7
100
AcDbLine
 10
204.814
 20
-30.27
 30
0.0
 11
205.5559999999999
 21
-27.5
 31
0.0
  0
POINT
  5
2E7
330
A
100
AcDbEntity
  8
PV
  6
Continuous
 62
     7
100
AcDbPoint
 10
50.0
 20
177.0609999999999
 30
0.0
  0
POINT
  5
2E8
330
A
100
AcDbEntity
  8
PV
  6
Continuous
 62
     7
100
AcDbPoint
 10
50.0
 20
118.006
 30
0.0
  0
POINT
  5
2E9
330
A
100
AcDbEntity
  8
PV
  6
Continuous
 62
     7
100
AcDbPoint
 10
-75.0
 20
169.5059999999999
 30
0.0
  0
MTEXT
  5
2EA
330
A
100
AcDbEntity
  8
PV
  6
Continuous
 62
     7
100
AcDbMText
 10
-12.5
 20
185.1610009999999
 30
0.0
 40
6.5
 41
0.0
 71
     2
 72
     1
  1
\A1;125
 73
     1
 44
1.0
  0
LINE
  5
2EB
330
A
100
AcDbEntity
  8
PV
  6
Continuous
 62
     7
100
AcDbLine
 10
50.0
 20
120.546
 30
0.0
 11
50.0
 21
179.347
 31
0.0
  0
LINE
  5
2EC
330
A
100
AcDbEntity
  8
PV
  6
Continuous
 62
     7
100
AcDbLine
 10
-75.0
 20
172.0459999999999
 30
0.0
 11
-75.0
 21
179.347
 31
0.0
  0
LINE
  5
2ED
330
A
100
AcDbEntity
  8
PV
  6
Continuous
 62
     7
100
AcDbLine
 10
-75.0
 20
177.0609999999999
 30
0.0
 11
50.0
 21
177.0609999999999
 31
0.0
  0
LINE
  5
2EE
330
A
100
AcDbEntity
  8
PV
  6
Continuous
 62
     7
100
AcDbLine
 10
50.0
 20
177.0609999999999
 30
0.0
 11
47.22999999999999
 21
177.0609999999999
 31
0.0
  0
LINE
  5
2EF
330
A
100
AcDbEntity
  8
PV
  6
Continuous
 62
     7
100
AcDbLine
 10
50.0
 20
177.0609999999999
 30
0.0
 11
47.22999999999999
 21
176.319
 31
0.0
  0
LINE
  5
2F0
330
A
100
AcDbEntity
  8
PV
  6
Continuous
 62
     7
100
AcDbLine
 10
47.22999999999999
 20
177.804
 30
0.0
 11
50.0
 21
177.0609999999999
 31
0.0
  0
LINE
  5
2F1
330
A
100
AcDbEntity
  8
PV
  6
Continuous
 62
     7
100
AcDbLine
 10
-75.0
 20
177.0609999999999
 30
0.0
 11
-72.23
 21
177.0609999999999
 31
0.0
  0
LINE
  5
2F2
330
A
100
AcDbEntity
  8
PV
  6
Continuous
 62
     7
100
AcDbLine
 10
-75.0
 20
177.0609999999999
 30
0.0
 11
-72.23
 21
177.804
 31
0.0
  0
LINE
  5
2F3
330
A
100
AcDbEntity
  8
PV
  6
Continuous
 62
     7
100
AcDbLine
 10
-72.23
 20
176.319
 30
0.0
 11
-75.0
 21
177.0609999999999
 31
0.0
  0
POINT
  5
2F4
330
A
100
AcDbEntity
  8
PV
  6
Continuous
 62
     7
100
AcDbPoint
 10
-75.0
 20
-180.6409999999999
 30
0.0
  0
POINT
  5
2F5
330
A
100
AcDbEntity
  8
PV
  6
Continuous
 62
     7
100
AcDbPoint
 10
-75.0
 20
-131.4999999999999
 30
0.0
  0
POINT
  5
2F6
330
A
100
AcDbEntity
  8
PV
  6
Continuous
 62
     7
100
AcDbPoint
 10
-5.0
 20
-179.1979999999999
 30
0.0
  0
MTEXT
  5
2F7
330
A
100
AcDbEntity
  8
PV
  6
Continuous
 62
     7
100
AcDbMText
 10
-40.623
 20
-172.5409989999999
 30
0.0
 40
6.5
 41
0.0
 71
     2
 72
     1
  1
\A1;70
 73
     1
 44
1.0
  0
LINE
  5
2F8
330
A
100
AcDbEntity
  8
PV
  6
Continuous
 62
     7
100
AcDbLine
 10
-75.0
 20
-133.663995
 30
0.0
 11
-75.0
 21
-182.927
 31
0.0
  0
LINE
  5
2F9
330
A
100
AcDbEntity
  8
PV
  6
Continuous
 62
     7
100
AcDbLine
 10
-5.0
 20
-181.7379999999999
 30
0.0
 11
-5.0
 21
-158.637626
 31
0.0
  0
LINE
  5
2FA
330
A
100
AcDbEntity
  8
PV
  6
Continuous
 62
     7
100
AcDbLine
 10
-5.0
 20
-180.6409999999999
 30
0.0
 11
-75.0
 21
-180.6409999999999
 31
0.0
  0
LINE
  5
2FB
330
A
100
AcDbEntity
  8
PV
  6
Continuous
 62
     7
100
AcDbLine
 10
-75.0
 20
-180.6409999999999
 30
0.0
 11
-72.23
 21
-180.6409999999999
 31
0.0
  0
LINE
  5
2FC
330
A
100
AcDbEntity
  8
PV
  6
Continuous
 62
     7
100
AcDbLine
 10
-75.0
 20
-180.6409999999999
 30
0.0
 11
-72.23
 21
-179.899
 31
0.0
  0
LINE
  5
2FD
330
A
100
AcDbEntity
  8
PV
  6
Continuous
 62
     7
100
AcDbLine
 10
-72.23
 20
-181.3829999999999
 30
0.0
 11
-75.0
 21
-180.6409999999999
 31
0.0
  0
LINE
  5
2FE
330
A
100
AcDbEntity
  8
PV
  6
Continuous
 62
     7
100
AcDbLine
 10
-5.0
 20
-180.6409999999999
 30
0.0
 11
-7.769999999999999
 21
-180.6409999999999
 31
0.0
  0
LINE
  5
2FF
330
A
100
AcDbEntity
  8
PV
  6
Continuous
 62
     7
100
AcDbLine
 10
-5.0
 20
-180.6409999999999
 30
0.0
 11
-7.769999999999999
 21
-181.3829999999999
 31
0.0
  0
LINE
  5
300
330
A
100
AcDbEntity
  8
PV
  6
Continuous
 62
     7
100
AcDbLine
 10
-7.769999999999999
 20
-179.899
 30
0.0
 11
-5.0
 21
-180.6409999999999
 31
0.0
  0
POINT
  5
301
330
A
100
AcDbEntity
  8
PV
  6
Continuous
 62
     7
100
AcDbPoint
 10
-100.8329999999999
 20
-80.0
 30
0.0
  0
POINT
  5
302
330
A
100
AcDbEntity
  8
PV
  6
Continuous
 62
     7
100
AcDbPoint
 10
-84.05799999999999
 20
-80.0
 30
0.0
  0
POINT
  5
303
330
A
100
AcDbEntity
  8
PV
  6
Continuous
 62
     7
100
AcDbPoint
 10
-56.5
 20
-150.0
 30
0.0
  0
MTEXT
  5
304
330
A
100
AcDbEntity
  8
PV
  6
Continuous
 62
     7
100
AcDbMText
 10
-108.933001
 20
-115.25
 30
0.0
 40
6.5
 41
0.0
 71
     2
 72
     1
  1
\A1;70
 11
0.0
 21
1.0
 31
0.0
 73
     1
 44
1.0
  0
LINE
  5
305
330
A
100
AcDbEntity
  8
PV
  6
Continuous
 62
     7
100
AcDbLine
 10
-86.598
 20
-80.0
 30
0.0
 11
-103.119
 21
-80.0
 31
0.0
  0
LINE
  5
306
330
A
100
AcDbEntity
  8
PV
  6
Continuous
 62
     7
100
AcDbLine
 10
-59.03999999999999
 20
-150.0
 30
0.0
 11
-103.119
 21
-150.0
 31
0.0
  0
LINE
  5
307
330
A
100
AcDbEntity
  8
PV
  6
Continuous
 62
     7
100
AcDbLine
 10
-100.8329999999999
 20
-150.0
 30
0.0
 11
-100.8329999999999
 21
-80.0
 31
0.0
  0
LINE
  5
308
330
A
100
AcDbEntity
  8
PV
  6
Continuous
 62
     7
100
AcDbLine
 10
-100.8329999999999
 20
-80.0
 30
0.0
 11
-100.8329999999999
 21
-82.76999999999999
 31
0.0
  0
LINE
  5
309
330
A
100
AcDbEntity
  8
PV
  6
Continuous
 62
     7
100
AcDbLine
 10
-100.8329999999999
 20
-80.0
 30
0.0
 11
-100.091
 21
-82.76999999999999
 31
0.0
  0
LINE
  5
30A
330
A
100
AcDbEntity
  8
PV
  6
Continuous
 62
     7
100
AcDbLine
 10
-101.5759999999999
 20
-82.76999999999999
 30
0.0
 11
-100.8329999999999
 21
-80.0
 31
0.0
  0
LINE
  5
30B
330
A
100
AcDbEntity
  8
PV
  6
Continuous
 62
     7
100
AcDbLine
 10
-100.8329999999999
 20
-150.0
 30
0.0
 11
-100.8329999999999
 21
-147.2299999999999
 31
0.0
  0
LINE
  5
30C
330
A
100
AcDbEntity
  8
PV
  6
Continuous
 62
     7
100
AcDbLine
 10
-100.8329999999999
 20
-150.0
 30
0.0
 11
-101.5759999999999
 21
-147.2299999999999
 31
0.0
  0
LINE
  5
30D
330
A
100
AcDbEntity
  8
PV
  6
Continuous
 62
     7
100
AcDbLine
 10
-100.091
 20
-147.2299999999999
 30
0.0
 11
-100.8329999999999
 21
-150.0
 31
0.0
  0
POINT
  5
30E
330
A
100
AcDbEntity
  8
PV
  6
Continuous
 62
     7
100
AcDbPoint
 10
72.774
 20
-150.0
 30
0.0
  0
POINT
  5
30F
330
A
100
AcDbEntity
  8
PV
  6
Continuous
 62
     7
100
AcDbPoint
 10
46.5
 20
-150.0
 30
0.0
  0
POINT
  5
310
330
A
100
AcDbEntity
  8
PV
  6
Continuous
 62
     7
100
AcDbPoint
 10
39.0
 20
23.0
 30
0.0
  0
MTEXT
  5
311
330
A
100
AcDbEntity
  8
PV
  6
Continuous
 62
     7
100
AcDbMText
 10
64.673999
 20
-63.5
 30
0.0
 40
6.5
 41
0.0
 71
     2
 72
     1
  1
\A1;173
 11
0.0
 21
1.0
 31
0.0
 73
     1
 44
1.0
  0
LINE
  5
312
330
A
100
AcDbEntity
  8
PV
  6
Continuous
 62
     7
100
AcDbLine
 10
49.03999999999999
 20
-150.0
 30
0.0
 11
75.06
 21
-150.0
 31
0.0
  0
LINE
  5
313
330
A
100
AcDbEntity
  8
PV
  6
Continuous
 62
     7
100
AcDbLine
 10
41.53999999999999
 20
23.0
 30
0.0
 11
75.06
 21
23.0
 31
0.0
  0
LINE
  5
314
330
A
100
AcDbEntity
  8
PV
  6
Continuous
 62
     7
100
AcDbLine
 10
72.774
 20
23.0
 30
0.0
 11
72.774
 21
-150.0
 31
0.0
  0
LINE
  5
315
330
A
100
AcDbEntity
  8
PV
  6
Continuous
 62
     7
100
AcDbLine
 10
72.774
 20
-150.0
 30
0.0
 11
72.774
 21
-147.2299999999999
 31
0.0
  0
LINE
  5
316
330
A
100
AcDbEntity
  8
PV
  6
Continuous
 62
     7
100
AcDbLine
 10
72.774
 20
-150.0
 30
0.0
 11
72.03199999999999
 21
-147.2299999999999
 31
0.0
  0
LINE
  5
317
330
A
100
AcDbEntity
  8
PV
  6
Continuous
 62
     7
100
AcDbLine
 10
73.51600000000001
 20
-147.2299999999999
 30
0.0
 11
72.774
 21
-150.0
 31
0.0
  0
LINE
  5
318
330
A
100
AcDbEntity
  8
PV
  6
Continuous
 62
     7
100
AcDbLine
 10
72.774
 20
23.0
 30
0.0
 11
72.774
 21
20.23
 31
0.0
  0
LINE
  5
319
330
A
100
AcDbEntity
  8
PV
  6
Continuous
 62
     7
100
AcDbLine
 10
72.774
 20
23.0
 30
0.0
 11
73.51600000000001
 21
20.23
 31
0.0
  0
LINE
  5
31A
330
A
100
AcDbEntity
  8
PV
  6
Continuous
 62
     7
100
AcDbLine
 10
72.03199999999999
 20
20.23
 30
0.0
 11
72.774
 21
23.0
 31
0.0
  0
POINT
  5
31B
330
A
100
AcDbEntity
  8
PV
  6
Continuous
 62
     7
100
AcDbPoint
 10
-89.167
 20
-27.5
 30
0.0
  0
POINT
  5
31C
330
A
100
AcDbEntity
  8
PV
  6
Continuous
 62
     7
100
AcDbPoint
 10
-74.0
 20
-27.5
 30
0.0
  0
POINT
  5
31D
330
A
100
AcDbEntity
  8
PV
  6
Continuous
 62
     7
100
AcDbPoint
 10
-74.0
 20
-132.4999999999999
 30
0.0
  0
MTEXT
  5
31E
330
A
100
AcDbEntity
  8
PV
  6
Continuous
 62
     7
100
AcDbMText
 10
-97.26700100000002
 20
-66.583
 30
0.0
 40
6.5
 41
0.0
 71
     2
 72
     1
  1
\A1;\U+2205105
 11
0.0
 21
1.0
 31
0.0
 73
     1
 44
1.0
  0
LINE
  5
31F
330
A
100
AcDbEntity
  8
PV
  6
Continuous
 62
     7
100
AcDbLine
 10
-76.54
 20
-27.5
 30
0.0
 11
-91.45299999999998
 21
-27.5
 31
0.0
  0
LINE
  5
320
330
A
100
AcDbEntity
  8
PV
  6
Continuous
 62
     7
100
AcDbLine
 10
-76.54
 20
-132.4999999999999
 30
0.0
 11
-91.45299999999998
 21
-132.4999999999999
 31
0.0
  0
LINE
  5
321
330
A
100
AcDbEntity
  8
PV
  6
Continuous
 62
     7
100
AcDbLine
 10
-89.167
 20
-132.4999999999999
 30
0.0
 11
-89.167
 21
-27.5
 31
0.0
  0
LINE
  5
322
330
A
100
AcDbEntity
  8
PV
  6
Continuous
 62
     7
100
AcDbLine
 10
-89.167
 20
-27.5
 30
0.0
 11
-89.167
 21
-30.27
 31
0.0
  0
LINE
  5
323
330
A
100
AcDbEntity
  8
PV
  6
Continuous
 62
     7
100
AcDbLine
 10
-89.167
 20
-27.5
 30
0.0
 11
-88.42399999999999
 21
-30.27
 31
0.0
  0
LINE
  5
324
330
A
100
AcDbEntity
  8
PV
  6
Continuous
 62
     7
100
AcDbLine
 10
-89.90899999999999
 20
-30.27
 30
0.0
 11
-89.167
 21
-27.5
 31
0.0
  0
LINE
  5
325
330
A
100
AcDbEntity
  8
PV
  6
Continuous
 62
     7
100
AcDbLine
 10
-89.167
 20
-132.4999999999999
 30
0.0
 11
-89.167
 21
-129.7299999999999
 31
0.0
  0
LINE
  5
326
330
A
100
AcDbEntity
  8
PV
  6
Continuous
 62
     7
100
AcDbLine
 10
-89.167
 20
-132.4999999999999
 30
0.0
 11
-89.90899999999999
 21
-129.7299999999999
 31
0.0
  0
LINE
  5
327
330
A
100
AcDbEntity
  8
PV
  6
Continuous
 62
     7
100
AcDbLine
 10
-88.42399999999999
 20
-129.7299999999999
 30
0.0
 11
-89.167
 21
-132.4999999999999
 31
0.0
  0
POINT
  5
328
330
A
100
AcDbEntity
  8
PV
  6
Continuous
 62
     7
100
AcDbPoint
 10
-57.5
 20
-168.514
 30
0.0
  0
POINT
  5
329
330
A
100
AcDbEntity
  8
PV
  6
Continuous
 62
     7
100
AcDbPoint
 10
-57.5
 20
-149.0
 30
0.0
  0
POINT
  5
32A
330
A
100
AcDbEntity
  8
PV
  6
Continuous
 62
     7
100
AcDbPoint
 10
47.5
 20
-149.0
 30
0.0
  0
MTEXT
  5
32B
330
A
100
AcDbEntity
  8
PV
  6
Continuous
 62
     7
100
AcDbMText
 10
7.067999999999999
 20
-160.413999
 30
0.0
 40
6.5
 41
0.0
 71
     2
 72
     1
  1
\A1;\U+2205105
 73
     1
 44
1.0
  0
LINE
  5
32C
330
A
100
AcDbEntity
  8
PV
  6
Continuous
 62
     7
100
AcDbLine
 10
-57.5
 20
-152.858033
 30
0.0
 11
-57.5
 21
-170.8
 31
0.0
  0
LINE
  5
32D
330
A
100
AcDbEntity
  8
PV
  6
Continuous
 62
     7
100
AcDbLine
 10
47.5
 20
-152.858033
 30
0.0
 11
47.5
 21
-170.8
 31
0.0
  0
LINE
  5
32E
330
A
100
AcDbEntity
  8
PV
  6
Continuous
 62
     7
100
AcDbLine
 10
47.5
 20
-168.514
 30
0.0
 11
-57.5
 21
-168.514
 31
0.0
  0
LINE
  5
32F
330
A
100
AcDbEntity
  8
PV
  6
Continuous
 62
     7
100
AcDbLine
 10
-57.5
 20
-168.514
 30
0.0
 11
-54.72999999999999
 21
-168.514
 31
0.0
  0
LINE
  5
330
330
A
100
AcDbEntity
  8
PV
  6
Continuous
 62
     7
100
AcDbLine
 10
-57.5
 20
-168.514
 30
0.0
 11
-54.72999999999999
 21
-167.7709999999999
 31
0.0
  0
LINE
  5
331
330
A
100
AcDbEntity
  8
PV
  6
Continuous
 62
     7
100
AcDbLine
 10
-54.72999999999999
 20
-169.2559999999999
 30
0.0
 11
-57.5
 21
-168.514
 31
0.0
  0
LINE
  5
332
330
A
100
AcDbEntity
  8
PV
  6
Continuous
 62
     7
100
AcDbLine
 10
47.5
 20
-168.514
 30
0.0
 11
44.72999999999999
 21
-168.514
 31
0.0
  0
LINE
  5
333
330
A
100
AcDbEntity
  8
PV
  6
Continuous
 62
     7
100
AcDbLine
 10
47.5
 20
-168.514
 30
0.0
 11
44.72999999999999
 21
-169.2559999999999
 31
0.0
  0
LINE
  5
334
330
A
100
AcDbEntity
  8
PV
  6
Continuous
 62
     7
100
AcDbLine
 10
44.72999999999999
 20
-167.7709999999999
 30
0.0
 11
47.5
 21
-168.514
 31
0.0
  0
POINT
  5
335
330
A
100
AcDbEntity
  8
PV
  6
Continuous
 62
     7
100
AcDbPoint
 10
68.418
 20
77.506
 30
0.0
  0
POINT
  5
336
330
A
100
AcDbEntity
  8
PV
  6
Continuous
 62
     7
100
AcDbPoint
 10
29.95699999999999
 20
77.506
 30
0.0
  0
POINT
  5
337
330
A
100
AcDbEntity
  8
PV
  6
Continuous
 62
     7
100
AcDbPoint
 10
29.95699999999999
 20
158.506
 30
0.0
  0
MTEXT
  5
338
330
A
100
AcDbEntity
  8
PV
  6
Continuous
 62
     7
100
AcDbMText
 10
60.317999
 20
118.006
 30
0.0
 40
6.5
 41
0.0
 71
     2
 72
     1
  1
\A1;□81
 11
0.0
 21
1.0
 31
0.0
 73
     1
 44
1.0
  0
LINE
  5
339
330
A
100
AcDbEntity
  8
PV
  6
Continuous
 62
     7
100
AcDbLine
 10
32.497
 20
77.506
 30
0.0
 11
70.70399999999999
 21
77.506
 31
0.0
  0
LINE
  5
33A
330
A
100
AcDbEntity
  8
PV
  6
Continuous
 62
     7
100
AcDbLine
 10
32.497
 20
158.506
 30
0.0
 11
70.70399999999999
 21
158.506
 31
0.0
  0
LINE
  5
33B
330
A
100
AcDbEntity
  8
PV
  6
Continuous
 62
     7
100
AcDbLine
 10
68.418
 20
158.506
 30
0.0
 11
68.418
 21
77.506
 31
0.0
  0
LINE
  5
33C
330
A
100
AcDbEntity
  8
PV
  6
Continuous
 62
     7
100
AcDbLine
 10
68.418
 20
77.506
 30
0.0
 11
68.418
 21
80.27600000000001
 31
0.0
  0
LINE
  5
33D
330
A
100
AcDbEntity
  8
PV
  6
Continuous
 62
     7
100
AcDbLine
 10
68.418
 20
77.506
 30
0.0
 11
67.675
 21
80.27600000000001
 31
0.0
  0
LINE
  5
33E
330
A
100
AcDbEntity
  8
PV
  6
Continuous
 62
     7
100
AcDbLine
 10
69.16
 20
80.27600000000001
 30
0.0
 11
68.418
 21
77.506
 31
0.0
  0
LINE
  5
33F
330
A
100
AcDbEntity
  8
PV
  6
Continuous
 62
     7
100
AcDbLine
 10
68.418
 20
158.506
 30
0.0
 11
68.418
 21
155.7359999999999
 31
0.0
  0
LINE
  5
340
330
A
100
AcDbEntity
  8
PV
  6
Continuous
 62
     7
100
AcDbLine
 10
68.418
 20
158.506
 30
0.0
 11
69.16
 21
155.7359999999999
 31
0.0
  0
LINE
  5
341
330
A
100
AcDbEntity
  8
PV
  6
Continuous
 62
     7
100
AcDbLine
 10
67.675
 20
155.7359999999999
 30
0.0
 11
68.418
 21
158.506
 31
0.0
  0
ENDSEC
  0
SECTION
  2
OBJECTS
  0
DICTIONARY
  5
19
330
0
100
AcDbDictionary
281
     1
  3
ACAD_GROUP
350
1A
  3
ACAD_LAYOUT
350
1E
  3
ACAD_MLINESTYLE
350
1B
  3
ACAD_PLOTSETTINGS
350
22
  3
ACAD_PLOTSTYLENAME
350
1F
  0
DICTIONARY
  5
1A
102
{ACAD_REACTORS
330
19
102
}
330
19
100
AcDbDictionary
281
     1
  0
DICTIONARY
  5
1E
102
{ACAD_REACTORS
330
19
102
}
330
19
100
AcDbDictionary
281
     1
  3
Layout1
350
21
  3
Model
350
20
  0
DICTIONARY
  5
1B
102
{ACAD_REACTORS
330
19
102
}
330
19
100
AcDbDictionary
281
     1
  3
Standard
350
1C
  0
DICTIONARY
  5
22
102
{ACAD_REACTORS
330
19
102
}
330
19
100
AcDbDictionary
281
     1
  0
ACDBDICTIONARYWDFLT
  5
1F
102
{ACAD_REACTORS
330
19
102
}
330
19
100
AcDbDictionary
281
     1
  3
Normal
350
1D
100
AcDbDictionaryWithDefault
340
1D
  0
LAYOUT
  5
21
102
{ACAD_REACTORS
330
1E
102
}
330
1E
100
AcDbPlotSettings
  1

  2

  4

  6

 40
0.0
 41
0.0
 42
0.0
 43
0.0
 44
0.0
 45
0.0
 46
0.0
 47
0.0
 48
0.0
 49
0.0
140
0.0
141
0.0
142
1.0
143
1.0
 70
     0
 72
     0
 73
     0
 74
     0
  7

 75
     0
147
1.0
148
0.0
149
0.0
100
AcDbLayout
  1
Layout1
 70
     0
 71
     1
 10
0.0
 20
0.0
 11
12.0
 21
9.0
 12
0.0
 22
0.0
 32
0.0
 14
1.000000000000000E+20
 24
1.000000000000000E+20
 34
1.000000000000000E+20
 15
-1.000000000000000E+20
 25
-1.000000000000000E+20
 35
-1.000000000000000E+20
146
0.0
 13
0.0
 23
0.0
 33
0.0
 16
1.0
 26
0.0
 36
0.0
 17
0.0
 27
1.0
 37
0.0
 76
     0
330
B
  0
LAYOUT
  5
20
102
{ACAD_REACTORS
330
1E
102
}
330
1E
100
AcDbPlotSettings
  1

  2
Adobe PDF
  4
A3
  6

 40
3.174999952316284
 41
3.174999952316284
 42
3.17498779296875
 43
3.17498779296875
 44
297.0318298339843
 45
420.1583251953125
 46
0.0
 47
62.96
 48
0.0
 49
0.0
140
0.0
141
0.0
142
1.0
143
1.273745430191059
 70
 11284
 72
     1
 73
     1
 74
     2
  7

 75
     0
147
0.785086231751977
148
158.8609999999999
149
182.927
100
AcDbLayout
  1
Model
 70
     0
 71
     0
 10
0.0
 20
0.0
 11
0.0
 21
0.0
 12
0.0
 22
0.0
 32
0.0
 14
0.0
 24
0.0
 34
0.0
 15
0.0
 25
0.0
 35
0.0
146
0.0
 13
0.0
 23
0.0
 33
0.0
 16
0.0
 26
0.0
 36
0.0
 17
0.0
 27
0.0
 37
0.0
 76
     0
330
A
  0
MLINESTYLE
  5
1C
102
{ACAD_REACTORS
330
1B
102
}
330
1B
100
AcDbMlineStyle
  2
STANDARD
 70
     0
  3

 62
     0
 51
90.0
 52
90.0
 71
     2
 49
0.5
 62
   256
  6
BYLAYER
 49
-0.5
 62
   256
  6
BYLAYER
  0
ACDBPLACEHOLDER
  5
1D
102
{ACAD_REACTORS
330
1F
102
}
330
1F
  0
ENDSEC
  0
EOF
