  0
SECTION
  2
HEADER
  9
$ACADVER
  1
AC1015
  9
$ACADMAINTVER
 70
    10
  9
$DWGCODEPAGE
  3
ANSI_932
  9
$INSBASE
 10
0.0
 20
0.0
 30
0.0
  9
$EXTMIN
 10
-152.5722797752209
 20
-172.81586262539
 30
-0.0015258207003583
  9
$EXTMAX
 10
195.5626243962515
 20
181.3599027035563
 30
0.0000000349246037
  9
$LIMMIN
 10
-152.5616569999999
 20
-172.805
  9
$LIMMAX
 10
195.552
 20
183.168667
  9
$ORTHOMODE
 70
     0
  9
$REGENMODE
 70
     1
  9
$FILLMODE
 70
     1
  9
$QTEXTMODE
 70
     0
  9
$MIRRTEXT
 70
     1
  9
$LTSCALE
 40
0.2
  9
$ATTMODE
 70
     1
  9
$TEXTSIZE
 40
3.2
  9
$TRACEWID
 40
0.05
  9
$TEXTSTYLE
  7
MX_NOTE_STANDARD
  9
$CLAYER
  8
0
  9
$CELTYPE
  6
CONTINUOUS
  9
$CECOLOR
 62
   256
  9
$CELTSCALE
 40
1.0
  9
$DISPSILH
 70
     0
  9
$DIMSCALE
 40
1.0
  9
$DIMASZ
 40
2.5
  9
$DIMEXO
 40
2.54
  9
$DIMDLI
 40
3.75
  9
$DIMRND
 40
0.0
  9
$DIMDLE
 40
0.0
  9
$DIMEXE
 40
2.286
  9
$DIMTP
 40
0.0
  9
$DIMTM
 40
0.0
  9
$DIMTXT
 40
3.2
  9
$DIMCEN
 40
2.5
  9
$DIMTSZ
 40
0.0
  9
$DIMTOL
 70
     0
  9
$DIMLIM
 70
     0
  9
$DIMTIH
 70
     0
  9
$DIMTOH
 70
     0
  9
$DIMSE1
 70
     0
  9
$DIMSE2
 70
     0
  9
$DIMTAD
 70
     1
  9
$DIMZIN
 70
     8
  9
$DIMBLK
  1

  9
$DIMASO
 70
     1
  9
$DIMSHO
 70
     1
  9
$DIMPOST
  1

  9
$DIMAPOST
  1

  9
$DIMALT
 70
     0
  9
$DIMALTD
 70
     4
  9
$DIMALTF
 40
0.03937
  9
$DIMLFAC
 40
1.0
  9
$DIMTOFL
 70
     1
  9
$DIMTVP
 40
0.0
  9
$DIMTIX
 70
     0
  9
$DIMSOXD
 70
     0
  9
$DIMSAH
 70
     1
  9
$DIMBLK1
  1
OPEN30
  9
$DIMBLK2
  1
OPEN30
  9
$DIMSTYLE
  2
MXDIMSTYLE
  9
$DIMCLRD
 70
     0
  9
$DIMCLRE
 70
     0
  9
$DIMCLRT
 70
     0
  9
$DIMTFAC
 40
1.0
  9
$DIMGAP
 40
1.0
  9
$DIMJUST
 70
     0
  9
$DIMSD1
 70
     0
  9
$DIMSD2
 70
     0
  9
$DIMTOLJ
 70
     0
  9
$DIMTZIN
 70
     0
  9
$DIMALTZ
 70
     0
  9
$DIMALTTZ
 70
     0
  9
$DIMUPT
 70
     1
  9
$DIMDEC
 70
     2
  9
$DIMTDEC
 70
     2
  9
$DIMALTU
 70
     2
  9
$DIMALTTD
 70
     4
  9
$DIMTXSTY
  7
MX_NOTE_STANDARD
  9
$DIMAUNIT
 70
     0
  9
$DIMADEC
 70
     0
  9
$DIMALTRND
 40
0.0
  9
$DIMAZIN
 70
     0
  9
$DIMDSEP
 70
    46
  9
$DIMATFIT
 70
     3
  9
$DIMFRAC
 70
     0
  9
$DIMLDRBLK
  1
OPEN30
  9
$DIMLUNIT
 70
     2
  9
$DIMLWD
 70
    -2
  9
$DIMLWE
 70
    -2
  9
$DIMTMOVE
 70
     0
  9
$LUNITS
 70
     2
  9
$LUPREC
 70
     4
  9
$SKETCHINC
 40
0.1
  9
$FILLETRAD
 40
0.0
  9
$AUNITS
 70
     0
  9
$AUPREC
 70
     0
  9
$MENU
  1
acad
  9
$ELEVATION
 40
0.0
  9
$PELEVATION
 40
0.0
  9
$THICKNESS
 40
0.0
  9
$LIMCHECK
 70
     0
  9
$CHAMFERA
 40
0.0
  9
$CHAMFERB
 40
0.0
  9
$CHAMFERC
 40
0.0
  9
$CHAMFERD
 40
0.0
  9
$SKPOLY
 70
     0
  9
$TDCREATE
 40
2455289.544985844
  9
$TDUCREATE
 40
2455289.169985845
  9
$TDUPDATE
 40
2455289.558309247
  9
$TDUUPDATE
 40
2455289.183309247
  9
$TDINDWG
 40
0.0133244907
  9
$TDUSRTIMER
 40
0.0133243171
  9
$USRTIMER
 70
     1
  9
$ANGBASE
 50
0.0
  9
$ANGDIR
 70
     0
  9
$PDMODE
 70
     0
  9
$PDSIZE
 40
0.0
  9
$PLINEWID
 40
0.0
  9
$SPLFRAME
 70
     0
  9
$SPLINETYPE
 70
     6
  9
$SPLINESEGS
 70
     8
  9
$HANDSEED
  5
2EA
  9
$SURFTAB1
 70
     6
  9
$SURFTAB2
 70
     6
  9
$SURFTYPE
 70
     6
  9
$SURFU
 70
     6
  9
$SURFV
 70
     6
  9
$UCSBASE
  2

  9
$UCSNAME
  2

  9
$UCSORG
 10
0.0
 20
0.0
 30
0.0
  9
$UCSXDIR
 10
1.0
 20
0.0
 30
0.0
  9
$UCSYDIR
 10
0.0
 20
1.0
 30
0.0
  9
$UCSORTHOREF
  2

  9
$UCSORTHOVIEW
 70
     0
  9
$UCSORGTOP
 10
0.0
 20
0.0
 30
0.0
  9
$UCSORGBOTTOM
 10
0.0
 20
0.0
 30
0.0
  9
$UCSORGLEFT
 10
0.0
 20
0.0
 30
0.0
  9
$UCSORGRIGHT
 10
0.0
 20
0.0
 30
0.0
  9
$UCSORGFRONT
 10
0.0
 20
0.0
 30
0.0
  9
$UCSORGBACK
 10
0.0
 20
0.0
 30
0.0
  9
$PUCSBASE
  2

  9
$PUCSNAME
  2

  9
$PUCSORG
 10
0.0
 20
0.0
 30
0.0
  9
$PUCSXDIR
 10
1.0
 20
0.0
 30
0.0
  9
$PUCSYDIR
 10
0.0
 20
1.0
 30
0.0
  9
$PUCSORTHOREF
  2

  9
$PUCSORTHOVIEW
 70
     0
  9
$PUCSORGTOP
 10
0.0
 20
0.0
 30
0.0
  9
$PUCSORGBOTTOM
 10
0.0
 20
0.0
 30
0.0
  9
$PUCSORGLEFT
 10
0.0
 20
0.0
 30
0.0
  9
$PUCSORGRIGHT
 10
0.0
 20
0.0
 30
0.0
  9
$PUCSORGFRONT
 10
0.0
 20
0.0
 30
0.0
  9
$PUCSORGBACK
 10
0.0
 20
0.0
 30
0.0
  9
$USERI1
 70
     0
  9
$USERI2
 70
     0
  9
$USERI3
 70
     0
  9
$USERI4
 70
     0
  9
$USERI5
 70
     0
  9
$USERR1
 40
0.0
  9
$USERR2
 40
0.0
  9
$USERR3
 40
0.0
  9
$USERR4
 40
0.0
  9
$USERR5
 40
0.0
  9
$WORLDVIEW
 70
     1
  9
$SHADEDGE
 70
     3
  9
$SHADEDIF
 70
    70
  9
$TILEMODE
 70
     1
  9
$MAXACTVP
 70
    16
  9
$PINSBASE
 10
0.0
 20
0.0
 30
0.0
  9
$PLIMCHECK
 70
     0
  9
$PEXTMIN
 10
1.000000000000000E+20
 20
1.000000000000000E+20
 30
1.000000000000000E+20
  9
$PEXTMAX
 10
-1.000000000000000E+20
 20
-1.000000000000000E+20
 30
-1.000000000000000E+20
  9
$PLIMMIN
 10
0.0
 20
0.0
  9
$PLIMMAX
 10
12.0
 20
9.0
  9
$UNITMODE
 70
     0
  9
$VISRETAIN
 70
     0
  9
$PLINEGEN
 70
     1
  9
$PSLTSCALE
 70
     0
  9
$TREEDEPTH
 70
  3020
  9
$CMLSTYLE
  2
Standard
  9
$CMLJUST
 70
     0
  9
$CMLSCALE
 40
1.0
  9
$PROXYGRAPHICS
 70
     0
  9
$MEASUREMENT
 70
     1
  9
$CELWEIGHT
370
     0
  9
$ENDCAPS
280
     0
  9
$JOINSTYLE
280
     0
  9
$LWDISPLAY
290
     0
  9
$INSUNITS
 70
     0
  9
$HYPERLINKBASE
  1

  9
$STYLESHEET
  1

  9
$XEDIT
290
     1
  9
$CEPSNTYPE
380
     0
  9
$PSTYLEMODE
290
     1
  9
$FINGERPRINTGUID
  2

  9
$VERSIONGUID
  2
{BC75043F-3B90-40A9-8810-E1E188FE06B1}
  9
$EXTNAMES
290
     1
  9
$PSVPSCALE
 40
0.0
  9
$OLESTARTUP
290
     0
  0
ENDSEC
  0
SECTION
  2
CLASSES
  0
CLASS
  1
LWPOLYLINE
  2
AcDbPolyline
  3
AutoCAD 2000
 90
    32768
280
     0
281
     1
  0
CLASS
  1
IMAGE
  2
AcDbRasterImage
  3
ISM
 90
    32895
280
     0
281
     1
  0
CLASS
  1
OLE2FRAME
  2
AcDbOle2Frame
  3
AutoCAD 2000
 90
    32768
280
     0
281
     1
  0
CLASS
  1
HATCH
  2
AcDbHatch
  3
AutoCAD 2000
 90
    32768
280
     0
281
     1
  0
CLASS
  1
DICTIONARYVAR
  2
AcDbDictionaryVar
  3
AutoCAD 2000
 90
    32768
280
     0
281
     0
  0
CLASS
  1
RASTERVARIABLES
  2
AcDbRasterVariables
  3
ISM
 90
    32768
280
     0
281
     0
  0
CLASS
  1
IMAGEDEF
  2
AcDbRasterImageDef
  3
ISM
 90
    32768
280
     0
281
     0
  0
CLASS
  1
IMAGEDEF_REACTOR
  2
AcDbRasterImageDefReactor
  3
ISM
 90
    32769
280
     0
281
     0
  0
CLASS
  1
IDBUFFER
  2
AcDbIdBuffer
  3
AutoCAD 2000
 90
    32768
280
     0
281
     0
  0
CLASS
  1
SPATIAL_FILTER
  2
AcDbSpatialFilter
  3
AutoCAD 2000
 90
    32768
280
     0
281
     0
  0
CLASS
  1
XRECORD
  2
AcDbXrecord
  3
AutoCAD 2000
 90
    32768
280
     0
281
     0
  0
CLASS
  1
SORTENTSTABLE
  2
AcDbSortentsTable
  3
AutoCAD 2000
 90
    32768
280
     0
281
     0
  0
CLASS
  1
LAYER_INDEX
  2
AcDbLayerIndex
  3
AutoCAD 2000
 90
    32768
280
     0
281
     0
  0
CLASS
  1
SPATIAL_INDEX
  2
AcDbSpatialIndex
  3
AutoCAD 2000
 90
    32768
280
     0
281
     0
  0
CLASS
  1
OBJECT_PTR
  2
CAseDLPNTableRecord
  3
"ASE-LPNTableRecord"
 90
    32769
280
     0
281
     0
  0
CLASS
  1
LAYOUT
  2
AcDbLayout
  3
AutoCAD 2000
 90
        0
280
     0
281
     0
  0
CLASS
  1
PLOTSETTINGS
  2
AcDbPlotSettings
  3
AutoCAD 2000
 90
    32768
280
     0
281
     0
  0
CLASS
  1
ACDBDICTIONARYWDFLT
  2
AcDbDictionaryWithDefault
  3
AutoCAD 2000
 90
        0
280
     0
281
     0
  0
CLASS
  1
ACDBPLACEHOLDER
  2
AcDbPlaceHolder
  3
AutoCAD 2000
 90
        0
280
     0
281
     0
  0
ENDSEC
  0
SECTION
  2
TABLES
  0
TABLE
  2
VPORT
  5
7
330
0
100
AcDbSymbolTable
 70
     2
  0
VPORT
  5
2E9
330
7
100
AcDbSymbolTableRecord
100
AcDbViewportTableRecord
  2
*Active
 70
     0
 10
0.0
 20
0.0
 11
1.0
 21
1.0
 12
-2.81406258491927
 22
-3.903005174301398
 13
0.0
 23
0.0
 14
1.0
 24
1.0
 15
0.0
 25
0.0
 16
0.0
 26
0.0
 36
1.0
 17
0.0
 27
0.0
 37
0.0
 40
405.4987294410579
 41
1.535714285714285
 42
50.0
 43
0.0
 44
0.0
 50
0.0
 51
0.0
 71
     0
 72
   100
 73
     1
 74
     1
 75
     0
 76
     0
 77
     0
 78
     0
281
     0
 65
     0
110
0.0
120
0.0
130
0.0
111
1.0
121
0.0
131
0.0
112
0.0
122
1.0
132
0.0
 79
     0
146
0.0
  0
ENDTAB
  0
TABLE
  2
LTYPE
  5
4
330
0
100
AcDbSymbolTable
 70
     3
  0
LTYPE
  5
11
330
4
100
AcDbSymbolTableRecord
100
AcDbLinetypeTableRecord
  2
BYBLOCK
 70
     0
  3

 72
    65
 73
     0
 40
0.0
  0
LTYPE
  5
12
330
4
100
AcDbSymbolTableRecord
100
AcDbLinetypeTableRecord
  2
BYLAYER
 70
     0
  3

 72
    65
 73
     0
 40
0.0
  0
LTYPE
  5
13
330
4
100
AcDbSymbolTableRecord
100
AcDbLinetypeTableRecord
  2
CONTINUOUS
 70
     0
  3
Solid line
 72
    65
 73
     0
 40
0.0
  0
LTYPE
  5
21F
330
4
100
AcDbSymbolTableRecord
100
AcDbLinetypeTableRecord
  2
CENTER
 70
     0
  3
Center ____ _ ____ _ ____ _ ____ _ ____ _ ____
 72
    65
 73
     4
 40
50.8
 49
31.75
 74
     0
 49
-6.349999999999999
 74
     0
 49
6.349999999999999
 74
     0
 49
-6.349999999999999
 74
     0
  0
LTYPE
  5
243
330
4
100
AcDbSymbolTableRecord
100
AcDbLinetypeTableRecord
  2
DASHED
 70
     0
  3
Dashed __ __ __ __ __ __ __ __ __ __ __ __ __ _
 72
    65
 73
     2
 40
19.05
 49
12.7
 74
     0
 49
-6.349999999999999
 74
     0
  0
ENDTAB
  0
TABLE
  2
LAYER
  5
2
330
0
100
AcDbSymbolTable
 70
     4
  0
LAYER
  5
14
330
2
100
AcDbSymbolTableRecord
100
AcDbLayerTableRecord
  2
0
 70
     0
 62
     7
  6
CONTINUOUS
370
    -3
390
1D
  0
LAYER
  5
23
330
2
100
AcDbSymbolTableRecord
100
AcDbLayerTableRecord
  2
DEFPOINTS
 70
     0
 62
     7
  6
CONTINUOUS
290
     0
370
    -3
390
1D
  0
LAYER
  5
24
330
2
100
AcDbSymbolTableRecord
100
AcDbLayerTableRecord
  2
PV
 70
     0
 62
     7
  6
CONTINUOUS
370
    -3
390
1D
  0
LAYER
  5
25
330
2
100
AcDbSymbolTableRecord
100
AcDbLayerTableRecord
  2
WV
 70
     0
 62
     7
  6
CONTINUOUS
370
    -3
390
1D
  0
ENDTAB
  0
TABLE
  2
STYLE
  5
3
330
0
100
AcDbSymbolTable
 70
     2
  0
STYLE
  5
17
330
3
100
AcDbSymbolTableRecord
100
AcDbTextStyleTableRecord
  2
MX_NOTE_STANDARD
 70
     0
 40
0.0
 41
1.0
 50
0.0
 71
     0
 42
3.2
  3
txt.shx
  4
extfont.shx
  0
STYLE
  5
2E5
330
3
100
AcDbSymbolTableRecord
100
AcDbTextStyleTableRecord
  2
Standard
 70
     0
 40
0.0
 41
1.0
 50
0.0
 71
     0
 42
0.2
  3

  4

  0
ENDTAB
  0
TABLE
  2
VIEW
  5
5
330
0
100
AcDbSymbolTable
 70
     0
  0
ENDTAB
  0
TABLE
  2
UCS
  5
6
330
0
100
AcDbSymbolTable
 70
     0
  0
ENDTAB
  0
TABLE
  2
APPID
  5
8
330
0
100
AcDbSymbolTable
 70
     1
  0
APPID
  5
16
330
8
100
AcDbSymbolTableRecord
100
AcDbRegAppTableRecord
  2
ACAD
 70
     0
  0
ENDTAB
  0
TABLE
  2
DIMSTYLE
  5
9
330
0
100
AcDbSymbolTable
 70
     1
100
AcDbDimStyleTable
 71
     0
  0
DIMSTYLE
105
18
102
{ACAD_REACTORS
330
3D
102
}
330
9
100
AcDbSymbolTableRecord
100
AcDbDimStyleTableRecord
  2
MXDIMSTYLE
 70
     0
 41
2.5
 42
2.54
 43
3.75
 44
2.286
 73
     0
 74
     0
 77
     1
 78
     8
140
3.2
141
2.5
143
0.03937
147
1.0
171
     4
172
     1
173
     1
271
     2
272
     2
274
     4
283
     0
288
     1
340
17
341
26
343
26
344
26
  0
ENDTAB
  0
TABLE
  2
BLOCK_RECORD
  5
1
330
0
100
AcDbSymbolTable
 70
     3
  0
BLOCK_RECORD
  5
A
330
1
100
AcDbSymbolTableRecord
100
AcDbBlockTableRecord
  2
*MODEL_SPACE
340
20
  0
BLOCK_RECORD
  5
B
330
1
100
AcDbSymbolTableRecord
100
AcDbBlockTableRecord
  2
*PAPER_SPACE
340
21
  0
BLOCK_RECORD
  5
26
330
1
100
AcDbSymbolTableRecord
100
AcDbBlockTableRecord
  2
_OPEN30
340
0
102
{BLKREFS
331
34
102
}
  0
BLOCK_RECORD
  5
2F
330
1
100
AcDbSymbolTableRecord
100
AcDbBlockTableRecord
  2
*D1
340
0
  0
BLOCK_RECORD
  5
35
330
1
100
AcDbSymbolTableRecord
100
AcDbBlockTableRecord
  2
_NONE
340
0
  0
ENDTAB
  0
ENDSEC
  0
SECTION
  2
BLOCKS
  0
BLOCK
  5
D
330
A
100
AcDbEntity
  8
0
100
AcDbBlockBegin
  2
*MODEL_SPACE
 70
     0
 10
0.0
 20
0.0
 30
0.0
  3
*MODEL_SPACE
  1

  0
ENDBLK
  5
E
330
A
100
AcDbEntity
  8
0
100
AcDbBlockEnd
  0
BLOCK
  5
F
330
B
100
AcDbEntity
 67
     1
  8
0
100
AcDbBlockBegin
  2
*PAPER_SPACE
 70
     0
 10
0.0
 20
0.0
 30
0.0
  3
*PAPER_SPACE
  1

  0
ENDBLK
  5
10
330
B
100
AcDbEntity
 67
     1
  8
0
100
AcDbBlockEnd
  0
BLOCK
  5
27
330
26
100
AcDbEntity
  8
0
  6
ByBlock
 62
     0
370
    -2
100
AcDbBlockBegin
  2
_OPEN30
 70
     2
 10
0.0
 20
0.0
 30
0.0
  3
_OPEN30
  1

  0
LINE
  5
28
330
26
100
AcDbEntity
  8
0
  6
ByBlock
 62
     0
370
    -2
100
AcDbLine
 10
-1.0
 20
0.267949
 30
0.0
 11
0.0
 21
0.0
 31
0.0
  0
LINE
  5
29
330
26
100
AcDbEntity
  8
0
  6
ByBlock
 62
     0
370
    -2
100
AcDbLine
 10
0.0
 20
0.0
 30
0.0
 11
-1.0
 21
-0.267949
 31
0.0
  0
LINE
  5
2A
330
26
100
AcDbEntity
  8
0
  6
ByBlock
 62
     0
370
    -2
100
AcDbLine
 10
0.0
 20
0.0
 30
0.0
 11
-1.0
 21
0.0
 31
0.0
  0
ENDBLK
  5
2B
330
26
100
AcDbEntity
  8
0
  6
ByBlock
 62
     0
370
    -2
100
AcDbBlockEnd
  0
BLOCK
  5
30
330
2F
100
AcDbEntity
  8
0
  6
ByBlock
 62
     0
370
    -2
100
AcDbBlockBegin
  2
*D1
 70
     1
 10
0.0
 20
0.0
 30
0.0
  3
*D1
  1

  0
LINE
  5
31
330
2F
100
AcDbEntity
  8
0
  6
Continuous
 62
     7
100
AcDbLine
 10
-124.285929
 20
84.13729899999999
 30
0.0
 11
-152.5616569999999
 21
42.993676
 31
0.0
  0
LINE
  5
32
330
2F
100
AcDbEntity
  8
0
  6
Continuous
 62
     7
100
AcDbLine
 10
-152.5616569999999
 20
42.993676
 30
0.0
 11
-89.77059
 21
42.993676
 31
0.0
  0
LINE
  5
33
330
2F
100
AcDbEntity
  8
0
  6
Continuous
 62
     7
100
AcDbLine
 10
-124.285929
 20
84.13729899999999
 30
0.0
 11
-127.882479
 21
78.904009
 31
0.0
  0
INSERT
  5
34
330
2F
100
AcDbEntity
  8
0
  6
Continuous
 62
     7
100
AcDbBlockReference
  2
_OPEN30
 10
-124.285929
 20
84.13729899999999
 30
0.0
 41
2.77
 42
2.77
 43
2.77
 50
55.50142000000001
  0
MTEXT
  5
39
330
2F
100
AcDbEntity
  8
0
  6
Continuous
 62
     7
100
AcDbMText
 10
-119.1955909999999
 20
46.743676
 30
0.0
 40
5.5
 41
0.0
 71
     5
 72
     1
  1
\A1;4-10キリ（等配）
 73
     1
 44
0.9
  0
POINT
  5
3A
330
2F
100
AcDbEntity
  8
DEFPOINTS
  6
Continuous
 62
     0
100
AcDbPoint
 10
-124.285929
 20
84.13729899999999
 30
0.0
  0
POINT
  5
3B
330
2F
100
AcDbEntity
  8
DEFPOINTS
  6
Continuous
 62
     0
100
AcDbPoint
 10
-118.6220709999999
 20
92.378701
 30
0.0
  0
ENDBLK
  5
3C
330
2F
100
AcDbEntity
  8
0
  6
ByBlock
 62
     0
370
    -2
100
AcDbBlockEnd
  0
BLOCK
  5
36
330
35
100
AcDbEntity
  8
0
  6
ByBlock
 62
     0
370
    -2
100
AcDbBlockBegin
  2
_NONE
 70
     2
 10
0.0
 20
0.0
 30
0.0
  3
_NONE
  1

  0
CIRCLE
  5
37
330
35
100
AcDbEntity
  8
0
  6
ByBlock
 62
     0
370
    -2
100
AcDbCircle
 10
0.0
 20
0.0
 30
0.0
 40
0.25
  0
ENDBLK
  5
38
330
35
100
AcDbEntity
  8
0
  6
ByBlock
 62
     0
370
    -2
100
AcDbBlockEnd
  0
ENDSEC
  0
SECTION
  2
ENTITIES
  0
LEADER
  5
2C
330
A
100
AcDbEntity
  8
0
  6
Continuous
 62
     7
100
AcDbLeader
  3
MXDIMSTYLE
 74
     0
 76
     2
 10
130.0
 20
-33.5
 30
0.0
 10
155.96536
 20
34.49266699999999
 30
0.0
1001
ACAD
1000
DSTYLE
1002
{
1070
    41
1040
2.77
1002
}
  0
MTEXT
  5
2D
330
A
100
AcDbEntity
  8
0
  6
Continuous
 62
     7
100
AcDbMText
 10
157.0618499999999
 20
39.617667
 30
0.0
 40
5.5
 41
0.0
 71
     4
 72
     1
  1
\W1.139;\A1;Rc 1/8
 73
     1
 44
0.9
  0
LEADER
  5
2E
330
A
100
AcDbEntity
  8
0
  6
Continuous
 62
     7
100
AcDbLeader
  3
MXDIMSTYLE
 74
     0
 76
     3
 10
130.0
 20
-9.0
 30
0.0
 10
155.96536
 20
34.49266699999999
 30
0.0
 10
190.06185
 20
34.49266699999999
 30
0.0
1001
ACAD
1000
DSTYLE
1002
{
1070
    41
1040
2.77
1002
}
  0
DIMENSION
  5
3D
330
A
100
AcDbEntity
  8
0
  6
Continuous
 62
     7
100
AcDbDimension
  2
*D1
 10
-118.6220709999999
 20
92.378701
 30
0.0
 11
-119.1955909999999
 21
42.993676
 31
0.0
 70
   131
  1
4-<>
 71
     5
 41
0.9
 42
10.0
  3
MXDIMSTYLE
100
AcDbDiametricDimension
 15
-124.285929
 25
84.13729899999999
 35
0.0
 40
0.0
1001
ACAD
1000
DSTYLE
1002
{
1070
     6
1000
_NONE
1070
    41
1040
2.77
1070
    73
1070
     1
1070
    74
1070
     1
1070
   140
1040
5.5
1070
   141
1040
0.0
1070
   172
1070
     0
1070
   271
1070
     0
1070
   284
1070
     8
1070
   343
1005
35
1002
}
  0
LINE
  5
3E
330
A
100
AcDbEntity
  8
PV
  6
Continuous
 62
     7
100
AcDbLine
 10
42.22999999999999
 20
-155.982
 30
0.0
 11
45.0
 21
-156.7239999999999
 31
0.0
  0
LINE
  5
3F
330
A
100
AcDbEntity
  8
PV
  6
Continuous
 62
     7
100
AcDbLine
 10
45.0
 20
-156.7239999999999
 30
0.0
 11
42.22999999999999
 21
-157.466
 31
0.0
  0
LINE
  5
40
330
A
100
AcDbEntity
  8
PV
  6
Continuous
 62
     7
100
AcDbLine
 10
45.0
 20
-156.7239999999999
 30
0.0
 11
42.22999999999999
 21
-156.7239999999999
 31
0.0
  0
LINE
  5
41
330
A
100
AcDbEntity
  8
PV
  6
Continuous
 62
     7
100
AcDbLine
 10
-42.22999999999999
 20
-157.466
 30
0.0
 11
-45.0
 21
-156.7239999999999
 31
0.0
  0
LINE
  5
42
330
A
100
AcDbEntity
  8
PV
  6
Continuous
 62
     7
100
AcDbLine
 10
-45.0
 20
-156.7239999999999
 30
0.0
 11
-42.22999999999999
 21
-155.982
 31
0.0
  0
LINE
  5
43
330
A
100
AcDbEntity
  8
PV
  6
Continuous
 62
     7
100
AcDbLine
 10
-45.0
 20
-156.7239999999999
 30
0.0
 11
-42.22999999999999
 21
-156.7239999999999
 31
0.0
  0
LINE
  5
44
330
A
100
AcDbEntity
  8
PV
  6
Continuous
 62
     7
100
AcDbLine
 10
45.0
 20
-156.7239999999999
 30
0.0
 11
-45.0
 21
-156.7239999999999
 31
0.0
  0
LINE
  5
45
330
A
100
AcDbEntity
  8
PV
  6
Continuous
 62
     7
100
AcDbLine
 10
45.0
 20
-147.54
 30
0.0
 11
45.0
 21
-159.0099999999999
 31
0.0
  0
LINE
  5
46
330
A
100
AcDbEntity
  8
PV
  6
Continuous
 62
     7
100
AcDbLine
 10
-45.0
 20
-147.54
 30
0.0
 11
-45.0
 21
-159.0099999999999
 31
0.0
  0
MTEXT
  5
47
330
A
100
AcDbEntity
  8
PV
  6
Continuous
 62
     7
100
AcDbMText
 10
9.964
 20
-150.2906659999999
 30
0.0
 40
5.5
 41
0.0
 71
     2
 72
     1
  1
\T1.016;\W1.008;\A1;\U+220590
 73
     1
 44
1.0
  0
POINT
  5
48
330
A
100
AcDbEntity
  8
PV
  6
Continuous
 62
     7
100
AcDbPoint
 10
45.0
 20
-145.0
 30
0.0
  0
POINT
  5
49
330
A
100
AcDbEntity
  8
PV
  6
Continuous
 62
     7
100
AcDbPoint
 10
-45.0
 20
-145.0
 30
0.0
  0
POINT
  5
4A
330
A
100
AcDbEntity
  8
PV
  6
Continuous
 62
     7
100
AcDbPoint
 10
-45.0
 20
-156.7239999999999
 30
0.0
  0
LINE
  5
4B
330
A
100
AcDbEntity
  8
PV
  6
Continuous
 62
     7
100
AcDbLine
 10
-71.941
 20
-127.2299999999999
 30
0.0
 11
-72.683
 21
-130.0
 31
0.0
  0
LINE
  5
4C
330
A
100
AcDbEntity
  8
PV
  6
Continuous
 62
     7
100
AcDbLine
 10
-72.683
 20
-130.0
 30
0.0
 11
-73.425
 21
-127.2299999999999
 31
0.0
  0
LINE
  5
4D
330
A
100
AcDbEntity
  8
PV
  6
Continuous
 62
     7
100
AcDbLine
 10
-72.683
 20
-130.0
 30
0.0
 11
-72.683
 21
-127.2299999999999
 31
0.0
  0
LINE
  5
4E
330
A
100
AcDbEntity
  8
PV
  6
Continuous
 62
     7
100
AcDbLine
 10
-73.425
 20
-42.77
 30
0.0
 11
-72.683
 21
-40.0
 31
0.0
  0
LINE
  5
4F
330
A
100
AcDbEntity
  8
PV
  6
Continuous
 62
     7
100
AcDbLine
 10
-72.683
 20
-40.0
 30
0.0
 11
-71.941
 21
-42.77
 31
0.0
  0
LINE
  5
50
330
A
100
AcDbEntity
  8
PV
  6
Continuous
 62
     7
100
AcDbLine
 10
-72.683
 20
-40.0
 30
0.0
 11
-72.683
 21
-42.77
 31
0.0
  0
LINE
  5
51
330
A
100
AcDbEntity
  8
PV
  6
Continuous
 62
     7
100
AcDbLine
 10
-72.683
 20
-130.0
 30
0.0
 11
-72.683
 21
-40.0
 31
0.0
  0
LINE
  5
52
330
A
100
AcDbEntity
  8
PV
  6
Continuous
 62
     7
100
AcDbLine
 10
-62.54
 20
-130.0
 30
0.0
 11
-74.969
 21
-130.0
 31
0.0
  0
LINE
  5
53
330
A
100
AcDbEntity
  8
PV
  6
Continuous
 62
     7
100
AcDbLine
 10
-62.54
 20
-40.0
 30
0.0
 11
-74.969
 21
-40.0
 31
0.0
  0
MTEXT
  5
54
330
A
100
AcDbEntity
  8
PV
  6
Continuous
 62
     7
100
AcDbMText
 10
-80.11633399999999
 20
-74.815
 30
0.0
 40
5.5
 41
0.0
 71
     2
 72
     1
  1
\T1.016;\W1.008;\A1;\U+220590
 11
0.0
 21
1.0
 31
0.0
 73
     1
 44
1.0
  0
POINT
  5
55
330
A
100
AcDbEntity
  8
PV
  6
Continuous
 62
     7
100
AcDbPoint
 10
-60.0
 20
-130.0
 30
0.0
  0
POINT
  5
56
330
A
100
AcDbEntity
  8
PV
  6
Continuous
 62
     7
100
AcDbPoint
 10
-60.0
 20
-40.0
 30
0.0
  0
POINT
  5
57
330
A
100
AcDbEntity
  8
PV
  6
Continuous
 62
     7
100
AcDbPoint
 10
-72.683
 20
-40.0
 30
0.0
  0
LINE
  5
58
330
A
100
AcDbEntity
  8
PV
  6
Continuous
 62
     7
100
AcDbLine
 10
-57.22999999999999
 20
173.16
 30
0.0
 11
-60.0
 21
173.902
 31
0.0
  0
LINE
  5
59
330
A
100
AcDbEntity
  8
PV
  6
Continuous
 62
     7
100
AcDbLine
 10
-60.0
 20
173.902
 30
0.0
 11
-57.22999999999999
 21
174.645
 31
0.0
  0
LINE
  5
5A
330
A
100
AcDbEntity
  8
PV
  6
Continuous
 62
     7
100
AcDbLine
 10
-60.0
 20
173.902
 30
0.0
 11
-57.22999999999999
 21
173.902
 31
0.0
  0
LINE
  5
5B
330
A
100
AcDbEntity
  8
PV
  6
Continuous
 62
     7
100
AcDbLine
 10
42.22999999999999
 20
174.645
 30
0.0
 11
45.0
 21
173.902
 31
0.0
  0
LINE
  5
5C
330
A
100
AcDbEntity
  8
PV
  6
Continuous
 62
     7
100
AcDbLine
 10
45.0
 20
173.902
 30
0.0
 11
42.22999999999999
 21
173.16
 31
0.0
  0
LINE
  5
5D
330
A
100
AcDbEntity
  8
PV
  6
Continuous
 62
     7
100
AcDbLine
 10
45.0
 20
173.902
 30
0.0
 11
42.22999999999999
 21
173.902
 31
0.0
  0
LINE
  5
5E
330
A
100
AcDbEntity
  8
PV
  6
Continuous
 62
     7
100
AcDbLine
 10
-60.0
 20
173.902
 30
0.0
 11
45.0
 21
173.902
 31
0.0
  0
LINE
  5
5F
330
A
100
AcDbEntity
  8
PV
  6
Continuous
 62
     7
100
AcDbLine
 10
-60.0
 20
160.5459999999999
 30
0.0
 11
-60.0
 21
176.1879999999999
 31
0.0
  0
LINE
  5
60
330
A
100
AcDbEntity
  8
PV
  6
Continuous
 62
     7
100
AcDbLine
 10
45.0
 20
115.546
 30
0.0
 11
45.0
 21
176.1879999999999
 31
0.0
  0
MTEXT
  5
61
330
A
100
AcDbEntity
  8
PV
  6
Continuous
 62
     7
100
AcDbMText
 10
-7.5
 20
181.335334
 30
0.0
 40
5.5
 41
0.0
 71
     2
 72
     1
  1
\A1;105
 73
     1
 44
1.0
  0
POINT
  5
62
330
A
100
AcDbEntity
  8
PV
  6
Continuous
 62
     7
100
AcDbPoint
 10
-60.0
 20
158.006
 30
0.0
  0
POINT
  5
63
330
A
100
AcDbEntity
  8
PV
  6
Continuous
 62
     7
100
AcDbPoint
 10
45.0
 20
113.006
 30
0.0
  0
POINT
  5
64
330
A
100
AcDbEntity
  8
PV
  6
Continuous
 62
     7
100
AcDbPoint
 10
45.0
 20
173.902
 30
0.0
  0
LINE
  5
65
330
A
100
AcDbEntity
  8
PV
  6
Continuous
 62
     7
100
AcDbLine
 10
192.524
 20
-36.27
 30
0.0
 11
193.266
 21
-33.5
 31
0.0
  0
LINE
  5
66
330
A
100
AcDbEntity
  8
PV
  6
Continuous
 62
     7
100
AcDbLine
 10
193.266
 20
-33.5
 30
0.0
 11
194.009
 21
-36.27
 31
0.0
  0
LINE
  5
67
330
A
100
AcDbEntity
  8
PV
  6
Continuous
 62
     7
100
AcDbLine
 10
193.266
 20
-33.5
 30
0.0
 11
193.266
 21
-36.27
 31
0.0
  0
LINE
  5
68
330
A
100
AcDbEntity
  8
PV
  6
Continuous
 62
     7
100
AcDbLine
 10
194.009
 20
-142.2299999999999
 30
0.0
 11
193.266
 21
-145.0
 31
0.0
  0
LINE
  5
69
330
A
100
AcDbEntity
  8
PV
  6
Continuous
 62
     7
100
AcDbLine
 10
193.266
 20
-145.0
 30
0.0
 11
192.524
 21
-142.2299999999999
 31
0.0
  0
LINE
  5
6A
330
A
100
AcDbEntity
  8
PV
  6
Continuous
 62
     7
100
AcDbLine
 10
193.266
 20
-145.0
 30
0.0
 11
193.266
 21
-142.2299999999999
 31
0.0
  0
LINE
  5
6B
330
A
100
AcDbEntity
  8
PV
  6
Continuous
 62
     7
100
AcDbLine
 10
193.266
 20
-33.5
 30
0.0
 11
193.266
 21
-145.0
 31
0.0
  0
LINE
  5
6C
330
A
100
AcDbEntity
  8
PV
  6
Continuous
 62
     7
100
AcDbLine
 10
140.9929999999999
 20
-33.5
 30
0.0
 11
195.552
 21
-33.5
 31
0.0
  0
LINE
  5
6D
330
A
100
AcDbEntity
  8
PV
  6
Continuous
 62
     7
100
AcDbLine
 10
177.5399999999999
 20
-145.0
 30
0.0
 11
195.552
 21
-145.0
 31
0.0
  0
MTEXT
  5
6E
330
A
100
AcDbEntity
  8
PV
  6
Continuous
 62
     7
100
AcDbMText
 10
185.8326659999999
 20
-89.25
 30
0.0
 40
5.5
 41
0.0
 71
     2
 72
     1
  1
\A1;111.5
 11
0.0
 21
1.0
 31
0.0
 73
     1
 44
1.0
  0
POINT
  5
6F
330
A
100
AcDbEntity
  8
PV
  6
Continuous
 62
     7
100
AcDbPoint
 10
138.453
 20
-33.5
 30
0.0
  0
POINT
  5
70
330
A
100
AcDbEntity
  8
PV
  6
Continuous
 62
     7
100
AcDbPoint
 10
175.0
 20
-145.0
 30
0.0
  0
POINT
  5
71
330
A
100
AcDbEntity
  8
PV
  6
Continuous
 62
     7
100
AcDbPoint
 10
193.266
 20
-145.0
 30
0.0
  0
LINE
  5
72
330
A
100
AcDbEntity
  8
PV
  6
Continuous
 62
     7
100
AcDbLine
 10
192.524
 20
-11.77
 30
0.0
 11
193.266
 21
-9.0
 31
0.0
  0
LINE
  5
73
330
A
100
AcDbEntity
  8
PV
  6
Continuous
 62
     7
100
AcDbLine
 10
193.266
 20
-9.0
 30
0.0
 11
194.009
 21
-11.77
 31
0.0
  0
LINE
  5
74
330
A
100
AcDbEntity
  8
PV
  6
Continuous
 62
     7
100
AcDbLine
 10
193.266
 20
-9.0
 30
0.0
 11
193.266
 21
-11.77
 31
0.0
  0
LINE
  5
75
330
A
100
AcDbEntity
  8
PV
  6
Continuous
 62
     7
100
AcDbLine
 10
194.009
 20
-30.73
 30
0.0
 11
193.266
 21
-33.5
 31
0.0
  0
LINE
  5
76
330
A
100
AcDbEntity
  8
PV
  6
Continuous
 62
     7
100
AcDbLine
 10
193.266
 20
-33.5
 30
0.0
 11
192.524
 21
-30.73
 31
0.0
  0
LINE
  5
77
330
A
100
AcDbEntity
  8
PV
  6
Continuous
 62
     7
100
AcDbLine
 10
193.266
 20
-33.5
 30
0.0
 11
193.266
 21
-30.73
 31
0.0
  0
LINE
  5
78
330
A
100
AcDbEntity
  8
PV
  6
Continuous
 62
     7
100
AcDbLine
 10
193.266
 20
-9.0
 30
0.0
 11
193.266
 21
-33.5
 31
0.0
  0
LINE
  5
79
330
A
100
AcDbEntity
  8
PV
  6
Continuous
 62
     7
100
AcDbLine
 10
140.9929999999999
 20
-9.0
 30
0.0
 11
195.552
 21
-9.0
 31
0.0
  0
MTEXT
  5
7A
330
A
100
AcDbEntity
  8
PV
  6
Continuous
 62
     7
100
AcDbMText
 10
185.8326659999999
 20
-21.25
 30
0.0
 40
5.5
 41
0.0
 71
     2
 72
     1
  1
\A1;24.5
 11
0.0
 21
1.0
 31
0.0
 73
     1
 44
1.0
  0
POINT
  5
7B
330
A
100
AcDbEntity
  8
PV
  6
Continuous
 62
     7
100
AcDbPoint
 10
138.453
 20
-9.0
 30
0.0
  0
POINT
  5
7C
330
A
100
AcDbEntity
  8
PV
  6
Continuous
 62
     7
100
AcDbPoint
 10
138.453
 20
-33.5
 30
0.0
  0
POINT
  5
7D
330
A
100
AcDbEntity
  8
PV
  6
Continuous
 62
     7
100
AcDbPoint
 10
193.266
 20
-33.5
 30
0.0
  0
LINE
  5
7E
330
A
100
AcDbEntity
  8
PV
  6
Continuous
 62
     7
100
AcDbLine
 10
-2.77
 20
-169.777
 30
0.0
 11
0.0
 21
-170.5189999999999
 31
0.0
  0
LINE
  5
7F
330
A
100
AcDbEntity
  8
PV
  6
Continuous
 62
     7
100
AcDbLine
 10
0.0
 20
-170.5189999999999
 30
0.0
 11
-2.77
 21
-171.262
 31
0.0
  0
LINE
  5
80
330
A
100
AcDbEntity
  8
PV
  6
Continuous
 62
     7
100
AcDbLine
 10
0.0
 20
-170.5189999999999
 30
0.0
 11
-2.77
 21
-170.5189999999999
 31
0.0
  0
LINE
  5
81
330
A
100
AcDbEntity
  8
PV
  6
Continuous
 62
     7
100
AcDbLine
 10
-57.22999999999999
 20
-171.262
 30
0.0
 11
-60.0
 21
-170.5189999999999
 31
0.0
  0
LINE
  5
82
330
A
100
AcDbEntity
  8
PV
  6
Continuous
 62
     7
100
AcDbLine
 10
-60.0
 20
-170.5189999999999
 30
0.0
 11
-57.22999999999999
 21
-169.777
 31
0.0
  0
LINE
  5
83
330
A
100
AcDbEntity
  8
PV
  6
Continuous
 62
     7
100
AcDbLine
 10
-60.0
 20
-170.5189999999999
 30
0.0
 11
-57.22999999999999
 21
-170.5189999999999
 31
0.0
  0
LINE
  5
84
330
A
100
AcDbEntity
  8
PV
  6
Continuous
 62
     7
100
AcDbLine
 10
0.0
 20
-170.5189999999999
 30
0.0
 11
-60.0
 21
-170.5189999999999
 31
0.0
  0
LINE
  5
85
330
A
100
AcDbEntity
  8
PV
  6
Continuous
 62
     7
100
AcDbLine
 10
0.0
 20
-164.188
 30
0.0
 11
0.0
 21
-172.805
 31
0.0
  0
LINE
  5
86
330
A
100
AcDbEntity
  8
PV
  6
Continuous
 62
     7
100
AcDbLine
 10
-60.0
 20
-132.5399999999999
 30
0.0
 11
-60.0
 21
-172.805
 31
0.0
  0
MTEXT
  5
87
330
A
100
AcDbEntity
  8
PV
  6
Continuous
 62
     7
100
AcDbMText
 10
-29.45
 20
-164.085666
 30
0.0
 40
5.5
 41
0.0
 71
     2
 72
     1
  1
\A1;60
 73
     1
 44
1.0
  0
POINT
  5
88
330
A
100
AcDbEntity
  8
PV
  6
Continuous
 62
     7
100
AcDbPoint
 10
0.0
 20
-161.6479999999999
 30
0.0
  0
POINT
  5
89
330
A
100
AcDbEntity
  8
PV
  6
Continuous
 62
     7
100
AcDbPoint
 10
-60.0
 20
-130.0
 30
0.0
  0
POINT
  5
8A
330
A
100
AcDbEntity
  8
PV
  6
Continuous
 62
     7
100
AcDbPoint
 10
-60.0
 20
-170.5189999999999
 30
0.0
  0
LINE
  5
8B
330
A
100
AcDbEntity
  8
PV
  6
Continuous
 62
     7
100
AcDbLine
 10
-84.93199999999999
 20
-142.2299999999999
 30
0.0
 11
-85.67399999999999
 21
-145.0
 31
0.0
  0
LINE
  5
8C
330
A
100
AcDbEntity
  8
PV
  6
Continuous
 62
     7
100
AcDbLine
 10
-85.67399999999999
 20
-145.0
 30
0.0
 11
-86.416
 21
-142.2299999999999
 31
0.0
  0
LINE
  5
8D
330
A
100
AcDbEntity
  8
PV
  6
Continuous
 62
     7
100
AcDbLine
 10
-85.67399999999999
 20
-145.0
 30
0.0
 11
-85.67399999999999
 21
-142.2299999999999
 31
0.0
  0
LINE
  5
8E
330
A
100
AcDbEntity
  8
PV
  6
Continuous
 62
     7
100
AcDbLine
 10
-86.416
 20
-87.76999999999999
 30
0.0
 11
-85.67399999999999
 21
-85.0
 31
0.0
  0
LINE
  5
8F
330
A
100
AcDbEntity
  8
PV
  6
Continuous
 62
     7
100
AcDbLine
 10
-85.67399999999999
 20
-85.0
 30
0.0
 11
-84.93199999999999
 21
-87.76999999999999
 31
0.0
  0
LINE
  5
90
330
A
100
AcDbEntity
  8
PV
  6
Continuous
 62
     7
100
AcDbLine
 10
-85.67399999999999
 20
-85.0
 30
0.0
 11
-85.67399999999999
 21
-87.76999999999999
 31
0.0
  0
LINE
  5
91
330
A
100
AcDbEntity
  8
PV
  6
Continuous
 62
     7
100
AcDbLine
 10
-85.67399999999999
 20
-145.0
 30
0.0
 11
-85.67399999999999
 21
-85.0
 31
0.0
  0
LINE
  5
92
330
A
100
AcDbEntity
  8
PV
  6
Continuous
 62
     7
100
AcDbLine
 10
-47.794647
 20
-145.0
 30
0.0
 11
-87.95999999999999
 21
-145.0
 31
0.0
  0
LINE
  5
93
330
A
100
AcDbEntity
  8
PV
  6
Continuous
 62
     7
100
AcDbLine
 10
-76.72457
 20
-85.0
 30
0.0
 11
-87.95999999999999
 21
-85.0
 31
0.0
  0
MTEXT
  5
94
330
A
100
AcDbEntity
  8
PV
  6
Continuous
 62
     7
100
AcDbMText
 10
-93.107334
 20
-116.8029999999999
 30
0.0
 40
5.5
 41
0.0
 71
     2
 72
     1
  1
\A1;60
 11
0.0
 21
1.0
 31
0.0
 73
     1
 44
1.0
  0
POINT
  5
95
330
A
100
AcDbEntity
  8
PV
  6
Continuous
 62
     7
100
AcDbPoint
 10
-45.0
 20
-145.0
 30
0.0
  0
POINT
  5
96
330
A
100
AcDbEntity
  8
PV
  6
Continuous
 62
     7
100
AcDbPoint
 10
-72.9
 20
-85.0
 30
0.0
  0
POINT
  5
97
330
A
100
AcDbEntity
  8
PV
  6
Continuous
 62
     7
100
AcDbPoint
 10
-85.67399999999999
 20
-85.0
 30
0.0
  0
LINE
  5
98
330
A
100
AcDbEntity
  8
PV
  6
Continuous
 62
     7
100
AcDbLine
 10
57.22699999999999
 20
-44.77
 30
0.0
 11
57.96899999999999
 21
-42.0
 31
0.0
  0
LINE
  5
99
330
A
100
AcDbEntity
  8
PV
  6
Continuous
 62
     7
100
AcDbLine
 10
57.96899999999999
 20
-42.0
 30
0.0
 11
58.71100000000001
 21
-44.77
 31
0.0
  0
LINE
  5
9A
330
A
100
AcDbEntity
  8
PV
  6
Continuous
 62
     7
100
AcDbLine
 10
57.96899999999999
 20
-42.0
 30
0.0
 11
57.96899999999999
 21
-44.77
 31
0.0
  0
LINE
  5
9B
330
A
100
AcDbEntity
  8
PV
  6
Continuous
 62
     7
100
AcDbLine
 10
58.71100000000001
 20
-142.2299999999999
 30
0.0
 11
57.96899999999999
 21
-145.0
 31
0.0
  0
LINE
  5
9C
330
A
100
AcDbEntity
  8
PV
  6
Continuous
 62
     7
100
AcDbLine
 10
57.96899999999999
 20
-145.0
 30
0.0
 11
57.22699999999999
 21
-142.2299999999999
 31
0.0
  0
LINE
  5
9D
330
A
100
AcDbEntity
  8
PV
  6
Continuous
 62
     7
100
AcDbLine
 10
57.96899999999999
 20
-145.0
 30
0.0
 11
57.96899999999999
 21
-142.2299999999999
 31
0.0
  0
LINE
  5
9E
330
A
100
AcDbEntity
  8
PV
  6
Continuous
 62
     7
100
AcDbLine
 10
57.96899999999999
 20
-42.0
 30
0.0
 11
57.96899999999999
 21
-145.0
 31
0.0
  0
MTEXT
  5
9F
330
A
100
AcDbEntity
  8
PV
  6
Continuous
 62
     7
100
AcDbMText
 10
50.53566599999999
 20
-93.49999999999999
 30
0.0
 40
5.5
 41
0.0
 71
     2
 72
     1
  1
\A1;103
 11
0.0
 21
1.0
 31
0.0
 73
     1
 44
1.0
  0
POINT
  5
A0
330
A
100
AcDbEntity
  8
PV
  6
Continuous
 62
     7
100
AcDbPoint
 10
32.5
 20
-42.0
 30
0.0
  0
POINT
  5
A1
330
A
100
AcDbEntity
  8
PV
  6
Continuous
 62
     7
100
AcDbPoint
 10
45.0
 20
-145.0
 30
0.0
  0
POINT
  5
A2
330
A
100
AcDbEntity
  8
PV
  6
Continuous
 62
     7
100
AcDbPoint
 10
57.96899999999999
 20
-145.0
 30
0.0
  0
LINE
  5
A3
330
A
100
AcDbEntity
  8
PV
  6
Continuous
 62
     7
100
AcDbLine
 10
57.22699999999999
 20
3.729999999999999
 30
0.0
 11
57.96899999999999
 21
6.5
 31
0.0
  0
LINE
  5
A4
330
A
100
AcDbEntity
  8
PV
  6
Continuous
 62
     7
100
AcDbLine
 10
57.96899999999999
 20
6.5
 30
0.0
 11
58.71100000000001
 21
3.729999999999999
 31
0.0
  0
LINE
  5
A5
330
A
100
AcDbEntity
  8
PV
  6
Continuous
 62
     7
100
AcDbLine
 10
57.96899999999999
 20
6.5
 30
0.0
 11
57.96899999999999
 21
3.729999999999999
 31
0.0
  0
LINE
  5
A6
330
A
100
AcDbEntity
  8
PV
  6
Continuous
 62
     7
100
AcDbLine
 10
58.71100000000001
 20
-39.23
 30
0.0
 11
57.96899999999999
 21
-42.0
 31
0.0
  0
LINE
  5
A7
330
A
100
AcDbEntity
  8
PV
  6
Continuous
 62
     7
100
AcDbLine
 10
57.96899999999999
 20
-42.0
 30
0.0
 11
57.22699999999999
 21
-39.23
 31
0.0
  0
LINE
  5
A8
330
A
100
AcDbEntity
  8
PV
  6
Continuous
 62
     7
100
AcDbLine
 10
57.96899999999999
 20
-42.0
 30
0.0
 11
57.96899999999999
 21
-39.23
 31
0.0
  0
LINE
  5
A9
330
A
100
AcDbEntity
  8
PV
  6
Continuous
 62
     7
100
AcDbLine
 10
57.96899999999999
 20
6.5
 30
0.0
 11
57.96899999999999
 21
-42.0
 31
0.0
  0
LINE
  5
AA
330
A
100
AcDbEntity
  8
PV
  6
Continuous
 62
     7
100
AcDbLine
 10
35.04
 20
-42.0
 30
0.0
 11
60.255
 21
-42.0
 31
0.0
  0
MTEXT
  5
AB
330
A
100
AcDbEntity
  8
PV
  6
Continuous
 62
     7
100
AcDbMText
 10
50.53566599999999
 20
-17.75
 30
0.0
 40
5.5
 41
0.0
 71
     2
 72
     1
  1
\A1;48.5
 11
0.0
 21
1.0
 31
0.0
 73
     1
 44
1.0
  0
POINT
  5
AC
330
A
100
AcDbEntity
  8
PV
  6
Continuous
 62
     7
100
AcDbPoint
 10
32.5
 20
6.5
 30
0.0
  0
POINT
  5
AD
330
A
100
AcDbEntity
  8
PV
  6
Continuous
 62
     7
100
AcDbPoint
 10
32.5
 20
-42.0
 30
0.0
  0
POINT
  5
AE
330
A
100
AcDbEntity
  8
PV
  6
Continuous
 62
     7
100
AcDbPoint
 10
57.96899999999999
 20
-42.0
 30
0.0
  0
LINE
  5
AF
330
A
100
AcDbEntity
  8
PV
  6
Continuous
 62
     7
100
AcDbLine
 10
67.839
 20
3.729999999999999
 30
0.0
 11
68.581
 21
6.5
 31
0.0
  0
LINE
  5
B0
330
A
100
AcDbEntity
  8
PV
  6
Continuous
 62
     7
100
AcDbLine
 10
68.581
 20
6.5
 30
0.0
 11
69.32300000000001
 21
3.729999999999999
 31
0.0
  0
LINE
  5
B1
330
A
100
AcDbEntity
  8
PV
  6
Continuous
 62
     7
100
AcDbLine
 10
68.581
 20
6.5
 30
0.0
 11
68.581
 21
3.729999999999999
 31
0.0
  0
LINE
  5
B2
330
A
100
AcDbEntity
  8
PV
  6
Continuous
 62
     7
100
AcDbLine
 10
69.32300000000001
 20
-142.2299999999999
 30
0.0
 11
68.581
 21
-145.0
 31
0.0
  0
LINE
  5
B3
330
A
100
AcDbEntity
  8
PV
  6
Continuous
 62
     7
100
AcDbLine
 10
68.581
 20
-145.0
 30
0.0
 11
67.839
 21
-142.2299999999999
 31
0.0
  0
LINE
  5
B4
330
A
100
AcDbEntity
  8
PV
  6
Continuous
 62
     7
100
AcDbLine
 10
68.581
 20
-145.0
 30
0.0
 11
68.581
 21
-142.2299999999999
 31
0.0
  0
LINE
  5
B5
330
A
100
AcDbEntity
  8
PV
  6
Continuous
 62
     7
100
AcDbLine
 10
68.581
 20
6.5
 30
0.0
 11
68.581
 21
-145.0
 31
0.0
  0
LINE
  5
B6
330
A
100
AcDbEntity
  8
PV
  6
Continuous
 62
     7
100
AcDbLine
 10
35.04
 20
6.5
 30
0.0
 11
70.867
 21
6.5
 31
0.0
  0
LINE
  5
B7
330
A
100
AcDbEntity
  8
PV
  6
Continuous
 62
     7
100
AcDbLine
 10
47.54
 20
-145.0
 30
0.0
 11
70.867
 21
-145.0
 31
0.0
  0
MTEXT
  5
B8
330
A
100
AcDbEntity
  8
PV
  6
Continuous
 62
     7
100
AcDbMText
 10
61.147666
 20
-69.25
 30
0.0
 40
5.5
 41
0.0
 71
     2
 72
     1
  1
\A1;151.5
 11
0.0
 21
1.0
 31
0.0
 73
     1
 44
1.0
  0
POINT
  5
B9
330
A
100
AcDbEntity
  8
PV
  6
Continuous
 62
     7
100
AcDbPoint
 10
32.5
 20
6.5
 30
0.0
  0
POINT
  5
BA
330
A
100
AcDbEntity
  8
PV
  6
Continuous
 62
     7
100
AcDbPoint
 10
45.0
 20
-145.0
 30
0.0
  0
POINT
  5
BB
330
A
100
AcDbEntity
  8
PV
  6
Continuous
 62
     7
100
AcDbPoint
 10
68.581
 20
-145.0
 30
0.0
  0
LINE
  5
BC
330
A
100
AcDbEntity
  8
PV
  6
Continuous
 62
     7
100
AcDbLine
 10
-24.23
 20
-64.557
 30
0.0
 11
-27.0
 21
-63.81499999999999
 31
0.0
  0
LINE
  5
BD
330
A
100
AcDbEntity
  8
PV
  6
Continuous
 62
     7
100
AcDbLine
 10
-27.0
 20
-63.81499999999999
 30
0.0
 11
-24.23
 21
-63.073
 31
0.0
  0
LINE
  5
BE
330
A
100
AcDbEntity
  8
PV
  6
Continuous
 62
     7
100
AcDbLine
 10
-27.0
 20
-63.81499999999999
 30
0.0
 11
-24.23
 21
-63.81499999999999
 31
0.0
  0
LINE
  5
BF
330
A
100
AcDbEntity
  8
PV
  6
Continuous
 62
     7
100
AcDbLine
 10
24.23
 20
-63.073
 30
0.0
 11
27.0
 21
-63.81499999999999
 31
0.0
  0
LINE
  5
C0
330
A
100
AcDbEntity
  8
PV
  6
Continuous
 62
     7
100
AcDbLine
 10
27.0
 20
-63.81499999999999
 30
0.0
 11
24.23
 21
-64.557
 31
0.0
  0
LINE
  5
C1
330
A
100
AcDbEntity
  8
PV
  6
Continuous
 62
     7
100
AcDbLine
 10
27.0
 20
-63.81499999999999
 30
0.0
 11
24.23
 21
-63.81499999999999
 31
0.0
  0
LINE
  5
C2
330
A
100
AcDbEntity
  8
PV
  6
Continuous
 62
     7
100
AcDbLine
 10
-27.0
 20
-63.81499999999999
 30
0.0
 11
27.0
 21
-63.81499999999999
 31
0.0
  0
MTEXT
  5
C3
330
A
100
AcDbEntity
  8
PV
  6
Continuous
 62
     7
100
AcDbMText
 10
10.317
 20
-57.381666
 30
0.0
 40
5.5
 41
0.0
 71
     2
 72
     1
  1
\T0.912;\W1.064;\A1;\U+220554
 73
     1
 44
1.0
  0
POINT
  5
C4
330
A
100
AcDbEntity
  8
PV
  6
Continuous
 62
     7
100
AcDbPoint
 10
-27.0
 20
-98.59999999999999
 30
0.0
  0
POINT
  5
C5
330
A
100
AcDbEntity
  8
PV
  6
Continuous
 62
     7
100
AcDbPoint
 10
27.0
 20
-108.0
 30
0.0
  0
POINT
  5
C6
330
A
100
AcDbEntity
  8
PV
  6
Continuous
 62
     7
100
AcDbPoint
 10
27.0
 20
-63.81499999999999
 30
0.0
  0
LINE
  5
C7
330
A
100
AcDbEntity
  8
PV
  6
Continuous
 62
     7
100
AcDbLine
 10
-113.717
 20
85.62200000000002
 30
0.0
 11
-115.853
 21
83.709
 31
0.0
  0
LINE
  5
C8
330
A
100
AcDbEntity
  8
PV
  6
Continuous
 62
     7
100
AcDbLine
 10
-115.853
 20
83.709
 30
0.0
 11
-114.959
 21
86.43399999999999
 31
0.0
  0
LINE
  5
C9
330
A
100
AcDbEntity
  8
PV
  6
Continuous
 62
     7
100
AcDbLine
 10
-115.853
 20
83.709
 30
0.0
 11
-114.338
 21
86.028
 31
0.0
  0
LINE
  5
CA
330
A
100
AcDbEntity
  8
PV
  6
Continuous
 62
     7
100
AcDbLine
 10
-115.853
 20
83.709
 30
0.0
 11
-73.45829599999999
 21
148.5752439999999
 31
0.0
  0
MTEXT
  5
CB
330
A
100
AcDbEntity
  8
PV
  6
Continuous
 62
     7
100
AcDbMText
 10
-87.22118100000001
 20
141.1316309999999
 30
0.0
 40
5.5
 41
0.0
 71
     2
 72
     1
  1
\A1;PCD 70
 11
0.5470952396482836
 21
0.8370703666682912
 31
0.0
 73
     1
 44
1.0
  0
POINT
  5
CC
330
A
100
AcDbEntity
  8
PV
  6
Continuous
 62
     7
100
AcDbPoint
 10
-115.853
 20
83.709
 30
0.0
  0
POINT
  5
CD
330
A
100
AcDbEntity
  8
PV
  6
Continuous
 62
     7
100
AcDbPoint
 10
-118.954
 20
92.58799999999999
 30
0.0
  0
POINT
  5
CE
330
A
100
AcDbEntity
  8
PV
  6
Continuous
 62
     7
100
AcDbPoint
 10
32.5
 20
101.506
 30
0.0
  0
POINT
  5
CF
330
A
100
AcDbEntity
  8
PV
  6
Continuous
 62
     7
100
AcDbPoint
 10
-29.5
 20
87.49700000000002
 30
0.0
  0
LINE
  5
D0
330
A
100
AcDbEntity
  8
PV
  6
Continuous
 62
     7
100
AcDbLine
 10
57.22699999999999
 20
139.7359999999999
 30
0.0
 11
57.96899999999999
 21
142.506
 31
0.0
  0
LINE
  5
D1
330
A
100
AcDbEntity
  8
PV
  6
Continuous
 62
     7
100
AcDbLine
 10
57.96899999999999
 20
142.506
 30
0.0
 11
58.71100000000001
 21
139.7359999999999
 31
0.0
  0
LINE
  5
D2
330
A
100
AcDbEntity
  8
PV
  6
Continuous
 62
     7
100
AcDbLine
 10
57.96899999999999
 20
142.506
 30
0.0
 11
57.96899999999999
 21
139.7359999999999
 31
0.0
  0
LINE
  5
D3
330
A
100
AcDbEntity
  8
PV
  6
Continuous
 62
     7
100
AcDbLine
 10
58.71100000000001
 20
86.27600000000001
 30
0.0
 11
57.96899999999999
 21
83.506
 31
0.0
  0
LINE
  5
D4
330
A
100
AcDbEntity
  8
PV
  6
Continuous
 62
     7
100
AcDbLine
 10
57.96899999999999
 20
83.506
 30
0.0
 11
57.22699999999999
 21
86.27600000000001
 31
0.0
  0
LINE
  5
D5
330
A
100
AcDbEntity
  8
PV
  6
Continuous
 62
     7
100
AcDbLine
 10
57.96899999999999
 20
83.506
 30
0.0
 11
57.96899999999999
 21
86.27600000000001
 31
0.0
  0
LINE
  5
D6
330
A
100
AcDbEntity
  8
PV
  6
Continuous
 62
     7
100
AcDbLine
 10
57.96899999999999
 20
142.506
 30
0.0
 11
57.96899999999999
 21
83.506
 31
0.0
  0
LINE
  5
D7
330
A
100
AcDbEntity
  8
PV
  6
Continuous
 62
     7
100
AcDbLine
 10
28.05
 20
142.506
 30
0.0
 11
60.255
 21
142.506
 31
0.0
  0
LINE
  5
D8
330
A
100
AcDbEntity
  8
PV
  6
Continuous
 62
     7
100
AcDbLine
 10
28.05
 20
83.506
 30
0.0
 11
60.255
 21
83.506
 31
0.0
  0
MTEXT
  5
D9
330
A
100
AcDbEntity
  8
PV
  6
Continuous
 62
     7
100
AcDbMText
 10
50.53566599999999
 20
106.2249949999999
 30
0.0
 40
5.5
 41
0.0
 71
     1
 72
     1
  1
\W0.892;\A1;□59
 11
0.0
 21
1.0
 31
0.0
 73
     1
 44
1.0
  0
POINT
  5
DA
330
A
100
AcDbEntity
  8
PV
  6
Continuous
 62
     7
100
AcDbPoint
 10
25.51
 20
142.506
 30
0.0
  0
POINT
  5
DB
330
A
100
AcDbEntity
  8
PV
  6
Continuous
 62
     7
100
AcDbPoint
 10
25.51
 20
83.506
 30
0.0
  0
POINT
  5
DC
330
A
100
AcDbEntity
  8
PV
  6
Continuous
 62
     7
100
AcDbPoint
 10
57.96899999999999
 20
83.506
 30
0.0
  0
CIRCLE
  5
DD
330
A
100
AcDbEntity
  8
PV
  6
Continuous
 62
     7
100
AcDbCircle
 10
22.5
 20
90.50600000000001
 30
0.0
 40
4.306999999999999
  0
CIRCLE
  5
DE
330
A
100
AcDbEntity
  8
PV
  6
Continuous
 62
     7
100
AcDbCircle
 10
22.5
 20
90.50600000000001
 30
0.0
 40
5.0
  0
LINE
  5
DF
330
A
100
AcDbEntity
  8
PV
  6
Continuous
 62
     7
100
AcDbLine
 10
22.5
 20
93.39299999999999
 30
0.0
 11
20.0
 21
91.95
 31
0.0
  0
LINE
  5
E0
330
A
100
AcDbEntity
  8
PV
  6
Continuous
 62
     7
100
AcDbLine
 10
25.0
 20
89.06299999999999
 30
0.0
 11
22.5
 21
87.62
 31
0.0
  0
LINE
  5
E1
330
A
100
AcDbEntity
  8
PV
  6
Continuous
 62
     7
100
AcDbLine
 10
20.0
 20
91.95
 30
0.0
 11
20.0
 21
89.06299999999999
 31
0.0
  0
LINE
  5
E2
330
A
100
AcDbEntity
  8
PV
  6
Continuous
 62
     7
100
AcDbLine
 10
25.0
 20
91.95
 30
0.0
 11
25.0
 21
89.06299999999999
 31
0.0
  0
LINE
  5
E3
330
A
100
AcDbEntity
  8
PV
  6
Continuous
 62
     7
100
AcDbLine
 10
25.0
 20
91.95
 30
0.0
 11
22.5
 21
93.39299999999999
 31
0.0
  0
LINE
  5
E4
330
A
100
AcDbEntity
  8
PV
  6
Continuous
 62
     7
100
AcDbLine
 10
22.5
 20
87.62
 30
0.0
 11
20.0
 21
89.06299999999999
 31
0.0
  0
CIRCLE
  5
E5
330
A
100
AcDbEntity
  8
PV
  6
Continuous
 62
     7
100
AcDbCircle
 10
22.5
 20
135.5059999999999
 30
0.0
 40
4.306999999999999
  0
CIRCLE
  5
E6
330
A
100
AcDbEntity
  8
PV
  6
Continuous
 62
     7
100
AcDbCircle
 10
22.5
 20
135.5059999999999
 30
0.0
 40
5.0
  0
LINE
  5
E7
330
A
100
AcDbEntity
  8
PV
  6
Continuous
 62
     7
100
AcDbLine
 10
22.5
 20
138.393
 30
0.0
 11
25.0
 21
136.9499999999999
 31
0.0
  0
LINE
  5
E8
330
A
100
AcDbEntity
  8
PV
  6
Continuous
 62
     7
100
AcDbLine
 10
20.0
 20
134.0629999999999
 30
0.0
 11
22.5
 21
132.62
 31
0.0
  0
LINE
  5
E9
330
A
100
AcDbEntity
  8
PV
  6
Continuous
 62
     7
100
AcDbLine
 10
25.0
 20
136.9499999999999
 30
0.0
 11
25.0
 21
134.0629999999999
 31
0.0
  0
LINE
  5
EA
330
A
100
AcDbEntity
  8
PV
  6
Continuous
 62
     7
100
AcDbLine
 10
20.0
 20
136.9499999999999
 30
0.0
 11
20.0
 21
134.0629999999999
 31
0.0
  0
LINE
  5
EB
330
A
100
AcDbEntity
  8
PV
  6
Continuous
 62
     7
100
AcDbLine
 10
20.0
 20
136.9499999999999
 30
0.0
 11
22.5
 21
138.393
 31
0.0
  0
LINE
  5
EC
330
A
100
AcDbEntity
  8
PV
  6
Continuous
 62
     7
100
AcDbLine
 10
22.5
 20
132.62
 30
0.0
 11
25.0
 21
134.0629999999999
 31
0.0
  0
CIRCLE
  5
ED
330
A
100
AcDbEntity
  8
PV
  6
Continuous
 62
     7
100
AcDbCircle
 10
-22.5
 20
135.5059999999999
 30
0.0
 40
4.306999999999999
  0
CIRCLE
  5
EE
330
A
100
AcDbEntity
  8
PV
  6
Continuous
 62
     7
100
AcDbCircle
 10
-22.5
 20
135.5059999999999
 30
0.0
 40
5.0
  0
LINE
  5
EF
330
A
100
AcDbEntity
  8
PV
  6
Continuous
 62
     7
100
AcDbLine
 10
-22.5
 20
138.393
 30
0.0
 11
-20.0
 21
136.9499999999999
 31
0.0
  0
LINE
  5
F0
330
A
100
AcDbEntity
  8
PV
  6
Continuous
 62
     7
100
AcDbLine
 10
-25.0
 20
134.0629999999999
 30
0.0
 11
-22.5
 21
132.62
 31
0.0
  0
LINE
  5
F1
330
A
100
AcDbEntity
  8
PV
  6
Continuous
 62
     7
100
AcDbLine
 10
-20.0
 20
136.9499999999999
 30
0.0
 11
-20.0
 21
134.0629999999999
 31
0.0
  0
LINE
  5
F2
330
A
100
AcDbEntity
  8
PV
  6
Continuous
 62
     7
100
AcDbLine
 10
-25.0
 20
136.9499999999999
 30
0.0
 11
-25.0
 21
134.0629999999999
 31
0.0
  0
LINE
  5
F3
330
A
100
AcDbEntity
  8
PV
  6
Continuous
 62
     7
100
AcDbLine
 10
-25.0
 20
136.9499999999999
 30
0.0
 11
-22.5
 21
138.393
 31
0.0
  0
LINE
  5
F4
330
A
100
AcDbEntity
  8
PV
  6
Continuous
 62
     7
100
AcDbLine
 10
-22.5
 20
132.62
 30
0.0
 11
-20.0
 21
134.0629999999999
 31
0.0
  0
CIRCLE
  5
F5
330
A
100
AcDbEntity
  8
PV
  6
Continuous
 62
     7
100
AcDbCircle
 10
-22.5
 20
90.50600000000001
 30
0.0
 40
4.306999999999999
  0
CIRCLE
  5
F6
330
A
100
AcDbEntity
  8
PV
  6
Continuous
 62
     7
100
AcDbCircle
 10
-22.5
 20
90.50600000000001
 30
0.0
 40
5.0
  0
LINE
  5
F7
330
A
100
AcDbEntity
  8
PV
  6
Continuous
 62
     7
100
AcDbLine
 10
-22.5
 20
93.39299999999999
 30
0.0
 11
-20.0
 21
91.95
 31
0.0
  0
LINE
  5
F8
330
A
100
AcDbEntity
  8
PV
  6
Continuous
 62
     7
100
AcDbLine
 10
-25.0
 20
89.06299999999999
 30
0.0
 11
-22.5
 21
87.62
 31
0.0
  0
LINE
  5
F9
330
A
100
AcDbEntity
  8
PV
  6
Continuous
 62
     7
100
AcDbLine
 10
-20.0
 20
91.95
 30
0.0
 11
-20.0
 21
89.06299999999999
 31
0.0
  0
LINE
  5
FA
330
A
100
AcDbEntity
  8
PV
  6
Continuous
 62
     7
100
AcDbLine
 10
-25.0
 20
91.95
 30
0.0
 11
-25.0
 21
89.06299999999999
 31
0.0
  0
LINE
  5
FB
330
A
100
AcDbEntity
  8
PV
  6
Continuous
 62
     7
100
AcDbLine
 10
-25.0
 20
91.95
 30
0.0
 11
-22.5
 21
93.39299999999999
 31
0.0
  0
LINE
  5
FC
330
A
100
AcDbEntity
  8
PV
  6
Continuous
 62
     7
100
AcDbLine
 10
-22.5
 20
87.62
 30
0.0
 11
-20.0
 21
89.06299999999999
 31
0.0
  0
LWPOLYLINE
  5
FD
330
A
100
AcDbEntity
  8
PV
  6
Continuous
 62
     7
100
AcDbPolyline
 90
      137
 70
     0
 43
0.0
 10
-7.935999999999999
 20
118.0329999999999
 10
-7.946
 20
118.062
 10
-7.969999999999999
 20
118.1259999999999
 10
-7.996
 20
118.1889999999999
 10
-8.025
 20
118.25
 10
-8.056
 20
118.3089999999999
 10
-8.089999999999999
 20
118.367
 10
-8.125999999999999
 20
118.4229999999999
 10
-8.163999999999999
 20
118.4779999999999
 10
-8.204
 20
118.53
 10
-8.246
 20
118.5799999999999
 10
-8.291
 20
118.6279999999999
 10
-8.336999999999999
 20
118.6729999999999
 10
-8.384999999999999
 20
118.716
 10
-8.433999999999999
 20
118.757
 10
-8.486
 20
118.795
 10
-8.538
 20
118.8299999999999
 10
-8.592999999999999
 20
118.863
 10
-8.647999999999999
 20
118.8929999999999
 10
-8.705
 20
118.92
 10
-8.762999999999999
 20
118.944
 10
-8.822
 20
118.966
 10
-8.881
 20
118.984
 10
-8.942
 20
118.9989999999999
 10
-9.003
 20
119.012
 10
-9.064999999999999
 20
119.0209999999999
 10
-9.127
 20
119.0269999999999
 10
-9.189
 20
119.03
 10
-9.252
 20
119.03
 10
-9.314999999999999
 20
119.0269999999999
 10
-9.377
 20
119.0209999999999
 10
-9.439999999999999
 20
119.012
 10
-9.502
 20
119.0
 10
-9.562999999999998
 20
118.985
 10
-9.625
 20
118.967
 10
-9.685
 20
118.9449999999999
 10
-9.744999999999999
 20
118.921
 10
-9.804
 20
118.8939999999999
 10
-9.862
 20
118.8649999999999
 10
-9.919
 20
118.832
 10
-9.974
 20
118.797
 10
-10.029
 20
118.7589999999999
 10
-10.082
 20
118.7179999999999
 10
-10.13299999999999
 20
118.676
 10
-10.18299999999999
 20
118.6299999999999
 10
-10.231
 20
118.5829999999999
 10
-10.277
 20
118.5329999999999
 10
-10.321
 20
118.481
 10
-10.364
 20
118.427
 10
-10.404
 20
118.371
 10
-10.442
 20
118.313
 10
-10.478
 20
118.2529999999999
 10
-10.512
 20
118.192
 10
-10.543
 20
118.1289999999999
 10
-10.573
 20
118.0649999999999
 10
-10.599
 20
118.0
 10
-10.623
 20
117.934
 10
-10.645
 20
117.866
 10
-10.664
 20
117.7979999999999
 10
-10.68
 20
117.7289999999999
 10
-10.694
 20
117.66
 10
-10.704
 20
117.59
 10
-10.71299999999999
 20
117.5189999999999
 10
-10.718
 20
117.449
 10
-10.72099999999999
 20
117.3779999999999
 10
-10.72099999999999
 20
117.307
 10
-10.719
 20
117.237
 10
-10.71299999999999
 20
117.1669999999999
 10
-10.705
 20
117.097
 10
-10.694
 20
117.0279999999999
 10
-10.681
 20
116.9599999999999
 10
-10.665
 20
116.8929999999999
 10
-10.64599999999999
 20
116.826
 10
-10.625
 20
116.761
 10
-10.601
 20
116.697
 10
-10.574
 20
116.6339999999999
 10
-10.54499999999999
 20
116.5729999999999
 10
-10.514
 20
116.5129999999999
 10
-10.481
 20
116.4549999999999
 10
-10.44499999999999
 20
116.399
 10
-10.40699999999999
 20
116.345
 10
-10.36599999999999
 20
116.293
 10
-10.324
 20
116.243
 10
-10.28
 20
116.195
 10
-10.234
 20
116.1499999999999
 10
-10.18599999999999
 20
116.106
 10
-10.136
 20
116.066
 10
-10.085
 20
116.0279999999999
 10
-10.032
 20
115.992
 10
-9.977999999999999
 20
115.9599999999999
 10
-9.922
 20
115.9299999999999
 10
-9.865999999999999
 20
115.903
 10
-9.807999999999999
 20
115.8779999999999
 10
-9.749
 20
115.857
 10
-9.689
 20
115.839
 10
-9.628999999999999
 20
115.8229999999999
 10
-9.567
 20
115.811
 10
-9.506
 20
115.802
 10
-9.443999999999999
 20
115.795
 10
-9.381
 20
115.792
 10
-9.318999999999999
 20
115.792
 10
-9.256
 20
115.795
 10
-9.192999999999999
 20
115.8009999999999
 10
-9.131
 20
115.81
 10
-9.068999999999999
 20
115.8229999999999
 10
-9.006999999999999
 20
115.8379999999999
 10
-8.945999999999999
 20
115.856
 10
-8.884999999999999
 20
115.877
 10
-8.824999999999999
 20
115.901
 10
-8.767000000000001
 20
115.928
 10
-8.708999999999999
 20
115.958
 10
-8.652000000000001
 20
115.9909999999999
 10
-8.596
 20
116.026
 10
-8.541999999999999
 20
116.0639999999999
 10
-8.488999999999998
 20
116.104
 10
-8.437999999999998
 20
116.147
 10
-8.387999999999999
 20
116.192
 10
-8.339999999999999
 20
116.2399999999999
 10
-8.294
 20
116.29
 10
-8.249
 20
116.342
 10
-8.207
 20
116.396
 10
-8.166
 20
116.452
 10
-8.128
 20
116.51
 10
-8.092
 20
116.569
 10
-8.057999999999999
 20
116.6309999999999
 10
-8.027000000000001
 20
116.693
 10
-7.997999999999999
 20
116.7569999999999
 10
-7.971
 20
116.8229999999999
 10
-7.947
 20
116.8889999999999
 10
-7.926
 20
116.956
 10
-7.907
 20
117.0239999999999
 10
-7.891
 20
117.093
 10
-7.877
 20
117.1629999999999
 10
-7.866
 20
117.2329999999999
 10
-7.857999999999999
 20
117.303
 10
-7.852
 20
117.374
 10
-7.849999999999999
 20
117.412
  0
ARC
  5
FE
330
A
100
AcDbEntity
  8
PV
  6
Continuous
 62
     7
100
AcDbCircle
 10
17.545
 20
118.172
 30
0.0
 40
0.585
100
AcDbArc
 50
4.584908
 51
240.0678709999999
  0
ARC
  5
FF
330
A
100
AcDbEntity
  8
PV
  6
Continuous
 62
     7
100
AcDbCircle
 10
17.545
 20
118.172
 30
0.0
 40
0.9099999999999999
100
AcDbArc
 50
14.70246199999999
 51
243.207545
  0
ARC
  5
100
330
A
100
AcDbEntity
  8
PV
  6
Continuous
 62
     7
100
AcDbCircle
 10
17.21799999999999
 20
116.65
 30
0.0
 40
0.585
100
AcDbArc
 50
184.58491
 51
53.886818
  0
ARC
  5
101
330
A
100
AcDbEntity
  8
PV
  6
Continuous
 62
     7
100
AcDbCircle
 10
17.21799999999999
 20
116.65
 30
0.0
 40
0.9099999999999999
100
AcDbArc
 50
194.702455
 51
58.91297
  0
LINE
  5
102
330
A
100
AcDbEntity
  8
PV
  6
Continuous
 62
     7
100
AcDbLine
 10
17.68799999999999
 20
117.43
 30
0.0
 11
17.253
 21
117.665
 31
0.0
  0
LINE
  5
103
330
A
100
AcDbEntity
  8
PV
  6
Continuous
 62
     7
100
AcDbLine
 10
17.134
 20
117.3599999999999
 30
0.0
 11
17.56299999999999
 21
117.1229999999999
 31
0.0
  0
LINE
  5
104
330
A
100
AcDbEntity
  8
PV
  6
Continuous
 62
     7
100
AcDbLine
 10
18.425
 20
118.4029999999999
 30
0.0
 11
18.128
 21
118.219
 31
0.0
  0
LINE
  5
105
330
A
100
AcDbEntity
  8
PV
  6
Continuous
 62
     7
100
AcDbLine
 10
16.338
 20
116.419
 30
0.0
 11
16.635
 21
116.6029999999999
 31
0.0
  0
LINE
  5
106
330
A
100
AcDbEntity
  8
PV
  6
Continuous
 62
     7
100
AcDbLine
 10
-1.804
 20
118.711
 30
0.0
 11
-1.745999999999999
 21
119.036
 31
0.0
  0
LINE
  5
107
330
A
100
AcDbEntity
  8
PV
  6
Continuous
 62
     7
100
AcDbLine
 10
-2.061999999999999
 20
117.249
 30
0.0
 11
-2.004
 21
117.574
 31
0.0
  0
LINE
  5
108
330
A
100
AcDbEntity
  8
PV
  6
Continuous
 62
     7
100
AcDbLine
 10
-2.318999999999999
 20
115.786
 30
0.0
 11
-2.262
 21
116.111
 31
0.0
  0
LINE
  5
109
330
A
100
AcDbEntity
  8
PV
  6
Continuous
 62
     7
100
AcDbLine
 10
-3.2
 20
117.574
 30
0.0
 11
-2.998999999999999
 21
118.711
 31
0.0
  0
LINE
  5
10A
330
A
100
AcDbEntity
  8
PV
  6
Continuous
 62
     7
100
AcDbLine
 10
-3.256999999999999
 20
117.249
 30
0.0
 11
-2.061999999999999
 21
117.249
 31
0.0
  0
LINE
  5
10B
330
A
100
AcDbEntity
  8
PV
  6
Continuous
 62
     7
100
AcDbLine
 10
-3.2
 20
117.574
 30
0.0
 11
-2.004
 21
117.574
 31
0.0
  0
LINE
  5
10C
330
A
100
AcDbEntity
  8
PV
  6
Continuous
 62
     7
100
AcDbLine
 10
-2.998999999999999
 20
118.711
 30
0.0
 11
-1.804
 21
118.711
 31
0.0
  0
LINE
  5
10D
330
A
100
AcDbEntity
  8
PV
  6
Continuous
 62
     7
100
AcDbLine
 10
-3.271999999999999
 20
119.036
 30
0.0
 11
-1.745999999999999
 21
119.036
 31
0.0
  0
LINE
  5
10E
330
A
100
AcDbEntity
  8
PV
  6
Continuous
 62
     7
100
AcDbLine
 10
-3.458
 20
116.111
 30
0.0
 11
-3.256999999999999
 21
117.249
 31
0.0
  0
LINE
  5
10F
330
A
100
AcDbEntity
  8
PV
  6
Continuous
 62
     7
100
AcDbLine
 10
-3.458
 20
116.111
 30
0.0
 11
-2.262
 21
116.111
 31
0.0
  0
LINE
  5
110
330
A
100
AcDbEntity
  8
PV
  6
Continuous
 62
     7
100
AcDbLine
 10
-3.845
 20
115.786
 30
0.0
 11
-2.318999999999999
 21
115.786
 31
0.0
  0
LINE
  5
111
330
A
100
AcDbEntity
  8
PV
  6
Continuous
 62
     7
100
AcDbLine
 10
-3.845
 20
115.786
 30
0.0
 11
-3.271999999999999
 21
119.036
 31
0.0
  0
LINE
  5
112
330
A
100
AcDbEntity
  8
PV
  6
Continuous
 62
     7
100
AcDbLine
 10
3.403
 20
119.036
 30
0.0
 11
3.748999999999999
 21
119.036
 31
0.0
  0
LINE
  5
113
330
A
100
AcDbEntity
  8
PV
  6
Continuous
 62
     7
100
AcDbLine
 10
2.141999999999999
 20
115.786
 30
0.0
 11
2.566
 21
115.786
 31
0.0
  0
LINE
  5
114
330
A
100
AcDbEntity
  8
PV
  6
Continuous
 62
     7
100
AcDbLine
 10
1.568999999999999
 20
119.036
 30
0.0
 11
1.899
 21
119.036
 31
0.0
  0
LINE
  5
115
330
A
100
AcDbEntity
  8
PV
  6
Continuous
 62
     7
100
AcDbLine
 10
2.566
 20
115.786
 30
0.0
 11
3.748999999999999
 21
119.036
 31
0.0
  0
LINE
  5
116
330
A
100
AcDbEntity
  8
PV
  6
Continuous
 62
     7
100
AcDbLine
 10
1.568999999999999
 20
119.036
 30
0.0
 11
2.141999999999999
 21
115.786
 31
0.0
  0
LINE
  5
117
330
A
100
AcDbEntity
  8
PV
  6
Continuous
 62
     7
100
AcDbLine
 10
2.39
 20
116.2529999999999
 30
0.0
 11
3.403
 21
119.036
 31
0.0
  0
LINE
  5
118
330
A
100
AcDbEntity
  8
PV
  6
Continuous
 62
     7
100
AcDbLine
 10
1.899
 20
119.036
 30
0.0
 11
2.39
 21
116.2529999999999
 31
0.0
  0
LINE
  5
119
330
A
100
AcDbEntity
  8
PV
  6
Continuous
 62
     7
100
AcDbLine
 10
-6.347999999999999
 20
119.036
 30
0.0
 11
-6.017999999999999
 21
119.036
 31
0.0
  0
LINE
  5
11A
330
A
100
AcDbEntity
  8
PV
  6
Continuous
 62
     7
100
AcDbLine
 10
-5.136
 20
115.786
 30
0.0
 11
-5.078
 21
116.111
 31
0.0
  0
LINE
  5
11B
330
A
100
AcDbEntity
  8
PV
  6
Continuous
 62
     7
100
AcDbLine
 10
-6.533999999999999
 20
116.111
 30
0.0
 11
-6.017999999999999
 21
119.036
 31
0.0
  0
LINE
  5
11C
330
A
100
AcDbEntity
  8
PV
  6
Continuous
 62
     7
100
AcDbLine
 10
-6.533999999999999
 20
116.111
 30
0.0
 11
-5.078
 21
116.111
 31
0.0
  0
LINE
  5
11D
330
A
100
AcDbEntity
  8
PV
  6
Continuous
 62
     7
100
AcDbLine
 10
-6.921
 20
115.786
 30
0.0
 11
-5.136
 21
115.786
 31
0.0
  0
LINE
  5
11E
330
A
100
AcDbEntity
  8
PV
  6
Continuous
 62
     7
100
AcDbLine
 10
-6.921
 20
115.786
 30
0.0
 11
-6.347999999999999
 21
119.036
 31
0.0
  0
LINE
  5
11F
330
A
100
AcDbEntity
  8
PV
  6
Continuous
 62
     7
100
AcDbLine
 10
-16.425
 20
116.4739999999999
 30
0.0
 11
-16.23999999999999
 21
115.786
 31
0.0
  0
LINE
  5
120
330
A
100
AcDbEntity
  8
PV
  6
Continuous
 62
     7
100
AcDbLine
 10
-17.625
 20
116.7989999999999
 30
0.0
 11
-16.984
 21
118.5599999999999
 31
0.0
  0
LINE
  5
121
330
A
100
AcDbEntity
  8
PV
  6
Continuous
 62
     7
100
AcDbLine
 10
-17.625
 20
116.7989999999999
 30
0.0
 11
-16.512
 21
116.7989999999999
 31
0.0
  0
LINE
  5
122
330
A
100
AcDbEntity
  8
PV
  6
Continuous
 62
     7
100
AcDbLine
 10
-16.984
 20
118.5599999999999
 30
0.0
 11
-16.512
 21
116.7989999999999
 31
0.0
  0
LINE
  5
123
330
A
100
AcDbEntity
  8
PV
  6
Continuous
 62
     7
100
AcDbLine
 10
-17.99299999999999
 20
115.786
 30
0.0
 11
-17.743
 21
116.4739999999999
 31
0.0
  0
LINE
  5
124
330
A
100
AcDbEntity
  8
PV
  6
Continuous
 62
     7
100
AcDbLine
 10
-16.23999999999999
 20
115.786
 30
0.0
 11
-15.904
 21
115.786
 31
0.0
  0
LINE
  5
125
330
A
100
AcDbEntity
  8
PV
  6
Continuous
 62
     7
100
AcDbLine
 10
-18.339
 20
115.786
 30
0.0
 11
-17.99299999999999
 21
115.786
 31
0.0
  0
LINE
  5
126
330
A
100
AcDbEntity
  8
PV
  6
Continuous
 62
     7
100
AcDbLine
 10
-17.743
 20
116.4739999999999
 30
0.0
 11
-16.425
 21
116.4739999999999
 31
0.0
  0
LINE
  5
127
330
A
100
AcDbEntity
  8
PV
  6
Continuous
 62
     7
100
AcDbLine
 10
-16.775
 20
119.036
 30
0.0
 11
-15.904
 21
115.786
 31
0.0
  0
LINE
  5
128
330
A
100
AcDbEntity
  8
PV
  6
Continuous
 62
     7
100
AcDbLine
 10
-17.156
 20
119.036
 30
0.0
 11
-16.775
 21
119.036
 31
0.0
  0
LINE
  5
129
330
A
100
AcDbEntity
  8
PV
  6
Continuous
 62
     7
100
AcDbLine
 10
-18.339
 20
115.786
 30
0.0
 11
-17.156
 21
119.036
 31
0.0
  0
LINE
  5
12A
330
A
100
AcDbEntity
  8
PV
  6
Continuous
 62
     7
100
AcDbLine
 10
12.373
 20
119.036
 30
0.0
 11
12.719
 21
119.036
 31
0.0
  0
LINE
  5
12B
330
A
100
AcDbEntity
  8
PV
  6
Continuous
 62
     7
100
AcDbLine
 10
11.11199999999999
 20
115.786
 30
0.0
 11
11.53599999999999
 21
115.786
 31
0.0
  0
LINE
  5
12C
330
A
100
AcDbEntity
  8
PV
  6
Continuous
 62
     7
100
AcDbLine
 10
10.539
 20
119.036
 30
0.0
 11
10.869
 21
119.036
 31
0.0
  0
LINE
  5
12D
330
A
100
AcDbEntity
  8
PV
  6
Continuous
 62
     7
100
AcDbLine
 10
11.53599999999999
 20
115.786
 30
0.0
 11
12.719
 21
119.036
 31
0.0
  0
LINE
  5
12E
330
A
100
AcDbEntity
  8
PV
  6
Continuous
 62
     7
100
AcDbLine
 10
10.539
 20
119.036
 30
0.0
 11
11.11199999999999
 21
115.786
 31
0.0
  0
LINE
  5
12F
330
A
100
AcDbEntity
  8
PV
  6
Continuous
 62
     7
100
AcDbLine
 10
11.35999999999999
 20
116.2529999999999
 30
0.0
 11
12.373
 21
119.036
 31
0.0
  0
LINE
  5
130
330
A
100
AcDbEntity
  8
PV
  6
Continuous
 62
     7
100
AcDbLine
 10
10.869
 20
119.036
 30
0.0
 11
11.35999999999999
 21
116.2529999999999
 31
0.0
  0
LINE
  5
131
330
A
100
AcDbEntity
  8
PV
  6
Continuous
 62
     7
100
AcDbLine
 10
15.616
 20
118.711
 30
0.0
 11
15.674
 21
119.036
 31
0.0
  0
LINE
  5
132
330
A
100
AcDbEntity
  8
PV
  6
Continuous
 62
     7
100
AcDbLine
 10
15.358
 20
117.249
 30
0.0
 11
15.41599999999999
 21
117.574
 31
0.0
  0
LINE
  5
133
330
A
100
AcDbEntity
  8
PV
  6
Continuous
 62
     7
100
AcDbLine
 10
15.10099999999999
 20
115.786
 30
0.0
 11
15.158
 21
116.111
 31
0.0
  0
LINE
  5
134
330
A
100
AcDbEntity
  8
PV
  6
Continuous
 62
     7
100
AcDbLine
 10
14.22
 20
117.574
 30
0.0
 11
14.42099999999999
 21
118.711
 31
0.0
  0
LINE
  5
135
330
A
100
AcDbEntity
  8
PV
  6
Continuous
 62
     7
100
AcDbLine
 10
14.163
 20
117.249
 30
0.0
 11
15.358
 21
117.249
 31
0.0
  0
LINE
  5
136
330
A
100
AcDbEntity
  8
PV
  6
Continuous
 62
     7
100
AcDbLine
 10
14.22
 20
117.574
 30
0.0
 11
15.41599999999999
 21
117.574
 31
0.0
  0
LINE
  5
137
330
A
100
AcDbEntity
  8
PV
  6
Continuous
 62
     7
100
AcDbLine
 10
14.42099999999999
 20
118.711
 30
0.0
 11
15.616
 21
118.711
 31
0.0
  0
LINE
  5
138
330
A
100
AcDbEntity
  8
PV
  6
Continuous
 62
     7
100
AcDbLine
 10
14.148
 20
119.036
 30
0.0
 11
15.674
 21
119.036
 31
0.0
  0
LINE
  5
139
330
A
100
AcDbEntity
  8
PV
  6
Continuous
 62
     7
100
AcDbLine
 10
13.962
 20
116.111
 30
0.0
 11
14.163
 21
117.249
 31
0.0
  0
LINE
  5
13A
330
A
100
AcDbEntity
  8
PV
  6
Continuous
 62
     7
100
AcDbLine
 10
13.962
 20
116.111
 30
0.0
 11
15.158
 21
116.111
 31
0.0
  0
LINE
  5
13B
330
A
100
AcDbEntity
  8
PV
  6
Continuous
 62
     7
100
AcDbLine
 10
13.57499999999999
 20
115.786
 30
0.0
 11
15.10099999999999
 21
115.786
 31
0.0
  0
LINE
  5
13C
330
A
100
AcDbEntity
  8
PV
  6
Continuous
 62
     7
100
AcDbLine
 10
13.57499999999999
 20
115.786
 30
0.0
 11
14.148
 21
119.036
 31
0.0
  0
LINE
  5
13D
330
A
100
AcDbEntity
  8
PV
  6
Continuous
 62
     7
100
AcDbLine
 10
8.342
 20
119.036
 30
0.0
 11
8.672
 21
119.036
 31
0.0
  0
LINE
  5
13E
330
A
100
AcDbEntity
  8
PV
  6
Continuous
 62
     7
100
AcDbLine
 10
9.554
 20
115.786
 30
0.0
 11
9.612
 21
116.111
 31
0.0
  0
LINE
  5
13F
330
A
100
AcDbEntity
  8
PV
  6
Continuous
 62
     7
100
AcDbLine
 10
8.156
 20
116.111
 30
0.0
 11
8.672
 21
119.036
 31
0.0
  0
LINE
  5
140
330
A
100
AcDbEntity
  8
PV
  6
Continuous
 62
     7
100
AcDbLine
 10
8.156
 20
116.111
 30
0.0
 11
9.612
 21
116.111
 31
0.0
  0
LINE
  5
141
330
A
100
AcDbEntity
  8
PV
  6
Continuous
 62
     7
100
AcDbLine
 10
7.769
 20
115.786
 30
0.0
 11
9.554
 21
115.786
 31
0.0
  0
LINE
  5
142
330
A
100
AcDbEntity
  8
PV
  6
Continuous
 62
     7
100
AcDbLine
 10
7.769
 20
115.786
 30
0.0
 11
8.342
 21
119.036
 31
0.0
  0
LINE
  5
143
330
A
100
AcDbEntity
  8
PV
  6
Continuous
 62
     7
100
AcDbLine
 10
-8.242
 20
117.922
 30
0.0
 11
-7.935999999999999
 21
118.0339999999999
 31
0.0
  0
LINE
  5
144
330
A
100
AcDbEntity
  8
PV
  6
Continuous
 62
     7
100
AcDbLine
 10
-8.941
 20
117.086
 30
0.0
 11
-8.884
 21
117.4109999999999
 31
0.0
  0
LINE
  5
145
330
A
100
AcDbEntity
  8
PV
  6
Continuous
 62
     7
100
AcDbLine
 10
-8.941
 20
117.086
 30
0.0
 11
-8.227
 21
117.086
 31
0.0
  0
LINE
  5
146
330
A
100
AcDbEntity
  8
PV
  6
Continuous
 62
     7
100
AcDbLine
 10
-8.884
 20
117.4109999999999
 30
0.0
 11
-7.849999999999999
 21
117.4109999999999
 31
0.0
  0
LINE
  5
147
330
A
100
AcDbEntity
  8
PV
  6
Continuous
 62
     7
100
AcDbLine
 10
-12.654
 20
116.362
 30
0.0
 11
-12.183
 21
119.036
 31
0.0
  0
LINE
  5
148
330
A
100
AcDbEntity
  8
PV
  6
Continuous
 62
     7
100
AcDbLine
 10
-12.761
 20
115.786
 30
0.0
 11
-13.87199999999999
 21
118.375
 31
0.0
  0
LINE
  5
149
330
A
100
AcDbEntity
  8
PV
  6
Continuous
 62
     7
100
AcDbLine
 10
-14.328
 20
115.786
 30
0.0
 11
-13.87199999999999
 21
118.375
 31
0.0
  0
LINE
  5
14A
330
A
100
AcDbEntity
  8
PV
  6
Continuous
 62
     7
100
AcDbLine
 10
6.195
 20
116.4739999999999
 30
0.0
 11
6.379999999999999
 21
115.786
 31
0.0
  0
LINE
  5
14B
330
A
100
AcDbEntity
  8
PV
  6
Continuous
 62
     7
100
AcDbLine
 10
4.995
 20
116.7989999999999
 30
0.0
 11
5.636
 21
118.5599999999999
 31
0.0
  0
LINE
  5
14C
330
A
100
AcDbEntity
  8
PV
  6
Continuous
 62
     7
100
AcDbLine
 10
4.995
 20
116.7989999999999
 30
0.0
 11
6.107999999999999
 21
116.7989999999999
 31
0.0
  0
LINE
  5
14D
330
A
100
AcDbEntity
  8
PV
  6
Continuous
 62
     7
100
AcDbLine
 10
5.636
 20
118.5599999999999
 30
0.0
 11
6.107999999999999
 21
116.7989999999999
 31
0.0
  0
LINE
  5
14E
330
A
100
AcDbEntity
  8
PV
  6
Continuous
 62
     7
100
AcDbLine
 10
4.626999999999999
 20
115.786
 30
0.0
 11
4.876999999999999
 21
116.4739999999999
 31
0.0
  0
LINE
  5
14F
330
A
100
AcDbEntity
  8
PV
  6
Continuous
 62
     7
100
AcDbLine
 10
-12.654
 20
116.362
 30
0.0
 11
-13.803
 21
119.036
 31
0.0
  0
LINE
  5
150
330
A
100
AcDbEntity
  8
PV
  6
Continuous
 62
     7
100
AcDbLine
 10
-12.183
 20
119.036
 30
0.0
 11
-11.853
 21
119.036
 31
0.0
  0
LINE
  5
151
330
A
100
AcDbEntity
  8
PV
  6
Continuous
 62
     7
100
AcDbLine
 10
-12.761
 20
115.786
 30
0.0
 11
-12.42599999999999
 21
115.786
 31
0.0
  0
LINE
  5
152
330
A
100
AcDbEntity
  8
PV
  6
Continuous
 62
     7
100
AcDbLine
 10
-12.42599999999999
 20
115.786
 30
0.0
 11
-11.853
 21
119.036
 31
0.0
  0
LINE
  5
153
330
A
100
AcDbEntity
  8
PV
  6
Continuous
 62
     7
100
AcDbLine
 10
-14.65799999999999
 20
115.786
 30
0.0
 11
-14.329
 21
115.786
 31
0.0
  0
LINE
  5
154
330
A
100
AcDbEntity
  8
PV
  6
Continuous
 62
     7
100
AcDbLine
 10
-14.085
 20
119.036
 30
0.0
 11
-13.802
 21
119.036
 31
0.0
  0
LINE
  5
155
330
A
100
AcDbEntity
  8
PV
  6
Continuous
 62
     7
100
AcDbLine
 10
-14.659
 20
115.786
 30
0.0
 11
-14.085
 21
119.036
 31
0.0
  0
LINE
  5
156
330
A
100
AcDbEntity
  8
PV
  6
Continuous
 62
     7
100
AcDbLine
 10
6.379999999999999
 20
115.786
 30
0.0
 11
6.716
 21
115.786
 31
0.0
  0
LINE
  5
157
330
A
100
AcDbEntity
  8
PV
  6
Continuous
 62
     7
100
AcDbLine
 10
4.281
 20
115.786
 30
0.0
 11
4.626999999999999
 21
115.786
 31
0.0
  0
LINE
  5
158
330
A
100
AcDbEntity
  8
PV
  6
Continuous
 62
     7
100
AcDbLine
 10
4.876999999999999
 20
116.4739999999999
 30
0.0
 11
6.195
 21
116.4739999999999
 31
0.0
  0
LINE
  5
159
330
A
100
AcDbEntity
  8
PV
  6
Continuous
 62
     7
100
AcDbLine
 10
5.844999999999999
 20
119.036
 30
0.0
 11
6.716
 21
115.786
 31
0.0
  0
LINE
  5
15A
330
A
100
AcDbEntity
  8
PV
  6
Continuous
 62
     7
100
AcDbLine
 10
5.463999999999999
 20
119.036
 30
0.0
 11
5.844999999999999
 21
119.036
 31
0.0
  0
LINE
  5
15B
330
A
100
AcDbEntity
  8
PV
  6
Continuous
 62
     7
100
AcDbLine
 10
4.281
 20
115.786
 30
0.0
 11
5.463999999999999
 21
119.036
 31
0.0
  0
SOLID
  5
15C
330
A
100
AcDbEntity
  8
PV
  6
Continuous
 62
     7
100
AcDbTrace
 10
-2.43
 20
127.516
 30
0.0
 11
-1.08
 21
127.516
 31
0.0
 12
-2.43
 22
130.2659999999999
 32
0.0
 13
-1.08
 23
130.2659999999999
 33
0.0
  0
SOLID
  5
15D
330
A
100
AcDbEntity
  8
PV
  6
Continuous
 62
     7
100
AcDbTrace
 10
-8.907999999999999
 20
124.0099999999999
 30
0.0
 11
-8.609999999999999
 21
124.0099999999999
 31
0.0
 12
-8.907999999999999
 22
125.5029999999999
 32
0.0
 13
-8.609999999999999
 23
125.5029999999999
 33
0.0
  0
SOLID
  5
15E
330
A
100
AcDbEntity
  8
PV
  6
Continuous
 62
     7
100
AcDbTrace
 10
-11.222
 20
124.0099999999999
 30
0.0
 11
-10.923
 21
124.0099999999999
 31
0.0
 12
-11.222
 22
125.5029999999999
 32
0.0
 13
-10.923
 23
125.5029999999999
 33
0.0
  0
MTEXT
  5
15F
330
A
100
AcDbEntity
  8
PV
  6
Continuous
 62
     7
100
AcDbMText
 10
-0.188
 20
97.406
 30
0.0
 40
1.0
 41
0.0
 71
     2
 72
     1
  1
\W0.980;\A1;MADE IN JAPAN
 73
     1
 44
1.0
  0
MTEXT
  5
160
330
A
100
AcDbEntity
  8
PV
  6
Continuous
 62
     7
100
AcDbMText
 10
0.242
 20
108.1409999999999
 30
0.0
 40
1.9
 41
0.0
 71
     2
 72
     1
  1
\W0.925;\A1;HIGH VACUUM VALVES
 73
     1
 44
1.0
  0
MTEXT
  5
161
330
A
100
AcDbEntity
  8
PV
  6
Continuous
 62
     7
100
AcDbMText
 10
0.027
 20
102.7029999999999
 30
0.0
 40
1.9
 41
0.0
 71
     2
 72
     1
  1
\W0.930;\A1;METAL BELLOWS
 73
     1
 44
1.0
  0
CIRCLE
  5
162
330
A
100
AcDbEntity
  8
PV
  6
Continuous
 62
   254
100
AcDbCircle
 10
0.0
 20
113.006
 30
0.0
 40
20.75
  0
CIRCLE
  5
163
330
A
100
AcDbEntity
  8
PV
  6
Continuous
 62
     7
100
AcDbCircle
 10
0.0
 20
113.006
 30
0.0
 40
21.0
  0
ARC
  5
164
330
A
100
AcDbEntity
  8
PV
  6
Continuous
 62
     7
100
AcDbCircle
 10
3.886
 20
128.891
 30
0.0
 40
0.7
100
AcDbArc
 50
265.3970849999999
 51
94.602915
  0
ARC
  5
165
330
A
100
AcDbEntity
  8
PV
  6
Continuous
 62
     7
100
AcDbCircle
 10
3.85
 20
128.891
 30
0.0
 40
0.7
100
AcDbArc
 50
91.745976
 51
268.254013
  0
ARC
  5
166
330
A
100
AcDbEntity
  8
PV
  6
Continuous
 62
     7
100
AcDbCircle
 10
2.645
 20
128.891
 30
0.0
 40
1.375
100
AcDbArc
 50
30.587561
 51
329.4124279999999
  0
ARC
  5
167
330
A
100
AcDbEntity
  8
PV
  6
Continuous
 62
     7
100
AcDbCircle
 10
0.316
 20
128.891
 30
0.0
 40
0.75
100
AcDbArc
 50
269.9999969999999
 51
90.00000300000001
  0
ARC
  5
168
330
A
100
AcDbEntity
  8
PV
  6
Continuous
 62
     7
100
AcDbCircle
 10
0.316
 20
128.891
 30
0.0
 40
0.75
100
AcDbArc
 50
90.00000300000001
 51
270.000001
  0
ARC
  5
169
330
A
100
AcDbEntity
  8
PV
  6
Continuous
 62
     7
100
AcDbCircle
 10
0.316
 20
128.891
 30
0.0
 40
1.395999999999999
100
AcDbArc
 50
90.00000300000001
 51
270.000001
  0
ARC
  5
16A
330
A
100
AcDbEntity
  8
PV
  6
Continuous
 62
     7
100
AcDbCircle
 10
-3.564999999999999
 20
129.5159999999999
 30
0.0
 40
0.75
100
AcDbArc
 50
179.9999909999999
 51
0.00001
  0
ARC
  5
16B
330
A
100
AcDbEntity
  8
PV
  6
Continuous
 62
     7
100
AcDbCircle
 10
-3.564999999999999
 20
129.5159999999999
 30
0.0
 40
0.75
100
AcDbArc
 50
0.0
 51
180.000005
  0
ARC
  5
16C
330
A
100
AcDbEntity
  8
PV
  6
Continuous
 62
   254
100
AcDbCircle
 10
10.27099999999999
 20
124.756
 30
0.0
 40
0.746
100
AcDbArc
 50
359.999996
 51
90.00003000000001
  0
ARC
  5
16D
330
A
100
AcDbEntity
  8
PV
  6
Continuous
 62
   254
100
AcDbCircle
 10
10.27099999999999
 20
124.756
 30
0.0
 40
0.448
100
AcDbArc
 50
359.999996
 51
90.00003000000001
  0
ARC
  5
16E
330
A
100
AcDbEntity
  8
PV
  6
Continuous
 62
   254
100
AcDbCircle
 10
4.897999999999999
 20
124.756
 30
0.0
 40
0.448
100
AcDbArc
 50
359.999996
 51
89.999975
  0
ARC
  5
16F
330
A
100
AcDbEntity
  8
PV
  6
Continuous
 62
   254
100
AcDbCircle
 10
4.748
 20
124.756
 30
0.0
 40
0.448
100
AcDbArc
 50
179.999978
 51
270.000001
  0
ARC
  5
170
330
A
100
AcDbEntity
  8
PV
  6
Continuous
 62
   254
100
AcDbCircle
 10
4.748
 20
124.756
 30
0.0
 40
0.746
100
AcDbArc
 50
179.999978
 51
270.000001
  0
ARC
  5
171
330
A
100
AcDbEntity
  8
PV
  6
Continuous
 62
   254
100
AcDbCircle
 10
-3.907999999999999
 20
124.756
 30
0.0
 40
0.746
100
AcDbArc
 50
179.999978
 51
270.000001
  0
ARC
  5
172
330
A
100
AcDbEntity
  8
PV
  6
Continuous
 62
   254
100
AcDbCircle
 10
-3.907999999999999
 20
124.756
 30
0.0
 40
0.448
100
AcDbArc
 50
179.999978
 51
270.000001
  0
ARC
  5
173
330
A
100
AcDbEntity
  8
PV
  6
Continuous
 62
   254
100
AcDbCircle
 10
-3.758999999999999
 20
124.756
 30
0.0
 40
0.448
100
AcDbArc
 50
359.999996
 51
89.999975
  0
ARC
  5
174
330
A
100
AcDbEntity
  8
PV
  6
Continuous
 62
   254
100
AcDbCircle
 10
-3.758999999999999
 20
124.756
 30
0.0
 40
0.746
100
AcDbArc
 50
359.999996
 51
89.999975
  0
ARC
  5
175
330
A
100
AcDbEntity
  8
PV
  6
Continuous
 62
   254
100
AcDbCircle
 10
-9.58
 20
125.055
 30
0.0
 40
0.448
100
AcDbArc
 50
359.999996
 51
89.999975
  0
ARC
  5
176
330
A
100
AcDbEntity
  8
PV
  6
Continuous
 62
   254
100
AcDbCircle
 10
-9.58
 20
125.055
 30
0.0
 40
0.149
100
AcDbArc
 50
359.999996
 51
89.999975
  0
ARC
  5
177
330
A
100
AcDbEntity
  8
PV
  6
Continuous
 62
   254
100
AcDbCircle
 10
3.181
 20
124.756
 30
0.0
 40
0.448
100
AcDbArc
 50
89.999975
 51
270.000001
  0
ARC
  5
178
330
A
100
AcDbEntity
  8
PV
  6
Continuous
 62
   254
100
AcDbCircle
 10
3.181
 20
124.756
 30
0.0
 40
0.746
100
AcDbArc
 50
89.999975
 51
270.000001
  0
ARC
  5
179
330
A
100
AcDbEntity
  8
PV
  6
Continuous
 62
   254
100
AcDbCircle
 10
10.27099999999999
 20
124.756
 30
0.0
 40
0.448
100
AcDbArc
 50
270.0000109999999
 51
359.999996
  0
ARC
  5
17A
330
A
100
AcDbEntity
  8
PV
  6
Continuous
 62
   254
100
AcDbCircle
 10
10.27099999999999
 20
124.756
 30
0.0
 40
0.746
100
AcDbArc
 50
270.0000109999999
 51
359.999996
  0
ARC
  5
17B
330
A
100
AcDbEntity
  8
PV
  6
Continuous
 62
   254
100
AcDbCircle
 10
7.211
 20
124.607
 30
0.0
 40
0.299
100
AcDbArc
 50
179.999978
 51
270.000001
  0
ARC
  5
17C
330
A
100
AcDbEntity
  8
PV
  6
Continuous
 62
   254
100
AcDbCircle
 10
7.211
 20
124.607
 30
0.0
 40
0.597
100
AcDbArc
 50
179.999978
 51
270.000001
  0
CIRCLE
  5
17D
330
A
100
AcDbEntity
  8
PV
  6
Continuous
 62
   254
100
AcDbCircle
 10
5.792999999999999
 20
124.197
 30
0.0
 40
0.187
  0
ARC
  5
17E
330
A
100
AcDbEntity
  8
PV
  6
Continuous
 62
   254
100
AcDbCircle
 10
6.270999999999999
 20
124.197
 30
0.0
 40
0.187
100
AcDbArc
 50
319.9999189999999
 51
241.536827
  0
ARC
  5
17F
330
A
100
AcDbEntity
  8
PV
  6
Continuous
 62
   254
100
AcDbCircle
 10
-3.758999999999999
 20
124.756
 30
0.0
 40
0.448
100
AcDbArc
 50
270.0000109999999
 51
359.999996
  0
ARC
  5
180
330
A
100
AcDbEntity
  8
PV
  6
Continuous
 62
   254
100
AcDbCircle
 10
-3.907999999999999
 20
124.756
 30
0.0
 40
0.448
100
AcDbArc
 50
89.999975
 51
179.99995
  0
ARC
  5
181
330
A
100
AcDbEntity
  8
PV
  6
Continuous
 62
   254
100
AcDbCircle
 10
-3.758999999999999
 20
124.756
 30
0.0
 40
0.746
100
AcDbArc
 50
270.0000109999999
 51
359.999996
  0
ARC
  5
182
330
A
100
AcDbEntity
  8
PV
  6
Continuous
 62
   254
100
AcDbCircle
 10
-3.907999999999999
 20
124.756
 30
0.0
 40
0.746
100
AcDbArc
 50
89.999975
 51
179.99995
  0
ARC
  5
183
330
A
100
AcDbEntity
  8
PV
  6
Continuous
 62
   254
100
AcDbCircle
 10
1.092
 20
124.831
 30
0.0
 40
0.373
100
AcDbArc
 50
359.999996
 51
89.999975
  0
ARC
  5
184
330
A
100
AcDbEntity
  8
PV
  6
Continuous
 62
   254
100
AcDbCircle
 10
0.9419999999999999
 20
124.831
 30
0.0
 40
0.373
100
AcDbArc
 50
89.999975
 51
179.99995
  0
ARC
  5
185
330
A
100
AcDbEntity
  8
PV
  6
Continuous
 62
   254
100
AcDbCircle
 10
1.092
 20
124.831
 30
0.0
 40
0.6720000000000001
100
AcDbArc
 50
359.999996
 51
89.999975
  0
ARC
  5
186
330
A
100
AcDbEntity
  8
PV
  6
Continuous
 62
   254
100
AcDbCircle
 10
0.9419999999999999
 20
124.831
 30
0.0
 40
0.6720000000000001
100
AcDbArc
 50
89.999975
 51
179.99995
  0
ARC
  5
187
330
A
100
AcDbEntity
  8
PV
  6
Continuous
 62
   254
100
AcDbCircle
 10
-7.713999999999999
 20
124.756
 30
0.0
 40
0.448
100
AcDbArc
 50
199.471211
 51
270.0000109999999
  0
ARC
  5
188
330
A
100
AcDbEntity
  8
PV
  6
Continuous
 62
   254
100
AcDbCircle
 10
-7.713999999999999
 20
124.756
 30
0.0
 40
0.448
100
AcDbArc
 50
89.999975
 51
160.528775
  0
ARC
  5
189
330
A
100
AcDbEntity
  8
PV
  6
Continuous
 62
   254
100
AcDbCircle
 10
-7.713999999999999
 20
124.756
 30
0.0
 40
0.746
100
AcDbArc
 50
89.999975
 51
270.000001
  0
ARC
  5
18A
330
A
100
AcDbEntity
  8
PV
  6
Continuous
 62
   254
100
AcDbCircle
 10
4.897999999999999
 20
124.756
 30
0.0
 40
0.448
100
AcDbArc
 50
270.0000109999999
 51
359.999996
  0
ARC
  5
18B
330
A
100
AcDbEntity
  8
PV
  6
Continuous
 62
   254
100
AcDbCircle
 10
4.748
 20
124.756
 30
0.0
 40
0.448
100
AcDbArc
 50
89.999975
 51
179.99995
  0
ARC
  5
18C
330
A
100
AcDbEntity
  8
PV
  6
Continuous
 62
   254
100
AcDbCircle
 10
4.897999999999999
 20
124.756
 30
0.0
 40
0.746
100
AcDbArc
 50
270.0000109999999
 51
359.999996
  0
ARC
  5
18D
330
A
100
AcDbEntity
  8
PV
  6
Continuous
 62
   254
100
AcDbCircle
 10
4.748
 20
124.756
 30
0.0
 40
0.746
100
AcDbArc
 50
89.999975
 51
179.99995
  0
ARC
  5
18E
330
A
100
AcDbEntity
  8
PV
  6
Continuous
 62
   254
100
AcDbCircle
 10
-0.625
 20
124.756
 30
0.0
 40
0.448
100
AcDbArc
 50
199.471211
 51
270.0000109999999
  0
ARC
  5
18F
330
A
100
AcDbEntity
  8
PV
  6
Continuous
 62
   254
100
AcDbCircle
 10
-0.625
 20
124.756
 30
0.0
 40
0.448
100
AcDbArc
 50
89.999975
 51
160.528775
  0
ARC
  5
190
330
A
100
AcDbEntity
  8
PV
  6
Continuous
 62
   254
100
AcDbCircle
 10
-0.625
 20
124.756
 30
0.0
 40
0.746
100
AcDbArc
 50
89.999975
 51
270.000001
  0
ARC
  5
191
330
A
100
AcDbEntity
  8
PV
  6
Continuous
 62
   254
100
AcDbCircle
 10
-9.58
 20
125.055
 30
0.0
 40
0.149
100
AcDbArc
 50
270.0000109999999
 51
359.999996
  0
ARC
  5
192
330
A
100
AcDbEntity
  8
PV
  6
Continuous
 62
   254
100
AcDbCircle
 10
-9.58
 20
125.055
 30
0.0
 40
0.448
100
AcDbArc
 50
273.7218359999999
 51
359.999996
  0
ARC
  5
193
330
A
100
AcDbEntity
  8
PV
  6
Continuous
 62
   254
100
AcDbCircle
 10
4.897999999999999
 20
124.756
 30
0.0
 40
0.746
100
AcDbArc
 50
359.999996
 51
89.999975
  0
LINE
  5
194
330
A
100
AcDbEntity
  8
PV
  6
Continuous
 62
     7
100
AcDbLine
 10
0.316
 20
129.6409999999999
 30
0.0
 11
0.316
 21
128.1409999999999
 31
0.0
  0
LINE
  5
195
330
A
100
AcDbEntity
  8
PV
  6
Continuous
 62
     7
100
AcDbLine
 10
0.316
 20
128.1409999999999
 30
0.0
 11
0.316
 21
127.495
 31
0.0
  0
LINE
  5
196
330
A
100
AcDbEntity
  8
PV
  6
Continuous
 62
     7
100
AcDbLine
 10
-4.315
 20
129.5159999999999
 30
0.0
 11
-2.814999999999999
 21
129.5159999999999
 31
0.0
  0
LINE
  5
197
330
A
100
AcDbEntity
  8
PV
  6
Continuous
 62
     7
100
AcDbLine
 10
3.868
 20
129.591
 30
0.0
 11
3.868
 21
128.191
 31
0.0
  0
LINE
  5
198
330
A
100
AcDbEntity
  8
PV
  6
Continuous
 62
     7
100
AcDbLine
 10
0.316
 20
130.287
 30
0.0
 11
0.316
 21
129.6409999999999
 31
0.0
  0
LINE
  5
199
330
A
100
AcDbEntity
  8
PV
  6
Continuous
 62
     7
100
AcDbLine
 10
-1.08
 20
130.2659999999999
 30
0.0
 11
-1.08
 21
127.516
 31
0.0
  0
LINE
  5
19A
330
A
100
AcDbEntity
  8
PV
  6
Continuous
 62
     7
100
AcDbLine
 10
-2.43
 20
130.2659999999999
 30
0.0
 11
-2.43
 21
127.516
 31
0.0
  0
LINE
  5
19B
330
A
100
AcDbEntity
  8
PV
  6
Continuous
 62
     7
100
AcDbLine
 10
-2.43
 20
130.2659999999999
 30
0.0
 11
-1.08
 21
130.2659999999999
 31
0.0
  0
LINE
  5
19C
330
A
100
AcDbEntity
  8
PV
  6
Continuous
 62
     7
100
AcDbLine
 10
-2.43
 20
127.516
 30
0.0
 11
-1.08
 21
127.516
 31
0.0
  0
LINE
  5
19D
330
A
100
AcDbEntity
  8
PV
  6
Continuous
 62
     7
100
AcDbLine
 10
-2.814999999999999
 20
129.5159999999999
 30
0.0
 11
-2.814999999999999
 21
127.516
 31
0.0
  0
LINE
  5
19E
330
A
100
AcDbEntity
  8
PV
  6
Continuous
 62
     7
100
AcDbLine
 10
-4.315
 20
127.516
 30
0.0
 11
-2.814999999999999
 21
127.516
 31
0.0
  0
LINE
  5
19F
330
A
100
AcDbEntity
  8
PV
  6
Continuous
 62
     7
100
AcDbLine
 10
-4.315
 20
129.5159999999999
 30
0.0
 11
-4.315
 21
127.516
 31
0.0
  0
LINE
  5
1A0
330
A
100
AcDbEntity
  8
PV
  6
Continuous
 62
   254
100
AcDbLine
 10
9.747999999999999
 20
124.756
 30
0.0
 11
9.747999999999999
 21
124.309
 31
0.0
  0
LINE
  5
1A1
330
A
100
AcDbEntity
  8
PV
  6
Continuous
 62
   254
100
AcDbLine
 10
9.449999999999999
 20
124.756
 30
0.0
 11
9.449999999999999
 21
124.0099999999999
 31
0.0
  0
LINE
  5
1A2
330
A
100
AcDbEntity
  8
PV
  6
Continuous
 62
   254
100
AcDbLine
 10
10.719
 20
124.756
 30
0.0
 11
11.017
 21
124.756
 31
0.0
  0
LINE
  5
1A3
330
A
100
AcDbEntity
  8
PV
  6
Continuous
 62
   254
100
AcDbLine
 10
9.449999999999999
 20
124.756
 30
0.0
 11
9.747999999999999
 21
124.756
 31
0.0
  0
LINE
  5
1A4
330
A
100
AcDbEntity
  8
PV
  6
Continuous
 62
   254
100
AcDbLine
 10
5.344999999999999
 20
124.756
 30
0.0
 11
5.644
 21
124.756
 31
0.0
  0
LINE
  5
1A5
330
A
100
AcDbEntity
  8
PV
  6
Continuous
 62
   254
100
AcDbLine
 10
4.001999999999999
 20
124.756
 30
0.0
 11
4.301
 21
124.756
 31
0.0
  0
LINE
  5
1A6
330
A
100
AcDbEntity
  8
PV
  6
Continuous
 62
   254
100
AcDbLine
 10
-3.311
 20
124.756
 30
0.0
 11
-3.012999999999999
 21
124.756
 31
0.0
  0
LINE
  5
1A7
330
A
100
AcDbEntity
  8
PV
  6
Continuous
 62
   254
100
AcDbLine
 10
-9.431
 20
125.055
 30
0.0
 11
-9.131999999999999
 21
125.055
 31
0.0
  0
LINE
  5
1A8
330
A
100
AcDbEntity
  8
PV
  6
Continuous
 62
   254
100
AcDbLine
 10
-10.625
 20
125.055
 30
0.0
 11
-10.32599999999999
 21
125.055
 31
0.0
  0
LINE
  5
1A9
330
A
100
AcDbEntity
  8
PV
  6
Continuous
 62
   254
100
AcDbLine
 10
-10.32599999999999
 20
125.055
 30
0.0
 11
-10.32599999999999
 21
124.906
 31
0.0
  0
LINE
  5
1AA
330
A
100
AcDbEntity
  8
PV
  6
Continuous
 62
   254
100
AcDbLine
 10
-10.625
 20
125.055
 30
0.0
 11
-10.625
 21
124.0099999999999
 31
0.0
  0
LINE
  5
1AB
330
A
100
AcDbEntity
  8
PV
  6
Continuous
 62
   254
100
AcDbLine
 10
9.747999999999999
 20
125.204
 30
0.0
 11
9.747999999999999
 21
124.756
 31
0.0
  0
LINE
  5
1AC
330
A
100
AcDbEntity
  8
PV
  6
Continuous
 62
   254
100
AcDbLine
 10
9.747999999999999
 20
124.309
 30
0.0
 11
10.27099999999999
 21
124.309
 31
0.0
  0
LINE
  5
1AD
330
A
100
AcDbEntity
  8
PV
  6
Continuous
 62
   254
100
AcDbLine
 10
9.449999999999999
 20
125.5029999999999
 30
0.0
 11
9.449999999999999
 21
124.756
 31
0.0
  0
LINE
  5
1AE
330
A
100
AcDbEntity
  8
PV
  6
Continuous
 62
   254
100
AcDbLine
 10
8.404999999999999
 20
124.0099999999999
 30
0.0
 11
8.704
 21
124.0099999999999
 31
0.0
  0
LINE
  5
1AF
330
A
100
AcDbEntity
  8
PV
  6
Continuous
 62
   254
100
AcDbLine
 10
8.704
 20
125.204
 30
0.0
 11
9.301
 21
125.204
 31
0.0
  0
LINE
  5
1B0
330
A
100
AcDbEntity
  8
PV
  6
Continuous
 62
   254
100
AcDbLine
 10
9.449999999999999
 20
125.5029999999999
 30
0.0
 11
10.27099999999999
 21
125.5029999999999
 31
0.0
  0
LINE
  5
1B1
330
A
100
AcDbEntity
  8
PV
  6
Continuous
 62
   254
100
AcDbLine
 10
9.747999999999999
 20
125.204
 30
0.0
 11
10.27099999999999
 21
125.204
 31
0.0
  0
LINE
  5
1B2
330
A
100
AcDbEntity
  8
PV
  6
Continuous
 62
   254
100
AcDbLine
 10
8.404999999999999
 20
125.204
 30
0.0
 11
8.404999999999999
 21
124.0099999999999
 31
0.0
  0
LINE
  5
1B3
330
A
100
AcDbEntity
  8
PV
  6
Continuous
 62
   254
100
AcDbLine
 10
8.704
 20
125.204
 30
0.0
 11
8.704
 21
124.0099999999999
 31
0.0
  0
LINE
  5
1B4
330
A
100
AcDbEntity
  8
PV
  6
Continuous
 62
   254
100
AcDbLine
 10
7.807999999999999
 20
125.204
 30
0.0
 11
8.404999999999999
 21
125.204
 31
0.0
  0
LINE
  5
1B5
330
A
100
AcDbEntity
  8
PV
  6
Continuous
 62
   254
100
AcDbLine
 10
9.301
 20
125.5029999999999
 30
0.0
 11
9.301
 21
125.204
 31
0.0
  0
LINE
  5
1B6
330
A
100
AcDbEntity
  8
PV
  6
Continuous
 62
   254
100
AcDbLine
 10
7.807999999999999
 20
125.5029999999999
 30
0.0
 11
7.807999999999999
 21
125.204
 31
0.0
  0
LINE
  5
1B7
330
A
100
AcDbEntity
  8
PV
  6
Continuous
 62
   254
100
AcDbLine
 10
7.807999999999999
 20
125.5029999999999
 30
0.0
 11
9.301
 21
125.5029999999999
 31
0.0
  0
LINE
  5
1B8
330
A
100
AcDbEntity
  8
PV
  6
Continuous
 62
   254
100
AcDbLine
 10
6.613999999999999
 20
125.5029999999999
 30
0.0
 11
6.912999999999999
 21
125.5029999999999
 31
0.0
  0
LINE
  5
1B9
330
A
100
AcDbEntity
  8
PV
  6
Continuous
 62
   254
100
AcDbLine
 10
9.449999999999999
 20
124.0099999999999
 30
0.0
 11
10.27099999999999
 21
124.0099999999999
 31
0.0
  0
LINE
  5
1BA
330
A
100
AcDbEntity
  8
PV
  6
Continuous
 62
   254
100
AcDbLine
 10
7.211
 20
124.309
 30
0.0
 11
7.957
 21
124.309
 31
0.0
  0
LINE
  5
1BB
330
A
100
AcDbEntity
  8
PV
  6
Continuous
 62
   254
100
AcDbLine
 10
6.912999999999999
 20
125.5029999999999
 30
0.0
 11
6.912999999999999
 21
124.607
 31
0.0
  0
LINE
  5
1BC
330
A
100
AcDbEntity
  8
PV
  6
Continuous
 62
   254
100
AcDbLine
 10
7.957
 20
124.309
 30
0.0
 11
7.957
 21
124.0099999999999
 31
0.0
  0
LINE
  5
1BD
330
A
100
AcDbEntity
  8
PV
  6
Continuous
 62
   254
100
AcDbLine
 10
6.613999999999999
 20
125.5029999999999
 30
0.0
 11
6.613999999999999
 21
124.607
 31
0.0
  0
LINE
  5
1BE
330
A
100
AcDbEntity
  8
PV
  6
Continuous
 62
   254
100
AcDbLine
 10
6.056
 20
123.882
 30
0.0
 11
6.169999999999999
 21
123.7859999999999
 31
0.0
  0
LINE
  5
1BF
330
A
100
AcDbEntity
  8
PV
  6
Continuous
 62
   254
100
AcDbLine
 10
6.056
 20
123.882
 30
0.0
 11
6.182
 21
124.0329999999999
 31
0.0
  0
LINE
  5
1C0
330
A
100
AcDbEntity
  8
PV
  6
Continuous
 62
   254
100
AcDbLine
 10
6.169999999999999
 20
123.7859999999999
 30
0.0
 11
6.413999999999999
 21
124.077
 31
0.0
  0
LINE
  5
1C1
330
A
100
AcDbEntity
  8
PV
  6
Continuous
 62
   254
100
AcDbLine
 10
-3.907999999999999
 20
125.204
 30
0.0
 11
-3.758999999999999
 21
125.204
 31
0.0
  0
LINE
  5
1C2
330
A
100
AcDbEntity
  8
PV
  6
Continuous
 62
   254
100
AcDbLine
 10
-3.907999999999999
 20
124.309
 30
0.0
 11
-3.758999999999999
 21
124.309
 31
0.0
  0
LINE
  5
1C3
330
A
100
AcDbEntity
  8
PV
  6
Continuous
 62
   254
100
AcDbLine
 10
-3.907999999999999
 20
125.5029999999999
 30
0.0
 11
-3.758999999999999
 21
125.5029999999999
 31
0.0
  0
LINE
  5
1C4
330
A
100
AcDbEntity
  8
PV
  6
Continuous
 62
   254
100
AcDbLine
 10
-3.907999999999999
 20
124.0099999999999
 30
0.0
 11
-3.758999999999999
 21
124.0099999999999
 31
0.0
  0
LINE
  5
1C5
330
A
100
AcDbEntity
  8
PV
  6
Continuous
 62
   254
100
AcDbLine
 10
1.465
 20
124.0099999999999
 30
0.0
 11
1.763
 21
124.0099999999999
 31
0.0
  0
LINE
  5
1C6
330
A
100
AcDbEntity
  8
PV
  6
Continuous
 62
   254
100
AcDbLine
 10
1.465
 20
124.831
 30
0.0
 11
1.465
 21
124.0099999999999
 31
0.0
  0
LINE
  5
1C7
330
A
100
AcDbEntity
  8
PV
  6
Continuous
 62
   254
100
AcDbLine
 10
0.569
 20
124.831
 30
0.0
 11
0.569
 21
124.0099999999999
 31
0.0
  0
LINE
  5
1C8
330
A
100
AcDbEntity
  8
PV
  6
Continuous
 62
   254
100
AcDbLine
 10
0.9419999999999999
 20
125.204
 30
0.0
 11
1.092
 21
125.204
 31
0.0
  0
LINE
  5
1C9
330
A
100
AcDbEntity
  8
PV
  6
Continuous
 62
   254
100
AcDbLine
 10
1.763
 20
124.831
 30
0.0
 11
1.763
 21
124.0099999999999
 31
0.0
  0
LINE
  5
1CA
330
A
100
AcDbEntity
  8
PV
  6
Continuous
 62
   254
100
AcDbLine
 10
0.271
 20
124.831
 30
0.0
 11
0.271
 21
124.0099999999999
 31
0.0
  0
LINE
  5
1CB
330
A
100
AcDbEntity
  8
PV
  6
Continuous
 62
   254
100
AcDbLine
 10
0.9419999999999999
 20
125.5029999999999
 30
0.0
 11
1.092
 21
125.5029999999999
 31
0.0
  0
LINE
  5
1CC
330
A
100
AcDbEntity
  8
PV
  6
Continuous
 62
   254
100
AcDbLine
 10
0.273
 20
124.0099999999999
 30
0.0
 11
0.569
 21
124.0099999999999
 31
0.0
  0
LINE
  5
1CD
330
A
100
AcDbEntity
  8
PV
  6
Continuous
 62
   254
100
AcDbLine
 10
7.211
 20
124.0099999999999
 30
0.0
 11
7.957
 21
124.0099999999999
 31
0.0
  0
LINE
  5
1CE
330
A
100
AcDbEntity
  8
PV
  6
Continuous
 62
   254
100
AcDbLine
 10
3.926999999999999
 20
125.204
 30
0.0
 11
3.926999999999999
 21
125.5029999999999
 31
0.0
  0
LINE
  5
1CF
330
A
100
AcDbEntity
  8
PV
  6
Continuous
 62
   254
100
AcDbLine
 10
3.181
 20
125.204
 30
0.0
 11
3.926999999999999
 21
125.204
 31
0.0
  0
LINE
  5
1D0
330
A
100
AcDbEntity
  8
PV
  6
Continuous
 62
   254
100
AcDbLine
 10
3.181
 20
124.309
 30
0.0
 11
3.926999999999999
 21
124.309
 31
0.0
  0
LINE
  5
1D1
330
A
100
AcDbEntity
  8
PV
  6
Continuous
 62
   254
100
AcDbLine
 10
3.181
 20
125.5029999999999
 30
0.0
 11
3.926999999999999
 21
125.5029999999999
 31
0.0
  0
LINE
  5
1D2
330
A
100
AcDbEntity
  8
PV
  6
Continuous
 62
   254
100
AcDbLine
 10
3.181
 20
124.0099999999999
 30
0.0
 11
3.926999999999999
 21
124.0099999999999
 31
0.0
  0
LINE
  5
1D3
330
A
100
AcDbEntity
  8
PV
  6
Continuous
 62
   254
100
AcDbLine
 10
-7.042999999999999
 20
124.309
 30
0.0
 11
-7.042999999999999
 21
124.0099999999999
 31
0.0
  0
LINE
  5
1D4
330
A
100
AcDbEntity
  8
PV
  6
Continuous
 62
   254
100
AcDbLine
 10
-7.042999999999999
 20
124.906
 30
0.0
 11
-7.042999999999999
 21
124.607
 31
0.0
  0
LINE
  5
1D5
330
A
100
AcDbEntity
  8
PV
  6
Continuous
 62
   254
100
AcDbLine
 10
-7.713999999999999
 20
124.309
 30
0.0
 11
-7.042999999999999
 21
124.309
 31
0.0
  0
LINE
  5
1D6
330
A
100
AcDbEntity
  8
PV
  6
Continuous
 62
   254
100
AcDbLine
 10
-8.137
 20
124.906
 30
0.0
 11
-7.042999999999999
 21
124.906
 31
0.0
  0
LINE
  5
1D7
330
A
100
AcDbEntity
  8
PV
  6
Continuous
 62
   254
100
AcDbLine
 10
-8.137
 20
124.607
 30
0.0
 11
-7.042999999999999
 21
124.607
 31
0.0
  0
LINE
  5
1D8
330
A
100
AcDbEntity
  8
PV
  6
Continuous
 62
   254
100
AcDbLine
 10
-7.713999999999999
 20
124.0099999999999
 30
0.0
 11
-7.042999999999999
 21
124.0099999999999
 31
0.0
  0
LINE
  5
1D9
330
A
100
AcDbEntity
  8
PV
  6
Continuous
 62
   254
100
AcDbLine
 10
-7.713999999999999
 20
125.5029999999999
 30
0.0
 11
-7.042999999999999
 21
125.5029999999999
 31
0.0
  0
LINE
  5
1DA
330
A
100
AcDbEntity
  8
PV
  6
Continuous
 62
   254
100
AcDbLine
 10
-7.042999999999999
 20
125.5029999999999
 30
0.0
 11
-7.042999999999999
 21
125.204
 31
0.0
  0
LINE
  5
1DB
330
A
100
AcDbEntity
  8
PV
  6
Continuous
 62
   254
100
AcDbLine
 10
-4.924999999999999
 20
124.0099999999999
 30
0.0
 11
-4.58
 21
124.0099999999999
 31
0.0
  0
LINE
  5
1DC
330
A
100
AcDbEntity
  8
PV
  6
Continuous
 62
   254
100
AcDbLine
 10
-5.099999999999999
 20
125.5029999999999
 30
0.0
 11
-4.58
 21
125.5029999999999
 31
0.0
  0
LINE
  5
1DD
330
A
100
AcDbEntity
  8
PV
  6
Continuous
 62
   254
100
AcDbLine
 10
-5.849
 20
124.614
 30
0.0
 11
-5.849
 21
124.0099999999999
 31
0.0
  0
LINE
  5
1DE
330
A
100
AcDbEntity
  8
PV
  6
Continuous
 62
   254
100
AcDbLine
 10
-5.439
 20
124.901
 30
0.0
 11
-5.849
 21
124.614
 31
0.0
  0
LINE
  5
1DF
330
A
100
AcDbEntity
  8
PV
  6
Continuous
 62
   254
100
AcDbLine
 10
-4.924999999999999
 20
124.0099999999999
 30
0.0
 11
-5.439
 21
124.901
 31
0.0
  0
LINE
  5
1E0
330
A
100
AcDbEntity
  8
PV
  6
Continuous
 62
   254
100
AcDbLine
 10
-5.099999999999999
 20
125.5029999999999
 30
0.0
 11
-5.849
 21
124.9789999999999
 31
0.0
  0
LINE
  5
1E1
330
A
100
AcDbEntity
  8
PV
  6
Continuous
 62
   254
100
AcDbLine
 10
-4.58
 20
125.5029999999999
 30
0.0
 11
-5.193999999999999
 21
125.0729999999999
 31
0.0
  0
LINE
  5
1E2
330
A
100
AcDbEntity
  8
PV
  6
Continuous
 62
   254
100
AcDbLine
 10
-4.58
 20
124.0099999999999
 30
0.0
 11
-5.193999999999999
 21
125.0729999999999
 31
0.0
  0
LINE
  5
1E3
330
A
100
AcDbEntity
  8
PV
  6
Continuous
 62
   254
100
AcDbLine
 10
-5.849
 20
125.5029999999999
 30
0.0
 11
-5.849
 21
124.9789999999999
 31
0.0
  0
LINE
  5
1E4
330
A
100
AcDbEntity
  8
PV
  6
Continuous
 62
   254
100
AcDbLine
 10
-6.147
 20
125.5029999999999
 30
0.0
 11
-6.147
 21
124.0099999999999
 31
0.0
  0
LINE
  5
1E5
330
A
100
AcDbEntity
  8
PV
  6
Continuous
 62
   254
100
AcDbLine
 10
-6.147
 20
124.0099999999999
 30
0.0
 11
-5.849
 21
124.0099999999999
 31
0.0
  0
LINE
  5
1E6
330
A
100
AcDbEntity
  8
PV
  6
Continuous
 62
   254
100
AcDbLine
 10
-6.147
 20
125.5029999999999
 30
0.0
 11
-5.849
 21
125.5029999999999
 31
0.0
  0
LINE
  5
1E7
330
A
100
AcDbEntity
  8
PV
  6
Continuous
 62
   254
100
AcDbLine
 10
4.748
 20
125.204
 30
0.0
 11
4.897999999999999
 21
125.204
 31
0.0
  0
LINE
  5
1E8
330
A
100
AcDbEntity
  8
PV
  6
Continuous
 62
   254
100
AcDbLine
 10
4.748
 20
124.309
 30
0.0
 11
4.897999999999999
 21
124.309
 31
0.0
  0
LINE
  5
1E9
330
A
100
AcDbEntity
  8
PV
  6
Continuous
 62
   254
100
AcDbLine
 10
3.926999999999999
 20
124.012
 30
0.0
 11
3.926999999999999
 21
124.309
 31
0.0
  0
LINE
  5
1EA
330
A
100
AcDbEntity
  8
PV
  6
Continuous
 62
   254
100
AcDbLine
 10
4.748
 20
125.5029999999999
 30
0.0
 11
4.897999999999999
 21
125.5029999999999
 31
0.0
  0
LINE
  5
1EB
330
A
100
AcDbEntity
  8
PV
  6
Continuous
 62
   254
100
AcDbLine
 10
4.748
 20
124.0099999999999
 30
0.0
 11
4.897999999999999
 21
124.0099999999999
 31
0.0
  0
LINE
  5
1EC
330
A
100
AcDbEntity
  8
PV
  6
Continuous
 62
   254
100
AcDbLine
 10
-1.641
 20
124.0099999999999
 30
0.0
 11
-1.296
 21
124.0099999999999
 31
0.0
  0
LINE
  5
1ED
330
A
100
AcDbEntity
  8
PV
  6
Continuous
 62
   254
100
AcDbLine
 10
-1.816999999999999
 20
125.5029999999999
 30
0.0
 11
-1.296
 21
125.5029999999999
 31
0.0
  0
LINE
  5
1EE
330
A
100
AcDbEntity
  8
PV
  6
Continuous
 62
   254
100
AcDbLine
 10
-2.564999999999999
 20
124.614
 30
0.0
 11
-2.564999999999999
 21
124.0099999999999
 31
0.0
  0
LINE
  5
1EF
330
A
100
AcDbEntity
  8
PV
  6
Continuous
 62
   254
100
AcDbLine
 10
-2.156
 20
124.901
 30
0.0
 11
-2.564999999999999
 21
124.614
 31
0.0
  0
LINE
  5
1F0
330
A
100
AcDbEntity
  8
PV
  6
Continuous
 62
   254
100
AcDbLine
 10
-1.641
 20
124.0099999999999
 30
0.0
 11
-2.156
 21
124.901
 31
0.0
  0
LINE
  5
1F1
330
A
100
AcDbEntity
  8
PV
  6
Continuous
 62
   254
100
AcDbLine
 10
-1.816999999999999
 20
125.5029999999999
 30
0.0
 11
-2.564999999999999
 21
124.9789999999999
 31
0.0
  0
LINE
  5
1F2
330
A
100
AcDbEntity
  8
PV
  6
Continuous
 62
   254
100
AcDbLine
 10
-1.296
 20
125.5029999999999
 30
0.0
 11
-1.909999999999999
 21
125.0729999999999
 31
0.0
  0
LINE
  5
1F3
330
A
100
AcDbEntity
  8
PV
  6
Continuous
 62
   254
100
AcDbLine
 10
-1.296
 20
124.0099999999999
 30
0.0
 11
-1.909999999999999
 21
125.0729999999999
 31
0.0
  0
LINE
  5
1F4
330
A
100
AcDbEntity
  8
PV
  6
Continuous
 62
   254
100
AcDbLine
 10
-9.496999999999999
 20
124.0099999999999
 30
0.0
 11
-9.914999999999999
 21
124.607
 31
0.0
  0
LINE
  5
1F5
330
A
100
AcDbEntity
  8
PV
  6
Continuous
 62
   254
100
AcDbLine
 10
-9.131999999999999
 20
124.0099999999999
 30
0.0
 11
-9.551
 21
124.6079999999999
 31
0.0
  0
LINE
  5
1F6
330
A
100
AcDbEntity
  8
PV
  6
Continuous
 62
   254
100
AcDbLine
 10
-2.564999999999999
 20
125.5029999999999
 30
0.0
 11
-2.564999999999999
 21
124.9789999999999
 31
0.0
  0
LINE
  5
1F7
330
A
100
AcDbEntity
  8
PV
  6
Continuous
 62
   254
100
AcDbLine
 10
-2.863999999999999
 20
125.5029999999999
 30
0.0
 11
-2.863999999999999
 21
124.0099999999999
 31
0.0
  0
LINE
  5
1F8
330
A
100
AcDbEntity
  8
PV
  6
Continuous
 62
   254
100
AcDbLine
 10
0.047
 20
124.309
 30
0.0
 11
0.047
 21
124.0099999999999
 31
0.0
  0
LINE
  5
1F9
330
A
100
AcDbEntity
  8
PV
  6
Continuous
 62
   254
100
AcDbLine
 10
0.047
 20
124.906
 30
0.0
 11
0.047
 21
124.607
 31
0.0
  0
LINE
  5
1FA
330
A
100
AcDbEntity
  8
PV
  6
Continuous
 62
   254
100
AcDbLine
 10
-0.625
 20
125.204
 30
0.0
 11
0.047
 21
125.204
 31
0.0
  0
LINE
  5
1FB
330
A
100
AcDbEntity
  8
PV
  6
Continuous
 62
   254
100
AcDbLine
 10
-0.625
 20
124.309
 30
0.0
 11
0.047
 21
124.309
 31
0.0
  0
LINE
  5
1FC
330
A
100
AcDbEntity
  8
PV
  6
Continuous
 62
   254
100
AcDbLine
 10
-1.046999999999999
 20
124.906
 30
0.0
 11
0.047
 21
124.906
 31
0.0
  0
LINE
  5
1FD
330
A
100
AcDbEntity
  8
PV
  6
Continuous
 62
   254
100
AcDbLine
 10
-1.046999999999999
 20
124.607
 30
0.0
 11
0.047
 21
124.607
 31
0.0
  0
LINE
  5
1FE
330
A
100
AcDbEntity
  8
PV
  6
Continuous
 62
   254
100
AcDbLine
 10
-2.863999999999999
 20
124.0099999999999
 30
0.0
 11
-2.564999999999999
 21
124.0099999999999
 31
0.0
  0
LINE
  5
1FF
330
A
100
AcDbEntity
  8
PV
  6
Continuous
 62
   254
100
AcDbLine
 10
-2.863999999999999
 20
125.5029999999999
 30
0.0
 11
-2.564999999999999
 21
125.5029999999999
 31
0.0
  0
LINE
  5
200
330
A
100
AcDbEntity
  8
PV
  6
Continuous
 62
   254
100
AcDbLine
 10
-0.625
 20
124.0099999999999
 30
0.0
 11
0.047
 21
124.0099999999999
 31
0.0
  0
LINE
  5
201
330
A
100
AcDbEntity
  8
PV
  6
Continuous
 62
   254
100
AcDbLine
 10
-0.625
 20
125.5029999999999
 30
0.0
 11
0.047
 21
125.5029999999999
 31
0.0
  0
LINE
  5
202
330
A
100
AcDbEntity
  8
PV
  6
Continuous
 62
   254
100
AcDbLine
 10
-8.609999999999999
 20
125.5029999999999
 30
0.0
 11
-8.609999999999999
 21
124.0099999999999
 31
0.0
  0
LINE
  5
203
330
A
100
AcDbEntity
  8
PV
  6
Continuous
 62
   254
100
AcDbLine
 10
-8.907999999999999
 20
125.5029999999999
 30
0.0
 11
-8.907999999999999
 21
124.0099999999999
 31
0.0
  0
LINE
  5
204
330
A
100
AcDbEntity
  8
PV
  6
Continuous
 62
   254
100
AcDbLine
 10
-8.907999999999999
 20
124.0099999999999
 30
0.0
 11
-8.609999999999999
 21
124.0099999999999
 31
0.0
  0
LINE
  5
205
330
A
100
AcDbEntity
  8
PV
  6
Continuous
 62
   254
100
AcDbLine
 10
-8.907999999999999
 20
125.5029999999999
 30
0.0
 11
-8.609999999999999
 21
125.5029999999999
 31
0.0
  0
LINE
  5
206
330
A
100
AcDbEntity
  8
PV
  6
Continuous
 62
   254
100
AcDbLine
 10
-9.496999999999999
 20
124.0099999999999
 30
0.0
 11
-9.131999999999999
 21
124.0099999999999
 31
0.0
  0
LINE
  5
207
330
A
100
AcDbEntity
  8
PV
  6
Continuous
 62
   254
100
AcDbLine
 10
-10.32599999999999
 20
124.607
 30
0.0
 11
-10.32599999999999
 21
124.0099999999999
 31
0.0
  0
LINE
  5
208
330
A
100
AcDbEntity
  8
PV
  6
Continuous
 62
   254
100
AcDbLine
 10
-10.625
 20
125.5029999999999
 30
0.0
 11
-9.58
 21
125.5029999999999
 31
0.0
  0
LINE
  5
209
330
A
100
AcDbEntity
  8
PV
  6
Continuous
 62
   254
100
AcDbLine
 10
-10.625
 20
124.0099999999999
 30
0.0
 11
-10.32599999999999
 21
124.0099999999999
 31
0.0
  0
LINE
  5
20A
330
A
100
AcDbEntity
  8
PV
  6
Continuous
 62
   254
100
AcDbLine
 10
-9.58
 20
124.906
 30
0.0
 11
-10.32599999999999
 21
124.906
 31
0.0
  0
LINE
  5
20B
330
A
100
AcDbEntity
  8
PV
  6
Continuous
 62
   254
100
AcDbLine
 10
-9.58
 20
125.204
 30
0.0
 11
-10.32599999999999
 21
125.204
 31
0.0
  0
LINE
  5
20C
330
A
100
AcDbEntity
  8
PV
  6
Continuous
 62
   254
100
AcDbLine
 10
-10.32599999999999
 20
124.607
 30
0.0
 11
-9.914999999999999
 21
124.607
 31
0.0
  0
LINE
  5
20D
330
A
100
AcDbEntity
  8
PV
  6
Continuous
 62
   254
100
AcDbLine
 10
0.047
 20
125.5029999999999
 30
0.0
 11
0.047
 21
125.204
 31
0.0
  0
LINE
  5
20E
330
A
100
AcDbEntity
  8
PV
  6
Continuous
 62
   254
100
AcDbLine
 10
-10.32599999999999
 20
125.204
 30
0.0
 11
-10.32599999999999
 21
125.055
 31
0.0
  0
LINE
  5
20F
330
A
100
AcDbEntity
  8
PV
  6
Continuous
 62
   254
100
AcDbLine
 10
-10.625
 20
125.5029999999999
 30
0.0
 11
-10.625
 21
125.055
 31
0.0
  0
LINE
  5
210
330
A
100
AcDbEntity
  8
PV
  6
Continuous
 62
   254
100
AcDbLine
 10
-10.923
 20
125.5029999999999
 30
0.0
 11
-10.923
 21
124.0099999999999
 31
0.0
  0
LINE
  5
211
330
A
100
AcDbEntity
  8
PV
  6
Continuous
 62
   254
100
AcDbLine
 10
-11.222
 20
125.5029999999999
 30
0.0
 11
-11.222
 21
124.0099999999999
 31
0.0
  0
LINE
  5
212
330
A
100
AcDbEntity
  8
PV
  6
Continuous
 62
   254
100
AcDbLine
 10
-11.222
 20
124.0099999999999
 30
0.0
 11
-10.923
 21
124.0099999999999
 31
0.0
  0
LINE
  5
213
330
A
100
AcDbEntity
  8
PV
  6
Continuous
 62
   254
100
AcDbLine
 10
-11.222
 20
125.5029999999999
 30
0.0
 11
-10.923
 21
125.5029999999999
 31
0.0
  0
LINE
  5
214
330
A
100
AcDbEntity
  8
PV
  6
Continuous
 62
   254
100
AcDbLine
 10
-7.713999999999999
 20
125.204
 30
0.0
 11
-7.042999999999999
 21
125.204
 31
0.0
  0
LINE
  5
215
330
A
100
AcDbEntity
  8
PV
  6
Continuous
 62
   254
100
AcDbLine
 10
-4.655
 20
124.756
 30
0.0
 11
-4.355999999999999
 21
124.756
 31
0.0
  0
LINE
  5
216
330
A
100
AcDbEntity
  8
PV
  6
Continuous
 62
     7
100
AcDbLine
 10
-18.18099999999999
 20
123.0059999999999
 30
0.0
 11
18.18099999999999
 21
123.0059999999999
 31
0.0
  0
CIRCLE
  5
217
330
A
100
AcDbEntity
  8
PV
  6
Continuous
 62
     7
100
AcDbCircle
 10
140.0
 20
-38.0
 30
0.0
 40
1.199999999999999
  0
CIRCLE
  5
218
330
A
100
AcDbEntity
  8
PV
  6
Continuous
 62
     7
100
AcDbCircle
 10
140.0
 20
-38.0
 30
0.0
 40
1.5
  0
CIRCLE
  5
219
330
A
100
AcDbEntity
  8
PV
  6
Continuous
 62
     7
100
AcDbCircle
 10
120.0
 20
-38.0
 30
0.0
 40
1.199999999999999
  0
CIRCLE
  5
21A
330
A
100
AcDbEntity
  8
PV
  6
Continuous
 62
     7
100
AcDbCircle
 10
120.0
 20
-38.0
 30
0.0
 40
1.5
  0
CIRCLE
  5
21B
330
A
100
AcDbEntity
  8
PV
  6
Continuous
 62
     7
100
AcDbCircle
 10
140.0
 20
2.5
 30
0.0
 40
1.199999999999999
  0
CIRCLE
  5
21C
330
A
100
AcDbEntity
  8
PV
  6
Continuous
 62
     7
100
AcDbCircle
 10
140.0
 20
2.5
 30
0.0
 40
1.5
  0
CIRCLE
  5
21D
330
A
100
AcDbEntity
  8
PV
  6
Continuous
 62
     7
100
AcDbCircle
 10
120.0
 20
2.5
 30
0.0
 40
1.199999999999999
  0
CIRCLE
  5
21E
330
A
100
AcDbEntity
  8
PV
  6
Continuous
 62
     7
100
AcDbCircle
 10
120.0
 20
2.5
 30
0.0
 40
1.5
  0
ARC
  5
220
330
A
100
AcDbEntity
  8
PV
  6
CENTER
 62
     7
100
AcDbCircle
 10
0.0
 20
113.006
 30
0.0
 40
35.0
100
AcDbArc
 50
327.443067
 51
0.0
  0
ARC
  5
221
330
A
100
AcDbEntity
  8
PV
  6
CENTER
 62
     7
100
AcDbCircle
 10
0.0
 20
113.006
 30
0.0
 40
35.0
100
AcDbArc
 50
237.443074
 51
302.556934
  0
ARC
  5
222
330
A
100
AcDbEntity
  8
PV
  6
CENTER
 62
     7
100
AcDbCircle
 10
0.0
 20
113.006
 30
0.0
 40
35.0
100
AcDbArc
 50
202.865638
 51
212.5569389999999
  0
ARC
  5
223
330
A
100
AcDbEntity
  8
PV
  6
CENTER
 62
     7
100
AcDbCircle
 10
0.0
 20
113.006
 30
0.0
 40
35.0
100
AcDbArc
 50
147.4430609999999
 51
157.134362
  0
ARC
  5
224
330
A
100
AcDbEntity
  8
PV
  6
CENTER
 62
     7
100
AcDbCircle
 10
0.0
 20
113.006
 30
0.0
 40
35.0
100
AcDbArc
 50
57.443066
 51
122.556926
  0
ARC
  5
225
330
A
100
AcDbEntity
  8
PV
  6
CENTER
 62
     7
100
AcDbCircle
 10
0.0
 20
113.006
 30
0.0
 40
35.0
100
AcDbArc
 50
0.0
 51
32.556933
  0
ARC
  5
226
330
A
100
AcDbEntity
  8
PV
  6
CENTER
 62
     7
100
AcDbCircle
 10
130.0
 20
-85.0
 30
0.0
 40
35.0
100
AcDbArc
 50
292.8656339999999
 51
39.51759299999999
  0
ARC
  5
227
330
A
100
AcDbEntity
  8
PV
  6
CENTER
 62
     7
100
AcDbCircle
 10
130.0
 20
-85.0
 30
0.0
 40
35.0
100
AcDbArc
 50
140.4824159999999
 51
247.134358
  0
ARC
  5
228
330
A
100
AcDbEntity
  8
PV
  6
Continuous
 62
     7
100
AcDbCircle
 10
130.0
 20
-85.0
 30
0.0
 40
45.0
100
AcDbArc
 50
287.591122
 51
48.189686
  0
ARC
  5
229
330
A
100
AcDbEntity
  8
PV
  6
Continuous
 62
     7
100
AcDbCircle
 10
130.0
 20
-85.0
 30
0.0
 40
45.0
100
AcDbArc
 50
130.9617879999999
 51
252.4088759999999
  0
CIRCLE
  5
22A
330
A
100
AcDbEntity
  8
PV
  6
Continuous
 62
     7
100
AcDbCircle
 10
130.0
 20
-33.5
 30
0.0
 40
3.85
  0
CIRCLE
  5
22B
330
A
100
AcDbEntity
  8
PV
  6
Continuous
 62
     7
100
AcDbCircle
 10
130.0
 20
-33.5
 30
0.0
 40
4.849999999999999
  0
CIRCLE
  5
22C
330
A
100
AcDbEntity
  8
PV
  6
Continuous
 62
     7
100
AcDbCircle
 10
130.0
 20
-9.0
 30
0.0
 40
4.849999999999999
  0
CIRCLE
  5
22D
330
A
100
AcDbEntity
  8
PV
  6
Continuous
 62
     7
100
AcDbCircle
 10
130.0
 20
-9.0
 30
0.0
 40
3.85
  0
ARC
  5
22E
330
A
100
AcDbEntity
  8
PV
  6
Continuous
 62
     7
100
AcDbCircle
 10
-50.325
 20
-85.0
 30
0.0
 40
27.0
100
AcDbArc
 50
329.754696
 51
30.24530399999999
  0
CIRCLE
  5
22F
330
A
100
AcDbEntity
  8
PV
  6
Continuous
 62
     7
100
AcDbCircle
 10
-121.4539999999999
 20
88.25799999999999
 30
0.0
 40
5.0
  0
CIRCLE
  5
230
330
A
100
AcDbEntity
  8
PV
  6
Continuous
 62
     7
100
AcDbCircle
 10
-121.4539999999999
 20
137.755
 30
0.0
 40
5.0
  0
ARC
  5
231
330
A
100
AcDbEntity
  8
PV
  6
Continuous
 62
     7
100
AcDbCircle
 10
0.0
 20
113.006
 30
0.0
 40
45.0
100
AcDbArc
 50
197.5911199999999
 51
0.0
  0
ARC
  5
232
330
A
100
AcDbEntity
  8
PV
  6
Continuous
 62
     7
100
AcDbCircle
 10
0.0
 20
113.006
 30
0.0
 40
45.0
100
AcDbArc
 50
0.0
 51
162.40888
  0
ARC
  5
233
330
A
100
AcDbEntity
  8
PV
  6
Continuous
 62
     7
100
AcDbCircle
 10
-96.705
 20
113.006
 30
0.0
 40
16.15
100
AcDbArc
 50
89.99998199999998
 51
270.000001
  0
ARC
  5
234
330
A
100
AcDbEntity
  8
PV
  6
Continuous
 62
     7
100
AcDbCircle
 10
-96.705
 20
113.006
 30
0.0
 40
17.5
100
AcDbArc
 50
89.99998199999998
 51
270.000001
  0
ARC
  5
235
330
A
100
AcDbEntity
  8
PV
  6
Continuous
 62
     7
100
AcDbCircle
 10
-96.705
 20
113.006
 30
0.0
 40
20.0
100
AcDbArc
 50
89.99998199999998
 51
270.000001
  0
ARC
  5
236
330
A
100
AcDbEntity
  8
PV
  6
Continuous
 62
     7
100
AcDbCircle
 10
-96.705
 20
113.006
 30
0.0
 40
25.0
100
AcDbArc
 50
89.99998199999998
 51
270.000001
  0
ARC
  5
237
330
A
100
AcDbEntity
  8
PV
  6
CENTER
 62
     7
100
AcDbCircle
 10
-96.705
 20
113.006
 30
0.0
 40
35.0
100
AcDbArc
 50
89.99998199999998
 51
270.000001
  0
ARC
  5
238
330
A
100
AcDbEntity
  8
PV
  6
Continuous
 62
     7
100
AcDbCircle
 10
-96.705
 20
113.006
 30
0.0
 40
45.0
100
AcDbArc
 50
89.99998199999998
 51
270.000001
  0
CIRCLE
  5
239
330
A
100
AcDbEntity
  8
PV
  6
Continuous
 62
     7
100
AcDbCircle
 10
22.5
 20
135.5059999999999
 30
0.0
 40
5.5
  0
CIRCLE
  5
23A
330
A
100
AcDbEntity
  8
PV
  6
Continuous
 62
     7
100
AcDbCircle
 10
-22.5
 20
135.5059999999999
 30
0.0
 40
5.5
  0
CIRCLE
  5
23B
330
A
100
AcDbEntity
  8
PV
  6
Continuous
 62
     7
100
AcDbCircle
 10
-22.5
 20
90.50600000000001
 30
0.0
 40
5.5
  0
CIRCLE
  5
23C
330
A
100
AcDbEntity
  8
PV
  6
Continuous
 62
     7
100
AcDbCircle
 10
22.5
 20
90.50600000000001
 30
0.0
 40
5.5
  0
ARC
  5
23D
330
A
100
AcDbEntity
  8
PV
  6
Continuous
 62
     7
100
AcDbCircle
 10
0.0
 20
113.006
 30
0.0
 40
39.0
100
AcDbArc
 50
40.851252
 51
49.148747
  0
ARC
  5
23E
330
A
100
AcDbEntity
  8
PV
  6
Continuous
 62
     7
100
AcDbCircle
 10
0.0
 20
113.006
 30
0.0
 40
39.0
100
AcDbArc
 50
310.851253
 51
319.148748
  0
ARC
  5
23F
330
A
100
AcDbEntity
  8
PV
  6
Continuous
 62
     7
100
AcDbCircle
 10
0.0
 20
113.006
 30
0.0
 40
39.0
100
AcDbArc
 50
220.851247
 51
229.1487519999999
  0
ARC
  5
240
330
A
100
AcDbEntity
  8
PV
  6
Continuous
 62
     7
100
AcDbCircle
 10
0.0
 20
113.006
 30
0.0
 40
39.0
100
AcDbArc
 50
130.851248
 51
139.148753
  0
ARC
  5
241
330
A
100
AcDbEntity
  8
PV
  6
Continuous
 62
     7
100
AcDbCircle
 10
30.5
 20
101.506
 30
0.0
 40
2.0
100
AcDbArc
 50
269.9999969999999
 51
0.0
  0
ARC
  5
242
330
A
100
AcDbEntity
  8
PV
  6
Continuous
 62
     7
100
AcDbCircle
 10
30.5
 20
124.506
 30
0.0
 40
2.0
100
AcDbArc
 50
0.0
 51
90.00000300000001
  0
LINE
  5
244
330
A
100
AcDbEntity
  8
PV
  6
DASHED
 62
     7
100
AcDbLine
 10
-57.0
 20
88.00600000000001
 30
0.0
 11
-57.0
 21
93.00600000000001
 31
0.0
  0
LINE
  5
245
330
A
100
AcDbEntity
  8
PV
  6
DASHED
 62
     7
100
AcDbLine
 10
-60.0
 20
88.00600000000001
 30
0.0
 11
-57.0
 21
88.00600000000001
 31
0.0
  0
LINE
  5
246
330
A
100
AcDbEntity
  8
PV
  6
DASHED
 62
     7
100
AcDbLine
 10
-60.0
 20
93.00600000000001
 30
0.0
 11
-57.0
 21
93.00600000000001
 31
0.0
  0
LINE
  5
247
330
A
100
AcDbEntity
  8
PV
  6
DASHED
 62
     7
100
AcDbLine
 10
-57.0
 20
138.006
 30
0.0
 11
-57.0
 21
133.006
 31
0.0
  0
LINE
  5
248
330
A
100
AcDbEntity
  8
PV
  6
DASHED
 62
     7
100
AcDbLine
 10
-60.0
 20
133.006
 30
0.0
 11
-57.0
 21
133.006
 31
0.0
  0
LINE
  5
249
330
A
100
AcDbEntity
  8
PV
  6
DASHED
 62
     7
100
AcDbLine
 10
-60.0
 20
138.006
 30
0.0
 11
-57.0
 21
138.006
 31
0.0
  0
LINE
  5
24A
330
A
100
AcDbEntity
  8
PV
  6
DASHED
 62
     7
100
AcDbLine
 10
-57.0
 20
-110.0
 30
0.0
 11
-57.0
 21
-105.0
 31
0.0
  0
LINE
  5
24B
330
A
100
AcDbEntity
  8
PV
  6
DASHED
 62
     7
100
AcDbLine
 10
-60.0
 20
-110.0
 30
0.0
 11
-57.0
 21
-110.0
 31
0.0
  0
LINE
  5
24C
330
A
100
AcDbEntity
  8
PV
  6
DASHED
 62
     7
100
AcDbLine
 10
-60.0
 20
-105.0
 30
0.0
 11
-57.0
 21
-105.0
 31
0.0
  0
LINE
  5
24D
330
A
100
AcDbEntity
  8
PV
  6
DASHED
 62
     7
100
AcDbLine
 10
-57.0
 20
-60.0
 30
0.0
 11
-57.0
 21
-65.0
 31
0.0
  0
LINE
  5
24E
330
A
100
AcDbEntity
  8
PV
  6
DASHED
 62
     7
100
AcDbLine
 10
-60.0
 20
-60.0
 30
0.0
 11
-57.0
 21
-60.0
 31
0.0
  0
LINE
  5
24F
330
A
100
AcDbEntity
  8
PV
  6
DASHED
 62
     7
100
AcDbLine
 10
-60.0
 20
-65.0
 30
0.0
 11
-57.0
 21
-65.0
 31
0.0
  0
LINE
  5
250
330
A
100
AcDbEntity
  8
PV
  6
CENTER
 62
     7
100
AcDbLine
 10
142.499
 20
-38.0
 30
0.0
 11
137.43
 21
-38.0
 31
0.0
  0
LINE
  5
251
330
A
100
AcDbEntity
  8
PV
  6
CENTER
 62
     7
100
AcDbLine
 10
140.0
 20
-40.617
 30
0.0
 11
140.0
 21
-35.12599999999999
 31
0.0
  0
LINE
  5
252
330
A
100
AcDbEntity
  8
PV
  6
CENTER
 62
     7
100
AcDbLine
 10
117.501
 20
-38.0
 30
0.0
 11
122.57
 21
-38.0
 31
0.0
  0
LINE
  5
253
330
A
100
AcDbEntity
  8
PV
  6
CENTER
 62
     7
100
AcDbLine
 10
120.0
 20
-40.617
 30
0.0
 11
120.0
 21
-35.12599999999999
 31
0.0
  0
LINE
  5
254
330
A
100
AcDbEntity
  8
PV
  6
CENTER
 62
     7
100
AcDbLine
 10
142.499
 20
2.5
 30
0.0
 11
137.43
 21
2.5
 31
0.0
  0
LINE
  5
255
330
A
100
AcDbEntity
  8
PV
  6
CENTER
 62
     7
100
AcDbLine
 10
140.0
 20
5.116999999999999
 30
0.0
 11
140.0
 21
-0.374
 31
0.0
  0
LINE
  5
256
330
A
100
AcDbEntity
  8
PV
  6
CENTER
 62
     7
100
AcDbLine
 10
117.501
 20
2.5
 30
0.0
 11
122.57
 21
2.5
 31
0.0
  0
LINE
  5
257
330
A
100
AcDbEntity
  8
PV
  6
CENTER
 62
     7
100
AcDbLine
 10
120.0
 20
5.116999999999999
 30
0.0
 11
120.0
 21
-0.374
 31
0.0
  0
LINE
  5
258
330
A
100
AcDbEntity
  8
PV
  6
Continuous
 62
     7
100
AcDbLine
 10
155.5099999999999
 20
6.5
 30
0.0
 11
155.5099999999999
 21
-42.0
 31
0.0
  0
LINE
  5
259
330
A
100
AcDbEntity
  8
PV
  6
Continuous
 62
     7
100
AcDbLine
 10
104.4899999999999
 20
6.5
 30
0.0
 11
104.4899999999999
 21
-42.0
 31
0.0
  0
LINE
  5
25A
330
A
100
AcDbEntity
  8
PV
  6
CENTER
 62
     7
100
AcDbLine
 10
73.61499999999999
 20
-85.0
 30
0.0
 11
183.499
 21
-85.0
 31
0.0
  0
LINE
  5
25B
330
A
100
AcDbEntity
  8
PV
  6
Continuous
 62
     7
100
AcDbLine
 10
143.5
 20
6.5
 30
0.0
 11
143.5
 21
-42.0
 31
0.0
  0
LINE
  5
25C
330
A
100
AcDbEntity
  8
PV
  6
Continuous
 62
     7
100
AcDbLine
 10
116.5
 20
6.5
 30
0.0
 11
116.5
 21
-42.0
 31
0.0
  0
LINE
  5
25D
330
A
100
AcDbEntity
  8
PV
  6
Continuous
 62
     7
100
AcDbLine
 10
25.51
 20
6.5
 30
0.0
 11
25.51
 21
-42.0
 31
0.0
  0
LINE
  5
25E
330
A
100
AcDbEntity
  8
PV
  6
Continuous
 62
     7
100
AcDbLine
 10
-25.51
 20
6.5
 30
0.0
 11
-25.51
 21
-42.0
 31
0.0
  0
LINE
  5
25F
330
A
100
AcDbEntity
  8
PV
  6
CENTER
 62
     7
100
AcDbLine
 10
-62.725
 20
-120.0
 30
0.0
 11
-47.515
 21
-120.0
 31
0.0
  0
LINE
  5
260
330
A
100
AcDbEntity
  8
PV
  6
Continuous
 62
     7
100
AcDbLine
 10
-60.0
 20
-40.0
 30
0.0
 11
-52.0
 21
-40.0
 31
0.0
  0
LINE
  5
261
330
A
100
AcDbEntity
  8
PV
  6
Continuous
 62
     7
100
AcDbLine
 10
-52.0
 20
-40.0
 30
0.0
 11
-52.0
 21
-85.0
 31
0.0
  0
LINE
  5
262
330
A
100
AcDbEntity
  8
PV
  6
Continuous
 62
     7
100
AcDbLine
 10
-52.0
 20
-71.4
 30
0.0
 11
-27.0
 21
-71.4
 31
0.0
  0
LINE
  5
263
330
A
100
AcDbEntity
  8
PV
  6
Continuous
 62
     7
100
AcDbLine
 10
-52.0
 20
-98.59999999999999
 30
0.0
 11
-27.0
 21
-98.59999999999999
 31
0.0
  0
LINE
  5
264
330
A
100
AcDbEntity
  8
PV
  6
Continuous
 62
     7
100
AcDbLine
 10
-60.0
 20
-130.0
 30
0.0
 11
-52.0
 21
-130.0
 31
0.0
  0
LINE
  5
265
330
A
100
AcDbEntity
  8
PV
  6
Continuous
 62
     7
100
AcDbLine
 10
-52.0
 20
-85.0
 30
0.0
 11
-52.0
 21
-130.0
 31
0.0
  0
LINE
  5
266
330
A
100
AcDbEntity
  8
PV
  6
Continuous
 62
     7
100
AcDbLine
 10
-60.0
 20
-40.0
 30
0.0
 11
-60.0
 21
-130.0
 31
0.0
  0
LINE
  5
267
330
A
100
AcDbEntity
  8
PV
  6
CENTER
 62
     7
100
AcDbLine
 10
-63.195
 20
-50.0
 30
0.0
 11
-48.299
 21
-50.0
 31
0.0
  0
LINE
  5
268
330
A
100
AcDbEntity
  8
PV
  6
Continuous
 62
     7
100
AcDbLine
 10
26.985
 20
-107.4999999999999
 30
0.0
 11
-26.949
 21
-107.4999999999999
 31
0.0
  0
LINE
  5
269
330
A
100
AcDbEntity
  8
PV
  6
Continuous
 62
     7
100
AcDbLine
 10
27.0
 20
-107.4999999999999
 30
0.0
 11
25.0
 21
-109.4999999999999
 31
0.0
  0
LINE
  5
26A
330
A
100
AcDbEntity
  8
PV
  6
Continuous
 62
     7
100
AcDbLine
 10
-27.0
 20
-107.4999999999999
 30
0.0
 11
-25.0
 21
-109.4999999999999
 31
0.0
  0
LINE
  5
26B
330
A
100
AcDbEntity
  8
PV
  6
Continuous
 62
     7
100
AcDbLine
 10
-29.5
 20
-42.04699999999999
 30
0.0
 11
-29.5
 21
-53.0
 31
0.0
  0
LINE
  5
26C
330
A
100
AcDbEntity
  8
PV
  6
Continuous
 62
     7
100
AcDbLine
 10
-29.5
 20
6.5
 30
0.0
 11
32.5
 21
6.5
 31
0.0
  0
LINE
  5
26D
330
A
100
AcDbEntity
  8
PV
  6
CENTER
 62
     7
100
AcDbLine
 10
-22.5
 20
10.16299999999999
 30
0.0
 11
-22.5
 21
-56.46399999999999
 31
0.0
  0
LINE
  5
26E
330
A
100
AcDbEntity
  8
PV
  6
Continuous
 62
     7
100
AcDbLine
 10
29.5
 20
6.346
 30
0.0
 11
29.5
 21
-42.0
 31
0.0
  0
LINE
  5
26F
330
A
100
AcDbEntity
  8
PV
  6
CENTER
 62
     7
100
AcDbLine
 10
22.5
 20
9.891
 30
0.0
 11
22.5
 21
-56.46399999999999
 31
0.0
  0
LINE
  5
270
330
A
100
AcDbEntity
  8
PV
  6
Continuous
 62
     7
100
AcDbLine
 10
24.0
 20
-42.20699999999999
 30
0.0
 11
24.0
 21
-53.0
 31
0.0
  0
LINE
  5
271
330
A
100
AcDbEntity
  8
PV
  6
Continuous
 62
     7
100
AcDbLine
 10
-24.0
 20
-42.20699999999999
 30
0.0
 11
-24.0
 21
-53.0
 31
0.0
  0
LINE
  5
272
330
A
100
AcDbEntity
  8
PV
  6
Continuous
 62
     7
100
AcDbLine
 10
-27.0
 20
-98.59999999999999
 30
0.0
 11
-27.0
 21
-107.4999999999999
 31
0.0
  0
LINE
  5
273
330
A
100
AcDbEntity
  8
PV
  6
Continuous
 62
     7
100
AcDbLine
 10
27.0
 20
-53.205
 30
0.0
 11
27.0
 21
-107.4999999999999
 31
0.0
  0
LINE
  5
274
330
A
100
AcDbEntity
  8
PV
  6
Continuous
 62
     7
100
AcDbLine
 10
-29.5
 20
6.346
 30
0.0
 11
-29.5
 21
-42.0
 31
0.0
  0
LINE
  5
275
330
A
100
AcDbEntity
  8
PV
  6
Continuous
 62
     7
100
AcDbLine
 10
30.0
 20
-42.04699999999999
 30
0.0
 11
30.0
 21
-53.0
 31
0.0
  0
LINE
  5
276
330
A
100
AcDbEntity
  8
PV
  6
Continuous
 62
     7
100
AcDbLine
 10
30.0
 20
-53.0
 30
0.0
 11
-29.5
 21
-53.0
 31
0.0
  0
LINE
  5
277
330
A
100
AcDbEntity
  8
PV
  6
Continuous
 62
     7
100
AcDbLine
 10
-27.0
 20
-52.997
 30
0.0
 11
-27.0
 21
-71.4
 31
0.0
  0
LINE
  5
278
330
A
100
AcDbEntity
  8
PV
  6
CENTER
 62
     7
100
AcDbLine
 10
35.271
 20
-31.5
 30
0.0
 11
22.318
 21
-31.5
 31
0.0
  0
LINE
  5
279
330
A
100
AcDbEntity
  8
PV
  6
CENTER
 62
     7
100
AcDbLine
 10
35.32
 20
-9.5
 30
0.0
 11
22.48299999999999
 21
-9.5
 31
0.0
  0
LINE
  5
27A
330
A
100
AcDbEntity
  8
PV
  6
Continuous
 62
     7
100
AcDbLine
 10
32.5
 20
6.5
 30
0.0
 11
32.5
 21
-42.0
 31
0.0
  0
LINE
  5
27B
330
A
100
AcDbEntity
  8
PV
  6
Continuous
 62
     7
100
AcDbLine
 10
-29.5
 20
-42.0
 30
0.0
 11
32.5
 21
-42.0
 31
0.0
  0
LINE
  5
27C
330
A
100
AcDbEntity
  8
PV
  6
Continuous
 62
     7
100
AcDbLine
 10
25.0
 20
-109.4999999999999
 30
0.0
 11
-25.0
 21
-109.4999999999999
 31
0.0
  0
LINE
  5
27D
330
A
100
AcDbEntity
  8
PV
  6
CENTER
 62
     7
100
AcDbLine
 10
0.0
 20
9.852
 30
0.0
 11
0.0
 21
-161.6479999999999
 31
0.0
  0
LINE
  5
27E
330
A
100
AcDbEntity
  8
PV
  6
Continuous
 62
     7
100
AcDbLine
 10
12.19999999999999
 20
-42.0
 30
0.0
 11
12.19999999999999
 21
6.457999999999999
 31
0.0
  0
LINE
  5
27F
330
A
100
AcDbEntity
  8
PV
  6
Continuous
 62
     7
100
AcDbLine
 10
7.799999999999999
 20
-41.793
 30
0.0
 11
7.799999999999999
 21
6.346
 31
0.0
  0
LINE
  5
280
330
A
100
AcDbEntity
  8
PV
  6
Continuous
 62
     7
100
AcDbLine
 10
-7.799999999999999
 20
-42.0
 30
0.0
 11
-7.799999999999999
 21
6.528999999999999
 31
0.0
  0
LINE
  5
281
330
A
100
AcDbEntity
  8
PV
  6
Continuous
 62
     7
100
AcDbLine
 10
-12.19999999999999
 20
-42.0
 30
0.0
 11
-12.19999999999999
 21
6.457999999999999
 31
0.0
  0
LINE
  5
282
330
A
100
AcDbEntity
  8
PV
  6
CENTER
 62
     7
100
AcDbLine
 10
-35.0
 20
-151.0229999999999
 30
0.0
 11
-35.0
 21
-128.562
 31
0.0
  0
LINE
  5
283
330
A
100
AcDbEntity
  8
PV
  6
CENTER
 62
     7
100
AcDbLine
 10
35.0
 20
-151.0229999999999
 30
0.0
 11
35.0
 21
-129.049
 31
0.0
  0
LINE
  5
284
330
A
100
AcDbEntity
  8
PV
  6
Continuous
 62
     7
100
AcDbLine
 10
-45.0
 20
-145.0
 30
0.0
 11
-45.0
 21
-137.0
 31
0.0
  0
LINE
  5
285
330
A
100
AcDbEntity
  8
PV
  6
Continuous
 62
     7
100
AcDbLine
 10
-45.0
 20
-137.0
 30
0.0
 11
0.0
 21
-137.0
 31
0.0
  0
LINE
  5
286
330
A
100
AcDbEntity
  8
PV
  6
Continuous
 62
     7
100
AcDbLine
 10
-13.6
 20
-137.0
 30
0.0
 11
-13.6
 21
-109.4999999999999
 31
0.0
  0
LINE
  5
287
330
A
100
AcDbEntity
  8
PV
  6
Continuous
 62
     7
100
AcDbLine
 10
13.6
 20
-137.0
 30
0.0
 11
13.6
 21
-109.4999999999999
 31
0.0
  0
LINE
  5
288
330
A
100
AcDbEntity
  8
PV
  6
Continuous
 62
     7
100
AcDbLine
 10
45.0
 20
-145.0
 30
0.0
 11
45.0
 21
-137.0
 31
0.0
  0
LINE
  5
289
330
A
100
AcDbEntity
  8
PV
  6
Continuous
 62
     7
100
AcDbLine
 10
0.0
 20
-137.0
 30
0.0
 11
45.0
 21
-137.0
 31
0.0
  0
LINE
  5
28A
330
A
100
AcDbEntity
  8
PV
  6
Continuous
 62
     7
100
AcDbLine
 10
-45.0
 20
-145.0
 30
0.0
 11
45.0
 21
-145.0
 31
0.0
  0
LINE
  5
28B
330
A
100
AcDbEntity
  8
PV
  6
CENTER
 62
     7
100
AcDbLine
 10
-75.337
 20
-85.0
 30
0.0
 11
-11.969
 21
-85.0
 31
0.0
  0
LINE
  5
28C
330
A
100
AcDbEntity
  8
PV
  6
CENTER
 62
     7
100
AcDbLine
 10
-63.386
 20
148.0059999999999
 30
0.0
 11
-47.60499999999999
 21
148.0059999999999
 31
0.0
  0
LINE
  5
28D
330
A
100
AcDbEntity
  8
PV
  6
CENTER
 62
     7
100
AcDbLine
 10
-62.62199999999999
 20
78.006
 30
0.0
 11
-47.86
 21
78.006
 31
0.0
  0
LINE
  5
28E
330
A
100
AcDbEntity
  8
PV
  6
Continuous
 62
     7
100
AcDbLine
 10
-60.0
 20
158.006
 30
0.0
 11
-52.0
 21
158.006
 31
0.0
  0
LINE
  5
28F
330
A
100
AcDbEntity
  8
PV
  6
Continuous
 62
     7
100
AcDbLine
 10
-52.0
 20
158.006
 30
0.0
 11
-52.0
 21
113.006
 31
0.0
  0
LINE
  5
290
330
A
100
AcDbEntity
  8
PV
  6
Continuous
 62
     7
100
AcDbLine
 10
-52.0
 20
126.606
 30
0.0
 11
-29.5
 21
126.606
 31
0.0
  0
LINE
  5
291
330
A
100
AcDbEntity
  8
PV
  6
Continuous
 62
     7
100
AcDbLine
 10
-52.0
 20
99.40600000000001
 30
0.0
 11
-29.5
 21
99.40600000000001
 31
0.0
  0
LINE
  5
292
330
A
100
AcDbEntity
  8
PV
  6
Continuous
 62
     7
100
AcDbLine
 10
-60.0
 20
68.006
 30
0.0
 11
-52.0
 21
68.006
 31
0.0
  0
LINE
  5
293
330
A
100
AcDbEntity
  8
PV
  6
Continuous
 62
     7
100
AcDbLine
 10
-52.0
 20
113.006
 30
0.0
 11
-52.0
 21
68.006
 31
0.0
  0
LINE
  5
294
330
A
100
AcDbEntity
  8
PV
  6
Continuous
 62
     7
100
AcDbLine
 10
-60.0
 20
158.006
 30
0.0
 11
-60.0
 21
68.006
 31
0.0
  0
LINE
  5
295
330
A
100
AcDbEntity
  8
PV
  6
CENTER
 62
     7
100
AcDbLine
 10
-66.34999999999999
 20
113.006
 30
0.0
 11
47.099
 21
113.006
 31
0.0
  0
LINE
  5
296
330
A
100
AcDbEntity
  8
PV
  6
Continuous
 62
     7
100
AcDbLine
 10
156.985
 20
-107.4999999999999
 30
0.0
 11
103.051
 21
-107.4999999999999
 31
0.0
  0
LINE
  5
297
330
A
100
AcDbEntity
  8
PV
  6
Continuous
 62
     7
100
AcDbLine
 10
157.0
 20
-107.4999999999999
 30
0.0
 11
155.0
 21
-109.4999999999999
 31
0.0
  0
LINE
  5
298
330
A
100
AcDbEntity
  8
PV
  6
Continuous
 62
     7
100
AcDbLine
 10
103.0
 20
-107.4999999999999
 30
0.0
 11
105.0
 21
-109.4999999999999
 31
0.0
  0
LINE
  5
299
330
A
100
AcDbEntity
  8
PV
  6
Continuous
 62
     7
100
AcDbLine
 10
100.5
 20
-42.04699999999999
 30
0.0
 11
100.5
 21
-53.0
 31
0.0
  0
LINE
  5
29A
330
A
100
AcDbEntity
  8
PV
  6
Continuous
 62
     7
100
AcDbLine
 10
100.5
 20
6.5
 30
0.0
 11
160.0
 21
6.5
 31
0.0
  0
LINE
  5
29B
330
A
100
AcDbEntity
  8
PV
  6
CENTER
 62
     7
100
AcDbLine
 10
107.4999999999999
 20
9.691
 30
0.0
 11
107.4999999999999
 21
-56.46399999999999
 31
0.0
  0
LINE
  5
29C
330
A
100
AcDbEntity
  8
PV
  6
CENTER
 62
     7
100
AcDbLine
 10
152.5
 20
9.892999999999998
 30
0.0
 11
152.5
 21
-56.46399999999999
 31
0.0
  0
LINE
  5
29D
330
A
100
AcDbEntity
  8
PV
  6
Continuous
 62
     7
100
AcDbLine
 10
154.0
 20
-42.0
 30
0.0
 11
154.0
 21
-53.0
 31
0.0
  0
LINE
  5
29E
330
A
100
AcDbEntity
  8
PV
  6
Continuous
 62
     7
100
AcDbLine
 10
106.0
 20
-42.0
 30
0.0
 11
106.0
 21
-53.0
 31
0.0
  0
LINE
  5
29F
330
A
100
AcDbEntity
  8
PV
  6
Continuous
 62
     7
100
AcDbLine
 10
157.0
 20
-53.205
 30
0.0
 11
157.0
 21
-107.4999999999999
 31
0.0
  0
LINE
  5
2A0
330
A
100
AcDbEntity
  8
PV
  6
Continuous
 62
     7
100
AcDbLine
 10
100.5
 20
6.346
 30
0.0
 11
100.5
 21
-42.0
 31
0.0
  0
LINE
  5
2A1
330
A
100
AcDbEntity
  8
PV
  6
Continuous
 62
     7
100
AcDbLine
 10
160.0
 20
6.5
 30
0.0
 11
160.0
 21
-53.0
 31
0.0
  0
LINE
  5
2A2
330
A
100
AcDbEntity
  8
PV
  6
Continuous
 62
     7
100
AcDbLine
 10
160.0
 20
-53.0
 30
0.0
 11
100.5
 21
-53.0
 31
0.0
  0
LINE
  5
2A3
330
A
100
AcDbEntity
  8
PV
  6
Continuous
 62
     7
100
AcDbLine
 10
103.0
 20
-52.997
 30
0.0
 11
103.0
 21
-107.4999999999999
 31
0.0
  0
LINE
  5
2A4
330
A
100
AcDbEntity
  8
PV
  6
CENTER
 62
     7
100
AcDbLine
 10
138.453
 20
-33.5
 30
0.0
 11
121.686
 21
-33.5
 31
0.0
  0
LINE
  5
2A5
330
A
100
AcDbEntity
  8
PV
  6
CENTER
 62
     7
100
AcDbLine
 10
138.453
 20
-9.0
 30
0.0
 11
121.5629999999999
 21
-9.0
 31
0.0
  0
LINE
  5
2A6
330
A
100
AcDbEntity
  8
PV
  6
Continuous
 62
     7
100
AcDbLine
 10
100.5
 20
-42.0
 30
0.0
 11
160.0
 21
-42.0
 31
0.0
  0
LINE
  5
2A7
330
A
100
AcDbEntity
  8
PV
  6
Continuous
 62
     7
100
AcDbLine
 10
155.0
 20
-109.4999999999999
 30
0.0
 11
105.0
 21
-109.4999999999999
 31
0.0
  0
LINE
  5
2A8
330
A
100
AcDbEntity
  8
PV
  6
CENTER
 62
     7
100
AcDbLine
 10
130.0
 20
12.185
 30
0.0
 11
130.0
 21
-150.1479999999999
 31
0.0
  0
LINE
  5
2A9
330
A
100
AcDbEntity
  8
PV
  6
CENTER
 62
     7
100
AcDbLine
 10
95.0
 20
-151.0229999999999
 30
0.0
 11
95.0
 21
-128.562
 31
0.0
  0
LINE
  5
2AA
330
A
100
AcDbEntity
  8
PV
  6
CENTER
 62
     7
100
AcDbLine
 10
165.0
 20
-151.0229999999999
 30
0.0
 11
165.0
 21
-129.049
 31
0.0
  0
LINE
  5
2AB
330
A
100
AcDbEntity
  8
PV
  6
CENTER
 62
     7
100
AcDbLine
 10
-114.3829999999999
 20
95.32899999999999
 30
0.0
 11
-128.525
 21
81.187
 31
0.0
  0
LINE
  5
2AC
330
A
100
AcDbEntity
  8
PV
  6
CENTER
 62
     7
100
AcDbLine
 10
-114.3829999999999
 20
130.684
 30
0.0
 11
-128.525
 21
144.8259999999999
 31
0.0
  0
LINE
  5
2AD
330
A
100
AcDbEntity
  8
PV
  6
Continuous
 62
     7
100
AcDbLine
 10
85.0
 20
-145.0
 30
0.0
 11
85.0
 21
-137.0
 31
0.0
  0
LINE
  5
2AE
330
A
100
AcDbEntity
  8
PV
  6
Continuous
 62
     7
100
AcDbLine
 10
85.0
 20
-137.0
 30
0.0
 11
130.0
 21
-137.0
 31
0.0
  0
LINE
  5
2AF
330
A
100
AcDbEntity
  8
PV
  6
Continuous
 62
     7
100
AcDbLine
 10
116.4
 20
-137.0
 30
0.0
 11
116.4
 21
-109.4999999999999
 31
0.0
  0
LINE
  5
2B0
330
A
100
AcDbEntity
  8
PV
  6
Continuous
 62
     7
100
AcDbLine
 10
143.5999999999999
 20
-137.0
 30
0.0
 11
143.5999999999999
 21
-109.4999999999999
 31
0.0
  0
LINE
  5
2B1
330
A
100
AcDbEntity
  8
PV
  6
Continuous
 62
     7
100
AcDbLine
 10
175.0
 20
-145.0
 30
0.0
 11
175.0
 21
-137.0
 31
0.0
  0
LINE
  5
2B2
330
A
100
AcDbEntity
  8
PV
  6
Continuous
 62
     7
100
AcDbLine
 10
130.0
 20
-137.0
 30
0.0
 11
175.0
 21
-137.0
 31
0.0
  0
LINE
  5
2B3
330
A
100
AcDbEntity
  8
PV
  6
Continuous
 62
     7
100
AcDbLine
 10
85.0
 20
-145.0
 30
0.0
 11
175.0
 21
-145.0
 31
0.0
  0
LINE
  5
2B4
330
A
100
AcDbEntity
  8
PV
  6
CENTER
 62
     7
100
AcDbLine
 10
-148.455
 20
113.006
 30
0.0
 11
-92.016
 21
113.006
 31
0.0
  0
LINE
  5
2B5
330
A
100
AcDbEntity
  8
PV
  6
CENTER
 62
     7
100
AcDbLine
 10
-96.705
 20
162.8519999999999
 30
0.0
 11
-96.705
 21
58.006
 31
0.0
  0
LINE
  5
2B6
330
A
100
AcDbEntity
  8
PV
  6
CENTER
 62
     7
100
AcDbLine
 10
-17.50499999999999
 20
135.5059999999999
 30
0.0
 11
-26.784
 21
135.5059999999999
 31
0.0
  0
LINE
  5
2B7
330
A
100
AcDbEntity
  8
PV
  6
Continuous
 62
     7
100
AcDbLine
 10
6.4
 20
141.5059999999999
 30
0.0
 11
7.299999999999999
 21
141.5059999999999
 31
0.0
  0
LINE
  5
2B8
330
A
100
AcDbEntity
  8
PV
  6
Continuous
 62
     7
100
AcDbLine
 10
7.299999999999999
 20
142.506
 30
0.0
 11
7.299999999999999
 21
141.5059999999999
 31
0.0
  0
LINE
  5
2B9
330
A
100
AcDbEntity
  8
PV
  6
Continuous
 62
     7
100
AcDbLine
 10
11.69999999999999
 20
142.506
 30
0.0
 11
11.69999999999999
 21
141.5059999999999
 31
0.0
  0
LINE
  5
2BA
330
A
100
AcDbEntity
  8
PV
  6
Continuous
 62
     7
100
AcDbLine
 10
11.69999999999999
 20
141.5059999999999
 30
0.0
 11
12.6
 21
141.5059999999999
 31
0.0
  0
LINE
  5
2BB
330
A
100
AcDbEntity
  8
PV
  6
Continuous
 62
     7
100
AcDbLine
 10
12.6
 20
141.5059999999999
 30
0.0
 11
12.6
 21
137.806
 31
0.0
  0
LINE
  5
2BC
330
A
100
AcDbEntity
  8
PV
  6
Continuous
 62
     7
100
AcDbLine
 10
6.4
 20
137.806
 30
0.0
 11
12.6
 21
137.806
 31
0.0
  0
LINE
  5
2BD
330
A
100
AcDbEntity
  8
PV
  6
Continuous
 62
     7
100
AcDbLine
 10
6.4
 20
141.5059999999999
 30
0.0
 11
6.4
 21
137.806
 31
0.0
  0
LINE
  5
2BE
330
A
100
AcDbEntity
  8
PV
  6
Continuous
 62
     7
100
AcDbLine
 10
-11.19999999999999
 20
142.506
 30
0.0
 11
-11.19999999999999
 21
141.5059999999999
 31
0.0
  0
LINE
  5
2BF
330
A
100
AcDbEntity
  8
PV
  6
Continuous
 62
     7
100
AcDbLine
 10
-12.09999999999999
 20
141.5059999999999
 30
0.0
 11
-11.19999999999999
 21
141.5059999999999
 31
0.0
  0
LINE
  5
2C0
330
A
100
AcDbEntity
  8
PV
  6
Continuous
 62
     7
100
AcDbLine
 10
-6.799999999999999
 20
142.506
 30
0.0
 11
-6.799999999999999
 21
141.5059999999999
 31
0.0
  0
LINE
  5
2C1
330
A
100
AcDbEntity
  8
PV
  6
Continuous
 62
     7
100
AcDbLine
 10
-6.799999999999999
 20
141.5059999999999
 30
0.0
 11
-5.9
 21
141.5059999999999
 31
0.0
  0
LINE
  5
2C2
330
A
100
AcDbEntity
  8
PV
  6
Continuous
 62
     7
100
AcDbLine
 10
-5.9
 20
141.5059999999999
 30
0.0
 11
-5.9
 21
137.806
 31
0.0
  0
LINE
  5
2C3
330
A
100
AcDbEntity
  8
PV
  6
Continuous
 62
     7
100
AcDbLine
 10
-12.09999999999999
 20
137.806
 30
0.0
 11
-5.9
 21
137.806
 31
0.0
  0
LINE
  5
2C4
330
A
100
AcDbEntity
  8
PV
  6
Continuous
 62
     7
100
AcDbLine
 10
-12.09999999999999
 20
141.5059999999999
 30
0.0
 11
-12.09999999999999
 21
137.806
 31
0.0
  0
LINE
  5
2C5
330
A
100
AcDbEntity
  8
PV
  6
CENTER
 62
     7
100
AcDbLine
 10
29.0
 20
90.50600000000001
 30
0.0
 11
16.0
 21
90.50600000000001
 31
0.0
  0
LINE
  5
2C6
330
A
100
AcDbEntity
  8
PV
  6
CENTER
 62
     7
100
AcDbLine
 10
22.5
 20
97.00600000000001
 30
0.0
 11
22.5
 21
84.006
 31
0.0
  0
LINE
  5
2C7
330
A
100
AcDbEntity
  8
PV
  6
CENTER
 62
     7
100
AcDbLine
 10
22.5
 20
129.0059999999999
 30
0.0
 11
22.5
 21
142.006
 31
0.0
  0
LINE
  5
2C8
330
A
100
AcDbEntity
  8
PV
  6
CENTER
 62
     7
100
AcDbLine
 10
27.86
 20
135.5059999999999
 30
0.0
 11
17.40299999999999
 21
135.5059999999999
 31
0.0
  0
LINE
  5
2C9
330
A
100
AcDbEntity
  8
PV
  6
CENTER
 62
     7
100
AcDbLine
 10
-22.5
 20
129.0059999999999
 30
0.0
 11
-22.5
 21
142.006
 31
0.0
  0
LINE
  5
2CA
330
A
100
AcDbEntity
  8
PV
  6
CENTER
 62
     7
100
AcDbLine
 10
-29.0
 20
90.50600000000001
 30
0.0
 11
-16.0
 21
90.50600000000001
 31
0.0
  0
LINE
  5
2CB
330
A
100
AcDbEntity
  8
PV
  6
CENTER
 62
     7
100
AcDbLine
 10
-22.5
 20
97.00600000000001
 30
0.0
 11
-22.5
 21
84.006
 31
0.0
  0
LINE
  5
2CC
330
A
100
AcDbEntity
  8
PV
  6
CENTER
 62
     7
100
AcDbLine
 10
0.0
 20
160.2479999999999
 30
0.0
 11
0.0
 21
64.52899999999999
 31
0.0
  0
LINE
  5
2CD
330
A
100
AcDbEntity
  8
PV
  6
Continuous
 62
     7
100
AcDbLine
 10
29.5
 20
99.50600000000001
 30
0.0
 11
29.5
 21
87.49700000000002
 31
0.0
  0
LINE
  5
2CE
330
A
100
AcDbEntity
  8
PV
  6
Continuous
 62
     7
100
AcDbLine
 10
25.51
 20
142.506
 30
0.0
 11
-25.51
 21
142.506
 31
0.0
  0
LINE
  5
2CF
330
A
100
AcDbEntity
  8
PV
  6
Continuous
 62
     7
100
AcDbLine
 10
25.51
 20
83.506
 30
0.0
 11
-25.51
 21
83.506
 31
0.0
  0
LINE
  5
2D0
330
A
100
AcDbEntity
  8
PV
  6
Continuous
 62
     7
100
AcDbLine
 10
29.5
 20
138.5159999999999
 30
0.0
 11
29.5
 21
126.506
 31
0.0
  0
LINE
  5
2D1
330
A
100
AcDbEntity
  8
PV
  6
Continuous
 62
     7
100
AcDbLine
 10
-29.5
 20
138.5159999999999
 30
0.0
 11
-29.5
 21
87.49700000000002
 31
0.0
  0
LINE
  5
2D2
330
A
100
AcDbEntity
  8
PV
  6
Continuous
 62
     7
100
AcDbLine
 10
32.5
 20
124.506
 30
0.0
 11
32.5
 21
101.506
 31
0.0
  0
LINE
  5
2D3
330
A
100
AcDbEntity
  8
PV
  6
Continuous
 62
     7
100
AcDbLine
 10
30.359
 20
99.50600000000001
 30
0.0
 11
29.365
 21
99.50600000000001
 31
0.0
  0
LINE
  5
2D4
330
A
100
AcDbEntity
  8
PV
  6
Continuous
 62
     7
100
AcDbLine
 10
30.472
 20
126.506
 30
0.0
 11
29.34099999999999
 21
126.506
 31
0.0
  0
LINE
  5
2D5
330
A
100
AcDbEntity
  8
PV
  6
Continuous
 62
     7
100
AcDbLine
 10
5.9
 20
88.206
 30
0.0
 11
12.09999999999999
 21
88.206
 31
0.0
  0
LINE
  5
2D6
330
A
100
AcDbEntity
  8
PV
  6
Continuous
 62
     7
100
AcDbLine
 10
11.19999999999999
 20
83.506
 30
0.0
 11
11.19999999999999
 21
84.50599999999999
 31
0.0
  0
LINE
  5
2D7
330
A
100
AcDbEntity
  8
PV
  6
Continuous
 62
     7
100
AcDbLine
 10
11.19999999999999
 20
84.50599999999999
 30
0.0
 11
12.09999999999999
 21
84.50599999999999
 31
0.0
  0
LINE
  5
2D8
330
A
100
AcDbEntity
  8
PV
  6
Continuous
 62
     7
100
AcDbLine
 10
12.09999999999999
 20
84.50599999999999
 30
0.0
 11
12.09999999999999
 21
88.206
 31
0.0
  0
LINE
  5
2D9
330
A
100
AcDbEntity
  8
PV
  6
Continuous
 62
     7
100
AcDbLine
 10
6.799999999999999
 20
83.506
 30
0.0
 11
6.799999999999999
 21
84.50599999999999
 31
0.0
  0
LINE
  5
2DA
330
A
100
AcDbEntity
  8
PV
  6
Continuous
 62
     7
100
AcDbLine
 10
5.9
 20
84.50599999999999
 30
0.0
 11
6.799999999999999
 21
84.50599999999999
 31
0.0
  0
LINE
  5
2DB
330
A
100
AcDbEntity
  8
PV
  6
Continuous
 62
     7
100
AcDbLine
 10
5.9
 20
84.50599999999999
 30
0.0
 11
5.9
 21
88.206
 31
0.0
  0
LINE
  5
2DC
330
A
100
AcDbEntity
  8
PV
  6
Continuous
 62
     7
100
AcDbLine
 10
-5.9
 20
84.50599999999999
 30
0.0
 11
-5.9
 21
88.206
 31
0.0
  0
LINE
  5
2DD
330
A
100
AcDbEntity
  8
PV
  6
Continuous
 62
     7
100
AcDbLine
 10
-6.799999999999999
 20
83.506
 30
0.0
 11
-6.799999999999999
 21
84.50599999999999
 31
0.0
  0
LINE
  5
2DE
330
A
100
AcDbEntity
  8
PV
  6
Continuous
 62
     7
100
AcDbLine
 10
-6.799999999999999
 20
84.50599999999999
 30
0.0
 11
-5.9
 21
84.50599999999999
 31
0.0
  0
LINE
  5
2DF
330
A
100
AcDbEntity
  8
PV
  6
Continuous
 62
     7
100
AcDbLine
 10
-11.19999999999999
 20
83.506
 30
0.0
 11
-11.19999999999999
 21
84.50599999999999
 31
0.0
  0
LINE
  5
2E0
330
A
100
AcDbEntity
  8
PV
  6
Continuous
 62
     7
100
AcDbLine
 10
-12.09999999999999
 20
84.50599999999999
 30
0.0
 11
-11.19999999999999
 21
84.50599999999999
 31
0.0
  0
LINE
  5
2E1
330
A
100
AcDbEntity
  8
PV
  6
Continuous
 62
     7
100
AcDbLine
 10
-12.09999999999999
 20
84.50599999999999
 30
0.0
 11
-12.09999999999999
 21
88.206
 31
0.0
  0
LINE
  5
2E2
330
A
100
AcDbEntity
  8
PV
  6
Continuous
 62
     7
100
AcDbLine
 10
-12.09999999999999
 20
88.206
 30
0.0
 11
-5.9
 21
88.206
 31
0.0
  0
ENDSEC
  0
SECTION
  2
OBJECTS
  0
DICTIONARY
  5
19
330
0
100
AcDbDictionary
281
     1
  3
ACAD_GROUP
350
1A
  3
ACAD_LAYOUT
350
1E
  3
ACAD_MLINESTYLE
350
1B
  3
ACAD_PLOTSETTINGS
350
22
  3
ACAD_PLOTSTYLENAME
350
1F
  0
DICTIONARY
  5
1A
102
{ACAD_REACTORS
330
19
102
}
330
19
100
AcDbDictionary
281
     1
  0
DICTIONARY
  5
1E
102
{ACAD_REACTORS
330
19
102
}
330
19
100
AcDbDictionary
281
     1
  3
Layout1
350
21
  3
Model
350
20
  0
DICTIONARY
  5
1B
102
{ACAD_REACTORS
330
19
102
}
330
19
100
AcDbDictionary
281
     1
  3
Standard
350
1C
  0
DICTIONARY
  5
22
102
{ACAD_REACTORS
330
19
102
}
330
19
100
AcDbDictionary
281
     1
  0
ACDBDICTIONARYWDFLT
  5
1F
102
{ACAD_REACTORS
330
19
102
}
330
19
100
AcDbDictionary
281
     1
  3
Normal
350
1D
100
AcDbDictionaryWithDefault
340
1D
  0
LAYOUT
  5
21
102
{ACAD_REACTORS
330
1E
102
}
330
1E
100
AcDbPlotSettings
  1

  2

  4

  6

 40
0.0
 41
0.0
 42
0.0
 43
0.0
 44
0.0
 45
0.0
 46
0.0
 47
0.0
 48
0.0
 49
0.0
140
0.0
141
0.0
142
1.0
143
1.0
 70
     0
 72
     0
 73
     0
 74
     0
  7

 75
     0
147
1.0
148
0.0
149
0.0
100
AcDbLayout
  1
Layout1
 70
     0
 71
     1
 10
0.0
 20
0.0
 11
12.0
 21
9.0
 12
0.0
 22
0.0
 32
0.0
 14
1.000000000000000E+20
 24
1.000000000000000E+20
 34
1.000000000000000E+20
 15
-1.000000000000000E+20
 25
-1.000000000000000E+20
 35
-1.000000000000000E+20
146
0.0
 13
0.0
 23
0.0
 33
0.0
 16
1.0
 26
0.0
 36
0.0
 17
0.0
 27
1.0
 37
0.0
 76
     0
330
B
  0
LAYOUT
  5
20
102
{ACAD_REACTORS
330
1E
102
}
330
1E
100
AcDbPlotSettings
  1

  2
Adobe PDF
  4
A3
  6

 40
3.174999952316284
 41
3.174999952316284
 42
3.17498779296875
 43
3.17498779296875
 44
297.0318298339843
 45
420.1583251953125
 46
0.0
 47
64.77
 48
0.0
 49
0.0
140
0.0
141
0.0
142
1.0
143
1.224616111010392
 70
 11284
 72
     1
 73
     1
 74
     2
  7

 75
     0
147
0.8165824302073989
148
152.5616569999999
149
172.805
100
AcDbLayout
  1
Model
 70
     0
 71
     0
 10
0.0
 20
0.0
 11
0.0
 21
0.0
 12
0.0
 22
0.0
 32
0.0
 14
0.0
 24
0.0
 34
0.0
 15
0.0
 25
0.0
 35
0.0
146
0.0
 13
0.0
 23
0.0
 33
0.0
 16
0.0
 26
0.0
 36
0.0
 17
0.0
 27
0.0
 37
0.0
 76
     0
330
A
  0
MLINESTYLE
  5
1C
102
{ACAD_REACTORS
330
1B
102
}
330
1B
100
AcDbMlineStyle
  2
STANDARD
 70
     0
  3

 62
     0
 51
90.0
 52
90.0
 71
     2
 49
0.5
 62
   256
  6
BYLAYER
 49
-0.5
 62
   256
  6
BYLAYER
  0
ACDBPLACEHOLDER
  5
1D
102
{ACAD_REACTORS
330
1F
102
}
330
1F
  0
ENDSEC
  0
EOF
