  0
SECTION
  2
HEADER
  9
$ACADVER
  1
AC1015
  9
$ACADMAINTVER
 70
    10
  9
$DWGCODEPAGE
  3
ANSI_932
  9
$INSBASE
 10
0.0
 20
0.0
 30
0.0
  9
$EXTMIN
 10
-118.0545095176443
 20
-197.3681877667783
 30
-0.0015258207003583
  9
$EXTMAX
 10
76.13001143279007
 20
184.7150551379454
 30
0.0000000349246037
  9
$LIMMIN
 10
-120.843602
 20
-197.3564439999999
  9
$LIMMAX
 10
76.124
 20
187.4926669999999
  9
$ORTHOMODE
 70
     0
  9
$REGENMODE
 70
     1
  9
$FILLMODE
 70
     1
  9
$QTEXTMODE
 70
     0
  9
$MIRRTEXT
 70
     1
  9
$LTSCALE
 40
1.0
  9
$ATTMODE
 70
     1
  9
$TEXTSIZE
 40
3.2
  9
$TRACEWID
 40
0.05
  9
$TEXTSTYLE
  7
MX_NOTE_STANDARD
  9
$CLAYER
  8
0
  9
$CELTYPE
  6
CONTINUOUS
  9
$CECOLOR
 62
   256
  9
$CELTSCALE
 40
1.0
  9
$DISPSILH
 70
     0
  9
$DIMSCALE
 40
1.0
  9
$DIMASZ
 40
2.5
  9
$DIMEXO
 40
2.54
  9
$DIMDLI
 40
3.75
  9
$DIMRND
 40
0.0
  9
$DIMDLE
 40
0.0
  9
$DIMEXE
 40
2.286
  9
$DIMTP
 40
0.0
  9
$DIMTM
 40
0.0
  9
$DIMTXT
 40
3.2
  9
$DIMCEN
 40
2.5
  9
$DIMTSZ
 40
0.0
  9
$DIMTOL
 70
     0
  9
$DIMLIM
 70
     0
  9
$DIMTIH
 70
     0
  9
$DIMTOH
 70
     0
  9
$DIMSE1
 70
     0
  9
$DIMSE2
 70
     0
  9
$DIMTAD
 70
     1
  9
$DIMZIN
 70
     8
  9
$DIMBLK
  1

  9
$DIMASO
 70
     1
  9
$DIMSHO
 70
     1
  9
$DIMPOST
  1

  9
$DIMAPOST
  1

  9
$DIMALT
 70
     0
  9
$DIMALTD
 70
     4
  9
$DIMALTF
 40
0.03937
  9
$DIMLFAC
 40
1.0
  9
$DIMTOFL
 70
     1
  9
$DIMTVP
 40
0.0
  9
$DIMTIX
 70
     0
  9
$DIMSOXD
 70
     0
  9
$DIMSAH
 70
     1
  9
$DIMBLK1
  1
OPEN30
  9
$DIMBLK2
  1
OPEN30
  9
$DIMSTYLE
  2
MXDIMSTYLE
  9
$DIMCLRD
 70
     0
  9
$DIMCLRE
 70
     0
  9
$DIMCLRT
 70
     0
  9
$DIMTFAC
 40
1.0
  9
$DIMGAP
 40
1.0
  9
$DIMJUST
 70
     0
  9
$DIMSD1
 70
     0
  9
$DIMSD2
 70
     0
  9
$DIMTOLJ
 70
     0
  9
$DIMTZIN
 70
     0
  9
$DIMALTZ
 70
     0
  9
$DIMALTTZ
 70
     0
  9
$DIMUPT
 70
     1
  9
$DIMDEC
 70
     2
  9
$DIMTDEC
 70
     2
  9
$DIMALTU
 70
     2
  9
$DIMALTTD
 70
     4
  9
$DIMTXSTY
  7
MX_NOTE_STANDARD
  9
$DIMAUNIT
 70
     0
  9
$DIMADEC
 70
     0
  9
$DIMALTRND
 40
0.0
  9
$DIMAZIN
 70
     0
  9
$DIMDSEP
 70
    46
  9
$DIMATFIT
 70
     3
  9
$DIMFRAC
 70
     0
  9
$DIMLDRBLK
  1
OPEN30
  9
$DIMLUNIT
 70
     2
  9
$DIMLWD
 70
    -2
  9
$DIMLWE
 70
    -2
  9
$DIMTMOVE
 70
     0
  9
$LUNITS
 70
     2
  9
$LUPREC
 70
     4
  9
$SKETCHINC
 40
0.1
  9
$FILLETRAD
 40
0.0
  9
$AUNITS
 70
     0
  9
$AUPREC
 70
     0
  9
$MENU
  1
acad
  9
$ELEVATION
 40
0.0
  9
$PELEVATION
 40
0.0
  9
$THICKNESS
 40
0.0
  9
$LIMCHECK
 70
     0
  9
$CHAMFERA
 40
0.0
  9
$CHAMFERB
 40
0.0
  9
$CHAMFERC
 40
0.0
  9
$CHAMFERD
 40
0.0
  9
$SKPOLY
 70
     0
  9
$TDCREATE
 40
2455289.419691516
  9
$TDUCREATE
 40
2455289.044691516
  9
$TDUPDATE
 40
2455289.420860625
  9
$TDUUPDATE
 40
2455289.045860625
  9
$TDINDWG
 40
0.0011700231
  9
$TDUSRTIMER
 40
0.0011700231
  9
$USRTIMER
 70
     1
  9
$ANGBASE
 50
0.0
  9
$ANGDIR
 70
     0
  9
$PDMODE
 70
     0
  9
$PDSIZE
 40
0.0
  9
$PLINEWID
 40
0.0
  9
$SPLFRAME
 70
     0
  9
$SPLINETYPE
 70
     6
  9
$SPLINESEGS
 70
     8
  9
$HANDSEED
  5
6BF
  9
$SURFTAB1
 70
     6
  9
$SURFTAB2
 70
     6
  9
$SURFTYPE
 70
     6
  9
$SURFU
 70
     6
  9
$SURFV
 70
     6
  9
$UCSBASE
  2

  9
$UCSNAME
  2

  9
$UCSORG
 10
0.0
 20
0.0
 30
0.0
  9
$UCSXDIR
 10
1.0
 20
0.0
 30
0.0
  9
$UCSYDIR
 10
0.0
 20
1.0
 30
0.0
  9
$UCSORTHOREF
  2

  9
$UCSORTHOVIEW
 70
     0
  9
$UCSORGTOP
 10
0.0
 20
0.0
 30
0.0
  9
$UCSORGBOTTOM
 10
0.0
 20
0.0
 30
0.0
  9
$UCSORGLEFT
 10
0.0
 20
0.0
 30
0.0
  9
$UCSORGRIGHT
 10
0.0
 20
0.0
 30
0.0
  9
$UCSORGFRONT
 10
0.0
 20
0.0
 30
0.0
  9
$UCSORGBACK
 10
0.0
 20
0.0
 30
0.0
  9
$PUCSBASE
  2

  9
$PUCSNAME
  2

  9
$PUCSORG
 10
0.0
 20
0.0
 30
0.0
  9
$PUCSXDIR
 10
1.0
 20
0.0
 30
0.0
  9
$PUCSYDIR
 10
0.0
 20
1.0
 30
0.0
  9
$PUCSORTHOREF
  2

  9
$PUCSORTHOVIEW
 70
     0
  9
$PUCSORGTOP
 10
0.0
 20
0.0
 30
0.0
  9
$PUCSORGBOTTOM
 10
0.0
 20
0.0
 30
0.0
  9
$PUCSORGLEFT
 10
0.0
 20
0.0
 30
0.0
  9
$PUCSORGRIGHT
 10
0.0
 20
0.0
 30
0.0
  9
$PUCSORGFRONT
 10
0.0
 20
0.0
 30
0.0
  9
$PUCSORGBACK
 10
0.0
 20
0.0
 30
0.0
  9
$USERI1
 70
     0
  9
$USERI2
 70
     0
  9
$USERI3
 70
     0
  9
$USERI4
 70
     0
  9
$USERI5
 70
     0
  9
$USERR1
 40
0.0
  9
$USERR2
 40
0.0
  9
$USERR3
 40
0.0
  9
$USERR4
 40
0.0
  9
$USERR5
 40
0.0
  9
$WORLDVIEW
 70
     1
  9
$SHADEDGE
 70
     3
  9
$SHADEDIF
 70
    70
  9
$TILEMODE
 70
     1
  9
$MAXACTVP
 70
    16
  9
$PINSBASE
 10
0.0
 20
0.0
 30
0.0
  9
$PLIMCHECK
 70
     0
  9
$PEXTMIN
 10
1.000000000000000E+20
 20
1.000000000000000E+20
 30
1.000000000000000E+20
  9
$PEXTMAX
 10
-1.000000000000000E+20
 20
-1.000000000000000E+20
 30
-1.000000000000000E+20
  9
$PLIMMIN
 10
0.0
 20
0.0
  9
$PLIMMAX
 10
12.0
 20
9.0
  9
$UNITMODE
 70
     0
  9
$VISRETAIN
 70
     0
  9
$PLINEGEN
 70
     1
  9
$PSLTSCALE
 70
     0
  9
$TREEDEPTH
 70
  3020
  9
$CMLSTYLE
  2
Standard
  9
$CMLJUST
 70
     0
  9
$CMLSCALE
 40
1.0
  9
$PROXYGRAPHICS
 70
     0
  9
$MEASUREMENT
 70
     1
  9
$CELWEIGHT
370
     0
  9
$ENDCAPS
280
     0
  9
$JOINSTYLE
280
     0
  9
$LWDISPLAY
290
     0
  9
$INSUNITS
 70
     0
  9
$HYPERLINKBASE
  1

  9
$STYLESHEET
  1

  9
$XEDIT
290
     1
  9
$CEPSNTYPE
380
     0
  9
$PSTYLEMODE
290
     1
  9
$FINGERPRINTGUID
  2

  9
$VERSIONGUID
  2
{9A01701B-C6F7-49E6-B6B5-DAFFE920E748}
  9
$EXTNAMES
290
     1
  9
$PSVPSCALE
 40
0.0
  9
$OLESTARTUP
290
     0
  0
ENDSEC
  0
SECTION
  2
CLASSES
  0
CLASS
  1
LWPOLYLINE
  2
AcDbPolyline
  3
AutoCAD 2000
 90
    32768
280
     0
281
     1
  0
CLASS
  1
IMAGE
  2
AcDbRasterImage
  3
ISM
 90
    32895
280
     0
281
     1
  0
CLASS
  1
OLE2FRAME
  2
AcDbOle2Frame
  3
AutoCAD 2000
 90
    32768
280
     0
281
     1
  0
CLASS
  1
HATCH
  2
AcDbHatch
  3
AutoCAD 2000
 90
    32768
280
     0
281
     1
  0
CLASS
  1
DICTIONARYVAR
  2
AcDbDictionaryVar
  3
AutoCAD 2000
 90
    32768
280
     0
281
     0
  0
CLASS
  1
RASTERVARIABLES
  2
AcDbRasterVariables
  3
ISM
 90
    32768
280
     0
281
     0
  0
CLASS
  1
IMAGEDEF
  2
AcDbRasterImageDef
  3
ISM
 90
    32768
280
     0
281
     0
  0
CLASS
  1
IMAGEDEF_REACTOR
  2
AcDbRasterImageDefReactor
  3
ISM
 90
    32769
280
     0
281
     0
  0
CLASS
  1
IDBUFFER
  2
AcDbIdBuffer
  3
AutoCAD 2000
 90
    32768
280
     0
281
     0
  0
CLASS
  1
SPATIAL_FILTER
  2
AcDbSpatialFilter
  3
AutoCAD 2000
 90
    32768
280
     0
281
     0
  0
CLASS
  1
XRECORD
  2
AcDbXrecord
  3
AutoCAD 2000
 90
    32768
280
     0
281
     0
  0
CLASS
  1
SORTENTSTABLE
  2
AcDbSortentsTable
  3
AutoCAD 2000
 90
    32768
280
     0
281
     0
  0
CLASS
  1
LAYER_INDEX
  2
AcDbLayerIndex
  3
AutoCAD 2000
 90
    32768
280
     0
281
     0
  0
CLASS
  1
SPATIAL_INDEX
  2
AcDbSpatialIndex
  3
AutoCAD 2000
 90
    32768
280
     0
281
     0
  0
CLASS
  1
OBJECT_PTR
  2
CAseDLPNTableRecord
  3
"ASE-LPNTableRecord"
 90
    32769
280
     0
281
     0
  0
CLASS
  1
LAYOUT
  2
AcDbLayout
  3
AutoCAD 2000
 90
        0
280
     0
281
     0
  0
CLASS
  1
PLOTSETTINGS
  2
AcDbPlotSettings
  3
AutoCAD 2000
 90
    32768
280
     0
281
     0
  0
CLASS
  1
ACDBDICTIONARYWDFLT
  2
AcDbDictionaryWithDefault
  3
AutoCAD 2000
 90
        0
280
     0
281
     0
  0
CLASS
  1
ACDBPLACEHOLDER
  2
AcDbPlaceHolder
  3
AutoCAD 2000
 90
        0
280
     0
281
     0
  0
ENDSEC
  0
SECTION
  2
TABLES
  0
TABLE
  2
VPORT
  5
7
330
0
100
AcDbSymbolTable
 70
     2
  0
VPORT
  5
6BE
330
7
100
AcDbSymbolTableRecord
100
AcDbViewportTableRecord
  2
*Active
 70
     0
 10
0.0
 20
0.0
 11
1.0
 21
1.0
 12
-22.359801
 22
19.91505379962385
 13
0.0
 23
0.0
 14
1.0
 24
1.0
 15
0.0
 25
0.0
 16
0.0
 26
0.0
 36
1.0
 17
0.0
 27
0.0
 37
0.0
 40
438.3914875992477
 41
1.535714285714285
 42
50.0
 43
0.0
 44
0.0
 50
0.0
 51
0.0
 71
     0
 72
   100
 73
     1
 74
     1
 75
     0
 76
     0
 77
     0
 78
     0
281
     0
 65
     0
110
0.0
120
0.0
130
0.0
111
1.0
121
0.0
131
0.0
112
0.0
122
1.0
132
0.0
 79
     0
146
0.0
  0
ENDTAB
  0
TABLE
  2
LTYPE
  5
4
330
0
100
AcDbSymbolTable
 70
     4
  0
LTYPE
  5
11
330
4
100
AcDbSymbolTableRecord
100
AcDbLinetypeTableRecord
  2
BYBLOCK
 70
     0
  3

 72
    65
 73
     0
 40
0.0
  0
LTYPE
  5
12
330
4
100
AcDbSymbolTableRecord
100
AcDbLinetypeTableRecord
  2
BYLAYER
 70
     0
  3

 72
    65
 73
     0
 40
0.0
  0
LTYPE
  5
13
330
4
100
AcDbSymbolTableRecord
100
AcDbLinetypeTableRecord
  2
CONTINUOUS
 70
     0
  3
Solid line
 72
    65
 73
     0
 40
0.0
  0
LTYPE
  5
3B
330
4
100
AcDbSymbolTableRecord
100
AcDbLinetypeTableRecord
  2
CENTER
 70
     0
  3
Center ____ _ ____ _ ____ _ ____ _ ____ _ ____
 72
    65
 73
     4
 40
50.8
 49
31.75
 74
     0
 49
-6.349999999999999
 74
     0
 49
6.349999999999999
 74
     0
 49
-6.349999999999999
 74
     0
  0
LTYPE
  5
82
330
4
100
AcDbSymbolTableRecord
100
AcDbLinetypeTableRecord
  2
PHANTOM
 70
     0
  3
Phantom ______  __  __  ______  __  __  ______
 72
    65
 73
     6
 40
63.5
 49
31.75
 74
     0
 49
-6.349999999999999
 74
     0
 49
6.349999999999999
 74
     0
 49
-6.349999999999999
 74
     0
 49
6.349999999999999
 74
     0
 49
-6.349999999999999
 74
     0
  0
LTYPE
  5
8A
330
4
100
AcDbSymbolTableRecord
100
AcDbLinetypeTableRecord
  2
DASHED
 70
     0
  3
Dashed __ __ __ __ __ __ __ __ __ __ __ __ __ _
 72
    65
 73
     2
 40
19.05
 49
12.7
 74
     0
 49
-6.349999999999999
 74
     0
  0
ENDTAB
  0
TABLE
  2
LAYER
  5
2
330
0
100
AcDbSymbolTable
 70
     4
  0
LAYER
  5
14
330
2
100
AcDbSymbolTableRecord
100
AcDbLayerTableRecord
  2
0
 70
     0
 62
     7
  6
CONTINUOUS
370
    -3
390
1D
  0
LAYER
  5
23
330
2
100
AcDbSymbolTableRecord
100
AcDbLayerTableRecord
  2
DEFPOINTS
 70
     0
 62
     7
  6
CONTINUOUS
290
     0
370
    -3
390
1D
  0
LAYER
  5
24
330
2
100
AcDbSymbolTableRecord
100
AcDbLayerTableRecord
  2
PV
 70
     0
 62
     7
  6
CONTINUOUS
370
    -3
390
1D
  0
LAYER
  5
25
330
2
100
AcDbSymbolTableRecord
100
AcDbLayerTableRecord
  2
WV
 70
     0
 62
     7
  6
CONTINUOUS
370
    -3
390
1D
  0
ENDTAB
  0
TABLE
  2
STYLE
  5
3
330
0
100
AcDbSymbolTable
 70
     3
  0
STYLE
  5
17
330
3
100
AcDbSymbolTableRecord
100
AcDbTextStyleTableRecord
  2
MX_NOTE_STANDARD
 70
     0
 40
0.0
 41
1.0
 50
0.0
 71
     0
 42
3.2
  3
txt.shx
  4
extfont.shx
  0
STYLE
  5
33
330
3
100
AcDbSymbolTableRecord
100
AcDbTextStyleTableRecord
  2
MX_DIMTXSTY_2
 70
     0
 40
0.0
 41
1.1
 50
0.0
 71
     0
 42
3.2
  3
txt.shx
  4
extfont.shx
  0
STYLE
  5
6BA
330
3
100
AcDbSymbolTableRecord
100
AcDbTextStyleTableRecord
  2
Standard
 70
     0
 40
0.0
 41
1.0
 50
0.0
 71
     0
 42
0.2
  3

  4

  0
ENDTAB
  0
TABLE
  2
VIEW
  5
5
330
0
100
AcDbSymbolTable
 70
     0
  0
ENDTAB
  0
TABLE
  2
UCS
  5
6
330
0
100
AcDbSymbolTable
 70
     0
  0
ENDTAB
  0
TABLE
  2
APPID
  5
8
330
0
100
AcDbSymbolTable
 70
     1
  0
APPID
  5
16
330
8
100
AcDbSymbolTableRecord
100
AcDbRegAppTableRecord
  2
ACAD
 70
     0
  0
ENDTAB
  0
TABLE
  2
DIMSTYLE
  5
9
330
0
100
AcDbSymbolTable
 70
     1
100
AcDbDimStyleTable
 71
     0
  0
DIMSTYLE
105
18
102
{ACAD_REACTORS
330
39
102
}
330
9
100
AcDbSymbolTableRecord
100
AcDbDimStyleTableRecord
  2
MXDIMSTYLE
 70
     0
 41
2.5
 42
2.54
 43
3.75
 44
2.286
 73
     0
 74
     0
 77
     1
 78
     8
140
3.2
141
2.5
143
0.03937
147
1.0
171
     4
172
     1
173
     1
271
     2
272
     2
274
     4
283
     0
288
     1
340
17
341
26
343
26
344
26
  0
ENDTAB
  0
TABLE
  2
BLOCK_RECORD
  5
1
330
0
100
AcDbSymbolTable
 70
     2
  0
BLOCK_RECORD
  5
A
330
1
100
AcDbSymbolTableRecord
100
AcDbBlockTableRecord
  2
*MODEL_SPACE
340
20
  0
BLOCK_RECORD
  5
B
330
1
100
AcDbSymbolTableRecord
100
AcDbBlockTableRecord
  2
*PAPER_SPACE
340
21
  0
BLOCK_RECORD
  5
26
330
1
100
AcDbSymbolTableRecord
100
AcDbBlockTableRecord
  2
_OPEN30
340
0
102
{BLKREFS
331
31
331
32
102
}
  0
BLOCK_RECORD
  5
2C
330
1
100
AcDbSymbolTableRecord
100
AcDbBlockTableRecord
  2
*D1
340
0
  0
ENDTAB
  0
ENDSEC
  0
SECTION
  2
BLOCKS
  0
BLOCK
  5
D
330
A
100
AcDbEntity
  8
0
100
AcDbBlockBegin
  2
*MODEL_SPACE
 70
     0
 10
0.0
 20
0.0
 30
0.0
  3
*MODEL_SPACE
  1

  0
ENDBLK
  5
E
330
A
100
AcDbEntity
  8
0
100
AcDbBlockEnd
  0
BLOCK
  5
F
330
B
100
AcDbEntity
 67
     1
  8
0
100
AcDbBlockBegin
  2
*PAPER_SPACE
 70
     0
 10
0.0
 20
0.0
 30
0.0
  3
*PAPER_SPACE
  1

  0
ENDBLK
  5
10
330
B
100
AcDbEntity
 67
     1
  8
0
100
AcDbBlockEnd
  0
BLOCK
  5
27
330
26
100
AcDbEntity
  8
0
  6
ByBlock
 62
     0
370
    -2
100
AcDbBlockBegin
  2
_OPEN30
 70
     2
 10
0.0
 20
0.0
 30
0.0
  3
_OPEN30
  1

  0
LINE
  5
28
330
26
100
AcDbEntity
  8
0
  6
ByBlock
 62
     0
370
    -2
100
AcDbLine
 10
-1.0
 20
0.267949
 30
0.0
 11
0.0
 21
0.0
 31
0.0
  0
LINE
  5
29
330
26
100
AcDbEntity
  8
0
  6
ByBlock
 62
     0
370
    -2
100
AcDbLine
 10
0.0
 20
0.0
 30
0.0
 11
-1.0
 21
-0.267949
 31
0.0
  0
LINE
  5
2A
330
26
100
AcDbEntity
  8
0
  6
ByBlock
 62
     0
370
    -2
100
AcDbLine
 10
0.0
 20
0.0
 30
0.0
 11
-1.0
 21
0.0
 31
0.0
  0
ENDBLK
  5
2B
330
26
100
AcDbEntity
  8
0
  6
ByBlock
 62
     0
370
    -2
100
AcDbBlockEnd
  0
BLOCK
  5
2D
330
2C
100
AcDbEntity
  8
0
  6
ByBlock
 62
     0
370
    -2
100
AcDbBlockBegin
  2
*D1
 70
     1
 10
0.0
 20
0.0
 30
0.0
  3
*D1
  1

  0
LINE
  5
2E
330
2C
100
AcDbEntity
  8
0
  6
Continuous
 62
     7
100
AcDbLine
 10
0.0
 20
-195.0704439999999
 30
0.0
 11
-70.0
 21
-195.0704439999999
 31
0.0
  0
LINE
  5
2F
330
2C
100
AcDbEntity
  8
0
  6
Continuous
 62
     7
100
AcDbLine
 10
0.0
 20
-168.11008
 30
0.0
 11
0.0
 21
-197.3564439999999
 31
0.0
  0
LINE
  5
30
330
2C
100
AcDbEntity
  8
0
  6
Continuous
 62
     7
100
AcDbLine
 10
-70.0
 20
-124.89
 30
0.0
 11
-70.0
 21
-197.3564439999999
 31
0.0
  0
INSERT
  5
31
330
2C
100
AcDbEntity
  8
0
  6
Continuous
 62
     7
100
AcDbBlockReference
  2
_OPEN30
 10
0.0
 20
-195.0704439999999
 30
0.0
 41
2.77
 42
2.77
 43
2.77
  0
INSERT
  5
32
330
2C
100
AcDbEntity
  8
0
  6
Continuous
 62
     7
100
AcDbBlockReference
  2
_OPEN30
 10
-70.0
 20
-195.0704439999999
 30
0.0
 41
2.77
 42
2.77
 43
2.77
 50
180.0
  0
MTEXT
  5
34
330
2C
100
AcDbEntity
  8
0
  6
Continuous
 62
     7
100
AcDbMText
 10
-35.0
 20
-189.8704439999999
 30
0.0
 40
8.4
 41
0.0
 71
     5
 72
     1
  1
\A1;70
  7
MX_DIMTXSTY_2
 73
     1
 44
1.0
  0
POINT
  5
35
330
2C
100
AcDbEntity
  8
DEFPOINTS
  6
Continuous
 62
     0
100
AcDbPoint
 10
0.0
 20
-165.57008
 30
0.0
  0
POINT
  5
36
330
2C
100
AcDbEntity
  8
DEFPOINTS
  6
Continuous
 62
     0
100
AcDbPoint
 10
-70.0
 20
-122.35
 30
0.0
  0
POINT
  5
37
330
2C
100
AcDbEntity
  8
DEFPOINTS
  6
Continuous
 62
     0
100
AcDbPoint
 10
-70.0
 20
-195.0704439999999
 30
0.0
  0
ENDBLK
  5
38
330
2C
100
AcDbEntity
  8
0
  6
ByBlock
 62
     0
370
    -2
100
AcDbBlockEnd
  0
ENDSEC
  0
SECTION
  2
ENTITIES
  0
DIMENSION
  5
39
330
A
100
AcDbEntity
  8
0
  6
Continuous
 62
     7
100
AcDbDimension
  2
*D1
 10
-70.0
 20
-195.0704439999999
 30
0.0
 11
-35.0
 21
-195.0704439999999
 31
0.0
 70
   128
  1
<>
 71
     5
 42
70.0
  3
MXDIMSTYLE
100
AcDbAlignedDimension
 13
0.0
 23
-165.57008
 33
0.0
 14
-70.0
 24
-122.35
 34
0.0
100
AcDbRotatedDimension
1001
ACAD
1000
DSTYLE
1002
{
1070
    41
1040
2.77
1070
   140
1040
8.4
1070
   271
1070
     0
1070
   284
1070
     8
1070
   340
1005
33
1002
}
  0
LINE
  5
3A
330
A
100
AcDbEntity
  8
0
  6
Continuous
 62
     7
100
AcDbLine
 10
59.80399999999999
 20
9.5
 30
0.0
 11
59.80399999999999
 21
48.718333
 31
0.0
  0
LINE
  5
3C
330
A
100
AcDbEntity
  8
PV
  6
CENTER
 62
     7
100
AcDbLine
 10
45.282
 20
123.0059999999999
 30
0.0
 11
-82.28700000000001
 21
123.0059999999999
 31
0.0
  0
LINE
  5
3D
330
A
100
AcDbEntity
  8
PV
  6
CENTER
 62
     7
100
AcDbLine
 10
0.0
 20
165.852
 30
0.0
 11
0.0
 21
79.406
 31
0.0
  0
LINE
  5
3E
330
A
100
AcDbEntity
  8
PV
  6
CENTER
 62
     7
100
AcDbLine
 10
42.0
 20
92.00599999999999
 30
0.0
 11
20.0
 21
92.00599999999999
 31
0.0
  0
LINE
  5
3F
330
A
100
AcDbEntity
  8
PV
  6
CENTER
 62
     7
100
AcDbLine
 10
31.0
 20
103.0059999999999
 30
0.0
 11
31.0
 21
81.006
 31
0.0
  0
LINE
  5
40
330
A
100
AcDbEntity
  8
PV
  6
CENTER
 62
     7
100
AcDbLine
 10
-31.0
 20
103.0059999999999
 30
0.0
 11
-31.0
 21
81.006
 31
0.0
  0
LINE
  5
41
330
A
100
AcDbEntity
  8
PV
  6
CENTER
 62
     7
100
AcDbLine
 10
-42.0
 20
92.00599999999999
 30
0.0
 11
-20.0
 21
92.00599999999999
 31
0.0
  0
LINE
  5
42
330
A
100
AcDbEntity
  8
PV
  6
CENTER
 62
     7
100
AcDbLine
 10
31.0
 20
143.006
 30
0.0
 11
31.0
 21
165.0059999999999
 31
0.0
  0
LINE
  5
43
330
A
100
AcDbEntity
  8
PV
  6
CENTER
 62
     7
100
AcDbLine
 10
42.0
 20
154.0059999999999
 30
0.0
 11
20.0
 21
154.0059999999999
 31
0.0
  0
LINE
  5
44
330
A
100
AcDbEntity
  8
PV
  6
CENTER
 62
     7
100
AcDbLine
 10
-31.0
 20
143.006
 30
0.0
 11
-31.0
 21
165.0059999999999
 31
0.0
  0
LINE
  5
45
330
A
100
AcDbEntity
  8
PV
  6
CENTER
 62
     7
100
AcDbLine
 10
-42.0
 20
154.0059999999999
 30
0.0
 11
-20.0
 21
154.0059999999999
 31
0.0
  0
LINE
  5
46
330
A
100
AcDbEntity
  8
PV
  6
Continuous
 62
   254
100
AcDbLine
 10
-26.999
 20
113.7699999999999
 30
0.0
 11
-21.499
 21
104.2429999999999
 31
0.0
  0
LINE
  5
47
330
A
100
AcDbEntity
  8
PV
  6
Continuous
 62
   254
100
AcDbLine
 10
-27.682
 20
113.9529999999999
 30
0.0
 11
-28.456
 21
113.5059999999999
 31
0.0
  0
LINE
  5
48
330
A
100
AcDbEntity
  8
PV
  6
Continuous
 62
   254
100
AcDbLine
 10
-21.682
 20
103.56
 30
0.0
 11
-22.456
 21
103.113
 31
0.0
  0
LINE
  5
49
330
A
100
AcDbEntity
  8
PV
  6
Continuous
 62
   254
100
AcDbLine
 10
-6.0
 20
94.50599999999999
 30
0.0
 11
-6.0
 21
93.61299999999999
 31
0.0
  0
LINE
  5
4A
330
A
100
AcDbEntity
  8
PV
  6
Continuous
 62
   254
100
AcDbLine
 10
-5.5
 20
95.006
 30
0.0
 11
5.5
 21
95.006
 31
0.0
  0
LINE
  5
4B
330
A
100
AcDbEntity
  8
PV
  6
Continuous
 62
   254
100
AcDbLine
 10
6.0
 20
94.50599999999999
 30
0.0
 11
6.0
 21
93.61299999999999
 31
0.0
  0
LINE
  5
4C
330
A
100
AcDbEntity
  8
PV
  6
Continuous
 62
   254
100
AcDbLine
 10
21.682
 20
103.56
 30
0.0
 11
22.456
 21
103.113
 31
0.0
  0
LINE
  5
4D
330
A
100
AcDbEntity
  8
PV
  6
Continuous
 62
   254
100
AcDbLine
 10
21.499
 20
104.2429999999999
 30
0.0
 11
26.999
 21
113.7699999999999
 31
0.0
  0
LINE
  5
4E
330
A
100
AcDbEntity
  8
PV
  6
Continuous
 62
   254
100
AcDbLine
 10
27.682
 20
113.9529999999999
 30
0.0
 11
28.456
 21
113.5059999999999
 31
0.0
  0
LINE
  5
4F
330
A
100
AcDbEntity
  8
PV
  6
Continuous
 62
   254
100
AcDbLine
 10
27.682
 20
132.0599999999999
 30
0.0
 11
28.456
 21
132.5069999999999
 31
0.0
  0
LINE
  5
50
330
A
100
AcDbEntity
  8
PV
  6
Continuous
 62
   254
100
AcDbLine
 10
26.999
 20
132.2429999999999
 30
0.0
 11
21.499
 21
141.77
 31
0.0
  0
LINE
  5
51
330
A
100
AcDbEntity
  8
PV
  6
Continuous
 62
   254
100
AcDbLine
 10
21.682
 20
142.453
 30
0.0
 11
22.456
 21
142.9
 31
0.0
  0
LINE
  5
52
330
A
100
AcDbEntity
  8
PV
  6
Continuous
 62
   254
100
AcDbLine
 10
6.0
 20
151.506
 30
0.0
 11
6.0
 21
152.4
 31
0.0
  0
LINE
  5
53
330
A
100
AcDbEntity
  8
PV
  6
Continuous
 62
   254
100
AcDbLine
 10
5.5
 20
151.006
 30
0.0
 11
-5.5
 21
151.006
 31
0.0
  0
LINE
  5
54
330
A
100
AcDbEntity
  8
PV
  6
Continuous
 62
   254
100
AcDbLine
 10
-6.0
 20
151.506
 30
0.0
 11
-6.0
 21
152.4
 31
0.0
  0
LINE
  5
55
330
A
100
AcDbEntity
  8
PV
  6
Continuous
 62
   254
100
AcDbLine
 10
-21.682
 20
142.453
 30
0.0
 11
-22.456
 21
142.9
 31
0.0
  0
LINE
  5
56
330
A
100
AcDbEntity
  8
PV
  6
Continuous
 62
   254
100
AcDbLine
 10
-21.499
 20
141.77
 30
0.0
 11
-26.999
 21
132.2429999999999
 31
0.0
  0
LINE
  5
57
330
A
100
AcDbEntity
  8
PV
  6
Continuous
 62
   254
100
AcDbLine
 10
-27.682
 20
132.0599999999999
 30
0.0
 11
-28.456
 21
132.5069999999999
 31
0.0
  0
LINE
  5
58
330
A
100
AcDbEntity
  8
PV
  6
CENTER
 62
     7
100
AcDbLine
 10
-86.041
 20
-88.49999999999999
 30
0.0
 11
-8.057999999999999
 21
-88.49999999999999
 31
0.0
  0
LINE
  5
59
330
A
100
AcDbEntity
  8
PV
  6
Continuous
 62
     7
100
AcDbLine
 10
34.18699999999999
 20
163.506
 30
0.0
 11
-34.18699999999999
 21
163.506
 31
0.0
  0
LINE
  5
5A
330
A
100
AcDbEntity
  8
PV
  6
Continuous
 62
     7
100
AcDbLine
 10
-40.49999999999999
 20
157.1929999999999
 30
0.0
 11
-40.49999999999999
 21
88.81899999999999
 31
0.0
  0
LINE
  5
5B
330
A
100
AcDbEntity
  8
PV
  6
Continuous
 62
     7
100
AcDbLine
 10
40.49999999999999
 20
157.1929999999999
 30
0.0
 11
40.49999999999999
 21
88.81899999999999
 31
0.0
  0
LINE
  5
5C
330
A
100
AcDbEntity
  8
PV
  6
Continuous
 62
     7
100
AcDbLine
 10
34.18699999999999
 20
82.506
 30
0.0
 11
-34.18699999999999
 21
82.506
 31
0.0
  0
LINE
  5
5D
330
A
100
AcDbEntity
  8
PV
  6
Continuous
 62
     7
100
AcDbLine
 10
-57.3
 20
144.5059999999999
 30
0.0
 11
-40.49999999999999
 21
144.5059999999999
 31
0.0
  0
LINE
  5
5E
330
A
100
AcDbEntity
  8
PV
  6
Continuous
 62
     7
100
AcDbLine
 10
-57.3
 20
101.506
 30
0.0
 11
-40.49999999999999
 21
101.506
 31
0.0
  0
LINE
  5
5F
330
A
100
AcDbEntity
  8
PV
  6
Continuous
 62
     7
100
AcDbLine
 10
-57.3
 20
123.0059999999999
 30
0.0
 11
-57.3
 21
156.8559999999999
 31
0.0
  0
LINE
  5
60
330
A
100
AcDbEntity
  8
PV
  6
Continuous
 62
     7
100
AcDbLine
 10
-70.0
 20
123.0059999999999
 30
0.0
 11
-70.0
 21
89.15600000000001
 31
0.0
  0
LINE
  5
61
330
A
100
AcDbEntity
  8
PV
  6
Continuous
 62
     7
100
AcDbLine
 10
-69.2
 20
88.35600000000001
 30
0.0
 11
-58.1
 21
88.35600000000001
 31
0.0
  0
LINE
  5
62
330
A
100
AcDbEntity
  8
PV
  6
Continuous
 62
     7
100
AcDbLine
 10
-70.0
 20
89.15600000000001
 30
0.0
 11
-69.2
 21
88.35600000000001
 31
0.0
  0
LINE
  5
63
330
A
100
AcDbEntity
  8
PV
  6
Continuous
 62
     7
100
AcDbLine
 10
-57.3
 20
89.15600000000001
 30
0.0
 11
-58.1
 21
88.35600000000001
 31
0.0
  0
LINE
  5
64
330
A
100
AcDbEntity
  8
PV
  6
Continuous
 62
     7
100
AcDbLine
 10
-69.2
 20
88.35600000000001
 30
0.0
 11
-69.2
 21
123.0059999999999
 31
0.0
  0
LINE
  5
65
330
A
100
AcDbEntity
  8
PV
  6
Continuous
 62
     7
100
AcDbLine
 10
-58.1
 20
88.35600000000001
 30
0.0
 11
-58.1
 21
123.0059999999999
 31
0.0
  0
LINE
  5
66
330
A
100
AcDbEntity
  8
PV
  6
Continuous
 62
     7
100
AcDbLine
 10
-57.3
 20
123.0059999999999
 30
0.0
 11
-57.3
 21
89.15600000000001
 31
0.0
  0
LINE
  5
67
330
A
100
AcDbEntity
  8
PV
  6
Continuous
 62
     7
100
AcDbLine
 10
-70.0
 20
123.0059999999999
 30
0.0
 11
-70.0
 21
156.8559999999999
 31
0.0
  0
LINE
  5
68
330
A
100
AcDbEntity
  8
PV
  6
Continuous
 62
     7
100
AcDbLine
 10
-69.2
 20
157.656
 30
0.0
 11
-58.1
 21
157.656
 31
0.0
  0
LINE
  5
69
330
A
100
AcDbEntity
  8
PV
  6
Continuous
 62
     7
100
AcDbLine
 10
-70.0
 20
156.8559999999999
 30
0.0
 11
-69.2
 21
157.656
 31
0.0
  0
LINE
  5
6A
330
A
100
AcDbEntity
  8
PV
  6
Continuous
 62
     7
100
AcDbLine
 10
-57.3
 20
156.8559999999999
 30
0.0
 11
-58.1
 21
157.656
 31
0.0
  0
LINE
  5
6B
330
A
100
AcDbEntity
  8
PV
  6
Continuous
 62
     7
100
AcDbLine
 10
-69.2
 20
157.656
 30
0.0
 11
-69.2
 21
123.0059999999999
 31
0.0
  0
LINE
  5
6C
330
A
100
AcDbEntity
  8
PV
  6
Continuous
 62
     7
100
AcDbLine
 10
-58.1
 20
157.656
 30
0.0
 11
-58.1
 21
123.0059999999999
 31
0.0
  0
LINE
  5
6D
330
A
100
AcDbEntity
  8
PV
  6
Continuous
 62
     7
100
AcDbLine
 10
-38.0
 20
-67.15
 30
0.0
 11
-57.3
 21
-67.15
 31
0.0
  0
LINE
  5
6E
330
A
100
AcDbEntity
  8
PV
  6
Continuous
 62
     7
100
AcDbLine
 10
-69.2
 20
-53.85
 30
0.0
 11
-58.1
 21
-53.85
 31
0.0
  0
LINE
  5
6F
330
A
100
AcDbEntity
  8
PV
  6
Continuous
 62
     7
100
AcDbLine
 10
-57.3
 20
-54.64999999999999
 30
0.0
 11
-58.1
 21
-53.85
 31
0.0
  0
LINE
  5
70
330
A
100
AcDbEntity
  8
PV
  6
Continuous
 62
     7
100
AcDbLine
 10
-69.2
 20
-53.85
 30
0.0
 11
-70.0
 21
-54.64999999999999
 31
0.0
  0
LINE
  5
71
330
A
100
AcDbEntity
  8
PV
  6
Continuous
 62
     7
100
AcDbLine
 10
-70.0
 20
-54.64999999999999
 30
0.0
 11
-70.0
 21
-88.49999999999999
 31
0.0
  0
LINE
  5
72
330
A
100
AcDbEntity
  8
PV
  6
Continuous
 62
     7
100
AcDbLine
 10
-70.0
 20
-122.35
 30
0.0
 11
-70.0
 21
-88.49999999999999
 31
0.0
  0
LINE
  5
73
330
A
100
AcDbEntity
  8
PV
  6
Continuous
 62
     7
100
AcDbLine
 10
-69.2
 20
-123.15
 30
0.0
 11
-70.0
 21
-122.35
 31
0.0
  0
LINE
  5
74
330
A
100
AcDbEntity
  8
PV
  6
Continuous
 62
     7
100
AcDbLine
 10
-69.2
 20
-123.15
 30
0.0
 11
-58.1
 21
-123.15
 31
0.0
  0
LINE
  5
75
330
A
100
AcDbEntity
  8
PV
  6
Continuous
 62
     7
100
AcDbLine
 10
-57.3
 20
-122.35
 30
0.0
 11
-58.1
 21
-123.15
 31
0.0
  0
LINE
  5
76
330
A
100
AcDbEntity
  8
PV
  6
Continuous
 62
     7
100
AcDbLine
 10
-57.3
 20
-122.35
 30
0.0
 11
-57.3
 21
-54.64999999999999
 31
0.0
  0
LINE
  5
77
330
A
100
AcDbEntity
  8
PV
  6
Continuous
 62
     7
100
AcDbLine
 10
-38.0
 20
-109.85
 30
0.0
 11
-57.3
 21
-109.85
 31
0.0
  0
LINE
  5
78
330
A
100
AcDbEntity
  8
PV
  6
CENTER
 62
     7
100
AcDbLine
 10
-31.0
 20
-25.733
 30
0.0
 11
-31.0
 21
-59.112
 31
0.0
  0
LINE
  5
79
330
A
100
AcDbEntity
  8
PV
  6
CENTER
 62
     7
100
AcDbLine
 10
31.0
 20
-25.733
 30
0.0
 11
31.0
 21
-58.915
 31
0.0
  0
LINE
  5
7A
330
A
100
AcDbEntity
  8
PV
  6
Continuous
 62
     7
100
AcDbLine
 10
31.0
 20
-120.5
 30
0.0
 11
-31.0
 21
-120.5
 31
0.0
  0
LINE
  5
7B
330
A
100
AcDbEntity
  8
PV
  6
Continuous
 62
     7
100
AcDbLine
 10
-38.0
 20
-56.538
 30
0.0
 11
-38.0
 21
-67.15
 31
0.0
  0
LINE
  5
7C
330
A
100
AcDbEntity
  8
PV
  6
Continuous
 62
     7
100
AcDbLine
 10
-40.49999999999999
 20
-56.5
 30
0.0
 11
40.49999999999999
 21
-56.5
 31
0.0
  0
LINE
  5
7D
330
A
100
AcDbEntity
  8
PV
  6
Continuous
 62
     7
100
AcDbLine
 10
-40.49999999999999
 20
-45.0
 30
0.0
 11
40.49999999999999
 21
-45.0
 31
0.0
  0
LINE
  5
7E
330
A
100
AcDbEntity
  8
PV
  6
Continuous
 62
     7
100
AcDbLine
 10
-39.5
 20
-29.0
 30
0.0
 11
39.5
 21
-29.0
 31
0.0
  0
LINE
  5
7F
330
A
100
AcDbEntity
  8
PV
  6
Continuous
 62
     7
100
AcDbLine
 10
-35.5
 20
-45.056
 30
0.0
 11
-35.5
 21
-56.5
 31
0.0
  0
LINE
  5
80
330
A
100
AcDbEntity
  8
PV
  6
Continuous
 62
     7
100
AcDbLine
 10
35.5
 20
-45.15399999999999
 30
0.0
 11
35.5
 21
-56.5
 31
0.0
  0
LINE
  5
81
330
A
100
AcDbEntity
  8
PV
  6
Continuous
 62
     7
100
AcDbLine
 10
35.5
 20
-45.0
 30
0.0
 11
35.5
 21
-29.0
 31
0.0
  0
LINE
  5
83
330
A
100
AcDbEntity
  8
PV
  6
PHANTOM
 62
     7
100
AcDbLine
 10
-30.0
 20
-1.5
 30
0.0
 11
30.0
 21
-1.5
 31
0.0
  0
LINE
  5
84
330
A
100
AcDbEntity
  8
PV
  6
PHANTOM
 62
     7
100
AcDbLine
 10
-27.078
 20
23.5
 30
0.0
 11
27.078
 21
23.5
 31
0.0
  0
LINE
  5
85
330
A
100
AcDbEntity
  8
PV
  6
PHANTOM
 62
     7
100
AcDbLine
 10
-30.0
 20
-1.5
 30
0.0
 11
-29.077
 21
21.57999999999999
 31
0.0
  0
LINE
  5
86
330
A
100
AcDbEntity
  8
PV
  6
PHANTOM
 62
     7
100
AcDbLine
 10
29.077
 20
21.57999999999999
 30
0.0
 11
30.0
 21
-1.5
 31
0.0
  0
LINE
  5
87
330
A
100
AcDbEntity
  8
PV
  6
Continuous
 62
     7
100
AcDbLine
 10
-6.0
 20
8.5
 30
0.0
 11
-6.0
 21
-5.5
 31
0.0
  0
LINE
  5
88
330
A
100
AcDbEntity
  8
PV
  6
Continuous
 62
     7
100
AcDbLine
 10
6.0
 20
8.5
 30
0.0
 11
6.0
 21
-5.5
 31
0.0
  0
LINE
  5
89
330
A
100
AcDbEntity
  8
PV
  6
Continuous
 62
     7
100
AcDbLine
 10
-25.5
 20
9.5
 30
0.0
 11
25.5
 21
9.5
 31
0.0
  0
LINE
  5
8B
330
A
100
AcDbEntity
  8
PV
  6
DASHED
 62
     7
100
AcDbLine
 10
25.0
 20
9.5
 30
0.0
 11
25.0
 21
9.199999999999999
 31
0.0
  0
LINE
  5
8C
330
A
100
AcDbEntity
  8
PV
  6
DASHED
 62
     7
100
AcDbLine
 10
-25.0
 20
9.5
 30
0.0
 11
-25.0
 21
9.199999999999999
 31
0.0
  0
LINE
  5
8D
330
A
100
AcDbEntity
  8
PV
  6
PHANTOM
 62
     7
100
AcDbLine
 10
-25.5
 20
24.5
 30
0.0
 11
25.5
 21
24.5
 31
0.0
  0
LINE
  5
8E
330
A
100
AcDbEntity
  8
PV
  6
DASHED
 62
     7
100
AcDbLine
 10
-25.0
 20
9.199999999999999
 30
0.0
 11
25.0
 21
9.199999999999999
 31
0.0
  0
LINE
  5
8F
330
A
100
AcDbEntity
  8
PV
  6
Continuous
 62
     7
100
AcDbLine
 10
-22.456
 20
8.5
 30
0.0
 11
-22.456
 21
-5.5
 31
0.0
  0
LINE
  5
90
330
A
100
AcDbEntity
  8
PV
  6
Continuous
 62
     7
100
AcDbLine
 10
-28.456
 20
7.95
 30
0.0
 11
-28.456
 21
-5.5
 31
0.0
  0
LINE
  5
91
330
A
100
AcDbEntity
  8
PV
  6
Continuous
 62
     7
100
AcDbLine
 10
-27.256
 20
8.5
 30
0.0
 11
-27.256
 21
-5.5
 31
0.0
  0
LINE
  5
92
330
A
100
AcDbEntity
  8
PV
  6
Continuous
 62
     7
100
AcDbLine
 10
-26.072
 20
-9.882999999999999
 30
0.0
 11
-24.82699999999999
 21
-11.367
 31
0.0
  0
LINE
  5
93
330
A
100
AcDbEntity
  8
PV
  6
Continuous
 62
     7
100
AcDbLine
 10
22.456
 20
8.5
 30
0.0
 11
22.456
 21
-5.5
 31
0.0
  0
LINE
  5
94
330
A
100
AcDbEntity
  8
PV
  6
Continuous
 62
     7
100
AcDbLine
 10
28.456
 20
7.95
 30
0.0
 11
28.456
 21
-5.5
 31
0.0
  0
LINE
  5
95
330
A
100
AcDbEntity
  8
PV
  6
Continuous
 62
     7
100
AcDbLine
 10
27.256
 20
8.5
 30
0.0
 11
27.256
 21
-5.5
 31
0.0
  0
LINE
  5
96
330
A
100
AcDbEntity
  8
PV
  6
Continuous
 62
     7
100
AcDbLine
 10
26.072
 20
-9.882999999999999
 30
0.0
 11
24.82699999999999
 21
-11.367
 31
0.0
  0
LINE
  5
97
330
A
100
AcDbEntity
  8
PV
  6
Continuous
 62
     7
100
AcDbLine
 10
-26.0
 20
-24.0
 30
0.0
 11
26.0
 21
-24.0
 31
0.0
  0
LINE
  5
98
330
A
100
AcDbEntity
  8
PV
  6
Continuous
 62
     7
100
AcDbLine
 10
-4.0
 20
-16.5
 30
0.0
 11
-4.0
 21
-24.0
 31
0.0
  0
LINE
  5
99
330
A
100
AcDbEntity
  8
PV
  6
Continuous
 62
     7
100
AcDbLine
 10
4.0
 20
-16.5
 30
0.0
 11
4.0
 21
-24.0
 31
0.0
  0
LINE
  5
9A
330
A
100
AcDbEntity
  8
PV
  6
Continuous
 62
     7
100
AcDbLine
 10
-35.5
 20
-45.0
 30
0.0
 11
-35.5
 21
-29.0
 31
0.0
  0
LINE
  5
9B
330
A
100
AcDbEntity
  8
PV
  6
Continuous
 62
     7
100
AcDbLine
 10
-30.0
 20
-16.5
 30
0.0
 11
30.0
 21
-16.5
 31
0.0
  0
LINE
  5
9C
330
A
100
AcDbEntity
  8
PV
  6
Continuous
 62
     7
100
AcDbLine
 10
-30.0
 20
-16.5
 30
0.0
 11
-29.077
 21
6.58
 31
0.0
  0
LINE
  5
9D
330
A
100
AcDbEntity
  8
PV
  6
Continuous
 62
     7
100
AcDbLine
 10
-27.078
 20
8.5
 30
0.0
 11
27.078
 21
8.5
 31
0.0
  0
LINE
  5
9E
330
A
100
AcDbEntity
  8
PV
  6
Continuous
 62
     7
100
AcDbLine
 10
-25.5
 20
9.5
 30
0.0
 11
25.5
 21
9.5
 31
0.0
  0
LINE
  5
9F
330
A
100
AcDbEntity
  8
PV
  6
Continuous
 62
     7
100
AcDbLine
 10
29.077
 20
6.58
 30
0.0
 11
30.0
 21
-16.5
 31
0.0
  0
LINE
  5
A0
330
A
100
AcDbEntity
  8
PV
  6
Continuous
 62
     7
100
AcDbLine
 10
-40.49999999999999
 20
-45.056
 30
0.0
 11
-40.49999999999999
 21
-56.5
 31
0.0
  0
LINE
  5
A1
330
A
100
AcDbEntity
  8
PV
  6
Continuous
 62
     7
100
AcDbLine
 10
-40.49999999999999
 20
-30.0
 30
0.0
 11
-40.49999999999999
 21
-45.0
 31
0.0
  0
LINE
  5
A2
330
A
100
AcDbEntity
  8
PV
  6
Continuous
 62
     7
100
AcDbLine
 10
40.49999999999999
 20
-45.056
 30
0.0
 11
40.49999999999999
 21
-56.5
 31
0.0
  0
LINE
  5
A3
330
A
100
AcDbEntity
  8
PV
  6
Continuous
 62
     7
100
AcDbLine
 10
40.49999999999999
 20
-29.928
 30
0.0
 11
40.49999999999999
 21
-45.0
 31
0.0
  0
LINE
  5
A4
330
A
100
AcDbEntity
  8
PV
  6
Continuous
 62
     7
100
AcDbLine
 10
38.0
 20
-56.701
 30
0.0
 11
38.0
 21
-113.5
 31
0.0
  0
LINE
  5
A5
330
A
100
AcDbEntity
  8
PV
  6
Continuous
 62
     7
100
AcDbLine
 10
-38.0
 20
-109.85
 30
0.0
 11
-38.0
 21
-113.5
 31
0.0
  0
LINE
  5
A6
330
A
100
AcDbEntity
  8
PV
  6
Continuous
 62
     7
100
AcDbLine
 10
39.5
 20
-29.0
 30
0.0
 11
40.49999999999999
 21
-30.0
 31
0.0
  0
LINE
  5
A7
330
A
100
AcDbEntity
  8
PV
  6
Continuous
 62
     7
100
AcDbLine
 10
-39.5
 20
-29.0
 30
0.0
 11
-40.49999999999999
 21
-30.0
 31
0.0
  0
LINE
  5
A8
330
A
100
AcDbEntity
  8
PV
  6
Continuous
 62
     7
100
AcDbLine
 10
38.0
 20
-113.5
 30
0.0
 11
31.0
 21
-120.5
 31
0.0
  0
LINE
  5
A9
330
A
100
AcDbEntity
  8
PV
  6
Continuous
 62
     7
100
AcDbLine
 10
-31.0
 20
-120.5
 30
0.0
 11
-38.0
 21
-113.5
 31
0.0
  0
LINE
  5
AA
330
A
100
AcDbEntity
  8
PV
  6
Continuous
 62
     7
100
AcDbLine
 10
38.0
 20
-113.5
 30
0.0
 11
-38.0
 21
-113.5
 31
0.0
  0
LINE
  5
AB
330
A
100
AcDbEntity
  8
PV
  6
CENTER
 62
     7
100
AcDbLine
 10
-73.209
 20
152.3559999999999
 30
0.0
 11
-54.037
 21
152.3559999999999
 31
0.0
  0
LINE
  5
AC
330
A
100
AcDbEntity
  8
PV
  6
CENTER
 62
     7
100
AcDbLine
 10
-73.209
 20
93.656
 30
0.0
 11
-54.302
 21
93.656
 31
0.0
  0
LINE
  5
AD
330
A
100
AcDbEntity
  8
PV
  6
Continuous
 62
     7
100
AcDbLine
 10
-69.2
 20
-53.85
 30
0.0
 11
-69.2
 21
-123.15
 31
0.0
  0
LINE
  5
AE
330
A
100
AcDbEntity
  8
PV
  6
Continuous
 62
     7
100
AcDbLine
 10
-58.1
 20
-53.85
 30
0.0
 11
-58.1
 21
-123.15
 31
0.0
  0
LINE
  5
AF
330
A
100
AcDbEntity
  8
PV
  6
Continuous
 62
     7
100
AcDbLine
 10
21.35
 20
-120.5
 30
0.0
 11
21.35
 21
-145.8
 31
0.0
  0
LINE
  5
B0
330
A
100
AcDbEntity
  8
PV
  6
Continuous
 62
     7
100
AcDbLine
 10
33.85
 20
-145.8
 30
0.0
 11
34.64999999999999
 21
-146.6
 31
0.0
  0
LINE
  5
B1
330
A
100
AcDbEntity
  8
PV
  6
Continuous
 62
     7
100
AcDbLine
 10
34.64999999999999
 20
-157.6999999999999
 30
0.0
 11
34.64999999999999
 21
-146.6
 31
0.0
  0
LINE
  5
B2
330
A
100
AcDbEntity
  8
PV
  6
Continuous
 62
     7
100
AcDbLine
 10
34.64999999999999
 20
-157.6999999999999
 30
0.0
 11
33.85
 21
-158.4999999999999
 31
0.0
  0
LINE
  5
B3
330
A
100
AcDbEntity
  8
PV
  6
Continuous
 62
     7
100
AcDbLine
 10
33.85
 20
-158.4999999999999
 30
0.0
 11
0.0
 21
-158.4999999999999
 31
0.0
  0
LINE
  5
B4
330
A
100
AcDbEntity
  8
PV
  6
Continuous
 62
     7
100
AcDbLine
 10
-33.85
 20
-158.4999999999999
 30
0.0
 11
0.0
 21
-158.4999999999999
 31
0.0
  0
LINE
  5
B5
330
A
100
AcDbEntity
  8
PV
  6
Continuous
 62
     7
100
AcDbLine
 10
-34.64999999999999
 20
-157.6999999999999
 30
0.0
 11
-33.85
 21
-158.4999999999999
 31
0.0
  0
LINE
  5
B6
330
A
100
AcDbEntity
  8
PV
  6
Continuous
 62
     7
100
AcDbLine
 10
-34.64999999999999
 20
-157.6999999999999
 30
0.0
 11
-34.64999999999999
 21
-146.6
 31
0.0
  0
LINE
  5
B7
330
A
100
AcDbEntity
  8
PV
  6
Continuous
 62
     7
100
AcDbLine
 10
-33.85
 20
-145.8
 30
0.0
 11
-34.64999999999999
 21
-146.6
 31
0.0
  0
LINE
  5
B8
330
A
100
AcDbEntity
  8
PV
  6
Continuous
 62
     7
100
AcDbLine
 10
-33.85
 20
-145.8
 30
0.0
 11
33.85
 21
-145.8
 31
0.0
  0
LINE
  5
B9
330
A
100
AcDbEntity
  8
PV
  6
Continuous
 62
     7
100
AcDbLine
 10
-21.35
 20
-120.5
 30
0.0
 11
-21.35
 21
-145.8
 31
0.0
  0
LINE
  5
BA
330
A
100
AcDbEntity
  8
PV
  6
Continuous
 62
     7
100
AcDbLine
 10
-34.64999999999999
 20
-157.6999999999999
 30
0.0
 11
34.64999999999999
 21
-157.6999999999999
 31
0.0
  0
LINE
  5
BB
330
A
100
AcDbEntity
  8
PV
  6
CENTER
 62
     7
100
AcDbLine
 10
29.35
 20
-141.619
 30
0.0
 11
29.35
 21
-162.774
 31
0.0
  0
LINE
  5
BC
330
A
100
AcDbEntity
  8
PV
  6
CENTER
 62
     7
100
AcDbLine
 10
-29.35
 20
-141.8829999999999
 30
0.0
 11
-29.35
 21
-162.6419999999999
 31
0.0
  0
LINE
  5
BD
330
A
100
AcDbEntity
  8
PV
  6
Continuous
 62
     7
100
AcDbLine
 10
-34.64999999999999
 20
-146.6
 30
0.0
 11
34.64999999999999
 21
-146.6
 31
0.0
  0
LINE
  5
BE
330
A
100
AcDbEntity
  8
PV
  6
CENTER
 62
     7
100
AcDbLine
 10
-73.209
 20
-59.15
 30
0.0
 11
-54.037
 21
-59.15
 31
0.0
  0
LINE
  5
BF
330
A
100
AcDbEntity
  8
PV
  6
CENTER
 62
     7
100
AcDbLine
 10
-73.209
 20
-117.8499999999999
 30
0.0
 11
-54.302
 21
-117.8499999999999
 31
0.0
  0
LINE
  5
C0
330
A
100
AcDbEntity
  8
PV
  6
CENTER
 62
     7
100
AcDbLine
 10
-73.209
 20
-117.8499999999999
 30
0.0
 11
-54.302
 21
-117.8499999999999
 31
0.0
  0
LINE
  5
C1
330
A
100
AcDbEntity
  8
PV
  6
CENTER
 62
     7
100
AcDbLine
 10
-73.209
 20
-59.15
 30
0.0
 11
-54.037
 21
-59.15
 31
0.0
  0
LINE
  5
C2
330
A
100
AcDbEntity
  8
PV
  6
Continuous
 62
     7
100
AcDbLine
 10
-57.3
 20
-122.35
 30
0.0
 11
-58.1
 21
-123.15
 31
0.0
  0
LINE
  5
C3
330
A
100
AcDbEntity
  8
PV
  6
Continuous
 62
     7
100
AcDbLine
 10
-57.3
 20
-122.35
 30
0.0
 11
-57.3
 21
-54.64999999999999
 31
0.0
  0
LINE
  5
C4
330
A
100
AcDbEntity
  8
PV
  6
Continuous
 62
     7
100
AcDbLine
 10
-57.3
 20
-54.64999999999999
 30
0.0
 11
-58.1
 21
-53.85
 31
0.0
  0
LINE
  5
C5
330
A
100
AcDbEntity
  8
PV
  6
Continuous
 62
     7
100
AcDbLine
 10
-38.0
 20
-109.85
 30
0.0
 11
-57.3
 21
-109.85
 31
0.0
  0
LINE
  5
C6
330
A
100
AcDbEntity
  8
PV
  6
Continuous
 62
     7
100
AcDbLine
 10
34.18699999999999
 20
82.506
 30
0.0
 11
-34.18699999999999
 21
82.506
 31
0.0
  0
LINE
  5
C7
330
A
100
AcDbEntity
  8
PV
  6
Continuous
 62
     7
100
AcDbLine
 10
40.49999999999999
 20
157.1929999999999
 30
0.0
 11
40.49999999999999
 21
88.81899999999999
 31
0.0
  0
LINE
  5
C8
330
A
100
AcDbEntity
  8
PV
  6
CENTER
 62
     7
100
AcDbLine
 10
45.282
 20
123.0059999999999
 30
0.0
 11
-82.28700000000001
 21
123.0059999999999
 31
0.0
  0
LINE
  5
C9
330
A
100
AcDbEntity
  8
PV
  6
CENTER
 62
     7
100
AcDbLine
 10
0.0
 20
165.852
 30
0.0
 11
0.0
 21
79.406
 31
0.0
  0
LINE
  5
CA
330
A
100
AcDbEntity
  8
PV
  6
CENTER
 62
     7
100
AcDbLine
 10
-42.0
 20
92.00599999999999
 30
0.0
 11
-20.0
 21
92.00599999999999
 31
0.0
  0
LINE
  5
CB
330
A
100
AcDbEntity
  8
PV
  6
Continuous
 62
     7
100
AcDbLine
 10
34.18699999999999
 20
163.506
 30
0.0
 11
-34.18699999999999
 21
163.506
 31
0.0
  0
LINE
  5
CC
330
A
100
AcDbEntity
  8
PV
  6
Continuous
 62
     7
100
AcDbLine
 10
-40.49999999999999
 20
157.1929999999999
 30
0.0
 11
-40.49999999999999
 21
88.81899999999999
 31
0.0
  0
LINE
  5
CD
330
A
100
AcDbEntity
  8
PV
  6
Continuous
 62
     7
100
AcDbLine
 10
-69.2
 20
-123.15
 30
0.0
 11
-58.1
 21
-123.15
 31
0.0
  0
LINE
  5
CE
330
A
100
AcDbEntity
  8
PV
  6
Continuous
 62
     7
100
AcDbLine
 10
-70.0
 20
-54.64999999999999
 30
0.0
 11
-70.0
 21
-88.49999999999999
 31
0.0
  0
LINE
  5
CF
330
A
100
AcDbEntity
  8
PV
  6
Continuous
 62
     7
100
AcDbLine
 10
-69.2
 20
-53.85
 30
0.0
 11
-70.0
 21
-54.64999999999999
 31
0.0
  0
LINE
  5
D0
330
A
100
AcDbEntity
  8
PV
  6
Continuous
 62
     7
100
AcDbLine
 10
-69.2
 20
-123.15
 30
0.0
 11
-70.0
 21
-122.35
 31
0.0
  0
LINE
  5
D1
330
A
100
AcDbEntity
  8
PV
  6
Continuous
 62
     7
100
AcDbLine
 10
-69.2
 20
-53.85
 30
0.0
 11
-58.1
 21
-53.85
 31
0.0
  0
LINE
  5
D2
330
A
100
AcDbEntity
  8
PV
  6
Continuous
 62
     7
100
AcDbLine
 10
-70.0
 20
-122.35
 30
0.0
 11
-70.0
 21
-88.49999999999999
 31
0.0
  0
LINE
  5
D3
330
A
100
AcDbEntity
  8
PV
  6
Continuous
 62
     7
100
AcDbLine
 10
-38.0
 20
-67.15
 30
0.0
 11
-57.3
 21
-67.15
 31
0.0
  0
LINE
  5
D4
330
A
100
AcDbEntity
  8
PV
  6
CENTER
 62
     7
100
AcDbLine
 10
42.0
 20
92.00599999999999
 30
0.0
 11
20.0
 21
92.00599999999999
 31
0.0
  0
LINE
  5
D5
330
A
100
AcDbEntity
  8
PV
  6
CENTER
 62
     7
100
AcDbLine
 10
-42.0
 20
154.0059999999999
 30
0.0
 11
-20.0
 21
154.0059999999999
 31
0.0
  0
LINE
  5
D6
330
A
100
AcDbEntity
  8
PV
  6
CENTER
 62
     7
100
AcDbLine
 10
-31.0
 20
143.006
 30
0.0
 11
-31.0
 21
165.0059999999999
 31
0.0
  0
LINE
  5
D7
330
A
100
AcDbEntity
  8
PV
  6
CENTER
 62
     7
100
AcDbLine
 10
-31.0
 20
103.0059999999999
 30
0.0
 11
-31.0
 21
81.006
 31
0.0
  0
LINE
  5
D8
330
A
100
AcDbEntity
  8
PV
  6
CENTER
 62
     7
100
AcDbLine
 10
31.0
 20
143.006
 30
0.0
 11
31.0
 21
165.0059999999999
 31
0.0
  0
LINE
  5
D9
330
A
100
AcDbEntity
  8
PV
  6
CENTER
 62
     7
100
AcDbLine
 10
42.0
 20
154.0059999999999
 30
0.0
 11
20.0
 21
154.0059999999999
 31
0.0
  0
LINE
  5
DA
330
A
100
AcDbEntity
  8
PV
  6
CENTER
 62
     7
100
AcDbLine
 10
31.0
 20
103.0059999999999
 30
0.0
 11
31.0
 21
81.006
 31
0.0
  0
LINE
  5
DB
330
A
100
AcDbEntity
  8
PV
  6
Continuous
 62
   254
100
AcDbLine
 10
-26.999
 20
113.7699999999999
 30
0.0
 11
-21.499
 21
104.2429999999999
 31
0.0
  0
LINE
  5
DC
330
A
100
AcDbEntity
  8
PV
  6
Continuous
 62
   254
100
AcDbLine
 10
-27.682
 20
113.9529999999999
 30
0.0
 11
-28.456
 21
113.5059999999999
 31
0.0
  0
LINE
  5
DD
330
A
100
AcDbEntity
  8
PV
  6
Continuous
 62
   254
100
AcDbLine
 10
-21.682
 20
103.56
 30
0.0
 11
-22.456
 21
103.113
 31
0.0
  0
LINE
  5
DE
330
A
100
AcDbEntity
  8
PV
  6
Continuous
 62
   254
100
AcDbLine
 10
-6.0
 20
94.50599999999999
 30
0.0
 11
-6.0
 21
93.61299999999999
 31
0.0
  0
LINE
  5
DF
330
A
100
AcDbEntity
  8
PV
  6
Continuous
 62
   254
100
AcDbLine
 10
-5.5
 20
95.006
 30
0.0
 11
5.5
 21
95.006
 31
0.0
  0
LINE
  5
E0
330
A
100
AcDbEntity
  8
PV
  6
Continuous
 62
   254
100
AcDbLine
 10
6.0
 20
94.50599999999999
 30
0.0
 11
6.0
 21
93.61299999999999
 31
0.0
  0
LINE
  5
E1
330
A
100
AcDbEntity
  8
PV
  6
Continuous
 62
   254
100
AcDbLine
 10
21.682
 20
103.56
 30
0.0
 11
22.456
 21
103.113
 31
0.0
  0
LINE
  5
E2
330
A
100
AcDbEntity
  8
PV
  6
Continuous
 62
   254
100
AcDbLine
 10
21.499
 20
104.2429999999999
 30
0.0
 11
26.999
 21
113.7699999999999
 31
0.0
  0
LINE
  5
E3
330
A
100
AcDbEntity
  8
PV
  6
Continuous
 62
   254
100
AcDbLine
 10
27.682
 20
113.9529999999999
 30
0.0
 11
28.456
 21
113.5059999999999
 31
0.0
  0
LINE
  5
E4
330
A
100
AcDbEntity
  8
PV
  6
Continuous
 62
   254
100
AcDbLine
 10
27.682
 20
132.0599999999999
 30
0.0
 11
28.456
 21
132.5069999999999
 31
0.0
  0
LINE
  5
E5
330
A
100
AcDbEntity
  8
PV
  6
Continuous
 62
   254
100
AcDbLine
 10
26.999
 20
132.2429999999999
 30
0.0
 11
21.499
 21
141.77
 31
0.0
  0
LINE
  5
E6
330
A
100
AcDbEntity
  8
PV
  6
Continuous
 62
   254
100
AcDbLine
 10
21.682
 20
142.453
 30
0.0
 11
22.456
 21
142.9
 31
0.0
  0
LINE
  5
E7
330
A
100
AcDbEntity
  8
PV
  6
Continuous
 62
   254
100
AcDbLine
 10
6.0
 20
151.506
 30
0.0
 11
6.0
 21
152.4
 31
0.0
  0
LINE
  5
E8
330
A
100
AcDbEntity
  8
PV
  6
Continuous
 62
   254
100
AcDbLine
 10
5.5
 20
151.006
 30
0.0
 11
-5.5
 21
151.006
 31
0.0
  0
LINE
  5
E9
330
A
100
AcDbEntity
  8
PV
  6
Continuous
 62
   254
100
AcDbLine
 10
-6.0
 20
151.506
 30
0.0
 11
-6.0
 21
152.4
 31
0.0
  0
LINE
  5
EA
330
A
100
AcDbEntity
  8
PV
  6
Continuous
 62
   254
100
AcDbLine
 10
-21.682
 20
142.453
 30
0.0
 11
-22.456
 21
142.9
 31
0.0
  0
LINE
  5
EB
330
A
100
AcDbEntity
  8
PV
  6
Continuous
 62
   254
100
AcDbLine
 10
-21.499
 20
141.77
 30
0.0
 11
-26.999
 21
132.2429999999999
 31
0.0
  0
LINE
  5
EC
330
A
100
AcDbEntity
  8
PV
  6
Continuous
 62
   254
100
AcDbLine
 10
-27.682
 20
132.0599999999999
 30
0.0
 11
-28.456
 21
132.5069999999999
 31
0.0
  0
LINE
  5
ED
330
A
100
AcDbEntity
  8
PV
  6
CENTER
 62
     7
100
AcDbLine
 10
-86.041
 20
-88.49999999999999
 30
0.0
 11
-8.057999999999999
 21
-88.49999999999999
 31
0.0
  0
LINE
  5
EE
330
A
100
AcDbEntity
  8
PV
  6
Continuous
 62
     7
100
AcDbLine
 10
-57.3
 20
144.5059999999999
 30
0.0
 11
-40.49999999999999
 21
144.5059999999999
 31
0.0
  0
LINE
  5
EF
330
A
100
AcDbEntity
  8
PV
  6
Continuous
 62
     7
100
AcDbLine
 10
-57.3
 20
101.506
 30
0.0
 11
-40.49999999999999
 21
101.506
 31
0.0
  0
LINE
  5
F0
330
A
100
AcDbEntity
  8
PV
  6
Continuous
 62
     7
100
AcDbLine
 10
-57.3
 20
123.0059999999999
 30
0.0
 11
-57.3
 21
156.8559999999999
 31
0.0
  0
LINE
  5
F1
330
A
100
AcDbEntity
  8
PV
  6
Continuous
 62
     7
100
AcDbLine
 10
-70.0
 20
123.0059999999999
 30
0.0
 11
-70.0
 21
89.15600000000001
 31
0.0
  0
LINE
  5
F2
330
A
100
AcDbEntity
  8
PV
  6
Continuous
 62
     7
100
AcDbLine
 10
-69.2
 20
88.35600000000001
 30
0.0
 11
-58.1
 21
88.35600000000001
 31
0.0
  0
LINE
  5
F3
330
A
100
AcDbEntity
  8
PV
  6
Continuous
 62
     7
100
AcDbLine
 10
-70.0
 20
89.15600000000001
 30
0.0
 11
-69.2
 21
88.35600000000001
 31
0.0
  0
LINE
  5
F4
330
A
100
AcDbEntity
  8
PV
  6
Continuous
 62
     7
100
AcDbLine
 10
-57.3
 20
89.15600000000001
 30
0.0
 11
-58.1
 21
88.35600000000001
 31
0.0
  0
LINE
  5
F5
330
A
100
AcDbEntity
  8
PV
  6
Continuous
 62
     7
100
AcDbLine
 10
-69.2
 20
88.35600000000001
 30
0.0
 11
-69.2
 21
123.0059999999999
 31
0.0
  0
LINE
  5
F6
330
A
100
AcDbEntity
  8
PV
  6
Continuous
 62
     7
100
AcDbLine
 10
-58.1
 20
88.35600000000001
 30
0.0
 11
-58.1
 21
123.0059999999999
 31
0.0
  0
LINE
  5
F7
330
A
100
AcDbEntity
  8
PV
  6
Continuous
 62
     7
100
AcDbLine
 10
-57.3
 20
123.0059999999999
 30
0.0
 11
-57.3
 21
89.15600000000001
 31
0.0
  0
LINE
  5
F8
330
A
100
AcDbEntity
  8
PV
  6
Continuous
 62
     7
100
AcDbLine
 10
-70.0
 20
123.0059999999999
 30
0.0
 11
-70.0
 21
156.8559999999999
 31
0.0
  0
LINE
  5
F9
330
A
100
AcDbEntity
  8
PV
  6
Continuous
 62
     7
100
AcDbLine
 10
-69.2
 20
157.656
 30
0.0
 11
-58.1
 21
157.656
 31
0.0
  0
LINE
  5
FA
330
A
100
AcDbEntity
  8
PV
  6
Continuous
 62
     7
100
AcDbLine
 10
-70.0
 20
156.8559999999999
 30
0.0
 11
-69.2
 21
157.656
 31
0.0
  0
LINE
  5
FB
330
A
100
AcDbEntity
  8
PV
  6
Continuous
 62
     7
100
AcDbLine
 10
-57.3
 20
156.8559999999999
 30
0.0
 11
-58.1
 21
157.656
 31
0.0
  0
LINE
  5
FC
330
A
100
AcDbEntity
  8
PV
  6
Continuous
 62
     7
100
AcDbLine
 10
-69.2
 20
157.656
 30
0.0
 11
-69.2
 21
123.0059999999999
 31
0.0
  0
LINE
  5
FD
330
A
100
AcDbEntity
  8
PV
  6
Continuous
 62
     7
100
AcDbLine
 10
-58.1
 20
157.656
 30
0.0
 11
-58.1
 21
123.0059999999999
 31
0.0
  0
LINE
  5
FE
330
A
100
AcDbEntity
  8
PV
  6
Continuous
 62
     7
100
AcDbLine
 10
33.85
 20
-145.8
 30
0.0
 11
34.64999999999999
 21
-146.6
 31
0.0
  0
LINE
  5
FF
330
A
100
AcDbEntity
  8
PV
  6
Continuous
 62
     7
100
AcDbLine
 10
21.35
 20
-120.5
 30
0.0
 11
21.35
 21
-145.8
 31
0.0
  0
LINE
  5
100
330
A
100
AcDbEntity
  8
PV
  6
Continuous
 62
     7
100
AcDbLine
 10
-58.1
 20
-53.85
 30
0.0
 11
-58.1
 21
-123.15
 31
0.0
  0
LINE
  5
101
330
A
100
AcDbEntity
  8
PV
  6
CENTER
 62
     7
100
AcDbLine
 10
0.0
 20
28.70599999999999
 30
0.0
 11
0.0
 21
-165.57008
 31
0.0
  0
LINE
  5
102
330
A
100
AcDbEntity
  8
PV
  6
CENTER
 62
     7
100
AcDbLine
 10
-31.0
 20
-25.733
 30
0.0
 11
-31.0
 21
-59.112
 31
0.0
  0
LINE
  5
103
330
A
100
AcDbEntity
  8
PV
  6
CENTER
 62
     7
100
AcDbLine
 10
31.0
 20
-25.733
 30
0.0
 11
31.0
 21
-58.915
 31
0.0
  0
LINE
  5
104
330
A
100
AcDbEntity
  8
PV
  6
Continuous
 62
     7
100
AcDbLine
 10
31.0
 20
-120.5
 30
0.0
 11
-31.0
 21
-120.5
 31
0.0
  0
LINE
  5
105
330
A
100
AcDbEntity
  8
PV
  6
Continuous
 62
     7
100
AcDbLine
 10
-38.0
 20
-56.538
 30
0.0
 11
-38.0
 21
-67.15
 31
0.0
  0
LINE
  5
106
330
A
100
AcDbEntity
  8
PV
  6
Continuous
 62
     7
100
AcDbLine
 10
-40.49999999999999
 20
-56.5
 30
0.0
 11
40.49999999999999
 21
-56.5
 31
0.0
  0
LINE
  5
107
330
A
100
AcDbEntity
  8
PV
  6
Continuous
 62
     7
100
AcDbLine
 10
-33.85
 20
-158.4999999999999
 30
0.0
 11
0.0
 21
-158.4999999999999
 31
0.0
  0
LINE
  5
108
330
A
100
AcDbEntity
  8
PV
  6
Continuous
 62
     7
100
AcDbLine
 10
-34.64999999999999
 20
-157.6999999999999
 30
0.0
 11
-33.85
 21
-158.4999999999999
 31
0.0
  0
LINE
  5
109
330
A
100
AcDbEntity
  8
PV
  6
Continuous
 62
     7
100
AcDbLine
 10
-34.64999999999999
 20
-157.6999999999999
 30
0.0
 11
-34.64999999999999
 21
-146.6
 31
0.0
  0
LINE
  5
10A
330
A
100
AcDbEntity
  8
PV
  6
Continuous
 62
     7
100
AcDbLine
 10
-33.85
 20
-145.8
 30
0.0
 11
-34.64999999999999
 21
-146.6
 31
0.0
  0
LINE
  5
10B
330
A
100
AcDbEntity
  8
PV
  6
Continuous
 62
     7
100
AcDbLine
 10
-33.85
 20
-145.8
 30
0.0
 11
33.85
 21
-145.8
 31
0.0
  0
LINE
  5
10C
330
A
100
AcDbEntity
  8
PV
  6
Continuous
 62
     7
100
AcDbLine
 10
-21.35
 20
-120.5
 30
0.0
 11
-21.35
 21
-145.8
 31
0.0
  0
LINE
  5
10D
330
A
100
AcDbEntity
  8
PV
  6
Continuous
 62
     7
100
AcDbLine
 10
-40.49999999999999
 20
-45.0
 30
0.0
 11
40.49999999999999
 21
-45.0
 31
0.0
  0
LINE
  5
10E
330
A
100
AcDbEntity
  8
PV
  6
Continuous
 62
     7
100
AcDbLine
 10
-39.5
 20
-29.0
 30
0.0
 11
39.5
 21
-29.0
 31
0.0
  0
LINE
  5
10F
330
A
100
AcDbEntity
  8
PV
  6
Continuous
 62
     7
100
AcDbLine
 10
-34.64999999999999
 20
-157.6999999999999
 30
0.0
 11
34.64999999999999
 21
-157.6999999999999
 31
0.0
  0
LINE
  5
110
330
A
100
AcDbEntity
  8
PV
  6
CENTER
 62
     7
100
AcDbLine
 10
29.35
 20
-141.619
 30
0.0
 11
29.35
 21
-162.774
 31
0.0
  0
LINE
  5
111
330
A
100
AcDbEntity
  8
PV
  6
CENTER
 62
     7
100
AcDbLine
 10
-29.35
 20
-141.8829999999999
 30
0.0
 11
-29.35
 21
-162.6419999999999
 31
0.0
  0
LINE
  5
112
330
A
100
AcDbEntity
  8
PV
  6
Continuous
 62
     7
100
AcDbLine
 10
-35.5
 20
-45.056
 30
0.0
 11
-35.5
 21
-56.5
 31
0.0
  0
LINE
  5
113
330
A
100
AcDbEntity
  8
PV
  6
Continuous
 62
     7
100
AcDbLine
 10
35.5
 20
-45.15399999999999
 30
0.0
 11
35.5
 21
-56.5
 31
0.0
  0
LINE
  5
114
330
A
100
AcDbEntity
  8
PV
  6
Continuous
 62
     7
100
AcDbLine
 10
35.5
 20
-45.0
 30
0.0
 11
35.5
 21
-29.0
 31
0.0
  0
LINE
  5
115
330
A
100
AcDbEntity
  8
PV
  6
PHANTOM
 62
     7
100
AcDbLine
 10
-30.0
 20
-1.5
 30
0.0
 11
30.0
 21
-1.5
 31
0.0
  0
LINE
  5
116
330
A
100
AcDbEntity
  8
PV
  6
PHANTOM
 62
     7
100
AcDbLine
 10
-27.078
 20
23.5
 30
0.0
 11
27.078
 21
23.5
 31
0.0
  0
LINE
  5
117
330
A
100
AcDbEntity
  8
PV
  6
PHANTOM
 62
     7
100
AcDbLine
 10
-30.0
 20
-1.5
 30
0.0
 11
-29.077
 21
21.57999999999999
 31
0.0
  0
LINE
  5
118
330
A
100
AcDbEntity
  8
PV
  6
PHANTOM
 62
     7
100
AcDbLine
 10
29.077
 20
21.57999999999999
 30
0.0
 11
30.0
 21
-1.5
 31
0.0
  0
LINE
  5
119
330
A
100
AcDbEntity
  8
PV
  6
Continuous
 62
     7
100
AcDbLine
 10
-6.0
 20
8.5
 30
0.0
 11
-6.0
 21
-5.5
 31
0.0
  0
LINE
  5
11A
330
A
100
AcDbEntity
  8
PV
  6
Continuous
 62
     7
100
AcDbLine
 10
6.0
 20
8.5
 30
0.0
 11
6.0
 21
-5.5
 31
0.0
  0
LINE
  5
11B
330
A
100
AcDbEntity
  8
PV
  6
Continuous
 62
     7
100
AcDbLine
 10
-25.5
 20
9.5
 30
0.0
 11
25.5
 21
9.5
 31
0.0
  0
LINE
  5
11C
330
A
100
AcDbEntity
  8
PV
  6
DASHED
 62
     7
100
AcDbLine
 10
25.0
 20
9.5
 30
0.0
 11
25.0
 21
9.199999999999999
 31
0.0
  0
LINE
  5
11D
330
A
100
AcDbEntity
  8
PV
  6
DASHED
 62
     7
100
AcDbLine
 10
-25.0
 20
9.5
 30
0.0
 11
-25.0
 21
9.199999999999999
 31
0.0
  0
LINE
  5
11E
330
A
100
AcDbEntity
  8
PV
  6
PHANTOM
 62
     7
100
AcDbLine
 10
-25.5
 20
24.5
 30
0.0
 11
25.5
 21
24.5
 31
0.0
  0
LINE
  5
11F
330
A
100
AcDbEntity
  8
PV
  6
DASHED
 62
     7
100
AcDbLine
 10
-25.0
 20
9.199999999999999
 30
0.0
 11
25.0
 21
9.199999999999999
 31
0.0
  0
LINE
  5
120
330
A
100
AcDbEntity
  8
PV
  6
Continuous
 62
     7
100
AcDbLine
 10
-22.456
 20
8.5
 30
0.0
 11
-22.456
 21
-5.5
 31
0.0
  0
LINE
  5
121
330
A
100
AcDbEntity
  8
PV
  6
Continuous
 62
     7
100
AcDbLine
 10
-28.456
 20
7.95
 30
0.0
 11
-28.456
 21
-5.5
 31
0.0
  0
LINE
  5
122
330
A
100
AcDbEntity
  8
PV
  6
Continuous
 62
     7
100
AcDbLine
 10
-27.256
 20
8.5
 30
0.0
 11
-27.256
 21
-5.5
 31
0.0
  0
LINE
  5
123
330
A
100
AcDbEntity
  8
PV
  6
Continuous
 62
     7
100
AcDbLine
 10
-26.072
 20
-9.882999999999999
 30
0.0
 11
-24.82699999999999
 21
-11.367
 31
0.0
  0
LINE
  5
124
330
A
100
AcDbEntity
  8
PV
  6
Continuous
 62
     7
100
AcDbLine
 10
28.456
 20
7.95
 30
0.0
 11
28.456
 21
-5.5
 31
0.0
  0
LINE
  5
125
330
A
100
AcDbEntity
  8
PV
  6
Continuous
 62
     7
100
AcDbLine
 10
27.256
 20
8.5
 30
0.0
 11
27.256
 21
-5.5
 31
0.0
  0
LINE
  5
126
330
A
100
AcDbEntity
  8
PV
  6
Continuous
 62
     7
100
AcDbLine
 10
26.072
 20
-9.882999999999999
 30
0.0
 11
24.82699999999999
 21
-11.367
 31
0.0
  0
LINE
  5
127
330
A
100
AcDbEntity
  8
PV
  6
Continuous
 62
     7
100
AcDbLine
 10
-26.0
 20
-24.0
 30
0.0
 11
26.0
 21
-24.0
 31
0.0
  0
LINE
  5
128
330
A
100
AcDbEntity
  8
PV
  6
Continuous
 62
     7
100
AcDbLine
 10
-4.0
 20
-16.5
 30
0.0
 11
-4.0
 21
-24.0
 31
0.0
  0
LINE
  5
129
330
A
100
AcDbEntity
  8
PV
  6
Continuous
 62
     7
100
AcDbLine
 10
4.0
 20
-16.5
 30
0.0
 11
4.0
 21
-24.0
 31
0.0
  0
LINE
  5
12A
330
A
100
AcDbEntity
  8
PV
  6
Continuous
 62
     7
100
AcDbLine
 10
-35.5
 20
-45.0
 30
0.0
 11
-35.5
 21
-29.0
 31
0.0
  0
LINE
  5
12B
330
A
100
AcDbEntity
  8
PV
  6
Continuous
 62
     7
100
AcDbLine
 10
-30.0
 20
-16.5
 30
0.0
 11
30.0
 21
-16.5
 31
0.0
  0
LINE
  5
12C
330
A
100
AcDbEntity
  8
PV
  6
Continuous
 62
     7
100
AcDbLine
 10
-30.0
 20
-16.5
 30
0.0
 11
-29.077
 21
6.58
 31
0.0
  0
LINE
  5
12D
330
A
100
AcDbEntity
  8
PV
  6
Continuous
 62
     7
100
AcDbLine
 10
-27.078
 20
8.5
 30
0.0
 11
27.078
 21
8.5
 31
0.0
  0
LINE
  5
12E
330
A
100
AcDbEntity
  8
PV
  6
Continuous
 62
     7
100
AcDbLine
 10
-25.5
 20
9.5
 30
0.0
 11
25.5
 21
9.5
 31
0.0
  0
LINE
  5
12F
330
A
100
AcDbEntity
  8
PV
  6
Continuous
 62
     7
100
AcDbLine
 10
29.077
 20
6.58
 30
0.0
 11
30.0
 21
-16.5
 31
0.0
  0
LINE
  5
130
330
A
100
AcDbEntity
  8
PV
  6
Continuous
 62
     7
100
AcDbLine
 10
-40.49999999999999
 20
-45.056
 30
0.0
 11
-40.49999999999999
 21
-56.5
 31
0.0
  0
LINE
  5
131
330
A
100
AcDbEntity
  8
PV
  6
Continuous
 62
     7
100
AcDbLine
 10
-40.49999999999999
 20
-30.0
 30
0.0
 11
-40.49999999999999
 21
-45.0
 31
0.0
  0
LINE
  5
132
330
A
100
AcDbEntity
  8
PV
  6
Continuous
 62
     7
100
AcDbLine
 10
40.49999999999999
 20
-45.056
 30
0.0
 11
40.49999999999999
 21
-56.5
 31
0.0
  0
LINE
  5
133
330
A
100
AcDbEntity
  8
PV
  6
Continuous
 62
     7
100
AcDbLine
 10
40.49999999999999
 20
-29.928
 30
0.0
 11
40.49999999999999
 21
-45.0
 31
0.0
  0
LINE
  5
134
330
A
100
AcDbEntity
  8
PV
  6
Continuous
 62
     7
100
AcDbLine
 10
38.0
 20
-56.701
 30
0.0
 11
38.0
 21
-113.5
 31
0.0
  0
LINE
  5
135
330
A
100
AcDbEntity
  8
PV
  6
Continuous
 62
     7
100
AcDbLine
 10
-38.0
 20
-109.85
 30
0.0
 11
-38.0
 21
-113.5
 31
0.0
  0
LINE
  5
136
330
A
100
AcDbEntity
  8
PV
  6
Continuous
 62
     7
100
AcDbLine
 10
39.5
 20
-29.0
 30
0.0
 11
40.49999999999999
 21
-30.0
 31
0.0
  0
LINE
  5
137
330
A
100
AcDbEntity
  8
PV
  6
Continuous
 62
     7
100
AcDbLine
 10
-39.5
 20
-29.0
 30
0.0
 11
-40.49999999999999
 21
-30.0
 31
0.0
  0
LINE
  5
138
330
A
100
AcDbEntity
  8
PV
  6
Continuous
 62
     7
100
AcDbLine
 10
38.0
 20
-113.5
 30
0.0
 11
31.0
 21
-120.5
 31
0.0
  0
LINE
  5
139
330
A
100
AcDbEntity
  8
PV
  6
Continuous
 62
     7
100
AcDbLine
 10
-31.0
 20
-120.5
 30
0.0
 11
-38.0
 21
-113.5
 31
0.0
  0
LINE
  5
13A
330
A
100
AcDbEntity
  8
PV
  6
Continuous
 62
     7
100
AcDbLine
 10
38.0
 20
-113.5
 30
0.0
 11
-38.0
 21
-113.5
 31
0.0
  0
LINE
  5
13B
330
A
100
AcDbEntity
  8
PV
  6
CENTER
 62
     7
100
AcDbLine
 10
-73.209
 20
93.656
 30
0.0
 11
-54.302
 21
93.656
 31
0.0
  0
LINE
  5
13C
330
A
100
AcDbEntity
  8
PV
  6
Continuous
 62
     7
100
AcDbLine
 10
-69.2
 20
-53.85
 30
0.0
 11
-69.2
 21
-123.15
 31
0.0
  0
LINE
  5
13D
330
A
100
AcDbEntity
  8
PV
  6
CENTER
 62
     7
100
AcDbLine
 10
-73.209
 20
152.3559999999999
 30
0.0
 11
-54.037
 21
152.3559999999999
 31
0.0
  0
LINE
  5
13E
330
A
100
AcDbEntity
  8
PV
  6
Continuous
 62
     7
100
AcDbLine
 10
-34.64999999999999
 20
-146.6
 30
0.0
 11
34.64999999999999
 21
-146.6
 31
0.0
  0
LINE
  5
13F
330
A
100
AcDbEntity
  8
PV
  6
Continuous
 62
     7
100
AcDbLine
 10
34.64999999999999
 20
-157.6999999999999
 30
0.0
 11
33.85
 21
-158.4999999999999
 31
0.0
  0
LINE
  5
140
330
A
100
AcDbEntity
  8
PV
  6
Continuous
 62
     7
100
AcDbLine
 10
33.85
 20
-158.4999999999999
 30
0.0
 11
0.0
 21
-158.4999999999999
 31
0.0
  0
LINE
  5
141
330
A
100
AcDbEntity
  8
PV
  6
Continuous
 62
     7
100
AcDbLine
 10
34.64999999999999
 20
-157.6999999999999
 30
0.0
 11
34.64999999999999
 21
-146.6
 31
0.0
  0
ARC
  5
142
330
A
100
AcDbEntity
  8
PV
  6
Continuous
 62
   254
100
AcDbCircle
 10
9.226
 20
153.5029999999999
 30
0.0
 40
1.790999999999999
100
AcDbArc
 50
268.6023769999999
 51
270.0000109999999
  0
ARC
  5
143
330
A
100
AcDbEntity
  8
PV
  6
Continuous
 62
   254
100
AcDbCircle
 10
0.0
 20
123.0059999999999
 30
0.0
 40
29.0
100
AcDbArc
 50
281.9405409999999
 51
318.0910859999999
  0
CIRCLE
  5
144
330
A
100
AcDbEntity
  8
PV
  6
Continuous
 62
   254
100
AcDbCircle
 10
0.0
 20
123.0059999999999
 30
0.0
 40
26.5
  0
ARC
  5
145
330
A
100
AcDbEntity
  8
PV
  6
Continuous
 62
   254
100
AcDbCircle
 10
-27.43199999999999
 20
113.5199999999999
 30
0.0
 40
0.5
100
AcDbArc
 50
30.000001
 51
120.0000029999999
  0
ARC
  5
146
330
A
100
AcDbEntity
  8
PV
  6
Continuous
 62
   254
100
AcDbCircle
 10
-21.932
 20
103.993
 30
0.0
 40
0.5
100
AcDbArc
 50
299.999998
 51
30.000001
  0
ARC
  5
147
330
A
100
AcDbEntity
  8
PV
  6
Continuous
 62
   254
100
AcDbCircle
 10
-5.5
 20
94.50599999999999
 30
0.0
 40
0.5
100
AcDbArc
 50
90.00000300000001
 51
180.000005
  0
ARC
  5
148
330
A
100
AcDbEntity
  8
PV
  6
Continuous
 62
   254
100
AcDbCircle
 10
5.5
 20
94.50599999999999
 30
0.0
 40
0.5
100
AcDbArc
 50
0.0
 51
90.00000300000001
  0
ARC
  5
149
330
A
100
AcDbEntity
  8
PV
  6
Continuous
 62
   254
100
AcDbCircle
 10
21.932
 20
103.993
 30
0.0
 40
0.5
100
AcDbArc
 50
149.999997
 51
240.0000069999999
  0
ARC
  5
14A
330
A
100
AcDbEntity
  8
PV
  6
Continuous
 62
   254
100
AcDbCircle
 10
27.43199999999999
 20
113.5199999999999
 30
0.0
 40
0.5
100
AcDbArc
 50
60.000002
 51
149.999997
  0
ARC
  5
14B
330
A
100
AcDbEntity
  8
PV
  6
Continuous
 62
   254
100
AcDbCircle
 10
27.43199999999999
 20
132.4929999999999
 30
0.0
 40
0.5
100
AcDbArc
 50
210.0000029999999
 51
299.999998
  0
ARC
  5
14C
330
A
100
AcDbEntity
  8
PV
  6
Continuous
 62
   254
100
AcDbCircle
 10
21.932
 20
142.02
 30
0.0
 40
0.5
100
AcDbArc
 50
120.0000029999999
 51
209.999999
  0
ARC
  5
14D
330
A
100
AcDbEntity
  8
PV
  6
Continuous
 62
   254
100
AcDbCircle
 10
5.5
 20
151.506
 30
0.0
 40
0.5
100
AcDbArc
 50
269.9999969999999
 51
0.0
  0
ARC
  5
14E
330
A
100
AcDbEntity
  8
PV
  6
Continuous
 62
   254
100
AcDbCircle
 10
-5.5
 20
151.506
 30
0.0
 40
0.5
100
AcDbArc
 50
179.9999909999999
 51
270.000001
  0
ARC
  5
14F
330
A
100
AcDbEntity
  8
PV
  6
Continuous
 62
   254
100
AcDbCircle
 10
-21.932
 20
142.02
 30
0.0
 40
0.5
100
AcDbArc
 50
329.9999989999999
 51
60.000002
  0
ARC
  5
150
330
A
100
AcDbEntity
  8
PV
  6
Continuous
 62
   254
100
AcDbCircle
 10
-27.43199999999999
 20
132.4929999999999
 30
0.0
 40
0.5
100
AcDbArc
 50
239.999997
 51
329.9999989999999
  0
ARC
  5
151
330
A
100
AcDbEntity
  8
PV
  6
Continuous
 62
   254
100
AcDbCircle
 10
0.0
 20
123.0059999999999
 30
0.0
 40
29.0
100
AcDbArc
 50
221.908916
 51
258.059454
  0
CIRCLE
  5
152
330
A
100
AcDbEntity
  8
PV
  6
Continuous
 62
   254
100
AcDbCircle
 10
0.0
 20
123.0059999999999
 30
0.0
 40
30.0
  0
ARC
  5
153
330
A
100
AcDbEntity
  8
PV
  6
Continuous
 62
   254
100
AcDbCircle
 10
0.0
 20
123.0059999999999
 30
0.0
 40
29.0
100
AcDbArc
 50
161.90891
 51
198.091086
  0
ARC
  5
154
330
A
100
AcDbEntity
  8
PV
  6
Continuous
 62
   254
100
AcDbCircle
 10
0.0
 20
123.0059999999999
 30
0.0
 40
29.0
100
AcDbArc
 50
101.908915
 51
138.091084
  0
ARC
  5
155
330
A
100
AcDbEntity
  8
PV
  6
Continuous
 62
   254
100
AcDbCircle
 10
0.0
 20
123.0059999999999
 30
0.0
 40
29.0
100
AcDbArc
 50
41.908914
 51
78.091083
  0
ARC
  5
156
330
A
100
AcDbEntity
  8
PV
  6
Continuous
 62
   254
100
AcDbCircle
 10
0.0
 20
123.0059999999999
 30
0.0
 40
29.0
100
AcDbArc
 50
341.908914
 51
18.09108599999999
  0
ARC
  5
157
330
A
100
AcDbEntity
  8
PV
  6
Continuous
 62
     7
100
AcDbCircle
 10
0.0
 20
123.0059999999999
 30
0.0
 40
53.0
100
AcDbArc
 50
220.168488
 51
229.831512
  0
ARC
  5
158
330
A
100
AcDbEntity
  8
PV
  6
Continuous
 62
     7
100
AcDbCircle
 10
0.0
 20
123.0059999999999
 30
0.0
 40
53.0
100
AcDbArc
 50
40.168486
 51
49.831527
  0
ARC
  5
159
330
A
100
AcDbEntity
  8
PV
  6
Continuous
 62
     7
100
AcDbCircle
 10
0.0
 20
123.0059999999999
 30
0.0
 40
53.0
100
AcDbArc
 50
130.1684749999999
 51
139.831512
  0
ARC
  5
15A
330
A
100
AcDbEntity
  8
PV
  6
Continuous
 62
     7
100
AcDbCircle
 10
0.0
 20
123.0059999999999
 30
0.0
 40
53.0
100
AcDbArc
 50
310.1684829999999
 51
319.831514
  0
CIRCLE
  5
15B
330
A
100
AcDbEntity
  8
PV
  6
Continuous
 62
     7
100
AcDbCircle
 10
-31.0
 20
92.00599999999999
 30
0.0
 40
7.5
  0
CIRCLE
  5
15C
330
A
100
AcDbEntity
  8
PV
  6
Continuous
 62
     7
100
AcDbCircle
 10
31.0
 20
92.00599999999999
 30
0.0
 40
7.5
  0
CIRCLE
  5
15D
330
A
100
AcDbEntity
  8
PV
  6
Continuous
 62
     7
100
AcDbCircle
 10
31.0
 20
154.0059999999999
 30
0.0
 40
7.5
  0
CIRCLE
  5
15E
330
A
100
AcDbEntity
  8
PV
  6
Continuous
 62
     7
100
AcDbCircle
 10
-31.0
 20
154.0059999999999
 30
0.0
 40
7.5
  0
ARC
  5
15F
330
A
100
AcDbEntity
  8
PV
  6
Continuous
 62
     7
100
AcDbCircle
 10
-69.616
 20
-88.49999999999999
 30
0.0
 40
38.14999999999999
100
AcDbArc
 50
325.9695459999999
 51
34.03045399999999
  0
ARC
  5
160
330
A
100
AcDbEntity
  8
PV
  6
PHANTOM
 62
     7
100
AcDbCircle
 10
-27.078
 20
21.49999999999999
 30
0.0
 40
2.0
100
AcDbArc
 50
90.00000300000001
 51
177.7093919999999
  0
ARC
  5
161
330
A
100
AcDbEntity
  8
PV
  6
PHANTOM
 62
     7
100
AcDbCircle
 10
27.078
 20
21.49999999999999
 30
0.0
 40
2.0
100
AcDbArc
 50
2.29061
 51
90.00000300000001
  0
ARC
  5
162
330
A
100
AcDbEntity
  8
PV
  6
Continuous
 62
     7
100
AcDbCircle
 10
0.0
 20
-5.5
 30
0.0
 40
6.0
100
AcDbArc
 50
179.9999909999999
 51
270.000001
  0
ARC
  5
163
330
A
100
AcDbEntity
  8
PV
  6
Continuous
 62
     7
100
AcDbCircle
 10
0.0
 20
-5.5
 30
0.0
 40
6.0
100
AcDbArc
 50
269.9999969999999
 51
0.0
  0
ARC
  5
164
330
A
100
AcDbEntity
  8
PV
  6
PHANTOM
 62
     7
100
AcDbCircle
 10
-25.5
 20
23.5
 30
0.0
 40
1.0
100
AcDbArc
 50
90.00000300000001
 51
180.000005
  0
ARC
  5
165
330
A
100
AcDbEntity
  8
PV
  6
PHANTOM
 62
     7
100
AcDbCircle
 10
25.5
 20
23.5
 30
0.0
 40
1.0
100
AcDbArc
 50
0.0
 51
90.00000300000001
  0
ARC
  5
166
330
A
100
AcDbEntity
  8
PV
  6
Continuous
 62
     7
100
AcDbCircle
 10
-31.0
 20
-24.0
 30
0.0
 40
5.0
100
AcDbArc
 50
269.9999969999999
 51
0.0
  0
ARC
  5
167
330
A
100
AcDbEntity
  8
PV
  6
Continuous
 62
     7
100
AcDbCircle
 10
31.0
 20
-24.0
 30
0.0
 40
5.0
100
AcDbArc
 50
179.9999909999999
 51
270.000001
  0
ARC
  5
168
330
A
100
AcDbEntity
  8
PV
  6
Continuous
 62
     7
100
AcDbCircle
 10
-27.078
 20
6.5
 30
0.0
 40
2.0
100
AcDbArc
 50
90.00000300000001
 51
177.7093919999999
  0
ARC
  5
169
330
A
100
AcDbEntity
  8
PV
  6
Continuous
 62
     7
100
AcDbCircle
 10
-25.5
 20
8.5
 30
0.0
 40
1.0
100
AcDbArc
 50
90.00000300000001
 51
180.000005
  0
ARC
  5
16A
330
A
100
AcDbEntity
  8
PV
  6
Continuous
 62
     7
100
AcDbCircle
 10
25.5
 20
8.5
 30
0.0
 40
1.0
100
AcDbArc
 50
0.0
 51
90.00000300000001
  0
ARC
  5
16B
330
A
100
AcDbEntity
  8
PV
  6
Continuous
 62
     7
100
AcDbCircle
 10
27.078
 20
6.5
 30
0.0
 40
2.0
100
AcDbArc
 50
2.29061
 51
90.00000300000001
  0
CIRCLE
  5
16C
330
A
100
AcDbEntity
  8
PV
  6
Continuous
 62
     7
100
AcDbCircle
 10
31.0
 20
92.00599999999999
 30
0.0
 40
7.5
  0
ARC
  5
16D
330
A
100
AcDbEntity
  8
PV
  6
Continuous
 62
     7
100
AcDbCircle
 10
0.0
 20
123.0059999999999
 30
0.0
 40
53.0
100
AcDbArc
 50
310.1684829999999
 51
319.831514
  0
ARC
  5
16E
330
A
100
AcDbEntity
  8
PV
  6
Continuous
 62
   254
100
AcDbCircle
 10
9.226
 20
153.5029999999999
 30
0.0
 40
1.790999999999999
100
AcDbArc
 50
268.6023769999999
 51
270.0000109999999
  0
ARC
  5
16F
330
A
100
AcDbEntity
  8
PV
  6
Continuous
 62
   254
100
AcDbCircle
 10
0.0
 20
123.0059999999999
 30
0.0
 40
29.0
100
AcDbArc
 50
281.9405409999999
 51
318.0910859999999
  0
CIRCLE
  5
170
330
A
100
AcDbEntity
  8
PV
  6
Continuous
 62
   254
100
AcDbCircle
 10
0.0
 20
123.0059999999999
 30
0.0
 40
26.5
  0
ARC
  5
171
330
A
100
AcDbEntity
  8
PV
  6
Continuous
 62
   254
100
AcDbCircle
 10
-27.43199999999999
 20
113.5199999999999
 30
0.0
 40
0.5
100
AcDbArc
 50
30.000001
 51
120.0000029999999
  0
ARC
  5
172
330
A
100
AcDbEntity
  8
PV
  6
Continuous
 62
   254
100
AcDbCircle
 10
-21.932
 20
103.993
 30
0.0
 40
0.5
100
AcDbArc
 50
299.999998
 51
30.000001
  0
ARC
  5
173
330
A
100
AcDbEntity
  8
PV
  6
Continuous
 62
   254
100
AcDbCircle
 10
-5.5
 20
94.50599999999999
 30
0.0
 40
0.5
100
AcDbArc
 50
90.00000300000001
 51
180.000005
  0
ARC
  5
174
330
A
100
AcDbEntity
  8
PV
  6
Continuous
 62
   254
100
AcDbCircle
 10
5.5
 20
94.50599999999999
 30
0.0
 40
0.5
100
AcDbArc
 50
0.0
 51
90.00000300000001
  0
ARC
  5
175
330
A
100
AcDbEntity
  8
PV
  6
Continuous
 62
   254
100
AcDbCircle
 10
21.932
 20
103.993
 30
0.0
 40
0.5
100
AcDbArc
 50
149.999997
 51
240.0000069999999
  0
ARC
  5
176
330
A
100
AcDbEntity
  8
PV
  6
Continuous
 62
   254
100
AcDbCircle
 10
27.43199999999999
 20
113.5199999999999
 30
0.0
 40
0.5
100
AcDbArc
 50
60.000002
 51
149.999997
  0
ARC
  5
177
330
A
100
AcDbEntity
  8
PV
  6
Continuous
 62
   254
100
AcDbCircle
 10
27.43199999999999
 20
132.4929999999999
 30
0.0
 40
0.5
100
AcDbArc
 50
210.0000029999999
 51
299.999998
  0
ARC
  5
178
330
A
100
AcDbEntity
  8
PV
  6
Continuous
 62
   254
100
AcDbCircle
 10
21.932
 20
142.02
 30
0.0
 40
0.5
100
AcDbArc
 50
120.0000029999999
 51
209.999999
  0
ARC
  5
179
330
A
100
AcDbEntity
  8
PV
  6
Continuous
 62
   254
100
AcDbCircle
 10
5.5
 20
151.506
 30
0.0
 40
0.5
100
AcDbArc
 50
269.9999969999999
 51
0.0
  0
ARC
  5
17A
330
A
100
AcDbEntity
  8
PV
  6
Continuous
 62
   254
100
AcDbCircle
 10
-5.5
 20
151.506
 30
0.0
 40
0.5
100
AcDbArc
 50
179.9999909999999
 51
270.000001
  0
ARC
  5
17B
330
A
100
AcDbEntity
  8
PV
  6
Continuous
 62
   254
100
AcDbCircle
 10
-21.932
 20
142.02
 30
0.0
 40
0.5
100
AcDbArc
 50
329.9999989999999
 51
60.000002
  0
ARC
  5
17C
330
A
100
AcDbEntity
  8
PV
  6
Continuous
 62
   254
100
AcDbCircle
 10
-27.43199999999999
 20
132.4929999999999
 30
0.0
 40
0.5
100
AcDbArc
 50
239.999997
 51
329.9999989999999
  0
ARC
  5
17D
330
A
100
AcDbEntity
  8
PV
  6
Continuous
 62
   254
100
AcDbCircle
 10
0.0
 20
123.0059999999999
 30
0.0
 40
29.0
100
AcDbArc
 50
221.908916
 51
258.059454
  0
CIRCLE
  5
17E
330
A
100
AcDbEntity
  8
PV
  6
Continuous
 62
   254
100
AcDbCircle
 10
0.0
 20
123.0059999999999
 30
0.0
 40
30.0
  0
ARC
  5
17F
330
A
100
AcDbEntity
  8
PV
  6
Continuous
 62
   254
100
AcDbCircle
 10
0.0
 20
123.0059999999999
 30
0.0
 40
29.0
100
AcDbArc
 50
161.90891
 51
198.091086
  0
ARC
  5
180
330
A
100
AcDbEntity
  8
PV
  6
Continuous
 62
   254
100
AcDbCircle
 10
0.0
 20
123.0059999999999
 30
0.0
 40
29.0
100
AcDbArc
 50
101.908915
 51
138.091084
  0
ARC
  5
181
330
A
100
AcDbEntity
  8
PV
  6
Continuous
 62
   254
100
AcDbCircle
 10
0.0
 20
123.0059999999999
 30
0.0
 40
29.0
100
AcDbArc
 50
41.908914
 51
78.091083
  0
ARC
  5
182
330
A
100
AcDbEntity
  8
PV
  6
Continuous
 62
   254
100
AcDbCircle
 10
0.0
 20
123.0059999999999
 30
0.0
 40
29.0
100
AcDbArc
 50
341.908914
 51
18.09108599999999
  0
ARC
  5
183
330
A
100
AcDbEntity
  8
PV
  6
Continuous
 62
     7
100
AcDbCircle
 10
0.0
 20
123.0059999999999
 30
0.0
 40
53.0
100
AcDbArc
 50
220.168488
 51
229.831512
  0
ARC
  5
184
330
A
100
AcDbEntity
  8
PV
  6
Continuous
 62
     7
100
AcDbCircle
 10
0.0
 20
123.0059999999999
 30
0.0
 40
53.0
100
AcDbArc
 50
40.168486
 51
49.831527
  0
ARC
  5
185
330
A
100
AcDbEntity
  8
PV
  6
Continuous
 62
     7
100
AcDbCircle
 10
0.0
 20
123.0059999999999
 30
0.0
 40
53.0
100
AcDbArc
 50
130.1684749999999
 51
139.831512
  0
CIRCLE
  5
186
330
A
100
AcDbEntity
  8
PV
  6
Continuous
 62
     7
100
AcDbCircle
 10
31.0
 20
154.0059999999999
 30
0.0
 40
7.5
  0
CIRCLE
  5
187
330
A
100
AcDbEntity
  8
PV
  6
Continuous
 62
     7
100
AcDbCircle
 10
-31.0
 20
92.00599999999999
 30
0.0
 40
7.5
  0
CIRCLE
  5
188
330
A
100
AcDbEntity
  8
PV
  6
Continuous
 62
     7
100
AcDbCircle
 10
-31.0
 20
154.0059999999999
 30
0.0
 40
7.5
  0
ARC
  5
189
330
A
100
AcDbEntity
  8
PV
  6
Continuous
 62
     7
100
AcDbCircle
 10
-69.616
 20
-88.49999999999999
 30
0.0
 40
38.14999999999999
100
AcDbArc
 50
325.9695459999999
 51
34.03045399999999
  0
ARC
  5
18A
330
A
100
AcDbEntity
  8
PV
  6
PHANTOM
 62
     7
100
AcDbCircle
 10
-27.078
 20
21.49999999999999
 30
0.0
 40
2.0
100
AcDbArc
 50
90.00000300000001
 51
177.7093919999999
  0
ARC
  5
18B
330
A
100
AcDbEntity
  8
PV
  6
PHANTOM
 62
     7
100
AcDbCircle
 10
27.078
 20
21.49999999999999
 30
0.0
 40
2.0
100
AcDbArc
 50
2.29061
 51
90.00000300000001
  0
ARC
  5
18C
330
A
100
AcDbEntity
  8
PV
  6
Continuous
 62
     7
100
AcDbCircle
 10
0.0
 20
-5.5
 30
0.0
 40
6.0
100
AcDbArc
 50
179.9999909999999
 51
270.000001
  0
ARC
  5
18D
330
A
100
AcDbEntity
  8
PV
  6
Continuous
 62
     7
100
AcDbCircle
 10
0.0
 20
-5.5
 30
0.0
 40
6.0
100
AcDbArc
 50
269.9999969999999
 51
0.0
  0
ARC
  5
18E
330
A
100
AcDbEntity
  8
PV
  6
PHANTOM
 62
     7
100
AcDbCircle
 10
-25.5
 20
23.5
 30
0.0
 40
1.0
100
AcDbArc
 50
90.00000300000001
 51
180.000005
  0
ARC
  5
18F
330
A
100
AcDbEntity
  8
PV
  6
PHANTOM
 62
     7
100
AcDbCircle
 10
25.5
 20
23.5
 30
0.0
 40
1.0
100
AcDbArc
 50
0.0
 51
90.00000300000001
  0
ARC
  5
190
330
A
100
AcDbEntity
  8
PV
  6
Continuous
 62
     7
100
AcDbCircle
 10
-31.0
 20
-24.0
 30
0.0
 40
5.0
100
AcDbArc
 50
269.9999969999999
 51
0.0
  0
ARC
  5
191
330
A
100
AcDbEntity
  8
PV
  6
Continuous
 62
     7
100
AcDbCircle
 10
31.0
 20
-24.0
 30
0.0
 40
5.0
100
AcDbArc
 50
179.9999909999999
 51
270.000001
  0
ARC
  5
192
330
A
100
AcDbEntity
  8
PV
  6
Continuous
 62
     7
100
AcDbCircle
 10
-27.078
 20
6.5
 30
0.0
 40
2.0
100
AcDbArc
 50
90.00000300000001
 51
177.7093919999999
  0
ARC
  5
193
330
A
100
AcDbEntity
  8
PV
  6
Continuous
 62
     7
100
AcDbCircle
 10
-25.5
 20
8.5
 30
0.0
 40
1.0
100
AcDbArc
 50
90.00000300000001
 51
180.000005
  0
ARC
  5
194
330
A
100
AcDbEntity
  8
PV
  6
Continuous
 62
     7
100
AcDbCircle
 10
25.5
 20
8.5
 30
0.0
 40
1.0
100
AcDbArc
 50
0.0
 51
90.00000300000001
  0
ARC
  5
195
330
A
100
AcDbEntity
  8
PV
  6
Continuous
 62
     7
100
AcDbCircle
 10
27.078
 20
6.5
 30
0.0
 40
2.0
100
AcDbArc
 50
2.29061
 51
90.00000300000001
  0
LWPOLYLINE
  5
196
330
A
100
AcDbEntity
  8
PV
  6
Continuous
 62
     7
100
AcDbPolyline
 90
       73
 70
     0
 43
0.0
 10
-28.456
 20
-5.5
 10
-28.453
 20
-5.762
 10
-28.444
 20
-6.022999999999999
 10
-28.42999999999999
 20
-6.282999999999999
 10
-28.41
 20
-6.542
 10
-28.385
 20
-6.798999999999999
 10
-28.35399999999999
 20
-7.052999999999999
 10
-28.31699999999999
 20
-7.303999999999999
 10
-28.275
 20
-7.552
 10
-28.22699999999999
 20
-7.796
 10
-28.175
 20
-8.035999999999999
 10
-28.117
 20
-8.269999999999999
 10
-28.054
 20
-8.5
 10
-27.986
 20
-8.724
 10
-27.913
 20
-8.941
 10
-27.83599999999999
 20
-9.152999999999998
 10
-27.754
 20
-9.357000000000001
 10
-27.668
 20
-9.554
 10
-27.57699999999999
 20
-9.743
 10
-27.483
 20
-9.923999999999999
 10
-27.384
 20
-10.096
 10
-27.28199999999999
 20
-10.26
 10
-27.177
 20
-10.41499999999999
 10
-27.068
 20
-10.56
 10
-26.956
 20
-10.696
 10
-26.84099999999999
 20
-10.822
 10
-26.724
 20
-10.93799999999999
 10
-26.604
 20
-11.043
 10
-26.482
 20
-11.138
 10
-26.358
 20
-11.222
 10
-26.232
 20
-11.29599999999999
 10
-26.105
 20
-11.35799999999999
 10
-25.97699999999999
 20
-11.409
 10
-25.84699999999999
 20
-11.449
 10
-25.71699999999999
 20
-11.477
 10
-25.58699999999999
 20
-11.494
 10
-25.456
 20
-11.5
 10
-25.325
 20
-11.494
 10
-25.194
 20
-11.477
 10
-25.064
 20
-11.449
 10
-24.935
 20
-11.409
 10
-24.807
 20
-11.35799999999999
 10
-24.679
 20
-11.29599999999999
 10
-24.554
 20
-11.222
 10
-24.43
 20
-11.138
 10
-24.308
 20
-11.043
 10
-24.188
 20
-10.93799999999999
 10
-24.07099999999999
 20
-10.822
 10
-23.95599999999999
 20
-10.696
 10
-23.844
 20
-10.56
 10
-23.73499999999999
 20
-10.41499999999999
 10
-23.62999999999999
 20
-10.26
 10
-23.527
 20
-10.096
 10
-23.429
 20
-9.923999999999999
 10
-23.335
 20
-9.743
 10
-23.244
 20
-9.554
 10
-23.158
 20
-9.357000000000001
 10
-23.076
 20
-9.152999999999998
 10
-22.998
 20
-8.941
 10
-22.92599999999999
 20
-8.724
 10
-22.858
 20
-8.5
 10
-22.795
 20
-8.269999999999999
 10
-22.73699999999999
 20
-8.035999999999999
 10
-22.684
 20
-7.796
 10
-22.63699999999999
 20
-7.552
 10
-22.595
 20
-7.303999999999999
 10
-22.558
 20
-7.052999999999999
 10
-22.52699999999999
 20
-6.798999999999999
 10
-22.50099999999999
 20
-6.542
 10
-22.482
 20
-6.282999999999999
 10
-22.467
 20
-6.022999999999999
 10
-22.459
 20
-5.762
 10
-22.456
 20
-5.5
  0
LWPOLYLINE
  5
197
330
A
100
AcDbEntity
  8
PV
  6
Continuous
 62
     7
100
AcDbPolyline
 90
       73
 70
     0
 43
0.0
 10
22.456
 20
-5.5
 10
22.459
 20
-5.762
 10
22.467
 20
-6.022999999999999
 10
22.482
 20
-6.282999999999999
 10
22.50099999999999
 20
-6.542
 10
22.52699999999999
 20
-6.798999999999999
 10
22.558
 20
-7.052999999999999
 10
22.595
 20
-7.303999999999999
 10
22.63699999999999
 20
-7.552
 10
22.684
 20
-7.796
 10
22.73699999999999
 20
-8.035999999999999
 10
22.795
 20
-8.269999999999999
 10
22.858
 20
-8.5
 10
22.92599999999999
 20
-8.724
 10
22.998
 20
-8.941
 10
23.076
 20
-9.152999999999998
 10
23.158
 20
-9.357000000000001
 10
23.244
 20
-9.554
 10
23.335
 20
-9.743
 10
23.429
 20
-9.923999999999999
 10
23.527
 20
-10.096
 10
23.62999999999999
 20
-10.26
 10
23.73499999999999
 20
-10.41499999999999
 10
23.844
 20
-10.56
 10
23.95599999999999
 20
-10.696
 10
24.07099999999999
 20
-10.822
 10
24.188
 20
-10.93799999999999
 10
24.308
 20
-11.043
 10
24.43
 20
-11.138
 10
24.554
 20
-11.222
 10
24.679
 20
-11.29599999999999
 10
24.807
 20
-11.35799999999999
 10
24.935
 20
-11.409
 10
25.064
 20
-11.449
 10
25.194
 20
-11.477
 10
25.325
 20
-11.494
 10
25.456
 20
-11.5
 10
25.58699999999999
 20
-11.494
 10
25.71699999999999
 20
-11.477
 10
25.84699999999999
 20
-11.449
 10
25.97699999999999
 20
-11.409
 10
26.105
 20
-11.35799999999999
 10
26.232
 20
-11.29599999999999
 10
26.358
 20
-11.222
 10
26.482
 20
-11.138
 10
26.604
 20
-11.043
 10
26.724
 20
-10.93799999999999
 10
26.84099999999999
 20
-10.822
 10
26.956
 20
-10.696
 10
27.068
 20
-10.56
 10
27.177
 20
-10.41499999999999
 10
27.28199999999999
 20
-10.26
 10
27.384
 20
-10.096
 10
27.483
 20
-9.923999999999999
 10
27.57699999999999
 20
-9.743
 10
27.668
 20
-9.554
 10
27.754
 20
-9.357000000000001
 10
27.83599999999999
 20
-9.152999999999998
 10
27.913
 20
-8.941
 10
27.986
 20
-8.724
 10
28.054
 20
-8.5
 10
28.117
 20
-8.269999999999999
 10
28.175
 20
-8.035999999999999
 10
28.22699999999999
 20
-7.796
 10
28.275
 20
-7.552
 10
28.31699999999999
 20
-7.303999999999999
 10
28.35399999999999
 20
-7.052999999999999
 10
28.385
 20
-6.798999999999999
 10
28.41
 20
-6.542
 10
28.42999999999999
 20
-6.282999999999999
 10
28.444
 20
-6.022999999999999
 10
28.453
 20
-5.762
 10
28.456
 20
-5.5
  0
LWPOLYLINE
  5
198
330
A
100
AcDbEntity
  8
PV
  6
Continuous
 62
     7
100
AcDbPolyline
 90
       73
 70
     0
 43
0.0
 10
-28.456
 20
-5.5
 10
-28.453
 20
-5.762
 10
-28.444
 20
-6.022999999999999
 10
-28.42999999999999
 20
-6.282999999999999
 10
-28.41
 20
-6.542
 10
-28.385
 20
-6.798999999999999
 10
-28.35399999999999
 20
-7.052999999999999
 10
-28.31699999999999
 20
-7.303999999999999
 10
-28.275
 20
-7.552
 10
-28.22699999999999
 20
-7.796
 10
-28.175
 20
-8.035999999999999
 10
-28.117
 20
-8.269999999999999
 10
-28.054
 20
-8.5
 10
-27.986
 20
-8.724
 10
-27.913
 20
-8.941
 10
-27.83599999999999
 20
-9.152999999999998
 10
-27.754
 20
-9.357000000000001
 10
-27.668
 20
-9.554
 10
-27.57699999999999
 20
-9.743
 10
-27.483
 20
-9.923999999999999
 10
-27.384
 20
-10.096
 10
-27.28199999999999
 20
-10.26
 10
-27.177
 20
-10.41499999999999
 10
-27.068
 20
-10.56
 10
-26.956
 20
-10.696
 10
-26.84099999999999
 20
-10.822
 10
-26.724
 20
-10.93799999999999
 10
-26.604
 20
-11.043
 10
-26.482
 20
-11.138
 10
-26.358
 20
-11.222
 10
-26.232
 20
-11.29599999999999
 10
-26.105
 20
-11.35799999999999
 10
-25.97699999999999
 20
-11.409
 10
-25.84699999999999
 20
-11.449
 10
-25.71699999999999
 20
-11.477
 10
-25.58699999999999
 20
-11.494
 10
-25.456
 20
-11.5
 10
-25.325
 20
-11.494
 10
-25.194
 20
-11.477
 10
-25.064
 20
-11.449
 10
-24.935
 20
-11.409
 10
-24.807
 20
-11.35799999999999
 10
-24.679
 20
-11.29599999999999
 10
-24.554
 20
-11.222
 10
-24.43
 20
-11.138
 10
-24.308
 20
-11.043
 10
-24.188
 20
-10.93799999999999
 10
-24.07099999999999
 20
-10.822
 10
-23.95599999999999
 20
-10.696
 10
-23.844
 20
-10.56
 10
-23.73499999999999
 20
-10.41499999999999
 10
-23.62999999999999
 20
-10.26
 10
-23.527
 20
-10.096
 10
-23.429
 20
-9.923999999999999
 10
-23.335
 20
-9.743
 10
-23.244
 20
-9.554
 10
-23.158
 20
-9.357000000000001
 10
-23.076
 20
-9.152999999999998
 10
-22.998
 20
-8.941
 10
-22.92599999999999
 20
-8.724
 10
-22.858
 20
-8.5
 10
-22.795
 20
-8.269999999999999
 10
-22.73699999999999
 20
-8.035999999999999
 10
-22.684
 20
-7.796
 10
-22.63699999999999
 20
-7.552
 10
-22.595
 20
-7.303999999999999
 10
-22.558
 20
-7.052999999999999
 10
-22.52699999999999
 20
-6.798999999999999
 10
-22.50099999999999
 20
-6.542
 10
-22.482
 20
-6.282999999999999
 10
-22.467
 20
-6.022999999999999
 10
-22.459
 20
-5.762
 10
-22.456
 20
-5.5
  0
LWPOLYLINE
  5
199
330
A
100
AcDbEntity
  8
PV
  6
Continuous
 62
     7
100
AcDbPolyline
 90
       73
 70
     0
 43
0.0
 10
22.456
 20
-5.5
 10
22.459
 20
-5.762
 10
22.467
 20
-6.022999999999999
 10
22.482
 20
-6.282999999999999
 10
22.50099999999999
 20
-6.542
 10
22.52699999999999
 20
-6.798999999999999
 10
22.558
 20
-7.052999999999999
 10
22.595
 20
-7.303999999999999
 10
22.63699999999999
 20
-7.552
 10
22.684
 20
-7.796
 10
22.73699999999999
 20
-8.035999999999999
 10
22.795
 20
-8.269999999999999
 10
22.858
 20
-8.5
 10
22.92599999999999
 20
-8.724
 10
22.998
 20
-8.941
 10
23.076
 20
-9.152999999999998
 10
23.158
 20
-9.357000000000001
 10
23.244
 20
-9.554
 10
23.335
 20
-9.743
 10
23.429
 20
-9.923999999999999
 10
23.527
 20
-10.096
 10
23.62999999999999
 20
-10.26
 10
23.73499999999999
 20
-10.41499999999999
 10
23.844
 20
-10.56
 10
23.95599999999999
 20
-10.696
 10
24.07099999999999
 20
-10.822
 10
24.188
 20
-10.93799999999999
 10
24.308
 20
-11.043
 10
24.43
 20
-11.138
 10
24.554
 20
-11.222
 10
24.679
 20
-11.29599999999999
 10
24.807
 20
-11.35799999999999
 10
24.935
 20
-11.409
 10
25.064
 20
-11.449
 10
25.194
 20
-11.477
 10
25.325
 20
-11.494
 10
25.456
 20
-11.5
 10
25.58699999999999
 20
-11.494
 10
25.71699999999999
 20
-11.477
 10
25.84699999999999
 20
-11.449
 10
25.97699999999999
 20
-11.409
 10
26.105
 20
-11.35799999999999
 10
26.232
 20
-11.29599999999999
 10
26.358
 20
-11.222
 10
26.482
 20
-11.138
 10
26.604
 20
-11.043
 10
26.724
 20
-10.93799999999999
 10
26.84099999999999
 20
-10.822
 10
26.956
 20
-10.696
 10
27.068
 20
-10.56
 10
27.177
 20
-10.41499999999999
 10
27.28199999999999
 20
-10.26
 10
27.384
 20
-10.096
 10
27.483
 20
-9.923999999999999
 10
27.57699999999999
 20
-9.743
 10
27.668
 20
-9.554
 10
27.754
 20
-9.357000000000001
 10
27.83599999999999
 20
-9.152999999999998
 10
27.913
 20
-8.941
 10
27.986
 20
-8.724
 10
28.054
 20
-8.5
 10
28.117
 20
-8.269999999999999
 10
28.175
 20
-8.035999999999999
 10
28.22699999999999
 20
-7.796
 10
28.275
 20
-7.552
 10
28.31699999999999
 20
-7.303999999999999
 10
28.35399999999999
 20
-7.052999999999999
 10
28.385
 20
-6.798999999999999
 10
28.41
 20
-6.542
 10
28.42999999999999
 20
-6.282999999999999
 10
28.444
 20
-6.022999999999999
 10
28.453
 20
-5.762
 10
28.456
 20
-5.5
  0
LINE
  5
19A
330
A
100
AcDbEntity
  8
PV
  6
Continuous
 62
     7
100
AcDbLine
 10
-18.07099999999999
 20
125.11
 30
0.0
 11
-17.67
 21
125.11
 31
0.0
  0
LINE
  5
19B
330
A
100
AcDbEntity
  8
PV
  6
Continuous
 62
     7
100
AcDbLine
 10
-17.4
 20
128.9099999999999
 30
0.0
 11
-17.062
 21
128.9099999999999
 31
0.0
  0
LINE
  5
19C
330
A
100
AcDbEntity
  8
PV
  6
Continuous
 62
     7
100
AcDbLine
 10
-15.487
 20
125.11
 30
0.0
 11
-14.816
 21
128.9099999999999
 31
0.0
  0
LINE
  5
19D
330
A
100
AcDbEntity
  8
PV
  6
Continuous
 62
     7
100
AcDbLine
 10
-15.749
 20
125.817
 30
0.0
 11
-15.204
 21
128.9099999999999
 31
0.0
  0
LINE
  5
19E
330
A
100
AcDbEntity
  8
PV
  6
Continuous
 62
     7
100
AcDbLine
 10
-17.67
 20
125.11
 30
0.0
 11
-17.146
 21
128.0839999999999
 31
0.0
  0
LINE
  5
19F
330
A
100
AcDbEntity
  8
PV
  6
Continuous
 62
     7
100
AcDbLine
 10
-18.07099999999999
 20
125.11
 30
0.0
 11
-17.4
 21
128.9099999999999
 31
0.0
  0
LINE
  5
1A0
330
A
100
AcDbEntity
  8
PV
  6
Continuous
 62
     7
100
AcDbLine
 10
-17.146
 20
128.0839999999999
 30
0.0
 11
-15.883
 21
125.11
 31
0.0
  0
LINE
  5
1A1
330
A
100
AcDbEntity
  8
PV
  6
Continuous
 62
     7
100
AcDbLine
 10
-17.062
 20
128.9099999999999
 30
0.0
 11
-15.749
 21
125.817
 31
0.0
  0
LINE
  5
1A2
330
A
100
AcDbEntity
  8
PV
  6
Continuous
 62
     7
100
AcDbLine
 10
-15.883
 20
125.11
 30
0.0
 11
-15.487
 21
125.11
 31
0.0
  0
LINE
  5
1A3
330
A
100
AcDbEntity
  8
PV
  6
Continuous
 62
     7
100
AcDbLine
 10
-15.204
 20
128.9099999999999
 30
0.0
 11
-14.816
 21
128.9099999999999
 31
0.0
  0
LINE
  5
1A4
330
A
100
AcDbEntity
  8
PV
  6
Continuous
 62
     7
100
AcDbLine
 10
-11.386
 20
127.01
 30
0.0
 11
-10.235
 21
127.01
 31
0.0
  0
LINE
  5
1A5
330
A
100
AcDbEntity
  8
PV
  6
Continuous
 62
     7
100
AcDbLine
 10
-10.694
 20
127.557
 30
0.0
 11
-10.318
 21
127.695
 31
0.0
  0
LINE
  5
1A6
330
A
100
AcDbEntity
  8
PV
  6
Continuous
 62
     7
100
AcDbLine
 10
-11.45299999999999
 20
126.6299999999999
 30
0.0
 11
-11.386
 21
127.01
 31
0.0
  0
LINE
  5
1A7
330
A
100
AcDbEntity
  8
PV
  6
Continuous
 62
     7
100
AcDbLine
 10
-11.45299999999999
 20
126.6299999999999
 30
0.0
 11
-10.696
 21
126.6299999999999
 31
0.0
  0
LINE
  5
1A8
330
A
100
AcDbEntity
  8
PV
  6
Continuous
 62
     7
100
AcDbLine
 10
-22.60099999999999
 20
125.11
 30
0.0
 11
-22.197
 21
125.11
 31
0.0
  0
LINE
  5
1A9
330
A
100
AcDbEntity
  8
PV
  6
Continuous
 62
     7
100
AcDbLine
 10
-21.218
 20
128.9099999999999
 30
0.0
 11
-20.804
 21
128.9099999999999
 31
0.0
  0
LINE
  5
1AA
330
A
100
AcDbEntity
  8
PV
  6
Continuous
 62
     7
100
AcDbLine
 10
-22.60099999999999
 20
125.11
 30
0.0
 11
-21.218
 21
128.9099999999999
 31
0.0
  0
LINE
  5
1AB
330
A
100
AcDbEntity
  8
PV
  6
Continuous
 62
     7
100
AcDbLine
 10
-22.197
 20
125.11
 30
0.0
 11
-21.903
 21
125.917
 31
0.0
  0
LINE
  5
1AC
330
A
100
AcDbEntity
  8
PV
  6
Continuous
 62
     7
100
AcDbLine
 10
-20.804
 20
128.9099999999999
 30
0.0
 11
-19.78599999999999
 21
125.11
 31
0.0
  0
LINE
  5
1AD
330
A
100
AcDbEntity
  8
PV
  6
Continuous
 62
     7
100
AcDbLine
 10
-21.03499999999999
 20
128.3029999999999
 30
0.0
 11
-20.501
 21
126.312
 31
0.0
  0
LINE
  5
1AE
330
A
100
AcDbEntity
  8
PV
  6
Continuous
 62
     7
100
AcDbLine
 10
-20.179
 20
125.11
 30
0.0
 11
-19.78599999999999
 21
125.11
 31
0.0
  0
LINE
  5
1AF
330
A
100
AcDbEntity
  8
PV
  6
Continuous
 62
     7
100
AcDbLine
 10
-21.903
 20
125.917
 30
0.0
 11
-20.39499999999999
 21
125.917
 31
0.0
  0
LINE
  5
1B0
330
A
100
AcDbEntity
  8
PV
  6
Continuous
 62
     7
100
AcDbLine
 10
-21.75899999999999
 20
126.312
 30
0.0
 11
-20.501
 21
126.312
 31
0.0
  0
LINE
  5
1B1
330
A
100
AcDbEntity
  8
PV
  6
Continuous
 62
     7
100
AcDbLine
 10
-21.75899999999999
 20
126.312
 30
0.0
 11
-21.03499999999999
 21
128.3029999999999
 31
0.0
  0
LINE
  5
1B2
330
A
100
AcDbEntity
  8
PV
  6
Continuous
 62
     7
100
AcDbLine
 10
-20.39499999999999
 20
125.917
 30
0.0
 11
-20.179
 21
125.11
 31
0.0
  0
LINE
  5
1B3
330
A
100
AcDbEntity
  8
PV
  6
Continuous
 62
     7
100
AcDbLine
 10
-8.824999999999999
 20
125.11
 30
0.0
 11
-6.766
 21
125.11
 31
0.0
  0
LINE
  5
1B4
330
A
100
AcDbEntity
  8
PV
  6
Continuous
 62
     7
100
AcDbLine
 10
-8.154999999999999
 20
128.9099999999999
 30
0.0
 11
-7.758999999999999
 21
128.9099999999999
 31
0.0
  0
LINE
  5
1B5
330
A
100
AcDbEntity
  8
PV
  6
Continuous
 62
     7
100
AcDbLine
 10
-6.766
 20
125.11
 30
0.0
 11
-6.693999999999999
 21
125.5149999999999
 31
0.0
  0
LINE
  5
1B6
330
A
100
AcDbEntity
  8
PV
  6
Continuous
 62
     7
100
AcDbLine
 10
-8.824999999999999
 20
125.11
 30
0.0
 11
-8.154999999999999
 21
128.9099999999999
 31
0.0
  0
LINE
  5
1B7
330
A
100
AcDbEntity
  8
PV
  6
Continuous
 62
     7
100
AcDbLine
 10
-8.357000000000001
 20
125.5149999999999
 30
0.0
 11
-7.758999999999999
 21
128.9099999999999
 31
0.0
  0
LINE
  5
1B8
330
A
100
AcDbEntity
  8
PV
  6
Continuous
 62
     7
100
AcDbLine
 10
-8.357000000000001
 20
125.5149999999999
 30
0.0
 11
-6.693999999999999
 21
125.5149999999999
 31
0.0
  0
LINE
  5
1B9
330
A
100
AcDbEntity
  8
PV
  6
Continuous
 62
     7
100
AcDbLine
 10
-4.310999999999999
 20
128.9099999999999
 30
0.0
 11
-2.534
 21
128.9099999999999
 31
0.0
  0
LINE
  5
1BA
330
A
100
AcDbEntity
  8
PV
  6
Continuous
 62
     7
100
AcDbLine
 10
-4.980999999999999
 20
125.11
 30
0.0
 11
-3.203999999999999
 21
125.11
 31
0.0
  0
LINE
  5
1BB
330
A
100
AcDbEntity
  8
PV
  6
Continuous
 62
     7
100
AcDbLine
 10
-4.980999999999999
 20
125.11
 30
0.0
 11
-4.310999999999999
 21
128.9099999999999
 31
0.0
  0
LINE
  5
1BC
330
A
100
AcDbEntity
  8
PV
  6
Continuous
 62
     7
100
AcDbLine
 10
-3.203999999999999
 20
125.11
 30
0.0
 11
-3.134999999999999
 21
125.497
 31
0.0
  0
LINE
  5
1BD
330
A
100
AcDbEntity
  8
PV
  6
Continuous
 62
     7
100
AcDbLine
 10
-4.291999999999999
 20
126.805
 30
0.0
 11
-2.904999999999999
 21
126.805
 31
0.0
  0
LINE
  5
1BE
330
A
100
AcDbEntity
  8
PV
  6
Continuous
 62
     7
100
AcDbLine
 10
-4.222999999999999
 20
127.1979999999999
 30
0.0
 11
-2.836
 21
127.1979999999999
 31
0.0
  0
LINE
  5
1BF
330
A
100
AcDbEntity
  8
PV
  6
Continuous
 62
     7
100
AcDbLine
 10
-3.993999999999999
 20
128.492
 30
0.0
 11
-2.606999999999999
 21
128.492
 31
0.0
  0
LINE
  5
1C0
330
A
100
AcDbEntity
  8
PV
  6
Continuous
 62
     7
100
AcDbLine
 10
-4.522
 20
125.497
 30
0.0
 11
-3.134999999999999
 21
125.497
 31
0.0
  0
LINE
  5
1C1
330
A
100
AcDbEntity
  8
PV
  6
Continuous
 62
     7
100
AcDbLine
 10
-4.522
 20
125.497
 30
0.0
 11
-4.291999999999999
 21
126.805
 31
0.0
  0
LINE
  5
1C2
330
A
100
AcDbEntity
  8
PV
  6
Continuous
 62
     7
100
AcDbLine
 10
-2.904999999999999
 20
126.805
 30
0.0
 11
-2.836
 21
127.1979999999999
 31
0.0
  0
LINE
  5
1C3
330
A
100
AcDbEntity
  8
PV
  6
Continuous
 62
     7
100
AcDbLine
 10
-2.606999999999999
 20
128.492
 30
0.0
 11
-2.534
 21
128.9099999999999
 31
0.0
  0
LINE
  5
1C4
330
A
100
AcDbEntity
  8
PV
  6
Continuous
 62
     7
100
AcDbLine
 10
-4.222999999999999
 20
127.1979999999999
 30
0.0
 11
-3.993999999999999
 21
128.492
 31
0.0
  0
LINE
  5
1C5
330
A
100
AcDbEntity
  8
PV
  6
Continuous
 62
     7
100
AcDbLine
 10
4.698999999999999
 20
125.11
 30
0.0
 11
5.102999999999999
 21
125.11
 31
0.0
  0
LINE
  5
1C6
330
A
100
AcDbEntity
  8
PV
  6
Continuous
 62
     7
100
AcDbLine
 10
6.082
 20
128.9099999999999
 30
0.0
 11
6.496
 21
128.9099999999999
 31
0.0
  0
LINE
  5
1C7
330
A
100
AcDbEntity
  8
PV
  6
Continuous
 62
     7
100
AcDbLine
 10
4.698999999999999
 20
125.11
 30
0.0
 11
6.082
 21
128.9099999999999
 31
0.0
  0
LINE
  5
1C8
330
A
100
AcDbEntity
  8
PV
  6
Continuous
 62
     7
100
AcDbLine
 10
5.102999999999999
 20
125.11
 30
0.0
 11
5.397
 21
125.917
 31
0.0
  0
LINE
  5
1C9
330
A
100
AcDbEntity
  8
PV
  6
Continuous
 62
     7
100
AcDbLine
 10
6.496
 20
128.9099999999999
 30
0.0
 11
7.513999999999999
 21
125.11
 31
0.0
  0
LINE
  5
1CA
330
A
100
AcDbEntity
  8
PV
  6
Continuous
 62
     7
100
AcDbLine
 10
6.264999999999999
 20
128.3029999999999
 30
0.0
 11
6.798999999999999
 21
126.312
 31
0.0
  0
LINE
  5
1CB
330
A
100
AcDbEntity
  8
PV
  6
Continuous
 62
     7
100
AcDbLine
 10
7.121
 20
125.11
 30
0.0
 11
7.513999999999999
 21
125.11
 31
0.0
  0
LINE
  5
1CC
330
A
100
AcDbEntity
  8
PV
  6
Continuous
 62
     7
100
AcDbLine
 10
5.397
 20
125.917
 30
0.0
 11
6.905
 21
125.917
 31
0.0
  0
LINE
  5
1CD
330
A
100
AcDbEntity
  8
PV
  6
Continuous
 62
     7
100
AcDbLine
 10
5.541
 20
126.312
 30
0.0
 11
6.798999999999999
 21
126.312
 31
0.0
  0
LINE
  5
1CE
330
A
100
AcDbEntity
  8
PV
  6
Continuous
 62
     7
100
AcDbLine
 10
5.541
 20
126.312
 30
0.0
 11
6.264999999999999
 21
128.3029999999999
 31
0.0
  0
LINE
  5
1CF
330
A
100
AcDbEntity
  8
PV
  6
Continuous
 62
     7
100
AcDbLine
 10
6.905
 20
125.917
 30
0.0
 11
7.121
 21
125.11
 31
0.0
  0
LINE
  5
1D0
330
A
100
AcDbEntity
  8
PV
  6
Continuous
 62
     7
100
AcDbLine
 10
8.974999999999999
 20
125.11
 30
0.0
 11
11.034
 21
125.11
 31
0.0
  0
LINE
  5
1D1
330
A
100
AcDbEntity
  8
PV
  6
Continuous
 62
     7
100
AcDbLine
 10
9.644999999999999
 20
128.9099999999999
 30
0.0
 11
10.04099999999999
 21
128.9099999999999
 31
0.0
  0
LINE
  5
1D2
330
A
100
AcDbEntity
  8
PV
  6
Continuous
 62
     7
100
AcDbLine
 10
16.989
 20
128.9099999999999
 30
0.0
 11
18.76599999999999
 21
128.9099999999999
 31
0.0
  0
LINE
  5
1D3
330
A
100
AcDbEntity
  8
PV
  6
Continuous
 62
     7
100
AcDbLine
 10
16.319
 20
125.11
 30
0.0
 11
18.096
 21
125.11
 31
0.0
  0
LINE
  5
1D4
330
A
100
AcDbEntity
  8
PV
  6
Continuous
 62
     7
100
AcDbLine
 10
11.034
 20
125.11
 30
0.0
 11
11.106
 21
125.5149999999999
 31
0.0
  0
LINE
  5
1D5
330
A
100
AcDbEntity
  8
PV
  6
Continuous
 62
     7
100
AcDbLine
 10
8.974999999999999
 20
125.11
 30
0.0
 11
9.644999999999999
 21
128.9099999999999
 31
0.0
  0
LINE
  5
1D6
330
A
100
AcDbEntity
  8
PV
  6
Continuous
 62
     7
100
AcDbLine
 10
9.442999999999999
 20
125.5149999999999
 30
0.0
 11
10.04099999999999
 21
128.9099999999999
 31
0.0
  0
LINE
  5
1D7
330
A
100
AcDbEntity
  8
PV
  6
Continuous
 62
     7
100
AcDbLine
 10
9.442999999999999
 20
125.5149999999999
 30
0.0
 11
11.106
 21
125.5149999999999
 31
0.0
  0
LINE
  5
1D8
330
A
100
AcDbEntity
  8
PV
  6
Continuous
 62
     7
100
AcDbLine
 10
16.319
 20
125.11
 30
0.0
 11
16.989
 21
128.9099999999999
 31
0.0
  0
LINE
  5
1D9
330
A
100
AcDbEntity
  8
PV
  6
Continuous
 62
     7
100
AcDbLine
 10
18.096
 20
125.11
 30
0.0
 11
18.16499999999999
 21
125.497
 31
0.0
  0
LINE
  5
1DA
330
A
100
AcDbEntity
  8
PV
  6
Continuous
 62
     7
100
AcDbLine
 10
17.008
 20
126.805
 30
0.0
 11
18.395
 21
126.805
 31
0.0
  0
LINE
  5
1DB
330
A
100
AcDbEntity
  8
PV
  6
Continuous
 62
     7
100
AcDbLine
 10
17.077
 20
127.1979999999999
 30
0.0
 11
18.464
 21
127.1979999999999
 31
0.0
  0
LINE
  5
1DC
330
A
100
AcDbEntity
  8
PV
  6
Continuous
 62
     7
100
AcDbLine
 10
17.30599999999999
 20
128.492
 30
0.0
 11
18.69299999999999
 21
128.492
 31
0.0
  0
LINE
  5
1DD
330
A
100
AcDbEntity
  8
PV
  6
Continuous
 62
     7
100
AcDbLine
 10
16.77799999999999
 20
125.497
 30
0.0
 11
18.16499999999999
 21
125.497
 31
0.0
  0
LINE
  5
1DE
330
A
100
AcDbEntity
  8
PV
  6
Continuous
 62
     7
100
AcDbLine
 10
16.77799999999999
 20
125.497
 30
0.0
 11
17.008
 21
126.805
 31
0.0
  0
LINE
  5
1DF
330
A
100
AcDbEntity
  8
PV
  6
Continuous
 62
     7
100
AcDbLine
 10
18.395
 20
126.805
 30
0.0
 11
18.464
 21
127.1979999999999
 31
0.0
  0
LINE
  5
1E0
330
A
100
AcDbEntity
  8
PV
  6
Continuous
 62
     7
100
AcDbLine
 10
18.69299999999999
 20
128.492
 30
0.0
 11
18.76599999999999
 21
128.9099999999999
 31
0.0
  0
LINE
  5
1E1
330
A
100
AcDbEntity
  8
PV
  6
Continuous
 62
     7
100
AcDbLine
 10
17.077
 20
127.1979999999999
 30
0.0
 11
17.30599999999999
 21
128.492
 31
0.0
  0
LINE
  5
1E2
330
A
100
AcDbEntity
  8
PV
  6
Continuous
 62
     7
100
AcDbLine
 10
13.174
 20
125.11
 30
0.0
 11
13.658
 21
125.11
 31
0.0
  0
LINE
  5
1E3
330
A
100
AcDbEntity
  8
PV
  6
Continuous
 62
     7
100
AcDbLine
 10
12.504
 20
128.9099999999999
 30
0.0
 11
12.9
 21
128.9099999999999
 31
0.0
  0
LINE
  5
1E4
330
A
100
AcDbEntity
  8
PV
  6
Continuous
 62
     7
100
AcDbLine
 10
13.658
 20
125.11
 30
0.0
 11
15.041
 21
128.9099999999999
 31
0.0
  0
LINE
  5
1E5
330
A
100
AcDbEntity
  8
PV
  6
Continuous
 62
     7
100
AcDbLine
 10
13.465
 20
125.7079999999999
 30
0.0
 11
14.63
 21
128.9099999999999
 31
0.0
  0
LINE
  5
1E6
330
A
100
AcDbEntity
  8
PV
  6
Continuous
 62
     7
100
AcDbLine
 10
12.9
 20
128.9099999999999
 30
0.0
 11
13.465
 21
125.7079999999999
 31
0.0
  0
LINE
  5
1E7
330
A
100
AcDbEntity
  8
PV
  6
Continuous
 62
     7
100
AcDbLine
 10
12.504
 20
128.9099999999999
 30
0.0
 11
13.174
 21
125.11
 31
0.0
  0
LINE
  5
1E8
330
A
100
AcDbEntity
  8
PV
  6
Continuous
 62
     7
100
AcDbLine
 10
14.63
 20
128.9099999999999
 30
0.0
 11
15.041
 21
128.9099999999999
 31
0.0
  0
LINE
  5
1E9
330
A
100
AcDbEntity
  8
PV
  6
Continuous
 62
     7
100
AcDbLine
 10
1.924
 20
125.11
 30
0.0
 11
2.407999999999999
 21
125.11
 31
0.0
  0
LINE
  5
1EA
330
A
100
AcDbEntity
  8
PV
  6
Continuous
 62
     7
100
AcDbLine
 10
1.254
 20
128.9099999999999
 30
0.0
 11
1.649999999999999
 21
128.9099999999999
 31
0.0
  0
LINE
  5
1EB
330
A
100
AcDbEntity
  8
PV
  6
Continuous
 62
     7
100
AcDbLine
 10
2.407999999999999
 20
125.11
 30
0.0
 11
3.791
 21
128.9099999999999
 31
0.0
  0
LINE
  5
1EC
330
A
100
AcDbEntity
  8
PV
  6
Continuous
 62
     7
100
AcDbLine
 10
2.214999999999999
 20
125.7079999999999
 30
0.0
 11
3.379999999999999
 21
128.9099999999999
 31
0.0
  0
LINE
  5
1ED
330
A
100
AcDbEntity
  8
PV
  6
Continuous
 62
     7
100
AcDbLine
 10
1.649999999999999
 20
128.9099999999999
 30
0.0
 11
2.214999999999999
 21
125.7079999999999
 31
0.0
  0
LINE
  5
1EE
330
A
100
AcDbEntity
  8
PV
  6
Continuous
 62
     7
100
AcDbLine
 10
1.254
 20
128.9099999999999
 30
0.0
 11
1.924
 21
125.11
 31
0.0
  0
LINE
  5
1EF
330
A
100
AcDbEntity
  8
PV
  6
Continuous
 62
     7
100
AcDbLine
 10
3.379999999999999
 20
128.9099999999999
 30
0.0
 11
3.791
 21
128.9099999999999
 31
0.0
  0
LINE
  5
1F0
330
A
100
AcDbEntity
  8
PV
  6
Continuous
 62
     7
100
AcDbLine
 10
19.96199999999999
 20
125.855
 30
0.0
 11
20.278
 21
126.0369999999999
 31
0.0
  0
LINE
  5
1F1
330
A
100
AcDbEntity
  8
PV
  6
Continuous
 62
     7
100
AcDbLine
 10
22.36699999999999
 20
128.207
 30
0.0
 11
22.05099999999999
 21
128.025
 31
0.0
  0
LINE
  5
1F2
330
A
100
AcDbEntity
  8
PV
  6
Continuous
 62
     7
100
AcDbLine
 10
20.949
 20
126.869
 30
0.0
 11
21.349
 21
126.8089999999999
 31
0.0
  0
LINE
  5
1F3
330
A
100
AcDbEntity
  8
PV
  6
Continuous
 62
     7
100
AcDbLine
 10
20.987
 20
127.2489999999999
 30
0.0
 11
21.37999999999999
 21
127.193
 31
0.0
  0
LINE
  5
1F4
330
A
100
AcDbEntity
  8
PV
  6
Continuous
 62
     7
100
AcDbLine
 10
21.651
 20
135.5059999999999
 30
0.0
 11
-21.651
 21
135.5059999999999
 31
0.0
  0
LINE
  5
1F5
330
A
100
AcDbEntity
  8
PV
  6
Continuous
 62
   254
100
AcDbLine
 10
-8.907999999999999
 20
137.81
 30
0.0
 11
-8.609999999999999
 21
137.81
 31
0.0
  0
LINE
  5
1F6
330
A
100
AcDbEntity
  8
PV
  6
Continuous
 62
     7
100
AcDbLine
 10
-1.149999999999999
 20
145.366
 30
0.0
 11
-1.149999999999999
 21
141.816
 31
0.0
  0
LINE
  5
1F7
330
A
100
AcDbEntity
  8
PV
  6
Continuous
 62
     7
100
AcDbLine
 10
-5.283999999999999
 20
144.4159999999999
 30
0.0
 11
-3.383999999999999
 21
144.4159999999999
 31
0.0
  0
LINE
  5
1F8
330
A
100
AcDbEntity
  8
PV
  6
Continuous
 62
     7
100
AcDbLine
 10
-5.283999999999999
 20
144.4159999999999
 30
0.0
 11
-5.283999999999999
 21
141.816
 31
0.0
  0
LINE
  5
1F9
330
A
100
AcDbEntity
  8
PV
  6
Continuous
 62
     7
100
AcDbLine
 10
-3.383999999999999
 20
144.4159999999999
 30
0.0
 11
-3.383999999999999
 21
141.816
 31
0.0
  0
LINE
  5
1FA
330
A
100
AcDbEntity
  8
PV
  6
Continuous
 62
     7
100
AcDbLine
 10
-5.283999999999999
 20
141.816
 30
0.0
 11
-3.383999999999999
 21
141.816
 31
0.0
  0
LINE
  5
1FB
330
A
100
AcDbEntity
  8
PV
  6
Continuous
 62
     7
100
AcDbLine
 10
-2.7
 20
145.366
 30
0.0
 11
-2.7
 21
141.816
 31
0.0
  0
LINE
  5
1FC
330
A
100
AcDbEntity
  8
PV
  6
Continuous
 62
     7
100
AcDbLine
 10
-2.7
 20
145.366
 30
0.0
 11
-1.149999999999999
 21
145.366
 31
0.0
  0
LINE
  5
1FD
330
A
100
AcDbEntity
  8
PV
  6
Continuous
 62
     7
100
AcDbLine
 10
-2.7
 20
141.816
 30
0.0
 11
-1.149999999999999
 21
141.816
 31
0.0
  0
LINE
  5
1FE
330
A
100
AcDbEntity
  8
PV
  6
Continuous
 62
     7
100
AcDbLine
 10
0.625
 20
145.366
 30
0.0
 11
0.625
 21
144.5659999999999
 31
0.0
  0
LINE
  5
1FF
330
A
100
AcDbEntity
  8
PV
  6
Continuous
 62
     7
100
AcDbLine
 10
5.400999999999999
 20
144.591
 30
0.0
 11
5.400999999999999
 21
142.591
 31
0.0
  0
LINE
  5
200
330
A
100
AcDbEntity
  8
PV
  6
Continuous
 62
     7
100
AcDbLine
 10
0.625
 20
142.616
 30
0.0
 11
0.625
 21
141.816
 31
0.0
  0
LINE
  5
201
330
A
100
AcDbEntity
  8
PV
  6
Continuous
 62
     7
100
AcDbLine
 10
0.625
 20
144.5659999999999
 30
0.0
 11
0.625
 21
142.616
 31
0.0
  0
LINE
  5
202
330
A
100
AcDbEntity
  8
PV
  6
Continuous
 62
   254
100
AcDbLine
 10
-11.34
 20
138.142
 30
0.0
 11
-10.333
 21
138.142
 31
0.0
  0
LINE
  5
203
330
A
100
AcDbEntity
  8
PV
  6
Continuous
 62
   254
100
AcDbLine
 10
-16.60099999999999
 20
138.59
 30
0.0
 11
-16.15299999999999
 21
138.59
 31
0.0
  0
LINE
  5
204
330
A
100
AcDbEntity
  8
PV
  6
Continuous
 62
   254
100
AcDbLine
 10
-16.60099999999999
 20
136.3509999999999
 30
0.0
 11
-16.15299999999999
 21
136.3509999999999
 31
0.0
  0
LINE
  5
205
330
A
100
AcDbEntity
  8
PV
  6
Continuous
 62
   254
100
AcDbLine
 10
-16.60099999999999
 20
138.59
 30
0.0
 11
-16.60099999999999
 21
136.3509999999999
 31
0.0
  0
LINE
  5
206
330
A
100
AcDbEntity
  8
PV
  6
Continuous
 62
   254
100
AcDbLine
 10
-16.15299999999999
 20
138.59
 30
0.0
 11
-16.15299999999999
 21
136.3509999999999
 31
0.0
  0
LINE
  5
207
330
A
100
AcDbEntity
  8
PV
  6
Continuous
 62
   254
100
AcDbLine
 10
-15.70599999999999
 20
138.59
 30
0.0
 11
-15.70599999999999
 21
137.918
 31
0.0
  0
LINE
  5
208
330
A
100
AcDbEntity
  8
PV
  6
Continuous
 62
   254
100
AcDbLine
 10
-15.258
 20
138.142
 30
0.0
 11
-15.258
 21
137.918
 31
0.0
  0
LINE
  5
209
330
A
100
AcDbEntity
  8
PV
  6
Continuous
 62
   254
100
AcDbLine
 10
0.302
 20
138.59
 30
0.0
 11
0.302
 21
138.142
 31
0.0
  0
LINE
  5
20A
330
A
100
AcDbEntity
  8
PV
  6
Continuous
 62
   254
100
AcDbLine
 10
-15.258
 20
137.247
 30
0.0
 11
-14.641
 21
137.247
 31
0.0
  0
LINE
  5
20B
330
A
100
AcDbEntity
  8
PV
  6
Continuous
 62
   254
100
AcDbLine
 10
-14.139
 20
138.142
 30
0.0
 11
-15.258
 21
138.142
 31
0.0
  0
LINE
  5
20C
330
A
100
AcDbEntity
  8
PV
  6
Continuous
 62
   254
100
AcDbLine
 10
-14.139
 20
137.6939999999999
 30
0.0
 11
-15.258
 21
137.6939999999999
 31
0.0
  0
LINE
  5
20D
330
A
100
AcDbEntity
  8
PV
  6
Continuous
 62
   254
100
AcDbLine
 10
-15.70599999999999
 20
136.3509999999999
 30
0.0
 11
-15.258
 21
136.3509999999999
 31
0.0
  0
LINE
  5
20E
330
A
100
AcDbEntity
  8
PV
  6
Continuous
 62
   254
100
AcDbLine
 10
-15.70599999999999
 20
138.59
 30
0.0
 11
-14.139
 21
138.59
 31
0.0
  0
LINE
  5
20F
330
A
100
AcDbEntity
  8
PV
  6
Continuous
 62
   254
100
AcDbLine
 10
-15.258
 20
137.247
 30
0.0
 11
-15.258
 21
136.3509999999999
 31
0.0
  0
LINE
  5
210
330
A
100
AcDbEntity
  8
PV
  6
Continuous
 62
   254
100
AcDbLine
 10
-14.01299999999999
 20
136.3509999999999
 30
0.0
 11
-13.467
 21
136.3509999999999
 31
0.0
  0
LINE
  5
211
330
A
100
AcDbEntity
  8
PV
  6
Continuous
 62
   254
100
AcDbLine
 10
-13.13099999999999
 20
138.59
 30
0.0
 11
-12.68299999999999
 21
138.59
 31
0.0
  0
LINE
  5
212
330
A
100
AcDbEntity
  8
PV
  6
Continuous
 62
   254
100
AcDbLine
 10
-13.13099999999999
 20
136.3509999999999
 30
0.0
 11
-12.68299999999999
 21
136.3509999999999
 31
0.0
  0
LINE
  5
213
330
A
100
AcDbEntity
  8
PV
  6
Continuous
 62
   254
100
AcDbLine
 10
-13.13099999999999
 20
138.59
 30
0.0
 11
-13.13099999999999
 21
136.3509999999999
 31
0.0
  0
LINE
  5
214
330
A
100
AcDbEntity
  8
PV
  6
Continuous
 62
   254
100
AcDbLine
 10
-12.68299999999999
 20
138.59
 30
0.0
 11
-12.68299999999999
 21
136.3509999999999
 31
0.0
  0
LINE
  5
215
330
A
100
AcDbEntity
  8
PV
  6
Continuous
 62
   254
100
AcDbLine
 10
-0.706
 20
138.59
 30
0.0
 11
0.302
 21
138.59
 31
0.0
  0
LINE
  5
216
330
A
100
AcDbEntity
  8
PV
  6
Continuous
 62
   254
100
AcDbLine
 10
-0.706
 20
136.3509999999999
 30
0.0
 11
0.302
 21
136.3509999999999
 31
0.0
  0
LINE
  5
217
330
A
100
AcDbEntity
  8
PV
  6
Continuous
 62
   254
100
AcDbLine
 10
-4.064
 20
138.59
 30
0.0
 11
-3.616
 21
138.59
 31
0.0
  0
LINE
  5
218
330
A
100
AcDbEntity
  8
PV
  6
Continuous
 62
   254
100
AcDbLine
 10
-4.064
 20
136.3509999999999
 30
0.0
 11
-3.616
 21
136.3509999999999
 31
0.0
  0
LINE
  5
219
330
A
100
AcDbEntity
  8
PV
  6
Continuous
 62
   254
100
AcDbLine
 10
-1.338999999999999
 20
137.247
 30
0.0
 11
0.302
 21
137.247
 31
0.0
  0
LINE
  5
21A
330
A
100
AcDbEntity
  8
PV
  6
Continuous
 62
   254
100
AcDbLine
 10
-1.338999999999999
 20
137.6939999999999
 30
0.0
 11
0.302
 21
137.6939999999999
 31
0.0
  0
LINE
  5
21B
330
A
100
AcDbEntity
  8
PV
  6
Continuous
 62
   254
100
AcDbLine
 10
-0.706
 20
136.799
 30
0.0
 11
0.302
 21
136.799
 31
0.0
  0
LINE
  5
21C
330
A
100
AcDbEntity
  8
PV
  6
Continuous
 62
   254
100
AcDbLine
 10
-0.706
 20
138.142
 30
0.0
 11
0.302
 21
138.142
 31
0.0
  0
LINE
  5
21D
330
A
100
AcDbEntity
  8
PV
  6
Continuous
 62
   254
100
AcDbLine
 10
0.302
 20
137.6939999999999
 30
0.0
 11
0.302
 21
137.247
 31
0.0
  0
LINE
  5
21E
330
A
100
AcDbEntity
  8
PV
  6
Continuous
 62
   254
100
AcDbLine
 10
0.302
 20
136.799
 30
0.0
 11
0.302
 21
136.3509999999999
 31
0.0
  0
LINE
  5
21F
330
A
100
AcDbEntity
  8
PV
  6
Continuous
 62
   254
100
AcDbLine
 10
-4.064
 20
138.59
 30
0.0
 11
-4.064
 21
136.3509999999999
 31
0.0
  0
LINE
  5
220
330
A
100
AcDbEntity
  8
PV
  6
Continuous
 62
   254
100
AcDbLine
 10
-3.616
 20
138.59
 30
0.0
 11
-3.616
 21
137.804
 31
0.0
  0
LINE
  5
221
330
A
100
AcDbEntity
  8
PV
  6
Continuous
 62
   254
100
AcDbLine
 10
-13.467
 20
136.3509999999999
 30
0.0
 11
-14.095
 21
137.2479999999999
 31
0.0
  0
LINE
  5
222
330
A
100
AcDbEntity
  8
PV
  6
Continuous
 62
   254
100
AcDbLine
 10
-14.01299999999999
 20
136.3509999999999
 30
0.0
 11
-14.641
 21
137.247
 31
0.0
  0
LINE
  5
223
330
A
100
AcDbEntity
  8
PV
  6
Continuous
 62
   254
100
AcDbLine
 10
-1.713
 20
136.3509999999999
 30
0.0
 11
-2.633999999999999
 21
137.945
 31
0.0
  0
LINE
  5
224
330
A
100
AcDbEntity
  8
PV
  6
Continuous
 62
   254
100
AcDbLine
 10
-1.713
 20
138.59
 30
0.0
 11
-2.633999999999999
 21
137.945
 31
0.0
  0
LINE
  5
225
330
A
100
AcDbEntity
  8
PV
  6
Continuous
 62
   254
100
AcDbLine
 10
-2.494
 20
138.59
 30
0.0
 11
-3.616
 21
137.804
 31
0.0
  0
LINE
  5
226
330
A
100
AcDbEntity
  8
PV
  6
Continuous
 62
   254
100
AcDbLine
 10
-2.229999999999999
 20
136.3509999999999
 30
0.0
 11
-3.001999999999999
 21
137.6879999999999
 31
0.0
  0
LINE
  5
227
330
A
100
AcDbEntity
  8
PV
  6
Continuous
 62
   254
100
AcDbLine
 10
-3.001999999999999
 20
137.6879999999999
 30
0.0
 11
-3.616
 21
137.257
 31
0.0
  0
LINE
  5
228
330
A
100
AcDbEntity
  8
PV
  6
Continuous
 62
   254
100
AcDbLine
 10
-3.616
 20
137.257
 30
0.0
 11
-3.616
 21
136.3509999999999
 31
0.0
  0
LINE
  5
229
330
A
100
AcDbEntity
  8
PV
  6
Continuous
 62
   254
100
AcDbLine
 10
-2.494
 20
138.59
 30
0.0
 11
-1.713
 21
138.59
 31
0.0
  0
LINE
  5
22A
330
A
100
AcDbEntity
  8
PV
  6
Continuous
 62
   254
100
AcDbLine
 10
-2.229999999999999
 20
136.3509999999999
 30
0.0
 11
-1.713
 21
136.3509999999999
 31
0.0
  0
LINE
  5
22B
330
A
100
AcDbEntity
  8
PV
  6
Continuous
 62
   254
100
AcDbLine
 10
7.354
 20
136.3509999999999
 30
0.0
 11
7.577999999999999
 21
136.3509999999999
 31
0.0
  0
LINE
  5
22C
330
A
100
AcDbEntity
  8
PV
  6
Continuous
 62
   254
100
AcDbLine
 10
7.354
 20
138.59
 30
0.0
 11
7.577999999999999
 21
138.59
 31
0.0
  0
LINE
  5
22D
330
A
100
AcDbEntity
  8
PV
  6
Continuous
 62
   254
100
AcDbLine
 10
6.122999999999999
 20
136.3539999999999
 30
0.0
 11
6.122999999999999
 21
136.799
 31
0.0
  0
LINE
  5
22E
330
A
100
AcDbEntity
  8
PV
  6
Continuous
 62
   254
100
AcDbLine
 10
7.354
 20
136.799
 30
0.0
 11
7.577999999999999
 21
136.799
 31
0.0
  0
LINE
  5
22F
330
A
100
AcDbEntity
  8
PV
  6
Continuous
 62
   254
100
AcDbLine
 10
7.354
 20
138.142
 30
0.0
 11
7.577999999999999
 21
138.142
 31
0.0
  0
LINE
  5
230
330
A
100
AcDbEntity
  8
PV
  6
Continuous
 62
   254
100
AcDbLine
 10
-8.988999999999998
 20
138.59
 30
0.0
 11
-8.541
 21
138.59
 31
0.0
  0
LINE
  5
231
330
A
100
AcDbEntity
  8
PV
  6
Continuous
 62
   254
100
AcDbLine
 10
-8.988999999999998
 20
136.3509999999999
 30
0.0
 11
-8.541
 21
136.3509999999999
 31
0.0
  0
LINE
  5
232
330
A
100
AcDbEntity
  8
PV
  6
Continuous
 62
   254
100
AcDbLine
 10
-8.988999999999998
 20
138.59
 30
0.0
 11
-8.988999999999998
 21
136.3509999999999
 31
0.0
  0
LINE
  5
233
330
A
100
AcDbEntity
  8
PV
  6
Continuous
 62
   254
100
AcDbLine
 10
-8.541
 20
138.59
 30
0.0
 11
-8.541
 21
137.804
 31
0.0
  0
LINE
  5
234
330
A
100
AcDbEntity
  8
PV
  6
Continuous
 62
   254
100
AcDbLine
 10
-6.638999999999999
 20
136.3509999999999
 30
0.0
 11
-7.559
 21
137.945
 31
0.0
  0
LINE
  5
235
330
A
100
AcDbEntity
  8
PV
  6
Continuous
 62
   254
100
AcDbLine
 10
-6.637999999999999
 20
138.59
 30
0.0
 11
-7.559
 21
137.945
 31
0.0
  0
LINE
  5
236
330
A
100
AcDbEntity
  8
PV
  6
Continuous
 62
   254
100
AcDbLine
 10
-7.418999999999999
 20
138.59
 30
0.0
 11
-8.541
 21
137.804
 31
0.0
  0
LINE
  5
237
330
A
100
AcDbEntity
  8
PV
  6
Continuous
 62
   254
100
AcDbLine
 10
-7.156
 20
136.3509999999999
 30
0.0
 11
-7.927
 21
137.6879999999999
 31
0.0
  0
LINE
  5
238
330
A
100
AcDbEntity
  8
PV
  6
Continuous
 62
   254
100
AcDbLine
 10
-7.927
 20
137.6879999999999
 30
0.0
 11
-8.541
 21
137.257
 31
0.0
  0
LINE
  5
239
330
A
100
AcDbEntity
  8
PV
  6
Continuous
 62
   254
100
AcDbLine
 10
-8.541
 20
137.257
 30
0.0
 11
-8.541
 21
136.3509999999999
 31
0.0
  0
LINE
  5
23A
330
A
100
AcDbEntity
  8
PV
  6
Continuous
 62
   254
100
AcDbLine
 10
-7.418999999999999
 20
138.59
 30
0.0
 11
-6.638999999999999
 21
138.59
 31
0.0
  0
LINE
  5
23B
330
A
100
AcDbEntity
  8
PV
  6
Continuous
 62
   254
100
AcDbLine
 10
-7.156
 20
136.3509999999999
 30
0.0
 11
-6.638999999999999
 21
136.3509999999999
 31
0.0
  0
LINE
  5
23C
330
A
100
AcDbEntity
  8
PV
  6
Continuous
 62
   254
100
AcDbLine
 10
-10.333
 20
138.59
 30
0.0
 11
-10.333
 21
138.142
 31
0.0
  0
LINE
  5
23D
330
A
100
AcDbEntity
  8
PV
  6
Continuous
 62
   254
100
AcDbLine
 10
-11.34
 20
138.59
 30
0.0
 11
-10.333
 21
138.59
 31
0.0
  0
LINE
  5
23E
330
A
100
AcDbEntity
  8
PV
  6
Continuous
 62
   254
100
AcDbLine
 10
-11.34
 20
136.3509999999999
 30
0.0
 11
-10.333
 21
136.3509999999999
 31
0.0
  0
LINE
  5
23F
330
A
100
AcDbEntity
  8
PV
  6
Continuous
 62
   254
100
AcDbLine
 10
-11.973
 20
137.247
 30
0.0
 11
-10.333
 21
137.247
 31
0.0
  0
LINE
  5
240
330
A
100
AcDbEntity
  8
PV
  6
Continuous
 62
   254
100
AcDbLine
 10
-11.973
 20
137.6939999999999
 30
0.0
 11
-10.333
 21
137.6939999999999
 31
0.0
  0
LINE
  5
241
330
A
100
AcDbEntity
  8
PV
  6
Continuous
 62
   254
100
AcDbLine
 10
-11.34
 20
136.799
 30
0.0
 11
-10.333
 21
136.799
 31
0.0
  0
LINE
  5
242
330
A
100
AcDbEntity
  8
PV
  6
Continuous
 62
   254
100
AcDbLine
 10
-10.333
 20
137.6939999999999
 30
0.0
 11
-10.333
 21
137.247
 31
0.0
  0
LINE
  5
243
330
A
100
AcDbEntity
  8
PV
  6
Continuous
 62
   254
100
AcDbLine
 10
-10.333
 20
136.799
 30
0.0
 11
-10.333
 21
136.3509999999999
 31
0.0
  0
LINE
  5
244
330
A
100
AcDbEntity
  8
PV
  6
Continuous
 62
   254
100
AcDbLine
 10
5.003
 20
136.3509999999999
 30
0.0
 11
6.122999999999999
 21
136.3509999999999
 31
0.0
  0
LINE
  5
245
330
A
100
AcDbEntity
  8
PV
  6
Continuous
 62
   254
100
AcDbLine
 10
5.003
 20
138.59
 30
0.0
 11
6.122999999999999
 21
138.59
 31
0.0
  0
LINE
  5
246
330
A
100
AcDbEntity
  8
PV
  6
Continuous
 62
   254
100
AcDbLine
 10
5.003
 20
136.799
 30
0.0
 11
6.122999999999999
 21
136.799
 31
0.0
  0
LINE
  5
247
330
A
100
AcDbEntity
  8
PV
  6
Continuous
 62
   254
100
AcDbLine
 10
5.003
 20
138.142
 30
0.0
 11
6.122999999999999
 21
138.142
 31
0.0
  0
LINE
  5
248
330
A
100
AcDbEntity
  8
PV
  6
Continuous
 62
   254
100
AcDbLine
 10
6.122999999999999
 20
138.142
 30
0.0
 11
6.122999999999999
 21
138.59
 31
0.0
  0
LINE
  5
249
330
A
100
AcDbEntity
  8
PV
  6
Continuous
 62
   254
100
AcDbLine
 10
11.048
 20
136.3509999999999
 30
0.0
 11
12.167
 21
136.3509999999999
 31
0.0
  0
LINE
  5
24A
330
A
100
AcDbEntity
  8
PV
  6
Continuous
 62
   254
100
AcDbLine
 10
0.6400000000000001
 20
136.3509999999999
 30
0.0
 11
1.084999999999999
 21
136.3509999999999
 31
0.0
  0
LINE
  5
24B
330
A
100
AcDbEntity
  8
PV
  6
Continuous
 62
   254
100
AcDbLine
 10
1.645
 20
138.59
 30
0.0
 11
1.868999999999999
 21
138.59
 31
0.0
  0
LINE
  5
24C
330
A
100
AcDbEntity
  8
PV
  6
Continuous
 62
   254
100
AcDbLine
 10
0.638
 20
137.583
 30
0.0
 11
0.638
 21
136.3509999999999
 31
0.0
  0
LINE
  5
24D
330
A
100
AcDbEntity
  8
PV
  6
Continuous
 62
   254
100
AcDbLine
 10
2.876
 20
137.583
 30
0.0
 11
2.876
 21
136.3509999999999
 31
0.0
  0
LINE
  5
24E
330
A
100
AcDbEntity
  8
PV
  6
Continuous
 62
   254
100
AcDbLine
 10
1.645
 20
138.142
 30
0.0
 11
1.868999999999999
 21
138.142
 31
0.0
  0
LINE
  5
24F
330
A
100
AcDbEntity
  8
PV
  6
Continuous
 62
   254
100
AcDbLine
 10
1.084999999999999
 20
137.583
 30
0.0
 11
1.084999999999999
 21
136.3509999999999
 31
0.0
  0
LINE
  5
250
330
A
100
AcDbEntity
  8
PV
  6
Continuous
 62
   254
100
AcDbLine
 10
2.429
 20
137.583
 30
0.0
 11
2.429
 21
136.3509999999999
 31
0.0
  0
LINE
  5
251
330
A
100
AcDbEntity
  8
PV
  6
Continuous
 62
   254
100
AcDbLine
 10
2.429
 20
136.3509999999999
 30
0.0
 11
2.876
 21
136.3509999999999
 31
0.0
  0
LINE
  5
252
330
A
100
AcDbEntity
  8
PV
  6
Continuous
 62
   254
100
AcDbLine
 10
-5.631
 20
136.3509999999999
 30
0.0
 11
-5.407
 21
136.3509999999999
 31
0.0
  0
LINE
  5
253
330
A
100
AcDbEntity
  8
PV
  6
Continuous
 62
   254
100
AcDbLine
 10
-5.631
 20
138.59
 30
0.0
 11
-5.407
 21
138.59
 31
0.0
  0
LINE
  5
254
330
A
100
AcDbEntity
  8
PV
  6
Continuous
 62
   254
100
AcDbLine
 10
-5.631
 20
136.799
 30
0.0
 11
-5.407
 21
136.799
 31
0.0
  0
LINE
  5
255
330
A
100
AcDbEntity
  8
PV
  6
Continuous
 62
   254
100
AcDbLine
 10
9.486
 20
136.0149999999999
 30
0.0
 11
9.852
 21
136.4509999999999
 31
0.0
  0
LINE
  5
256
330
A
100
AcDbEntity
  8
PV
  6
Continuous
 62
   254
100
AcDbLine
 10
9.314999999999999
 20
136.1589999999999
 30
0.0
 11
9.503999999999999
 21
136.385
 31
0.0
  0
LINE
  5
257
330
A
100
AcDbEntity
  8
PV
  6
Continuous
 62
   254
100
AcDbLine
 10
9.314999999999999
 20
136.1589999999999
 30
0.0
 11
9.486
 21
136.0149999999999
 31
0.0
  0
LINE
  5
258
330
A
100
AcDbEntity
  8
PV
  6
Continuous
 62
   254
100
AcDbLine
 10
10.15299999999999
 20
138.59
 30
0.0
 11
10.15299999999999
 21
137.247
 31
0.0
  0
LINE
  5
259
330
A
100
AcDbEntity
  8
PV
  6
Continuous
 62
   254
100
AcDbLine
 10
12.167
 20
136.799
 30
0.0
 11
12.167
 21
136.3509999999999
 31
0.0
  0
LINE
  5
25A
330
A
100
AcDbEntity
  8
PV
  6
Continuous
 62
   254
100
AcDbLine
 10
10.6
 20
138.59
 30
0.0
 11
10.6
 21
137.247
 31
0.0
  0
LINE
  5
25B
330
A
100
AcDbEntity
  8
PV
  6
Continuous
 62
   254
100
AcDbLine
 10
11.048
 20
136.799
 30
0.0
 11
12.167
 21
136.799
 31
0.0
  0
LINE
  5
25C
330
A
100
AcDbEntity
  8
PV
  6
Continuous
 62
   254
100
AcDbLine
 10
14.40599999999999
 20
136.3509999999999
 30
0.0
 11
15.638
 21
136.3509999999999
 31
0.0
  0
LINE
  5
25D
330
A
100
AcDbEntity
  8
PV
  6
Continuous
 62
   254
100
AcDbLine
 10
10.15299999999999
 20
138.59
 30
0.0
 11
10.6
 21
138.59
 31
0.0
  0
LINE
  5
25E
330
A
100
AcDbEntity
  8
PV
  6
Continuous
 62
   254
100
AcDbLine
 10
11.944
 20
138.59
 30
0.0
 11
14.182
 21
138.59
 31
0.0
  0
LINE
  5
25F
330
A
100
AcDbEntity
  8
PV
  6
Continuous
 62
   254
100
AcDbLine
 10
11.944
 20
138.59
 30
0.0
 11
11.944
 21
138.142
 31
0.0
  0
LINE
  5
260
330
A
100
AcDbEntity
  8
PV
  6
Continuous
 62
   254
100
AcDbLine
 10
14.182
 20
138.59
 30
0.0
 11
14.182
 21
138.142
 31
0.0
  0
LINE
  5
261
330
A
100
AcDbEntity
  8
PV
  6
Continuous
 62
   254
100
AcDbLine
 10
11.944
 20
138.142
 30
0.0
 11
12.839
 21
138.142
 31
0.0
  0
LINE
  5
262
330
A
100
AcDbEntity
  8
PV
  6
Continuous
 62
   254
100
AcDbLine
 10
13.287
 20
138.142
 30
0.0
 11
13.287
 21
136.3509999999999
 31
0.0
  0
LINE
  5
263
330
A
100
AcDbEntity
  8
PV
  6
Continuous
 62
   254
100
AcDbLine
 10
12.839
 20
138.142
 30
0.0
 11
12.839
 21
136.3509999999999
 31
0.0
  0
LINE
  5
264
330
A
100
AcDbEntity
  8
PV
  6
Continuous
 62
   254
100
AcDbLine
 10
14.854
 20
138.142
 30
0.0
 11
15.638
 21
138.142
 31
0.0
  0
LINE
  5
265
330
A
100
AcDbEntity
  8
PV
  6
Continuous
 62
   254
100
AcDbLine
 10
14.40599999999999
 20
138.59
 30
0.0
 11
15.638
 21
138.59
 31
0.0
  0
LINE
  5
266
330
A
100
AcDbEntity
  8
PV
  6
Continuous
 62
   254
100
AcDbLine
 10
13.287
 20
138.142
 30
0.0
 11
14.182
 21
138.142
 31
0.0
  0
LINE
  5
267
330
A
100
AcDbEntity
  8
PV
  6
Continuous
 62
   254
100
AcDbLine
 10
12.839
 20
136.3509999999999
 30
0.0
 11
13.287
 21
136.3509999999999
 31
0.0
  0
LINE
  5
268
330
A
100
AcDbEntity
  8
PV
  6
Continuous
 62
   254
100
AcDbLine
 10
14.40599999999999
 20
138.59
 30
0.0
 11
14.40599999999999
 21
137.471
 31
0.0
  0
LINE
  5
269
330
A
100
AcDbEntity
  8
PV
  6
Continuous
 62
   254
100
AcDbLine
 10
14.854
 20
136.799
 30
0.0
 11
15.638
 21
136.799
 31
0.0
  0
LINE
  5
26A
330
A
100
AcDbEntity
  8
PV
  6
Continuous
 62
   254
100
AcDbLine
 10
14.854
 20
138.142
 30
0.0
 11
14.854
 21
137.471
 31
0.0
  0
LINE
  5
26B
330
A
100
AcDbEntity
  8
PV
  6
Continuous
 62
   254
100
AcDbLine
 10
-15.70599999999999
 20
137.918
 30
0.0
 11
-15.70599999999999
 21
136.3509999999999
 31
0.0
  0
LINE
  5
26C
330
A
100
AcDbEntity
  8
PV
  6
Continuous
 62
   254
100
AcDbLine
 10
-15.258
 20
137.918
 30
0.0
 11
-15.258
 21
137.6939999999999
 31
0.0
  0
LINE
  5
26D
330
A
100
AcDbEntity
  8
PV
  6
Continuous
 62
   254
100
AcDbLine
 10
14.40599999999999
 20
137.471
 30
0.0
 11
14.40599999999999
 21
136.3509999999999
 31
0.0
  0
LINE
  5
26E
330
A
100
AcDbEntity
  8
PV
  6
Continuous
 62
   254
100
AcDbLine
 10
14.854
 20
137.471
 30
0.0
 11
14.854
 21
136.799
 31
0.0
  0
LINE
  5
26F
330
A
100
AcDbEntity
  8
PV
  6
Continuous
 62
   254
100
AcDbLine
 10
-5.631
 20
138.142
 30
0.0
 11
-5.407
 21
138.142
 31
0.0
  0
LINE
  5
270
330
A
100
AcDbEntity
  8
PV
  6
Continuous
 62
     7
100
AcDbLine
 10
10.53099999999999
 20
103.553
 30
0.0
 11
12.641
 21
104.675
 31
0.0
  0
LINE
  5
271
330
A
100
AcDbEntity
  8
PV
  6
Continuous
 62
     7
100
AcDbLine
 10
11.164
 20
102.7959999999999
 30
0.0
 11
12.641
 21
104.675
 31
0.0
  0
LINE
  5
272
330
A
100
AcDbEntity
  8
PV
  6
Continuous
 62
     7
100
AcDbLine
 10
-11.607
 20
103.032
 30
0.0
 11
-13.084
 21
104.9109999999999
 31
0.0
  0
LINE
  5
273
330
A
100
AcDbEntity
  8
PV
  6
Continuous
 62
     7
100
AcDbLine
 10
-10.974
 20
103.7889999999999
 30
0.0
 11
-13.084
 21
104.9109999999999
 31
0.0
  0
CIRCLE
  5
274
330
A
100
AcDbEntity
  8
PV
  6
Continuous
 62
     7
100
AcDbCircle
 10
0.0
 20
123.0059999999999
 30
0.0
 40
25.0
  0
ARC
  5
275
330
A
100
AcDbEntity
  8
PV
  6
Continuous
 62
     7
100
AcDbCircle
 10
-4.333999999999999
 20
144.4159999999999
 30
0.0
 40
0.95
100
AcDbArc
 50
0.0
 51
180.000005
  0
ARC
  5
276
330
A
100
AcDbEntity
  8
PV
  6
Continuous
 62
     7
100
AcDbCircle
 10
-4.333999999999999
 20
144.4159999999999
 30
0.0
 40
0.95
100
AcDbArc
 50
179.9999949999999
 51
0.0
  0
ARC
  5
277
330
A
100
AcDbEntity
  8
PV
  6
Continuous
 62
     7
100
AcDbCircle
 10
0.625
 20
143.5909999999999
 30
0.0
 40
1.774999999999999
100
AcDbArc
 50
90.00000300000001
 51
270.000001
  0
ARC
  5
278
330
A
100
AcDbEntity
  8
PV
  6
Continuous
 62
     7
100
AcDbCircle
 10
0.625
 20
143.5909999999999
 30
0.0
 40
0.975
100
AcDbArc
 50
90.00000300000001
 51
270.000001
  0
ARC
  5
279
330
A
100
AcDbEntity
  8
PV
  6
Continuous
 62
     7
100
AcDbCircle
 10
0.625
 20
143.5909999999999
 30
0.0
 40
0.975
100
AcDbArc
 50
269.9999969999999
 51
90.00000300000001
  0
ARC
  5
27A
330
A
100
AcDbEntity
  8
PV
  6
Continuous
 62
     7
100
AcDbCircle
 10
3.876
 20
143.5909999999999
 30
0.0
 40
1.774999999999999
100
AcDbArc
 50
34.225552
 51
325.774451
  0
ARC
  5
27B
330
A
100
AcDbEntity
  8
PV
  6
Continuous
 62
     7
100
AcDbCircle
 10
5.400999999999999
 20
143.5909999999999
 30
0.0
 40
1.0
100
AcDbArc
 50
90.00000300000001
 51
270.000001
  0
ARC
  5
27C
330
A
100
AcDbEntity
  8
PV
  6
Continuous
 62
     7
100
AcDbCircle
 10
5.400999999999999
 20
143.5909999999999
 30
0.0
 40
1.0
100
AcDbArc
 50
269.9999969999999
 51
90.00000300000001
  0
ARC
  5
27D
330
A
100
AcDbEntity
  8
PV
  6
Continuous
 62
   254
100
AcDbCircle
 10
-14.139
 20
137.918
 30
0.0
 40
0.6720000000000001
100
AcDbArc
 50
273.7218359999999
 51
359.999996
  0
ARC
  5
27E
330
A
100
AcDbEntity
  8
PV
  6
Continuous
 62
   254
100
AcDbCircle
 10
-14.139
 20
137.918
 30
0.0
 40
0.224
100
AcDbArc
 50
270.0000109999999
 51
359.999996
  0
ARC
  5
27F
330
A
100
AcDbEntity
  8
PV
  6
Continuous
 62
   254
100
AcDbCircle
 10
-0.706
 20
137.471
 30
0.0
 40
1.118999999999999
100
AcDbArc
 50
89.999975
 51
270.000001
  0
ARC
  5
280
330
A
100
AcDbEntity
  8
PV
  6
Continuous
 62
   254
100
AcDbCircle
 10
-0.706
 20
137.471
 30
0.0
 40
0.6720000000000001
100
AcDbArc
 50
89.999975
 51
160.528775
  0
ARC
  5
281
330
A
100
AcDbEntity
  8
PV
  6
Continuous
 62
   254
100
AcDbCircle
 10
-0.706
 20
137.471
 30
0.0
 40
0.6720000000000001
100
AcDbArc
 50
199.471211
 51
270.0000109999999
  0
ARC
  5
282
330
A
100
AcDbEntity
  8
PV
  6
Continuous
 62
   254
100
AcDbCircle
 10
7.354
 20
137.471
 30
0.0
 40
1.118999999999999
100
AcDbArc
 50
89.999975
 51
179.99995
  0
ARC
  5
283
330
A
100
AcDbEntity
  8
PV
  6
Continuous
 62
   254
100
AcDbCircle
 10
7.577999999999999
 20
137.471
 30
0.0
 40
1.118999999999999
100
AcDbArc
 50
270.0000109999999
 51
359.999996
  0
ARC
  5
284
330
A
100
AcDbEntity
  8
PV
  6
Continuous
 62
   254
100
AcDbCircle
 10
7.354
 20
137.471
 30
0.0
 40
0.6720000000000001
100
AcDbArc
 50
89.999975
 51
179.99995
  0
ARC
  5
285
330
A
100
AcDbEntity
  8
PV
  6
Continuous
 62
   254
100
AcDbCircle
 10
7.577999999999999
 20
137.471
 30
0.0
 40
0.6720000000000001
100
AcDbArc
 50
270.0000109999999
 51
359.999996
  0
ARC
  5
286
330
A
100
AcDbEntity
  8
PV
  6
Continuous
 62
   254
100
AcDbCircle
 10
-11.34
 20
137.471
 30
0.0
 40
1.118999999999999
100
AcDbArc
 50
89.999975
 51
270.000001
  0
ARC
  5
287
330
A
100
AcDbEntity
  8
PV
  6
Continuous
 62
   254
100
AcDbCircle
 10
-11.34
 20
137.471
 30
0.0
 40
0.6720000000000001
100
AcDbArc
 50
89.999975
 51
160.528775
  0
ARC
  5
288
330
A
100
AcDbEntity
  8
PV
  6
Continuous
 62
   254
100
AcDbCircle
 10
-11.34
 20
137.471
 30
0.0
 40
0.6720000000000001
100
AcDbArc
 50
199.471211
 51
270.0000109999999
  0
ARC
  5
289
330
A
100
AcDbEntity
  8
PV
  6
Continuous
 62
   254
100
AcDbCircle
 10
1.645
 20
137.583
 30
0.0
 40
1.007
100
AcDbArc
 50
89.999975
 51
179.99995
  0
ARC
  5
28A
330
A
100
AcDbEntity
  8
PV
  6
Continuous
 62
   254
100
AcDbCircle
 10
1.868999999999999
 20
137.583
 30
0.0
 40
1.007
100
AcDbArc
 50
359.999996
 51
89.999975
  0
ARC
  5
28B
330
A
100
AcDbEntity
  8
PV
  6
Continuous
 62
   254
100
AcDbCircle
 10
1.645
 20
137.583
 30
0.0
 40
0.5600000000000001
100
AcDbArc
 50
89.999975
 51
179.99995
  0
ARC
  5
28C
330
A
100
AcDbEntity
  8
PV
  6
Continuous
 62
   254
100
AcDbCircle
 10
1.868999999999999
 20
137.583
 30
0.0
 40
0.5600000000000001
100
AcDbArc
 50
359.999996
 51
89.999975
  0
ARC
  5
28D
330
A
100
AcDbEntity
  8
PV
  6
Continuous
 62
   254
100
AcDbCircle
 10
-5.631
 20
137.471
 30
0.0
 40
1.118999999999999
100
AcDbArc
 50
89.999975
 51
179.99995
  0
ARC
  5
28E
330
A
100
AcDbEntity
  8
PV
  6
Continuous
 62
   254
100
AcDbCircle
 10
-5.407
 20
137.471
 30
0.0
 40
1.118999999999999
100
AcDbArc
 50
270.0000109999999
 51
359.999996
  0
ARC
  5
28F
330
A
100
AcDbEntity
  8
PV
  6
Continuous
 62
   254
100
AcDbCircle
 10
-5.631
 20
137.471
 30
0.0
 40
0.6720000000000001
100
AcDbArc
 50
89.999975
 51
179.99995
  0
ARC
  5
290
330
A
100
AcDbEntity
  8
PV
  6
Continuous
 62
   254
100
AcDbCircle
 10
-5.407
 20
137.471
 30
0.0
 40
0.6720000000000001
100
AcDbArc
 50
270.0000109999999
 51
359.999996
  0
ARC
  5
291
330
A
100
AcDbEntity
  8
PV
  6
Continuous
 62
   254
100
AcDbCircle
 10
9.637999999999999
 20
136.631
 30
0.0
 40
0.28
100
AcDbArc
 50
319.9999189999999
 51
241.536827
  0
CIRCLE
  5
292
330
A
100
AcDbEntity
  8
PV
  6
Continuous
 62
   254
100
AcDbCircle
 10
8.920999999999999
 20
136.631
 30
0.0
 40
0.28
  0
ARC
  5
293
330
A
100
AcDbEntity
  8
PV
  6
Continuous
 62
   254
100
AcDbCircle
 10
11.048
 20
137.247
 30
0.0
 40
0.8959999999999999
100
AcDbArc
 50
179.999978
 51
270.000001
  0
ARC
  5
294
330
A
100
AcDbEntity
  8
PV
  6
Continuous
 62
   254
100
AcDbCircle
 10
11.048
 20
137.247
 30
0.0
 40
0.448
100
AcDbArc
 50
179.999978
 51
270.000001
  0
ARC
  5
295
330
A
100
AcDbEntity
  8
PV
  6
Continuous
 62
   254
100
AcDbCircle
 10
15.638
 20
137.471
 30
0.0
 40
1.118999999999999
100
AcDbArc
 50
270.0000109999999
 51
359.999996
  0
ARC
  5
296
330
A
100
AcDbEntity
  8
PV
  6
Continuous
 62
   254
100
AcDbCircle
 10
15.638
 20
137.471
 30
0.0
 40
0.6720000000000001
100
AcDbArc
 50
270.0000109999999
 51
359.999996
  0
ARC
  5
297
330
A
100
AcDbEntity
  8
PV
  6
Continuous
 62
   254
100
AcDbCircle
 10
5.003
 20
137.471
 30
0.0
 40
1.118999999999999
100
AcDbArc
 50
89.999975
 51
270.000001
  0
ARC
  5
298
330
A
100
AcDbEntity
  8
PV
  6
Continuous
 62
   254
100
AcDbCircle
 10
5.003
 20
137.471
 30
0.0
 40
0.6720000000000001
100
AcDbArc
 50
89.999975
 51
270.000001
  0
ARC
  5
299
330
A
100
AcDbEntity
  8
PV
  6
Continuous
 62
   254
100
AcDbCircle
 10
-14.139
 20
137.918
 30
0.0
 40
0.224
100
AcDbArc
 50
359.999996
 51
89.999975
  0
ARC
  5
29A
330
A
100
AcDbEntity
  8
PV
  6
Continuous
 62
   254
100
AcDbCircle
 10
-14.139
 20
137.918
 30
0.0
 40
0.6720000000000001
100
AcDbArc
 50
359.999996
 51
89.999975
  0
ARC
  5
29B
330
A
100
AcDbEntity
  8
PV
  6
Continuous
 62
   254
100
AcDbCircle
 10
-5.407
 20
137.471
 30
0.0
 40
1.118999999999999
100
AcDbArc
 50
359.999996
 51
89.999975
  0
ARC
  5
29C
330
A
100
AcDbEntity
  8
PV
  6
Continuous
 62
   254
100
AcDbCircle
 10
-5.407
 20
137.471
 30
0.0
 40
0.6720000000000001
100
AcDbArc
 50
359.999996
 51
89.999975
  0
ARC
  5
29D
330
A
100
AcDbEntity
  8
PV
  6
Continuous
 62
   254
100
AcDbCircle
 10
-5.631
 20
137.471
 30
0.0
 40
0.6720000000000001
100
AcDbArc
 50
179.999978
 51
270.000001
  0
ARC
  5
29E
330
A
100
AcDbEntity
  8
PV
  6
Continuous
 62
   254
100
AcDbCircle
 10
-5.631
 20
137.471
 30
0.0
 40
1.118999999999999
100
AcDbArc
 50
179.999978
 51
270.000001
  0
ARC
  5
29F
330
A
100
AcDbEntity
  8
PV
  6
Continuous
 62
   254
100
AcDbCircle
 10
7.354
 20
137.471
 30
0.0
 40
1.118999999999999
100
AcDbArc
 50
179.999978
 51
270.000001
  0
ARC
  5
2A0
330
A
100
AcDbEntity
  8
PV
  6
Continuous
 62
   254
100
AcDbCircle
 10
7.354
 20
137.471
 30
0.0
 40
0.6720000000000001
100
AcDbArc
 50
179.999978
 51
270.000001
  0
ARC
  5
2A1
330
A
100
AcDbEntity
  8
PV
  6
Continuous
 62
   254
100
AcDbCircle
 10
7.577999999999999
 20
137.471
 30
0.0
 40
0.6720000000000001
100
AcDbArc
 50
359.999996
 51
89.999975
  0
ARC
  5
2A2
330
A
100
AcDbEntity
  8
PV
  6
Continuous
 62
   254
100
AcDbCircle
 10
7.577999999999999
 20
137.471
 30
0.0
 40
1.118999999999999
100
AcDbArc
 50
359.999996
 51
89.999975
  0
ARC
  5
2A3
330
A
100
AcDbEntity
  8
PV
  6
Continuous
 62
   254
100
AcDbCircle
 10
15.638
 20
137.471
 30
0.0
 40
0.6720000000000001
100
AcDbArc
 50
359.999996
 51
90.00003000000001
  0
ARC
  5
2A4
330
A
100
AcDbEntity
  8
PV
  6
Continuous
 62
   254
100
AcDbCircle
 10
15.638
 20
137.471
 30
0.0
 40
1.118999999999999
100
AcDbArc
 50
359.999996
 51
90.00003000000001
  0
ARC
  5
2A5
330
A
100
AcDbEntity
  8
PV
  6
Continuous
 62
     7
100
AcDbCircle
 10
-1.618
 20
117.7989999999999
 30
0.0
 40
17.25
100
AcDbArc
 50
228.339771
 51
243.535371
  0
ARC
  5
2A6
330
A
100
AcDbEntity
  8
PV
  6
Continuous
 62
     7
100
AcDbCircle
 10
1.175
 20
117.562
 30
0.0
 40
17.25
100
AcDbArc
 50
294.333537
 51
311.660234
  0
LWPOLYLINE
  5
2A7
330
A
100
AcDbEntity
  8
PV
  6
Continuous
 62
     7
100
AcDbPolyline
 90
      113
 70
     0
 43
0.0
 10
-11.561
 20
128.882
 10
-11.632
 20
128.892
 10
-11.704
 20
128.899
 10
-11.77599999999999
 20
128.9029999999999
 10
-11.84799999999999
 20
128.9029999999999
 10
-11.91999999999999
 20
128.899
 10
-11.993
 20
128.892
 10
-12.065
 20
128.881
 10
-12.137
 20
128.867
 10
-12.208
 20
128.8489999999999
 10
-12.279
 20
128.827
 10
-12.34799999999999
 20
128.802
 10
-12.418
 20
128.774
 10
-12.48599999999999
 20
128.742
 10
-12.553
 20
128.7069999999999
 10
-12.618
 20
128.6689999999999
 10
-12.68299999999999
 20
128.6279999999999
 10
-12.74499999999999
 20
128.584
 10
-12.807
 20
128.536
 10
-12.86599999999999
 20
128.4859999999999
 10
-12.924
 20
128.4329999999999
 10
-12.979
 20
128.377
 10
-13.033
 20
128.3179999999999
 10
-13.084
 20
128.2569999999999
 10
-13.13299999999999
 20
128.1939999999999
 10
-13.18
 20
128.129
 10
-13.224
 20
128.061
 10
-13.266
 20
127.991
 10
-13.305
 20
127.92
 10
-13.341
 20
127.846
 10
-13.375
 20
127.771
 10
-13.406
 20
127.695
 10
-13.434
 20
127.617
 10
-13.459
 20
127.539
 10
-13.481
 20
127.459
 10
-13.5
 20
127.3779999999999
 10
-13.51599999999999
 20
127.297
 10
-13.529
 20
127.215
 10
-13.538
 20
127.133
 10
-13.545
 20
127.0499999999999
 10
-13.548
 20
126.9679999999999
 10
-13.549
 20
126.885
 10
-13.546
 20
126.8029999999999
 10
-13.54
 20
126.721
 10
-13.53099999999999
 20
126.6399999999999
 10
-13.51799999999999
 20
126.5589999999999
 10
-13.503
 20
126.479
 10
-13.484
 20
126.401
 10
-13.463
 20
126.3229999999999
 10
-13.439
 20
126.247
 10
-13.41099999999999
 20
126.172
 10
-13.38099999999999
 20
126.0989999999999
 10
-13.34799999999999
 20
126.027
 10
-13.312
 20
125.9579999999999
 10
-13.273
 20
125.89
 10
-13.232
 20
125.824
 10
-13.18799999999999
 20
125.761
 10
-13.142
 20
125.7
 10
-13.093
 20
125.642
 10
-13.042
 20
125.5859999999999
 10
-12.989
 20
125.5329999999999
 10
-12.934
 20
125.4829999999999
 10
-12.877
 20
125.436
 10
-12.817
 20
125.391
 10
-12.757
 20
125.35
 10
-12.694
 20
125.312
 10
-12.63
 20
125.2769999999999
 10
-12.56499999999999
 20
125.246
 10
-12.498
 20
125.217
 10
-12.43
 20
125.1929999999999
 10
-12.36099999999999
 20
125.171
 10
-12.29099999999999
 20
125.154
 10
-12.22099999999999
 20
125.139
 10
-12.15
 20
125.129
 10
-12.07799999999999
 20
125.121
 10
-12.00599999999999
 20
125.1179999999999
 10
-11.934
 20
125.1179999999999
 10
-11.86099999999999
 20
125.122
 10
-11.789
 20
125.129
 10
-11.717
 20
125.14
 10
-11.645
 20
125.154
 10
-11.574
 20
125.172
 10
-11.503
 20
125.1929999999999
 10
-11.43299999999999
 20
125.2179999999999
 10
-11.364
 20
125.247
 10
-11.29599999999999
 20
125.278
 10
-11.229
 20
125.3129999999999
 10
-11.163
 20
125.3519999999999
 10
-11.099
 20
125.3929999999999
 10
-11.03599999999999
 20
125.437
 10
-10.97499999999999
 20
125.485
 10
-10.91599999999999
 20
125.5349999999999
 10
-10.85799999999999
 20
125.5879999999999
 10
-10.803
 20
125.644
 10
-10.749
 20
125.702
 10
-10.698
 20
125.763
 10
-10.649
 20
125.827
 10
-10.602
 20
125.892
 10
-10.558
 20
125.96
 10
-10.51599999999999
 20
126.0299999999999
 10
-10.477
 20
126.1009999999999
 10
-10.44
 20
126.1739999999999
 10
-10.40699999999999
 20
126.2489999999999
 10
-10.376
 20
126.326
 10
-10.34799999999999
 20
126.4029999999999
 10
-10.32299999999999
 20
126.482
 10
-10.30099999999999
 20
126.562
 10
-10.282
 20
126.6429999999999
 10
-10.26599999999999
 20
126.7239999999999
 10
-10.253
 20
126.8059999999999
 10
-10.24299999999999
 20
126.888
 10
-10.237
 20
126.971
 10
-10.235
 20
127.01
  0
LWPOLYLINE
  5
2A8
330
A
100
AcDbEntity
  8
PV
  6
Continuous
 62
     7
100
AcDbPolyline
 90
       26
 70
     0
 43
0.0
 10
-10.318
 20
127.695
 10
-10.319
 20
127.698
 10
-10.34299999999999
 20
127.774
 10
-10.37099999999999
 20
127.8489999999999
 10
-10.401
 20
127.922
 10
-10.434
 20
127.994
 10
-10.47
 20
128.0629999999999
 10
-10.509
 20
128.1309999999999
 10
-10.55
 20
128.1959999999999
 10
-10.594
 20
128.2599999999999
 10
-10.64
 20
128.3199999999999
 10
-10.68899999999999
 20
128.3789999999999
 10
-10.739
 20
128.435
 10
-10.79299999999999
 20
128.488
 10
-10.84799999999999
 20
128.5379999999999
 10
-10.905
 20
128.585
 10
-10.964
 20
128.6289999999999
 10
-11.025
 20
128.671
 10
-11.088
 20
128.709
 10
-11.152
 20
128.7439999999999
 10
-11.217
 20
128.775
 10
-11.284
 20
128.803
 10
-11.35199999999999
 20
128.828
 10
-11.42099999999999
 20
128.8489999999999
 10
-11.49
 20
128.867
 10
-11.561
 20
128.882
  0
LWPOLYLINE
  5
2A9
330
A
100
AcDbEntity
  8
PV
  6
Continuous
 62
     7
100
AcDbPolyline
 90
       94
 70
     0
 43
0.0
 10
19.96199999999999
 20
125.856
 10
19.963
 20
125.851
 10
19.97799999999999
 20
125.8059999999999
 10
19.99399999999999
 20
125.761
 10
20.013
 20
125.717
 10
20.033
 20
125.6739999999999
 10
20.055
 20
125.632
 10
20.079
 20
125.591
 10
20.104
 20
125.551
 10
20.132
 20
125.5129999999999
 10
20.16
 20
125.475
 10
20.19
 20
125.4389999999999
 10
20.222
 20
125.404
 10
20.255
 20
125.371
 10
20.28999999999999
 20
125.34
 10
20.325
 20
125.31
 10
20.362
 20
125.2809999999999
 10
20.4
 20
125.255
 10
20.44
 20
125.2299999999999
 10
20.48
 20
125.207
 10
20.521
 20
125.185
 10
20.563
 20
125.1659999999999
 10
20.605
 20
125.1489999999999
 10
20.649
 20
125.133
 10
20.693
 20
125.12
 10
20.737
 20
125.1079999999999
 10
20.78199999999999
 20
125.0989999999999
 10
20.82699999999999
 20
125.092
 10
20.873
 20
125.086
 10
20.919
 20
125.083
 10
20.965
 20
125.082
 10
21.01
 20
125.083
 10
21.05599999999999
 20
125.086
 10
21.10199999999999
 20
125.092
 10
21.147
 20
125.0989999999999
 10
21.19199999999999
 20
125.1079999999999
 10
21.236
 20
125.12
 10
21.28
 20
125.133
 10
21.324
 20
125.1489999999999
 10
21.366
 20
125.1659999999999
 10
21.408
 20
125.185
 10
21.449
 20
125.207
 10
21.49
 20
125.2299999999999
 10
21.529
 20
125.255
 10
21.56699999999999
 20
125.2809999999999
 10
21.604
 20
125.31
 10
21.63899999999999
 20
125.34
 10
21.674
 20
125.371
 10
21.70699999999999
 20
125.404
 10
21.739
 20
125.4389999999999
 10
21.769
 20
125.475
 10
21.798
 20
125.5129999999999
 10
21.825
 20
125.551
 10
21.85
 20
125.591
 10
21.874
 20
125.632
 10
21.89599999999999
 20
125.6739999999999
 10
21.916
 20
125.717
 10
21.93499999999999
 20
125.761
 10
21.951
 20
125.8059999999999
 10
21.96599999999999
 20
125.851
 10
21.979
 20
125.8979999999999
 10
21.98999999999999
 20
125.944
 10
21.999
 20
125.991
 10
22.006
 20
126.039
 10
22.01099999999999
 20
126.086
 10
22.014
 20
126.134
 10
22.015
 20
126.1819999999999
 10
22.014
 20
126.2299999999999
 10
22.01099999999999
 20
126.278
 10
22.006
 20
126.326
 10
21.999
 20
126.373
 10
21.98999999999999
 20
126.4199999999999
 10
21.979
 20
126.467
 10
21.96599999999999
 20
126.5129999999999
 10
21.951
 20
126.5579999999999
 10
21.93499999999999
 20
126.6029999999999
 10
21.916
 20
126.6469999999999
 10
21.89599999999999
 20
126.6899999999999
 10
21.874
 20
126.732
 10
21.85
 20
126.773
 10
21.825
 20
126.8129999999999
 10
21.798
 20
126.852
 10
21.769
 20
126.889
 10
21.739
 20
126.9249999999999
 10
21.70699999999999
 20
126.96
 10
21.674
 20
126.993
 10
21.63899999999999
 20
127.025
 10
21.604
 20
127.055
 10
21.56699999999999
 20
127.0829999999999
 10
21.529
 20
127.11
 10
21.49
 20
127.1349999999999
 10
21.449
 20
127.1579999999999
 10
21.408
 20
127.1789999999999
 10
21.37999999999999
 20
127.192
  0
LWPOLYLINE
  5
2AA
330
A
100
AcDbEntity
  8
PV
  6
Continuous
 62
     7
100
AcDbPolyline
 90
       94
 70
     0
 43
0.0
 10
22.36699999999999
 20
128.206
 10
22.366
 20
128.21
 10
22.351
 20
128.2559999999999
 10
22.335
 20
128.3
 10
22.31599999999999
 20
128.3439999999999
 10
22.296
 20
128.387
 10
22.274
 20
128.429
 10
22.25
 20
128.4699999999999
 10
22.225
 20
128.5099999999999
 10
22.198
 20
128.549
 10
22.169
 20
128.586
 10
22.139
 20
128.6229999999999
 10
22.107
 20
128.657
 10
22.074
 20
128.6899999999999
 10
22.039
 20
128.722
 10
22.004
 20
128.752
 10
21.96699999999999
 20
128.78
 10
21.929
 20
128.807
 10
21.89
 20
128.8319999999999
 10
21.849
 20
128.8549999999999
 10
21.808
 20
128.876
 10
21.766
 20
128.896
 10
21.724
 20
128.9129999999999
 10
21.68
 20
128.929
 10
21.636
 20
128.942
 10
21.59199999999999
 20
128.953
 10
21.54699999999999
 20
128.963
 10
21.50199999999999
 20
128.97
 10
21.45599999999999
 20
128.9749999999999
 10
21.41
 20
128.9779999999999
 10
21.36499999999999
 20
128.9789999999999
 10
21.319
 20
128.9779999999999
 10
21.273
 20
128.9749999999999
 10
21.22699999999999
 20
128.97
 10
21.18199999999999
 20
128.963
 10
21.13699999999999
 20
128.953
 10
21.093
 20
128.942
 10
21.049
 20
128.929
 10
21.00499999999999
 20
128.9129999999999
 10
20.963
 20
128.896
 10
20.92099999999999
 20
128.876
 10
20.88
 20
128.8549999999999
 10
20.84
 20
128.8319999999999
 10
20.8
 20
128.807
 10
20.76199999999999
 20
128.78
 10
20.725
 20
128.752
 10
20.69
 20
128.722
 10
20.655
 20
128.6899999999999
 10
20.622
 20
128.657
 10
20.59
 20
128.6229999999999
 10
20.56
 20
128.586
 10
20.53199999999999
 20
128.549
 10
20.504
 20
128.5099999999999
 10
20.47899999999999
 20
128.4699999999999
 10
20.455
 20
128.429
 10
20.43299999999999
 20
128.387
 10
20.413
 20
128.3439999999999
 10
20.394
 20
128.3
 10
20.378
 20
128.2559999999999
 10
20.363
 20
128.21
 10
20.35
 20
128.1639999999999
 10
20.339
 20
128.1179999999999
 10
20.32999999999999
 20
128.0699999999999
 10
20.324
 20
128.0229999999999
 10
20.319
 20
127.9749999999999
 10
20.316
 20
127.927
 10
20.315
 20
127.8789999999999
 10
20.316
 20
127.831
 10
20.319
 20
127.7839999999999
 10
20.324
 20
127.736
 10
20.32999999999999
 20
127.688
 10
20.339
 20
127.641
 10
20.35
 20
127.5949999999999
 10
20.363
 20
127.549
 10
20.378
 20
127.5029999999999
 10
20.394
 20
127.458
 10
20.413
 20
127.415
 10
20.43299999999999
 20
127.372
 10
20.455
 20
127.329
 10
20.47899999999999
 20
127.288
 10
20.504
 20
127.2479999999999
 10
20.53199999999999
 20
127.21
 10
20.56
 20
127.172
 10
20.59
 20
127.136
 10
20.622
 20
127.102
 10
20.655
 20
127.068
 10
20.69
 20
127.0369999999999
 10
20.725
 20
127.007
 10
20.76199999999999
 20
126.9779999999999
 10
20.8
 20
126.952
 10
20.84
 20
126.927
 10
20.88
 20
126.9039999999999
 10
20.92099999999999
 20
126.882
 10
20.949
 20
126.869
  0
MTEXT
  5
2AB
330
A
100
AcDbEntity
  8
PV
  6
Continuous
 62
     7
100
AcDbMText
 10
0.003
 20
115.7929999999999
 30
0.0
 40
2.0
 41
0.0
 71
     2
 72
     1
  1
\W0.925;\A1;HIGH VACUUM VALVES
 73
     1
 44
1.0
  0
MTEXT
  5
2AC
330
A
100
AcDbEntity
  8
PV
  6
Continuous
 62
     7
100
AcDbMText
 10
-0.06
 20
110.731
 30
0.0
 40
2.0
 41
0.0
 71
     2
 72
     1
  1
\W0.930;\A1;METAL BELLOWS
 73
     1
 44
1.0
  0
MTEXT
  5
2AD
330
A
100
AcDbEntity
  8
PV
  6
Continuous
 62
     7
100
AcDbMText
 10
2.852097999999999
 20
101.131179
 30
0.0
 40
1.5
 41
0.0
 71
     2
 72
     1
  1
\W1.048;\A1;O
 11
0.9935718815697162
 21
0.113202986506601
 31
0.0
 73
     1
 44
1.0
  0
MTEXT
  5
2AE
330
A
100
AcDbEntity
  8
PV
  6
Continuous
 62
     7
100
AcDbMText
 10
4.274473999999999
 20
101.3559439999999
 30
0.0
 40
1.5
 41
0.0
 71
     2
 72
     1
  1
\A1;P
 11
0.9799247035488139
 21
0.1993679396863229
 31
0.0
 73
     1
 44
1.0
  0
MTEXT
  5
2AF
330
A
100
AcDbEntity
  8
PV
  6
Continuous
 62
     7
100
AcDbMText
 10
5.670988999999999
 20
101.704115
 30
0.0
 40
1.5
 41
0.0
 71
     2
 72
     1
  1
\W0.905;\A1;E
 11
0.9588198501244839
 21
0.2840149556049157
 31
0.0
 73
     1
 44
1.0
  0
MTEXT
  5
2B0
330
A
100
AcDbEntity
  8
PV
  6
Continuous
 62
     7
100
AcDbMText
 10
-8.17698
 20
102.7474709999999
 30
0.0
 40
1.5
 41
0.0
 71
     2
 72
     1
  1
\A1;C
 11
0.909961315861277
 21
-0.4146931439462357
 31
0.0
 73
     1
 44
1.0
  0
MTEXT
  5
2B1
330
A
100
AcDbEntity
  8
PV
  6
Continuous
 62
     7
100
AcDbMText
 10
-6.842645
 20
102.207981
 30
0.0
 40
1.5
 41
0.0
 71
     2
 72
     1
  1
\W0.810;\A1;L
 11
0.9426413920776289
 21
-0.3338071388421012
 31
0.0
 73
     1
 44
1.0
  0
MTEXT
  5
2B2
330
A
100
AcDbEntity
  8
PV
  6
Continuous
 62
     7
100
AcDbMText
 10
-5.466215
 20
101.7871109999999
 30
0.0
 40
1.5
 41
0.0
 71
     2
 72
     1
  1
\W1.048;\A1;O
 11
0.9681476639056603
 21
-0.2503799130801275
 31
0.0
 73
     1
 44
1.0
  0
MTEXT
  5
2B3
330
A
100
AcDbEntity
  8
PV
  6
Continuous
 62
     7
100
AcDbMText
 10
-4.058213999999999
 20
101.487714
 30
0.0
 40
1.5
 41
0.0
 71
     2
 72
     1
  1
\W0.952;\A1;S
 11
0.9862855482320082
 21
-0.1650479243998155
 31
0.0
 73
     1
 44
1.0
  0
MTEXT
  5
2B4
330
A
100
AcDbEntity
  8
PV
  6
Continuous
 62
     7
100
AcDbMText
 10
-2.629156
 20
101.3126879999999
 30
0.0
 40
1.5
 41
0.0
 71
     2
 72
     1
  1
\W0.905;\A1;E
 11
0.9969173391662902
 21
-0.0784590266929423
 31
0.0
 73
     1
 44
1.0
  0
MTEXT
  5
2B5
330
A
100
AcDbEntity
  8
PV
  6
Continuous
 62
     7
100
AcDbMText
 10
7.032124
 20
102.172813
 30
0.0
 40
1.5
 41
0.0
 71
     2
 72
     1
  1
\W1.048;\A1;N
 11
0.9304177033247322
 21
0.3665008831366308
 31
0.0
 73
     1
 44
1.0
  0
SOLID
  5
2B6
330
A
100
AcDbEntity
  8
PV
  6
Continuous
 62
     7
100
AcDbTrace
 10
-2.7
 20
141.816
 30
0.0
 11
-1.149999999999999
 21
141.816
 31
0.0
 12
-2.7
 22
145.366
 32
0.0
 13
-1.149999999999999
 23
145.366
 33
0.0
  0
SOLID
  5
2B7
330
A
100
AcDbEntity
  8
PV
  6
Continuous
 62
     7
100
AcDbTrace
 10
-16.60099999999999
 20
136.3509999999999
 30
0.0
 11
-16.15299999999999
 21
136.3509999999999
 31
0.0
 12
-16.60099999999999
 22
138.59
 32
0.0
 13
-16.15299999999999
 23
138.59
 33
0.0
  0
SOLID
  5
2B8
330
A
100
AcDbEntity
  8
PV
  6
Continuous
 62
     7
100
AcDbTrace
 10
-13.13099999999999
 20
136.3509999999999
 30
0.0
 11
-12.68299999999999
 21
136.3509999999999
 31
0.0
 12
-13.13099999999999
 22
138.59
 32
0.0
 13
-12.68299999999999
 23
138.59
 33
0.0
  0
LINE
  5
2B9
330
A
100
AcDbEntity
  8
PV
  6
Continuous
 62
     7
100
AcDbLine
 10
-31.0
 20
88.542
 30
0.0
 11
-28.0
 21
90.274
 31
0.0
  0
LINE
  5
2BA
330
A
100
AcDbEntity
  8
PV
  6
Continuous
 62
     7
100
AcDbLine
 10
-34.0
 20
93.73800000000001
 30
0.0
 11
-31.0
 21
95.471
 31
0.0
  0
LINE
  5
2BB
330
A
100
AcDbEntity
  8
PV
  6
Continuous
 62
     7
100
AcDbLine
 10
-28.0
 20
93.73800000000001
 30
0.0
 11
-28.0
 21
90.274
 31
0.0
  0
LINE
  5
2BC
330
A
100
AcDbEntity
  8
PV
  6
Continuous
 62
     7
100
AcDbLine
 10
-34.0
 20
93.73800000000001
 30
0.0
 11
-34.0
 21
90.274
 31
0.0
  0
LINE
  5
2BD
330
A
100
AcDbEntity
  8
PV
  6
Continuous
 62
     7
100
AcDbLine
 10
-31.0
 20
95.471
 30
0.0
 11
-28.0
 21
93.73800000000001
 31
0.0
  0
LINE
  5
2BE
330
A
100
AcDbEntity
  8
PV
  6
Continuous
 62
     7
100
AcDbLine
 10
-34.0
 20
90.274
 30
0.0
 11
-31.0
 21
88.542
 31
0.0
  0
CIRCLE
  5
2BF
330
A
100
AcDbEntity
  8
PV
  6
Continuous
 62
     7
100
AcDbCircle
 10
-31.0
 20
92.00599999999999
 30
0.0
 40
6.5
  0
CIRCLE
  5
2C0
330
A
100
AcDbEntity
  8
PV
  6
Continuous
 62
     7
100
AcDbCircle
 10
-31.0
 20
92.00599999999999
 30
0.0
 40
5.633999999999999
  0
LINE
  5
2C1
330
A
100
AcDbEntity
  8
PV
  6
Continuous
 62
     7
100
AcDbLine
 10
31.0
 20
88.542
 30
0.0
 11
34.0
 21
90.274
 31
0.0
  0
LINE
  5
2C2
330
A
100
AcDbEntity
  8
PV
  6
Continuous
 62
     7
100
AcDbLine
 10
28.0
 20
93.73800000000001
 30
0.0
 11
31.0
 21
95.471
 31
0.0
  0
LINE
  5
2C3
330
A
100
AcDbEntity
  8
PV
  6
Continuous
 62
     7
100
AcDbLine
 10
34.0
 20
93.73800000000001
 30
0.0
 11
34.0
 21
90.274
 31
0.0
  0
LINE
  5
2C4
330
A
100
AcDbEntity
  8
PV
  6
Continuous
 62
     7
100
AcDbLine
 10
28.0
 20
93.73800000000001
 30
0.0
 11
28.0
 21
90.274
 31
0.0
  0
LINE
  5
2C5
330
A
100
AcDbEntity
  8
PV
  6
Continuous
 62
     7
100
AcDbLine
 10
31.0
 20
95.471
 30
0.0
 11
34.0
 21
93.73800000000001
 31
0.0
  0
LINE
  5
2C6
330
A
100
AcDbEntity
  8
PV
  6
Continuous
 62
     7
100
AcDbLine
 10
28.0
 20
90.274
 30
0.0
 11
31.0
 21
88.542
 31
0.0
  0
CIRCLE
  5
2C7
330
A
100
AcDbEntity
  8
PV
  6
Continuous
 62
     7
100
AcDbCircle
 10
31.0
 20
92.00599999999999
 30
0.0
 40
6.5
  0
CIRCLE
  5
2C8
330
A
100
AcDbEntity
  8
PV
  6
Continuous
 62
     7
100
AcDbCircle
 10
31.0
 20
92.00599999999999
 30
0.0
 40
5.633999999999999
  0
LINE
  5
2C9
330
A
100
AcDbEntity
  8
PV
  6
Continuous
 62
     7
100
AcDbLine
 10
31.0
 20
150.5419999999999
 30
0.0
 11
34.0
 21
152.2739999999999
 31
0.0
  0
LINE
  5
2CA
330
A
100
AcDbEntity
  8
PV
  6
Continuous
 62
     7
100
AcDbLine
 10
28.0
 20
155.738
 30
0.0
 11
31.0
 21
157.471
 31
0.0
  0
LINE
  5
2CB
330
A
100
AcDbEntity
  8
PV
  6
Continuous
 62
     7
100
AcDbLine
 10
34.0
 20
155.738
 30
0.0
 11
34.0
 21
152.2739999999999
 31
0.0
  0
LINE
  5
2CC
330
A
100
AcDbEntity
  8
PV
  6
Continuous
 62
     7
100
AcDbLine
 10
28.0
 20
155.738
 30
0.0
 11
28.0
 21
152.2739999999999
 31
0.0
  0
LINE
  5
2CD
330
A
100
AcDbEntity
  8
PV
  6
Continuous
 62
     7
100
AcDbLine
 10
31.0
 20
157.471
 30
0.0
 11
34.0
 21
155.738
 31
0.0
  0
LINE
  5
2CE
330
A
100
AcDbEntity
  8
PV
  6
Continuous
 62
     7
100
AcDbLine
 10
28.0
 20
152.2739999999999
 30
0.0
 11
31.0
 21
150.5419999999999
 31
0.0
  0
CIRCLE
  5
2CF
330
A
100
AcDbEntity
  8
PV
  6
Continuous
 62
     7
100
AcDbCircle
 10
31.0
 20
154.0059999999999
 30
0.0
 40
6.5
  0
CIRCLE
  5
2D0
330
A
100
AcDbEntity
  8
PV
  6
Continuous
 62
     7
100
AcDbCircle
 10
31.0
 20
154.0059999999999
 30
0.0
 40
5.633999999999999
  0
LINE
  5
2D1
330
A
100
AcDbEntity
  8
PV
  6
Continuous
 62
     7
100
AcDbLine
 10
-31.0
 20
150.5419999999999
 30
0.0
 11
-28.0
 21
152.2739999999999
 31
0.0
  0
LINE
  5
2D2
330
A
100
AcDbEntity
  8
PV
  6
Continuous
 62
     7
100
AcDbLine
 10
-34.0
 20
155.738
 30
0.0
 11
-31.0
 21
157.471
 31
0.0
  0
LINE
  5
2D3
330
A
100
AcDbEntity
  8
PV
  6
Continuous
 62
     7
100
AcDbLine
 10
-28.0
 20
155.738
 30
0.0
 11
-28.0
 21
152.2739999999999
 31
0.0
  0
LINE
  5
2D4
330
A
100
AcDbEntity
  8
PV
  6
Continuous
 62
     7
100
AcDbLine
 10
-34.0
 20
155.738
 30
0.0
 11
-34.0
 21
152.2739999999999
 31
0.0
  0
LINE
  5
2D5
330
A
100
AcDbEntity
  8
PV
  6
Continuous
 62
     7
100
AcDbLine
 10
-31.0
 20
157.471
 30
0.0
 11
-28.0
 21
155.738
 31
0.0
  0
LINE
  5
2D6
330
A
100
AcDbEntity
  8
PV
  6
Continuous
 62
     7
100
AcDbLine
 10
-34.0
 20
152.2739999999999
 30
0.0
 11
-31.0
 21
150.5419999999999
 31
0.0
  0
CIRCLE
  5
2D7
330
A
100
AcDbEntity
  8
PV
  6
Continuous
 62
     7
100
AcDbCircle
 10
-31.0
 20
154.0059999999999
 30
0.0
 40
6.5
  0
CIRCLE
  5
2D8
330
A
100
AcDbEntity
  8
PV
  6
Continuous
 62
     7
100
AcDbCircle
 10
-31.0
 20
154.0059999999999
 30
0.0
 40
5.633999999999999
  0
LINE
  5
2D9
330
A
100
AcDbEntity
  8
PV
  6
Continuous
 62
     7
100
AcDbLine
 10
-18.07099999999999
 20
125.11
 30
0.0
 11
-17.67
 21
125.11
 31
0.0
  0
LINE
  5
2DA
330
A
100
AcDbEntity
  8
PV
  6
Continuous
 62
     7
100
AcDbLine
 10
-17.4
 20
128.9099999999999
 30
0.0
 11
-17.062
 21
128.9099999999999
 31
0.0
  0
LINE
  5
2DB
330
A
100
AcDbEntity
  8
PV
  6
Continuous
 62
     7
100
AcDbLine
 10
-15.487
 20
125.11
 30
0.0
 11
-14.816
 21
128.9099999999999
 31
0.0
  0
LINE
  5
2DC
330
A
100
AcDbEntity
  8
PV
  6
Continuous
 62
     7
100
AcDbLine
 10
-15.749
 20
125.817
 30
0.0
 11
-15.204
 21
128.9099999999999
 31
0.0
  0
LINE
  5
2DD
330
A
100
AcDbEntity
  8
PV
  6
Continuous
 62
     7
100
AcDbLine
 10
-17.67
 20
125.11
 30
0.0
 11
-17.146
 21
128.0839999999999
 31
0.0
  0
LINE
  5
2DE
330
A
100
AcDbEntity
  8
PV
  6
Continuous
 62
     7
100
AcDbLine
 10
-18.07099999999999
 20
125.11
 30
0.0
 11
-17.4
 21
128.9099999999999
 31
0.0
  0
LINE
  5
2DF
330
A
100
AcDbEntity
  8
PV
  6
Continuous
 62
     7
100
AcDbLine
 10
-17.146
 20
128.0839999999999
 30
0.0
 11
-15.883
 21
125.11
 31
0.0
  0
LINE
  5
2E0
330
A
100
AcDbEntity
  8
PV
  6
Continuous
 62
     7
100
AcDbLine
 10
-17.062
 20
128.9099999999999
 30
0.0
 11
-15.749
 21
125.817
 31
0.0
  0
LINE
  5
2E1
330
A
100
AcDbEntity
  8
PV
  6
Continuous
 62
     7
100
AcDbLine
 10
-15.883
 20
125.11
 30
0.0
 11
-15.487
 21
125.11
 31
0.0
  0
LINE
  5
2E2
330
A
100
AcDbEntity
  8
PV
  6
Continuous
 62
     7
100
AcDbLine
 10
-15.204
 20
128.9099999999999
 30
0.0
 11
-14.816
 21
128.9099999999999
 31
0.0
  0
LINE
  5
2E3
330
A
100
AcDbEntity
  8
PV
  6
Continuous
 62
     7
100
AcDbLine
 10
-11.386
 20
127.01
 30
0.0
 11
-10.235
 21
127.01
 31
0.0
  0
LINE
  5
2E4
330
A
100
AcDbEntity
  8
PV
  6
Continuous
 62
     7
100
AcDbLine
 10
-10.694
 20
127.557
 30
0.0
 11
-10.318
 21
127.695
 31
0.0
  0
LINE
  5
2E5
330
A
100
AcDbEntity
  8
PV
  6
Continuous
 62
     7
100
AcDbLine
 10
-11.45299999999999
 20
126.6299999999999
 30
0.0
 11
-11.386
 21
127.01
 31
0.0
  0
LINE
  5
2E6
330
A
100
AcDbEntity
  8
PV
  6
Continuous
 62
     7
100
AcDbLine
 10
-11.45299999999999
 20
126.6299999999999
 30
0.0
 11
-10.696
 21
126.6299999999999
 31
0.0
  0
LINE
  5
2E7
330
A
100
AcDbEntity
  8
PV
  6
Continuous
 62
     7
100
AcDbLine
 10
-22.60099999999999
 20
125.11
 30
0.0
 11
-22.197
 21
125.11
 31
0.0
  0
LINE
  5
2E8
330
A
100
AcDbEntity
  8
PV
  6
Continuous
 62
     7
100
AcDbLine
 10
-21.218
 20
128.9099999999999
 30
0.0
 11
-20.804
 21
128.9099999999999
 31
0.0
  0
LINE
  5
2E9
330
A
100
AcDbEntity
  8
PV
  6
Continuous
 62
     7
100
AcDbLine
 10
-22.60099999999999
 20
125.11
 30
0.0
 11
-21.218
 21
128.9099999999999
 31
0.0
  0
LINE
  5
2EA
330
A
100
AcDbEntity
  8
PV
  6
Continuous
 62
     7
100
AcDbLine
 10
-22.197
 20
125.11
 30
0.0
 11
-21.903
 21
125.917
 31
0.0
  0
LINE
  5
2EB
330
A
100
AcDbEntity
  8
PV
  6
Continuous
 62
     7
100
AcDbLine
 10
-20.804
 20
128.9099999999999
 30
0.0
 11
-19.78599999999999
 21
125.11
 31
0.0
  0
LINE
  5
2EC
330
A
100
AcDbEntity
  8
PV
  6
Continuous
 62
     7
100
AcDbLine
 10
-21.03499999999999
 20
128.3029999999999
 30
0.0
 11
-20.501
 21
126.312
 31
0.0
  0
LINE
  5
2ED
330
A
100
AcDbEntity
  8
PV
  6
Continuous
 62
     7
100
AcDbLine
 10
-20.179
 20
125.11
 30
0.0
 11
-19.78599999999999
 21
125.11
 31
0.0
  0
LINE
  5
2EE
330
A
100
AcDbEntity
  8
PV
  6
Continuous
 62
     7
100
AcDbLine
 10
-21.903
 20
125.917
 30
0.0
 11
-20.39499999999999
 21
125.917
 31
0.0
  0
LINE
  5
2EF
330
A
100
AcDbEntity
  8
PV
  6
Continuous
 62
     7
100
AcDbLine
 10
-21.75899999999999
 20
126.312
 30
0.0
 11
-20.501
 21
126.312
 31
0.0
  0
LINE
  5
2F0
330
A
100
AcDbEntity
  8
PV
  6
Continuous
 62
     7
100
AcDbLine
 10
-21.75899999999999
 20
126.312
 30
0.0
 11
-21.03499999999999
 21
128.3029999999999
 31
0.0
  0
LINE
  5
2F1
330
A
100
AcDbEntity
  8
PV
  6
Continuous
 62
     7
100
AcDbLine
 10
-20.39499999999999
 20
125.917
 30
0.0
 11
-20.179
 21
125.11
 31
0.0
  0
LINE
  5
2F2
330
A
100
AcDbEntity
  8
PV
  6
Continuous
 62
     7
100
AcDbLine
 10
-8.824999999999999
 20
125.11
 30
0.0
 11
-6.766
 21
125.11
 31
0.0
  0
LINE
  5
2F3
330
A
100
AcDbEntity
  8
PV
  6
Continuous
 62
     7
100
AcDbLine
 10
-8.154999999999999
 20
128.9099999999999
 30
0.0
 11
-7.758999999999999
 21
128.9099999999999
 31
0.0
  0
LINE
  5
2F4
330
A
100
AcDbEntity
  8
PV
  6
Continuous
 62
     7
100
AcDbLine
 10
-6.766
 20
125.11
 30
0.0
 11
-6.693999999999999
 21
125.5149999999999
 31
0.0
  0
LINE
  5
2F5
330
A
100
AcDbEntity
  8
PV
  6
Continuous
 62
     7
100
AcDbLine
 10
-8.824999999999999
 20
125.11
 30
0.0
 11
-8.154999999999999
 21
128.9099999999999
 31
0.0
  0
LINE
  5
2F6
330
A
100
AcDbEntity
  8
PV
  6
Continuous
 62
     7
100
AcDbLine
 10
-8.357000000000001
 20
125.5149999999999
 30
0.0
 11
-7.758999999999999
 21
128.9099999999999
 31
0.0
  0
LINE
  5
2F7
330
A
100
AcDbEntity
  8
PV
  6
Continuous
 62
     7
100
AcDbLine
 10
-8.357000000000001
 20
125.5149999999999
 30
0.0
 11
-6.693999999999999
 21
125.5149999999999
 31
0.0
  0
LINE
  5
2F8
330
A
100
AcDbEntity
  8
PV
  6
Continuous
 62
     7
100
AcDbLine
 10
-4.310999999999999
 20
128.9099999999999
 30
0.0
 11
-2.534
 21
128.9099999999999
 31
0.0
  0
LINE
  5
2F9
330
A
100
AcDbEntity
  8
PV
  6
Continuous
 62
     7
100
AcDbLine
 10
-4.980999999999999
 20
125.11
 30
0.0
 11
-3.203999999999999
 21
125.11
 31
0.0
  0
LINE
  5
2FA
330
A
100
AcDbEntity
  8
PV
  6
Continuous
 62
     7
100
AcDbLine
 10
-4.980999999999999
 20
125.11
 30
0.0
 11
-4.310999999999999
 21
128.9099999999999
 31
0.0
  0
LINE
  5
2FB
330
A
100
AcDbEntity
  8
PV
  6
Continuous
 62
     7
100
AcDbLine
 10
-3.203999999999999
 20
125.11
 30
0.0
 11
-3.134999999999999
 21
125.497
 31
0.0
  0
LINE
  5
2FC
330
A
100
AcDbEntity
  8
PV
  6
Continuous
 62
     7
100
AcDbLine
 10
-4.291999999999999
 20
126.805
 30
0.0
 11
-2.904999999999999
 21
126.805
 31
0.0
  0
LINE
  5
2FD
330
A
100
AcDbEntity
  8
PV
  6
Continuous
 62
     7
100
AcDbLine
 10
-4.222999999999999
 20
127.1979999999999
 30
0.0
 11
-2.836
 21
127.1979999999999
 31
0.0
  0
LINE
  5
2FE
330
A
100
AcDbEntity
  8
PV
  6
Continuous
 62
     7
100
AcDbLine
 10
-3.993999999999999
 20
128.492
 30
0.0
 11
-2.606999999999999
 21
128.492
 31
0.0
  0
LINE
  5
2FF
330
A
100
AcDbEntity
  8
PV
  6
Continuous
 62
     7
100
AcDbLine
 10
-4.522
 20
125.497
 30
0.0
 11
-3.134999999999999
 21
125.497
 31
0.0
  0
LINE
  5
300
330
A
100
AcDbEntity
  8
PV
  6
Continuous
 62
     7
100
AcDbLine
 10
-4.522
 20
125.497
 30
0.0
 11
-4.291999999999999
 21
126.805
 31
0.0
  0
LINE
  5
301
330
A
100
AcDbEntity
  8
PV
  6
Continuous
 62
     7
100
AcDbLine
 10
-2.904999999999999
 20
126.805
 30
0.0
 11
-2.836
 21
127.1979999999999
 31
0.0
  0
LINE
  5
302
330
A
100
AcDbEntity
  8
PV
  6
Continuous
 62
     7
100
AcDbLine
 10
-2.606999999999999
 20
128.492
 30
0.0
 11
-2.534
 21
128.9099999999999
 31
0.0
  0
LINE
  5
303
330
A
100
AcDbEntity
  8
PV
  6
Continuous
 62
     7
100
AcDbLine
 10
-4.222999999999999
 20
127.1979999999999
 30
0.0
 11
-3.993999999999999
 21
128.492
 31
0.0
  0
LINE
  5
304
330
A
100
AcDbEntity
  8
PV
  6
Continuous
 62
     7
100
AcDbLine
 10
4.698999999999999
 20
125.11
 30
0.0
 11
5.102999999999999
 21
125.11
 31
0.0
  0
LINE
  5
305
330
A
100
AcDbEntity
  8
PV
  6
Continuous
 62
     7
100
AcDbLine
 10
6.082
 20
128.9099999999999
 30
0.0
 11
6.496
 21
128.9099999999999
 31
0.0
  0
LINE
  5
306
330
A
100
AcDbEntity
  8
PV
  6
Continuous
 62
     7
100
AcDbLine
 10
4.698999999999999
 20
125.11
 30
0.0
 11
6.082
 21
128.9099999999999
 31
0.0
  0
LINE
  5
307
330
A
100
AcDbEntity
  8
PV
  6
Continuous
 62
     7
100
AcDbLine
 10
5.102999999999999
 20
125.11
 30
0.0
 11
5.397
 21
125.917
 31
0.0
  0
LINE
  5
308
330
A
100
AcDbEntity
  8
PV
  6
Continuous
 62
     7
100
AcDbLine
 10
6.496
 20
128.9099999999999
 30
0.0
 11
7.513999999999999
 21
125.11
 31
0.0
  0
LINE
  5
309
330
A
100
AcDbEntity
  8
PV
  6
Continuous
 62
     7
100
AcDbLine
 10
6.264999999999999
 20
128.3029999999999
 30
0.0
 11
6.798999999999999
 21
126.312
 31
0.0
  0
LINE
  5
30A
330
A
100
AcDbEntity
  8
PV
  6
Continuous
 62
     7
100
AcDbLine
 10
7.121
 20
125.11
 30
0.0
 11
7.513999999999999
 21
125.11
 31
0.0
  0
LINE
  5
30B
330
A
100
AcDbEntity
  8
PV
  6
Continuous
 62
     7
100
AcDbLine
 10
5.397
 20
125.917
 30
0.0
 11
6.905
 21
125.917
 31
0.0
  0
LINE
  5
30C
330
A
100
AcDbEntity
  8
PV
  6
Continuous
 62
     7
100
AcDbLine
 10
5.541
 20
126.312
 30
0.0
 11
6.798999999999999
 21
126.312
 31
0.0
  0
LINE
  5
30D
330
A
100
AcDbEntity
  8
PV
  6
Continuous
 62
     7
100
AcDbLine
 10
5.541
 20
126.312
 30
0.0
 11
6.264999999999999
 21
128.3029999999999
 31
0.0
  0
LINE
  5
30E
330
A
100
AcDbEntity
  8
PV
  6
Continuous
 62
     7
100
AcDbLine
 10
6.905
 20
125.917
 30
0.0
 11
7.121
 21
125.11
 31
0.0
  0
LINE
  5
30F
330
A
100
AcDbEntity
  8
PV
  6
Continuous
 62
     7
100
AcDbLine
 10
8.974999999999999
 20
125.11
 30
0.0
 11
11.034
 21
125.11
 31
0.0
  0
LINE
  5
310
330
A
100
AcDbEntity
  8
PV
  6
Continuous
 62
     7
100
AcDbLine
 10
9.644999999999999
 20
128.9099999999999
 30
0.0
 11
10.04099999999999
 21
128.9099999999999
 31
0.0
  0
LINE
  5
311
330
A
100
AcDbEntity
  8
PV
  6
Continuous
 62
     7
100
AcDbLine
 10
16.989
 20
128.9099999999999
 30
0.0
 11
18.76599999999999
 21
128.9099999999999
 31
0.0
  0
LINE
  5
312
330
A
100
AcDbEntity
  8
PV
  6
Continuous
 62
     7
100
AcDbLine
 10
16.319
 20
125.11
 30
0.0
 11
18.096
 21
125.11
 31
0.0
  0
LINE
  5
313
330
A
100
AcDbEntity
  8
PV
  6
Continuous
 62
     7
100
AcDbLine
 10
11.034
 20
125.11
 30
0.0
 11
11.106
 21
125.5149999999999
 31
0.0
  0
LINE
  5
314
330
A
100
AcDbEntity
  8
PV
  6
Continuous
 62
     7
100
AcDbLine
 10
8.974999999999999
 20
125.11
 30
0.0
 11
9.644999999999999
 21
128.9099999999999
 31
0.0
  0
LINE
  5
315
330
A
100
AcDbEntity
  8
PV
  6
Continuous
 62
     7
100
AcDbLine
 10
9.442999999999999
 20
125.5149999999999
 30
0.0
 11
10.04099999999999
 21
128.9099999999999
 31
0.0
  0
LINE
  5
316
330
A
100
AcDbEntity
  8
PV
  6
Continuous
 62
     7
100
AcDbLine
 10
9.442999999999999
 20
125.5149999999999
 30
0.0
 11
11.106
 21
125.5149999999999
 31
0.0
  0
LINE
  5
317
330
A
100
AcDbEntity
  8
PV
  6
Continuous
 62
     7
100
AcDbLine
 10
16.319
 20
125.11
 30
0.0
 11
16.989
 21
128.9099999999999
 31
0.0
  0
LINE
  5
318
330
A
100
AcDbEntity
  8
PV
  6
Continuous
 62
     7
100
AcDbLine
 10
18.096
 20
125.11
 30
0.0
 11
18.16499999999999
 21
125.497
 31
0.0
  0
LINE
  5
319
330
A
100
AcDbEntity
  8
PV
  6
Continuous
 62
     7
100
AcDbLine
 10
17.008
 20
126.805
 30
0.0
 11
18.395
 21
126.805
 31
0.0
  0
LINE
  5
31A
330
A
100
AcDbEntity
  8
PV
  6
Continuous
 62
     7
100
AcDbLine
 10
17.077
 20
127.1979999999999
 30
0.0
 11
18.464
 21
127.1979999999999
 31
0.0
  0
LINE
  5
31B
330
A
100
AcDbEntity
  8
PV
  6
Continuous
 62
     7
100
AcDbLine
 10
17.30599999999999
 20
128.492
 30
0.0
 11
18.69299999999999
 21
128.492
 31
0.0
  0
LINE
  5
31C
330
A
100
AcDbEntity
  8
PV
  6
Continuous
 62
     7
100
AcDbLine
 10
16.77799999999999
 20
125.497
 30
0.0
 11
18.16499999999999
 21
125.497
 31
0.0
  0
LINE
  5
31D
330
A
100
AcDbEntity
  8
PV
  6
Continuous
 62
     7
100
AcDbLine
 10
16.77799999999999
 20
125.497
 30
0.0
 11
17.008
 21
126.805
 31
0.0
  0
LINE
  5
31E
330
A
100
AcDbEntity
  8
PV
  6
Continuous
 62
     7
100
AcDbLine
 10
18.395
 20
126.805
 30
0.0
 11
18.464
 21
127.1979999999999
 31
0.0
  0
LINE
  5
31F
330
A
100
AcDbEntity
  8
PV
  6
Continuous
 62
     7
100
AcDbLine
 10
18.69299999999999
 20
128.492
 30
0.0
 11
18.76599999999999
 21
128.9099999999999
 31
0.0
  0
LINE
  5
320
330
A
100
AcDbEntity
  8
PV
  6
Continuous
 62
     7
100
AcDbLine
 10
17.077
 20
127.1979999999999
 30
0.0
 11
17.30599999999999
 21
128.492
 31
0.0
  0
LINE
  5
321
330
A
100
AcDbEntity
  8
PV
  6
Continuous
 62
     7
100
AcDbLine
 10
13.174
 20
125.11
 30
0.0
 11
13.658
 21
125.11
 31
0.0
  0
LINE
  5
322
330
A
100
AcDbEntity
  8
PV
  6
Continuous
 62
     7
100
AcDbLine
 10
12.504
 20
128.9099999999999
 30
0.0
 11
12.9
 21
128.9099999999999
 31
0.0
  0
LINE
  5
323
330
A
100
AcDbEntity
  8
PV
  6
Continuous
 62
     7
100
AcDbLine
 10
13.658
 20
125.11
 30
0.0
 11
15.041
 21
128.9099999999999
 31
0.0
  0
LINE
  5
324
330
A
100
AcDbEntity
  8
PV
  6
Continuous
 62
     7
100
AcDbLine
 10
13.465
 20
125.7079999999999
 30
0.0
 11
14.63
 21
128.9099999999999
 31
0.0
  0
LINE
  5
325
330
A
100
AcDbEntity
  8
PV
  6
Continuous
 62
     7
100
AcDbLine
 10
12.9
 20
128.9099999999999
 30
0.0
 11
13.465
 21
125.7079999999999
 31
0.0
  0
LINE
  5
326
330
A
100
AcDbEntity
  8
PV
  6
Continuous
 62
     7
100
AcDbLine
 10
12.504
 20
128.9099999999999
 30
0.0
 11
13.174
 21
125.11
 31
0.0
  0
LINE
  5
327
330
A
100
AcDbEntity
  8
PV
  6
Continuous
 62
     7
100
AcDbLine
 10
14.63
 20
128.9099999999999
 30
0.0
 11
15.041
 21
128.9099999999999
 31
0.0
  0
LINE
  5
328
330
A
100
AcDbEntity
  8
PV
  6
Continuous
 62
     7
100
AcDbLine
 10
1.924
 20
125.11
 30
0.0
 11
2.407999999999999
 21
125.11
 31
0.0
  0
LINE
  5
329
330
A
100
AcDbEntity
  8
PV
  6
Continuous
 62
     7
100
AcDbLine
 10
1.254
 20
128.9099999999999
 30
0.0
 11
1.649999999999999
 21
128.9099999999999
 31
0.0
  0
LINE
  5
32A
330
A
100
AcDbEntity
  8
PV
  6
Continuous
 62
     7
100
AcDbLine
 10
2.407999999999999
 20
125.11
 30
0.0
 11
3.791
 21
128.9099999999999
 31
0.0
  0
LINE
  5
32B
330
A
100
AcDbEntity
  8
PV
  6
Continuous
 62
     7
100
AcDbLine
 10
2.214999999999999
 20
125.7079999999999
 30
0.0
 11
3.379999999999999
 21
128.9099999999999
 31
0.0
  0
LINE
  5
32C
330
A
100
AcDbEntity
  8
PV
  6
Continuous
 62
     7
100
AcDbLine
 10
1.649999999999999
 20
128.9099999999999
 30
0.0
 11
2.214999999999999
 21
125.7079999999999
 31
0.0
  0
LINE
  5
32D
330
A
100
AcDbEntity
  8
PV
  6
Continuous
 62
     7
100
AcDbLine
 10
1.254
 20
128.9099999999999
 30
0.0
 11
1.924
 21
125.11
 31
0.0
  0
LINE
  5
32E
330
A
100
AcDbEntity
  8
PV
  6
Continuous
 62
     7
100
AcDbLine
 10
3.379999999999999
 20
128.9099999999999
 30
0.0
 11
3.791
 21
128.9099999999999
 31
0.0
  0
LINE
  5
32F
330
A
100
AcDbEntity
  8
PV
  6
Continuous
 62
     7
100
AcDbLine
 10
19.96199999999999
 20
125.855
 30
0.0
 11
20.278
 21
126.0369999999999
 31
0.0
  0
LINE
  5
330
330
A
100
AcDbEntity
  8
PV
  6
Continuous
 62
     7
100
AcDbLine
 10
22.36699999999999
 20
128.207
 30
0.0
 11
22.05099999999999
 21
128.025
 31
0.0
  0
LINE
  5
331
330
A
100
AcDbEntity
  8
PV
  6
Continuous
 62
     7
100
AcDbLine
 10
20.949
 20
126.869
 30
0.0
 11
21.349
 21
126.8089999999999
 31
0.0
  0
LINE
  5
332
330
A
100
AcDbEntity
  8
PV
  6
Continuous
 62
     7
100
AcDbLine
 10
20.987
 20
127.2489999999999
 30
0.0
 11
21.37999999999999
 21
127.193
 31
0.0
  0
LINE
  5
333
330
A
100
AcDbEntity
  8
PV
  6
Continuous
 62
     7
100
AcDbLine
 10
21.651
 20
135.5059999999999
 30
0.0
 11
-21.651
 21
135.5059999999999
 31
0.0
  0
LINE
  5
334
330
A
100
AcDbEntity
  8
PV
  6
Continuous
 62
   254
100
AcDbLine
 10
-8.907999999999999
 20
137.81
 30
0.0
 11
-8.609999999999999
 21
137.81
 31
0.0
  0
LINE
  5
335
330
A
100
AcDbEntity
  8
PV
  6
Continuous
 62
     7
100
AcDbLine
 10
-1.149999999999999
 20
145.366
 30
0.0
 11
-1.149999999999999
 21
141.816
 31
0.0
  0
LINE
  5
336
330
A
100
AcDbEntity
  8
PV
  6
Continuous
 62
     7
100
AcDbLine
 10
-5.283999999999999
 20
144.4159999999999
 30
0.0
 11
-3.383999999999999
 21
144.4159999999999
 31
0.0
  0
LINE
  5
337
330
A
100
AcDbEntity
  8
PV
  6
Continuous
 62
     7
100
AcDbLine
 10
-5.283999999999999
 20
144.4159999999999
 30
0.0
 11
-5.283999999999999
 21
141.816
 31
0.0
  0
LINE
  5
338
330
A
100
AcDbEntity
  8
PV
  6
Continuous
 62
     7
100
AcDbLine
 10
-3.383999999999999
 20
144.4159999999999
 30
0.0
 11
-3.383999999999999
 21
141.816
 31
0.0
  0
LINE
  5
339
330
A
100
AcDbEntity
  8
PV
  6
Continuous
 62
     7
100
AcDbLine
 10
-5.283999999999999
 20
141.816
 30
0.0
 11
-3.383999999999999
 21
141.816
 31
0.0
  0
LINE
  5
33A
330
A
100
AcDbEntity
  8
PV
  6
Continuous
 62
     7
100
AcDbLine
 10
-2.7
 20
145.366
 30
0.0
 11
-2.7
 21
141.816
 31
0.0
  0
LINE
  5
33B
330
A
100
AcDbEntity
  8
PV
  6
Continuous
 62
     7
100
AcDbLine
 10
-2.7
 20
145.366
 30
0.0
 11
-1.149999999999999
 21
145.366
 31
0.0
  0
LINE
  5
33C
330
A
100
AcDbEntity
  8
PV
  6
Continuous
 62
     7
100
AcDbLine
 10
-2.7
 20
141.816
 30
0.0
 11
-1.149999999999999
 21
141.816
 31
0.0
  0
LINE
  5
33D
330
A
100
AcDbEntity
  8
PV
  6
Continuous
 62
     7
100
AcDbLine
 10
0.625
 20
145.366
 30
0.0
 11
0.625
 21
144.5659999999999
 31
0.0
  0
LINE
  5
33E
330
A
100
AcDbEntity
  8
PV
  6
Continuous
 62
     7
100
AcDbLine
 10
5.400999999999999
 20
144.591
 30
0.0
 11
5.400999999999999
 21
142.591
 31
0.0
  0
LINE
  5
33F
330
A
100
AcDbEntity
  8
PV
  6
Continuous
 62
     7
100
AcDbLine
 10
0.625
 20
142.616
 30
0.0
 11
0.625
 21
141.816
 31
0.0
  0
LINE
  5
340
330
A
100
AcDbEntity
  8
PV
  6
Continuous
 62
     7
100
AcDbLine
 10
0.625
 20
144.5659999999999
 30
0.0
 11
0.625
 21
142.616
 31
0.0
  0
LINE
  5
341
330
A
100
AcDbEntity
  8
PV
  6
Continuous
 62
   254
100
AcDbLine
 10
-11.34
 20
138.142
 30
0.0
 11
-10.333
 21
138.142
 31
0.0
  0
LINE
  5
342
330
A
100
AcDbEntity
  8
PV
  6
Continuous
 62
   254
100
AcDbLine
 10
-16.60099999999999
 20
138.59
 30
0.0
 11
-16.15299999999999
 21
138.59
 31
0.0
  0
LINE
  5
343
330
A
100
AcDbEntity
  8
PV
  6
Continuous
 62
   254
100
AcDbLine
 10
-16.60099999999999
 20
136.3509999999999
 30
0.0
 11
-16.15299999999999
 21
136.3509999999999
 31
0.0
  0
LINE
  5
344
330
A
100
AcDbEntity
  8
PV
  6
Continuous
 62
   254
100
AcDbLine
 10
-16.60099999999999
 20
138.59
 30
0.0
 11
-16.60099999999999
 21
136.3509999999999
 31
0.0
  0
LINE
  5
345
330
A
100
AcDbEntity
  8
PV
  6
Continuous
 62
   254
100
AcDbLine
 10
-16.15299999999999
 20
138.59
 30
0.0
 11
-16.15299999999999
 21
136.3509999999999
 31
0.0
  0
LINE
  5
346
330
A
100
AcDbEntity
  8
PV
  6
Continuous
 62
   254
100
AcDbLine
 10
-15.70599999999999
 20
138.59
 30
0.0
 11
-15.70599999999999
 21
137.918
 31
0.0
  0
LINE
  5
347
330
A
100
AcDbEntity
  8
PV
  6
Continuous
 62
   254
100
AcDbLine
 10
-15.258
 20
138.142
 30
0.0
 11
-15.258
 21
137.918
 31
0.0
  0
LINE
  5
348
330
A
100
AcDbEntity
  8
PV
  6
Continuous
 62
   254
100
AcDbLine
 10
0.302
 20
138.59
 30
0.0
 11
0.302
 21
138.142
 31
0.0
  0
LINE
  5
349
330
A
100
AcDbEntity
  8
PV
  6
Continuous
 62
   254
100
AcDbLine
 10
-15.258
 20
137.247
 30
0.0
 11
-14.641
 21
137.247
 31
0.0
  0
LINE
  5
34A
330
A
100
AcDbEntity
  8
PV
  6
Continuous
 62
   254
100
AcDbLine
 10
-14.139
 20
138.142
 30
0.0
 11
-15.258
 21
138.142
 31
0.0
  0
LINE
  5
34B
330
A
100
AcDbEntity
  8
PV
  6
Continuous
 62
   254
100
AcDbLine
 10
-14.139
 20
137.6939999999999
 30
0.0
 11
-15.258
 21
137.6939999999999
 31
0.0
  0
LINE
  5
34C
330
A
100
AcDbEntity
  8
PV
  6
Continuous
 62
   254
100
AcDbLine
 10
-15.70599999999999
 20
136.3509999999999
 30
0.0
 11
-15.258
 21
136.3509999999999
 31
0.0
  0
LINE
  5
34D
330
A
100
AcDbEntity
  8
PV
  6
Continuous
 62
   254
100
AcDbLine
 10
-15.70599999999999
 20
138.59
 30
0.0
 11
-14.139
 21
138.59
 31
0.0
  0
LINE
  5
34E
330
A
100
AcDbEntity
  8
PV
  6
Continuous
 62
   254
100
AcDbLine
 10
-15.258
 20
137.247
 30
0.0
 11
-15.258
 21
136.3509999999999
 31
0.0
  0
LINE
  5
34F
330
A
100
AcDbEntity
  8
PV
  6
Continuous
 62
   254
100
AcDbLine
 10
-14.01299999999999
 20
136.3509999999999
 30
0.0
 11
-13.467
 21
136.3509999999999
 31
0.0
  0
LINE
  5
350
330
A
100
AcDbEntity
  8
PV
  6
Continuous
 62
   254
100
AcDbLine
 10
-13.13099999999999
 20
138.59
 30
0.0
 11
-12.68299999999999
 21
138.59
 31
0.0
  0
LINE
  5
351
330
A
100
AcDbEntity
  8
PV
  6
Continuous
 62
   254
100
AcDbLine
 10
-13.13099999999999
 20
136.3509999999999
 30
0.0
 11
-12.68299999999999
 21
136.3509999999999
 31
0.0
  0
LINE
  5
352
330
A
100
AcDbEntity
  8
PV
  6
Continuous
 62
   254
100
AcDbLine
 10
-13.13099999999999
 20
138.59
 30
0.0
 11
-13.13099999999999
 21
136.3509999999999
 31
0.0
  0
LINE
  5
353
330
A
100
AcDbEntity
  8
PV
  6
Continuous
 62
   254
100
AcDbLine
 10
-12.68299999999999
 20
138.59
 30
0.0
 11
-12.68299999999999
 21
136.3509999999999
 31
0.0
  0
LINE
  5
354
330
A
100
AcDbEntity
  8
PV
  6
Continuous
 62
   254
100
AcDbLine
 10
-0.706
 20
138.59
 30
0.0
 11
0.302
 21
138.59
 31
0.0
  0
LINE
  5
355
330
A
100
AcDbEntity
  8
PV
  6
Continuous
 62
   254
100
AcDbLine
 10
-0.706
 20
136.3509999999999
 30
0.0
 11
0.302
 21
136.3509999999999
 31
0.0
  0
LINE
  5
356
330
A
100
AcDbEntity
  8
PV
  6
Continuous
 62
   254
100
AcDbLine
 10
-4.064
 20
138.59
 30
0.0
 11
-3.616
 21
138.59
 31
0.0
  0
LINE
  5
357
330
A
100
AcDbEntity
  8
PV
  6
Continuous
 62
   254
100
AcDbLine
 10
-4.064
 20
136.3509999999999
 30
0.0
 11
-3.616
 21
136.3509999999999
 31
0.0
  0
LINE
  5
358
330
A
100
AcDbEntity
  8
PV
  6
Continuous
 62
   254
100
AcDbLine
 10
-1.338999999999999
 20
137.247
 30
0.0
 11
0.302
 21
137.247
 31
0.0
  0
LINE
  5
359
330
A
100
AcDbEntity
  8
PV
  6
Continuous
 62
   254
100
AcDbLine
 10
-1.338999999999999
 20
137.6939999999999
 30
0.0
 11
0.302
 21
137.6939999999999
 31
0.0
  0
LINE
  5
35A
330
A
100
AcDbEntity
  8
PV
  6
Continuous
 62
   254
100
AcDbLine
 10
-0.706
 20
136.799
 30
0.0
 11
0.302
 21
136.799
 31
0.0
  0
LINE
  5
35B
330
A
100
AcDbEntity
  8
PV
  6
Continuous
 62
   254
100
AcDbLine
 10
-0.706
 20
138.142
 30
0.0
 11
0.302
 21
138.142
 31
0.0
  0
LINE
  5
35C
330
A
100
AcDbEntity
  8
PV
  6
Continuous
 62
   254
100
AcDbLine
 10
0.302
 20
137.6939999999999
 30
0.0
 11
0.302
 21
137.247
 31
0.0
  0
LINE
  5
35D
330
A
100
AcDbEntity
  8
PV
  6
Continuous
 62
   254
100
AcDbLine
 10
0.302
 20
136.799
 30
0.0
 11
0.302
 21
136.3509999999999
 31
0.0
  0
LINE
  5
35E
330
A
100
AcDbEntity
  8
PV
  6
Continuous
 62
   254
100
AcDbLine
 10
-4.064
 20
138.59
 30
0.0
 11
-4.064
 21
136.3509999999999
 31
0.0
  0
LINE
  5
35F
330
A
100
AcDbEntity
  8
PV
  6
Continuous
 62
   254
100
AcDbLine
 10
-3.616
 20
138.59
 30
0.0
 11
-3.616
 21
137.804
 31
0.0
  0
LINE
  5
360
330
A
100
AcDbEntity
  8
PV
  6
Continuous
 62
   254
100
AcDbLine
 10
-13.467
 20
136.3509999999999
 30
0.0
 11
-14.095
 21
137.2479999999999
 31
0.0
  0
LINE
  5
361
330
A
100
AcDbEntity
  8
PV
  6
Continuous
 62
   254
100
AcDbLine
 10
-14.01299999999999
 20
136.3509999999999
 30
0.0
 11
-14.641
 21
137.247
 31
0.0
  0
LINE
  5
362
330
A
100
AcDbEntity
  8
PV
  6
Continuous
 62
   254
100
AcDbLine
 10
-1.713
 20
136.3509999999999
 30
0.0
 11
-2.633999999999999
 21
137.945
 31
0.0
  0
LINE
  5
363
330
A
100
AcDbEntity
  8
PV
  6
Continuous
 62
   254
100
AcDbLine
 10
-1.713
 20
138.59
 30
0.0
 11
-2.633999999999999
 21
137.945
 31
0.0
  0
LINE
  5
364
330
A
100
AcDbEntity
  8
PV
  6
Continuous
 62
   254
100
AcDbLine
 10
-2.494
 20
138.59
 30
0.0
 11
-3.616
 21
137.804
 31
0.0
  0
LINE
  5
365
330
A
100
AcDbEntity
  8
PV
  6
Continuous
 62
   254
100
AcDbLine
 10
-2.229999999999999
 20
136.3509999999999
 30
0.0
 11
-3.001999999999999
 21
137.6879999999999
 31
0.0
  0
LINE
  5
366
330
A
100
AcDbEntity
  8
PV
  6
Continuous
 62
   254
100
AcDbLine
 10
-3.001999999999999
 20
137.6879999999999
 30
0.0
 11
-3.616
 21
137.257
 31
0.0
  0
LINE
  5
367
330
A
100
AcDbEntity
  8
PV
  6
Continuous
 62
   254
100
AcDbLine
 10
-3.616
 20
137.257
 30
0.0
 11
-3.616
 21
136.3509999999999
 31
0.0
  0
LINE
  5
368
330
A
100
AcDbEntity
  8
PV
  6
Continuous
 62
   254
100
AcDbLine
 10
-2.494
 20
138.59
 30
0.0
 11
-1.713
 21
138.59
 31
0.0
  0
LINE
  5
369
330
A
100
AcDbEntity
  8
PV
  6
Continuous
 62
   254
100
AcDbLine
 10
-2.229999999999999
 20
136.3509999999999
 30
0.0
 11
-1.713
 21
136.3509999999999
 31
0.0
  0
LINE
  5
36A
330
A
100
AcDbEntity
  8
PV
  6
Continuous
 62
   254
100
AcDbLine
 10
7.354
 20
136.3509999999999
 30
0.0
 11
7.577999999999999
 21
136.3509999999999
 31
0.0
  0
LINE
  5
36B
330
A
100
AcDbEntity
  8
PV
  6
Continuous
 62
   254
100
AcDbLine
 10
7.354
 20
138.59
 30
0.0
 11
7.577999999999999
 21
138.59
 31
0.0
  0
LINE
  5
36C
330
A
100
AcDbEntity
  8
PV
  6
Continuous
 62
   254
100
AcDbLine
 10
6.122999999999999
 20
136.3539999999999
 30
0.0
 11
6.122999999999999
 21
136.799
 31
0.0
  0
LINE
  5
36D
330
A
100
AcDbEntity
  8
PV
  6
Continuous
 62
   254
100
AcDbLine
 10
7.354
 20
136.799
 30
0.0
 11
7.577999999999999
 21
136.799
 31
0.0
  0
LINE
  5
36E
330
A
100
AcDbEntity
  8
PV
  6
Continuous
 62
   254
100
AcDbLine
 10
7.354
 20
138.142
 30
0.0
 11
7.577999999999999
 21
138.142
 31
0.0
  0
LINE
  5
36F
330
A
100
AcDbEntity
  8
PV
  6
Continuous
 62
   254
100
AcDbLine
 10
-8.988999999999998
 20
138.59
 30
0.0
 11
-8.541
 21
138.59
 31
0.0
  0
LINE
  5
370
330
A
100
AcDbEntity
  8
PV
  6
Continuous
 62
   254
100
AcDbLine
 10
-8.988999999999998
 20
136.3509999999999
 30
0.0
 11
-8.541
 21
136.3509999999999
 31
0.0
  0
LINE
  5
371
330
A
100
AcDbEntity
  8
PV
  6
Continuous
 62
   254
100
AcDbLine
 10
-8.988999999999998
 20
138.59
 30
0.0
 11
-8.988999999999998
 21
136.3509999999999
 31
0.0
  0
LINE
  5
372
330
A
100
AcDbEntity
  8
PV
  6
Continuous
 62
   254
100
AcDbLine
 10
-8.541
 20
138.59
 30
0.0
 11
-8.541
 21
137.804
 31
0.0
  0
LINE
  5
373
330
A
100
AcDbEntity
  8
PV
  6
Continuous
 62
   254
100
AcDbLine
 10
-6.638999999999999
 20
136.3509999999999
 30
0.0
 11
-7.559
 21
137.945
 31
0.0
  0
LINE
  5
374
330
A
100
AcDbEntity
  8
PV
  6
Continuous
 62
   254
100
AcDbLine
 10
-6.637999999999999
 20
138.59
 30
0.0
 11
-7.559
 21
137.945
 31
0.0
  0
LINE
  5
375
330
A
100
AcDbEntity
  8
PV
  6
Continuous
 62
   254
100
AcDbLine
 10
-7.418999999999999
 20
138.59
 30
0.0
 11
-8.541
 21
137.804
 31
0.0
  0
LINE
  5
376
330
A
100
AcDbEntity
  8
PV
  6
Continuous
 62
   254
100
AcDbLine
 10
-7.156
 20
136.3509999999999
 30
0.0
 11
-7.927
 21
137.6879999999999
 31
0.0
  0
LINE
  5
377
330
A
100
AcDbEntity
  8
PV
  6
Continuous
 62
   254
100
AcDbLine
 10
-7.927
 20
137.6879999999999
 30
0.0
 11
-8.541
 21
137.257
 31
0.0
  0
LINE
  5
378
330
A
100
AcDbEntity
  8
PV
  6
Continuous
 62
   254
100
AcDbLine
 10
-8.541
 20
137.257
 30
0.0
 11
-8.541
 21
136.3509999999999
 31
0.0
  0
LINE
  5
379
330
A
100
AcDbEntity
  8
PV
  6
Continuous
 62
   254
100
AcDbLine
 10
-7.418999999999999
 20
138.59
 30
0.0
 11
-6.638999999999999
 21
138.59
 31
0.0
  0
LINE
  5
37A
330
A
100
AcDbEntity
  8
PV
  6
Continuous
 62
   254
100
AcDbLine
 10
-7.156
 20
136.3509999999999
 30
0.0
 11
-6.638999999999999
 21
136.3509999999999
 31
0.0
  0
LINE
  5
37B
330
A
100
AcDbEntity
  8
PV
  6
Continuous
 62
   254
100
AcDbLine
 10
-10.333
 20
138.59
 30
0.0
 11
-10.333
 21
138.142
 31
0.0
  0
LINE
  5
37C
330
A
100
AcDbEntity
  8
PV
  6
Continuous
 62
   254
100
AcDbLine
 10
-11.34
 20
138.59
 30
0.0
 11
-10.333
 21
138.59
 31
0.0
  0
LINE
  5
37D
330
A
100
AcDbEntity
  8
PV
  6
Continuous
 62
   254
100
AcDbLine
 10
-11.34
 20
136.3509999999999
 30
0.0
 11
-10.333
 21
136.3509999999999
 31
0.0
  0
LINE
  5
37E
330
A
100
AcDbEntity
  8
PV
  6
Continuous
 62
   254
100
AcDbLine
 10
-11.973
 20
137.247
 30
0.0
 11
-10.333
 21
137.247
 31
0.0
  0
LINE
  5
37F
330
A
100
AcDbEntity
  8
PV
  6
Continuous
 62
   254
100
AcDbLine
 10
-11.973
 20
137.6939999999999
 30
0.0
 11
-10.333
 21
137.6939999999999
 31
0.0
  0
LINE
  5
380
330
A
100
AcDbEntity
  8
PV
  6
Continuous
 62
   254
100
AcDbLine
 10
-11.34
 20
136.799
 30
0.0
 11
-10.333
 21
136.799
 31
0.0
  0
LINE
  5
381
330
A
100
AcDbEntity
  8
PV
  6
Continuous
 62
   254
100
AcDbLine
 10
-10.333
 20
137.6939999999999
 30
0.0
 11
-10.333
 21
137.247
 31
0.0
  0
LINE
  5
382
330
A
100
AcDbEntity
  8
PV
  6
Continuous
 62
   254
100
AcDbLine
 10
-10.333
 20
136.799
 30
0.0
 11
-10.333
 21
136.3509999999999
 31
0.0
  0
LINE
  5
383
330
A
100
AcDbEntity
  8
PV
  6
Continuous
 62
   254
100
AcDbLine
 10
5.003
 20
136.3509999999999
 30
0.0
 11
6.122999999999999
 21
136.3509999999999
 31
0.0
  0
LINE
  5
384
330
A
100
AcDbEntity
  8
PV
  6
Continuous
 62
   254
100
AcDbLine
 10
5.003
 20
138.59
 30
0.0
 11
6.122999999999999
 21
138.59
 31
0.0
  0
LINE
  5
385
330
A
100
AcDbEntity
  8
PV
  6
Continuous
 62
   254
100
AcDbLine
 10
5.003
 20
136.799
 30
0.0
 11
6.122999999999999
 21
136.799
 31
0.0
  0
LINE
  5
386
330
A
100
AcDbEntity
  8
PV
  6
Continuous
 62
   254
100
AcDbLine
 10
5.003
 20
138.142
 30
0.0
 11
6.122999999999999
 21
138.142
 31
0.0
  0
LINE
  5
387
330
A
100
AcDbEntity
  8
PV
  6
Continuous
 62
   254
100
AcDbLine
 10
6.122999999999999
 20
138.142
 30
0.0
 11
6.122999999999999
 21
138.59
 31
0.0
  0
LINE
  5
388
330
A
100
AcDbEntity
  8
PV
  6
Continuous
 62
   254
100
AcDbLine
 10
11.048
 20
136.3509999999999
 30
0.0
 11
12.167
 21
136.3509999999999
 31
0.0
  0
LINE
  5
389
330
A
100
AcDbEntity
  8
PV
  6
Continuous
 62
   254
100
AcDbLine
 10
0.6400000000000001
 20
136.3509999999999
 30
0.0
 11
1.084999999999999
 21
136.3509999999999
 31
0.0
  0
LINE
  5
38A
330
A
100
AcDbEntity
  8
PV
  6
Continuous
 62
   254
100
AcDbLine
 10
1.645
 20
138.59
 30
0.0
 11
1.868999999999999
 21
138.59
 31
0.0
  0
LINE
  5
38B
330
A
100
AcDbEntity
  8
PV
  6
Continuous
 62
   254
100
AcDbLine
 10
0.638
 20
137.583
 30
0.0
 11
0.638
 21
136.3509999999999
 31
0.0
  0
LINE
  5
38C
330
A
100
AcDbEntity
  8
PV
  6
Continuous
 62
   254
100
AcDbLine
 10
2.876
 20
137.583
 30
0.0
 11
2.876
 21
136.3509999999999
 31
0.0
  0
LINE
  5
38D
330
A
100
AcDbEntity
  8
PV
  6
Continuous
 62
   254
100
AcDbLine
 10
1.645
 20
138.142
 30
0.0
 11
1.868999999999999
 21
138.142
 31
0.0
  0
LINE
  5
38E
330
A
100
AcDbEntity
  8
PV
  6
Continuous
 62
   254
100
AcDbLine
 10
1.084999999999999
 20
137.583
 30
0.0
 11
1.084999999999999
 21
136.3509999999999
 31
0.0
  0
LINE
  5
38F
330
A
100
AcDbEntity
  8
PV
  6
Continuous
 62
   254
100
AcDbLine
 10
2.429
 20
137.583
 30
0.0
 11
2.429
 21
136.3509999999999
 31
0.0
  0
LINE
  5
390
330
A
100
AcDbEntity
  8
PV
  6
Continuous
 62
   254
100
AcDbLine
 10
2.429
 20
136.3509999999999
 30
0.0
 11
2.876
 21
136.3509999999999
 31
0.0
  0
LINE
  5
391
330
A
100
AcDbEntity
  8
PV
  6
Continuous
 62
   254
100
AcDbLine
 10
-5.631
 20
136.3509999999999
 30
0.0
 11
-5.407
 21
136.3509999999999
 31
0.0
  0
LINE
  5
392
330
A
100
AcDbEntity
  8
PV
  6
Continuous
 62
   254
100
AcDbLine
 10
-5.631
 20
138.59
 30
0.0
 11
-5.407
 21
138.59
 31
0.0
  0
LINE
  5
393
330
A
100
AcDbEntity
  8
PV
  6
Continuous
 62
   254
100
AcDbLine
 10
-5.631
 20
136.799
 30
0.0
 11
-5.407
 21
136.799
 31
0.0
  0
LINE
  5
394
330
A
100
AcDbEntity
  8
PV
  6
Continuous
 62
   254
100
AcDbLine
 10
9.486
 20
136.0149999999999
 30
0.0
 11
9.852
 21
136.4509999999999
 31
0.0
  0
LINE
  5
395
330
A
100
AcDbEntity
  8
PV
  6
Continuous
 62
   254
100
AcDbLine
 10
9.314999999999999
 20
136.1589999999999
 30
0.0
 11
9.503999999999999
 21
136.385
 31
0.0
  0
LINE
  5
396
330
A
100
AcDbEntity
  8
PV
  6
Continuous
 62
   254
100
AcDbLine
 10
9.314999999999999
 20
136.1589999999999
 30
0.0
 11
9.486
 21
136.0149999999999
 31
0.0
  0
LINE
  5
397
330
A
100
AcDbEntity
  8
PV
  6
Continuous
 62
   254
100
AcDbLine
 10
10.15299999999999
 20
138.59
 30
0.0
 11
10.15299999999999
 21
137.247
 31
0.0
  0
LINE
  5
398
330
A
100
AcDbEntity
  8
PV
  6
Continuous
 62
   254
100
AcDbLine
 10
12.167
 20
136.799
 30
0.0
 11
12.167
 21
136.3509999999999
 31
0.0
  0
LINE
  5
399
330
A
100
AcDbEntity
  8
PV
  6
Continuous
 62
   254
100
AcDbLine
 10
10.6
 20
138.59
 30
0.0
 11
10.6
 21
137.247
 31
0.0
  0
LINE
  5
39A
330
A
100
AcDbEntity
  8
PV
  6
Continuous
 62
   254
100
AcDbLine
 10
11.048
 20
136.799
 30
0.0
 11
12.167
 21
136.799
 31
0.0
  0
LINE
  5
39B
330
A
100
AcDbEntity
  8
PV
  6
Continuous
 62
   254
100
AcDbLine
 10
14.40599999999999
 20
136.3509999999999
 30
0.0
 11
15.638
 21
136.3509999999999
 31
0.0
  0
LINE
  5
39C
330
A
100
AcDbEntity
  8
PV
  6
Continuous
 62
   254
100
AcDbLine
 10
10.15299999999999
 20
138.59
 30
0.0
 11
10.6
 21
138.59
 31
0.0
  0
LINE
  5
39D
330
A
100
AcDbEntity
  8
PV
  6
Continuous
 62
   254
100
AcDbLine
 10
11.944
 20
138.59
 30
0.0
 11
14.182
 21
138.59
 31
0.0
  0
LINE
  5
39E
330
A
100
AcDbEntity
  8
PV
  6
Continuous
 62
   254
100
AcDbLine
 10
11.944
 20
138.59
 30
0.0
 11
11.944
 21
138.142
 31
0.0
  0
LINE
  5
39F
330
A
100
AcDbEntity
  8
PV
  6
Continuous
 62
   254
100
AcDbLine
 10
14.182
 20
138.59
 30
0.0
 11
14.182
 21
138.142
 31
0.0
  0
LINE
  5
3A0
330
A
100
AcDbEntity
  8
PV
  6
Continuous
 62
   254
100
AcDbLine
 10
11.944
 20
138.142
 30
0.0
 11
12.839
 21
138.142
 31
0.0
  0
LINE
  5
3A1
330
A
100
AcDbEntity
  8
PV
  6
Continuous
 62
   254
100
AcDbLine
 10
13.287
 20
138.142
 30
0.0
 11
13.287
 21
136.3509999999999
 31
0.0
  0
LINE
  5
3A2
330
A
100
AcDbEntity
  8
PV
  6
Continuous
 62
   254
100
AcDbLine
 10
12.839
 20
138.142
 30
0.0
 11
12.839
 21
136.3509999999999
 31
0.0
  0
LINE
  5
3A3
330
A
100
AcDbEntity
  8
PV
  6
Continuous
 62
   254
100
AcDbLine
 10
14.854
 20
138.142
 30
0.0
 11
15.638
 21
138.142
 31
0.0
  0
LINE
  5
3A4
330
A
100
AcDbEntity
  8
PV
  6
Continuous
 62
   254
100
AcDbLine
 10
14.40599999999999
 20
138.59
 30
0.0
 11
15.638
 21
138.59
 31
0.0
  0
LINE
  5
3A5
330
A
100
AcDbEntity
  8
PV
  6
Continuous
 62
   254
100
AcDbLine
 10
13.287
 20
138.142
 30
0.0
 11
14.182
 21
138.142
 31
0.0
  0
LINE
  5
3A6
330
A
100
AcDbEntity
  8
PV
  6
Continuous
 62
   254
100
AcDbLine
 10
12.839
 20
136.3509999999999
 30
0.0
 11
13.287
 21
136.3509999999999
 31
0.0
  0
LINE
  5
3A7
330
A
100
AcDbEntity
  8
PV
  6
Continuous
 62
   254
100
AcDbLine
 10
14.40599999999999
 20
138.59
 30
0.0
 11
14.40599999999999
 21
137.471
 31
0.0
  0
LINE
  5
3A8
330
A
100
AcDbEntity
  8
PV
  6
Continuous
 62
   254
100
AcDbLine
 10
14.854
 20
136.799
 30
0.0
 11
15.638
 21
136.799
 31
0.0
  0
LINE
  5
3A9
330
A
100
AcDbEntity
  8
PV
  6
Continuous
 62
   254
100
AcDbLine
 10
14.854
 20
138.142
 30
0.0
 11
14.854
 21
137.471
 31
0.0
  0
LINE
  5
3AA
330
A
100
AcDbEntity
  8
PV
  6
Continuous
 62
   254
100
AcDbLine
 10
-15.70599999999999
 20
137.918
 30
0.0
 11
-15.70599999999999
 21
136.3509999999999
 31
0.0
  0
LINE
  5
3AB
330
A
100
AcDbEntity
  8
PV
  6
Continuous
 62
   254
100
AcDbLine
 10
-15.258
 20
137.918
 30
0.0
 11
-15.258
 21
137.6939999999999
 31
0.0
  0
LINE
  5
3AC
330
A
100
AcDbEntity
  8
PV
  6
Continuous
 62
   254
100
AcDbLine
 10
14.40599999999999
 20
137.471
 30
0.0
 11
14.40599999999999
 21
136.3509999999999
 31
0.0
  0
LINE
  5
3AD
330
A
100
AcDbEntity
  8
PV
  6
Continuous
 62
   254
100
AcDbLine
 10
14.854
 20
137.471
 30
0.0
 11
14.854
 21
136.799
 31
0.0
  0
LINE
  5
3AE
330
A
100
AcDbEntity
  8
PV
  6
Continuous
 62
   254
100
AcDbLine
 10
-5.631
 20
138.142
 30
0.0
 11
-5.407
 21
138.142
 31
0.0
  0
LINE
  5
3AF
330
A
100
AcDbEntity
  8
PV
  6
Continuous
 62
     7
100
AcDbLine
 10
10.53099999999999
 20
103.553
 30
0.0
 11
12.641
 21
104.675
 31
0.0
  0
LINE
  5
3B0
330
A
100
AcDbEntity
  8
PV
  6
Continuous
 62
     7
100
AcDbLine
 10
11.164
 20
102.7959999999999
 30
0.0
 11
12.641
 21
104.675
 31
0.0
  0
LINE
  5
3B1
330
A
100
AcDbEntity
  8
PV
  6
Continuous
 62
     7
100
AcDbLine
 10
-11.607
 20
103.032
 30
0.0
 11
-13.084
 21
104.9109999999999
 31
0.0
  0
LINE
  5
3B2
330
A
100
AcDbEntity
  8
PV
  6
Continuous
 62
     7
100
AcDbLine
 10
-10.974
 20
103.7889999999999
 30
0.0
 11
-13.084
 21
104.9109999999999
 31
0.0
  0
CIRCLE
  5
3B3
330
A
100
AcDbEntity
  8
PV
  6
Continuous
 62
     7
100
AcDbCircle
 10
0.0
 20
123.0059999999999
 30
0.0
 40
25.0
  0
ARC
  5
3B4
330
A
100
AcDbEntity
  8
PV
  6
Continuous
 62
     7
100
AcDbCircle
 10
-4.333999999999999
 20
144.4159999999999
 30
0.0
 40
0.95
100
AcDbArc
 50
0.0
 51
180.000005
  0
ARC
  5
3B5
330
A
100
AcDbEntity
  8
PV
  6
Continuous
 62
     7
100
AcDbCircle
 10
-4.333999999999999
 20
144.4159999999999
 30
0.0
 40
0.95
100
AcDbArc
 50
179.9999949999999
 51
0.0
  0
ARC
  5
3B6
330
A
100
AcDbEntity
  8
PV
  6
Continuous
 62
     7
100
AcDbCircle
 10
0.625
 20
143.5909999999999
 30
0.0
 40
1.774999999999999
100
AcDbArc
 50
90.00000300000001
 51
270.000001
  0
ARC
  5
3B7
330
A
100
AcDbEntity
  8
PV
  6
Continuous
 62
     7
100
AcDbCircle
 10
0.625
 20
143.5909999999999
 30
0.0
 40
0.975
100
AcDbArc
 50
90.00000300000001
 51
270.000001
  0
ARC
  5
3B8
330
A
100
AcDbEntity
  8
PV
  6
Continuous
 62
     7
100
AcDbCircle
 10
0.625
 20
143.5909999999999
 30
0.0
 40
0.975
100
AcDbArc
 50
269.9999969999999
 51
90.00000300000001
  0
ARC
  5
3B9
330
A
100
AcDbEntity
  8
PV
  6
Continuous
 62
     7
100
AcDbCircle
 10
3.876
 20
143.5909999999999
 30
0.0
 40
1.774999999999999
100
AcDbArc
 50
34.225552
 51
325.774451
  0
ARC
  5
3BA
330
A
100
AcDbEntity
  8
PV
  6
Continuous
 62
     7
100
AcDbCircle
 10
5.400999999999999
 20
143.5909999999999
 30
0.0
 40
1.0
100
AcDbArc
 50
90.00000300000001
 51
270.000001
  0
ARC
  5
3BB
330
A
100
AcDbEntity
  8
PV
  6
Continuous
 62
     7
100
AcDbCircle
 10
5.400999999999999
 20
143.5909999999999
 30
0.0
 40
1.0
100
AcDbArc
 50
269.9999969999999
 51
90.00000300000001
  0
ARC
  5
3BC
330
A
100
AcDbEntity
  8
PV
  6
Continuous
 62
   254
100
AcDbCircle
 10
-14.139
 20
137.918
 30
0.0
 40
0.6720000000000001
100
AcDbArc
 50
273.7218359999999
 51
359.999996
  0
ARC
  5
3BD
330
A
100
AcDbEntity
  8
PV
  6
Continuous
 62
   254
100
AcDbCircle
 10
-14.139
 20
137.918
 30
0.0
 40
0.224
100
AcDbArc
 50
270.0000109999999
 51
359.999996
  0
ARC
  5
3BE
330
A
100
AcDbEntity
  8
PV
  6
Continuous
 62
   254
100
AcDbCircle
 10
-0.706
 20
137.471
 30
0.0
 40
1.118999999999999
100
AcDbArc
 50
89.999975
 51
270.000001
  0
ARC
  5
3BF
330
A
100
AcDbEntity
  8
PV
  6
Continuous
 62
   254
100
AcDbCircle
 10
-0.706
 20
137.471
 30
0.0
 40
0.6720000000000001
100
AcDbArc
 50
89.999975
 51
160.528775
  0
ARC
  5
3C0
330
A
100
AcDbEntity
  8
PV
  6
Continuous
 62
   254
100
AcDbCircle
 10
-0.706
 20
137.471
 30
0.0
 40
0.6720000000000001
100
AcDbArc
 50
199.471211
 51
270.0000109999999
  0
ARC
  5
3C1
330
A
100
AcDbEntity
  8
PV
  6
Continuous
 62
   254
100
AcDbCircle
 10
7.354
 20
137.471
 30
0.0
 40
1.118999999999999
100
AcDbArc
 50
89.999975
 51
179.99995
  0
ARC
  5
3C2
330
A
100
AcDbEntity
  8
PV
  6
Continuous
 62
   254
100
AcDbCircle
 10
7.577999999999999
 20
137.471
 30
0.0
 40
1.118999999999999
100
AcDbArc
 50
270.0000109999999
 51
359.999996
  0
ARC
  5
3C3
330
A
100
AcDbEntity
  8
PV
  6
Continuous
 62
   254
100
AcDbCircle
 10
7.354
 20
137.471
 30
0.0
 40
0.6720000000000001
100
AcDbArc
 50
89.999975
 51
179.99995
  0
ARC
  5
3C4
330
A
100
AcDbEntity
  8
PV
  6
Continuous
 62
   254
100
AcDbCircle
 10
7.577999999999999
 20
137.471
 30
0.0
 40
0.6720000000000001
100
AcDbArc
 50
270.0000109999999
 51
359.999996
  0
ARC
  5
3C5
330
A
100
AcDbEntity
  8
PV
  6
Continuous
 62
   254
100
AcDbCircle
 10
-11.34
 20
137.471
 30
0.0
 40
1.118999999999999
100
AcDbArc
 50
89.999975
 51
270.000001
  0
ARC
  5
3C6
330
A
100
AcDbEntity
  8
PV
  6
Continuous
 62
   254
100
AcDbCircle
 10
-11.34
 20
137.471
 30
0.0
 40
0.6720000000000001
100
AcDbArc
 50
89.999975
 51
160.528775
  0
ARC
  5
3C7
330
A
100
AcDbEntity
  8
PV
  6
Continuous
 62
   254
100
AcDbCircle
 10
-11.34
 20
137.471
 30
0.0
 40
0.6720000000000001
100
AcDbArc
 50
199.471211
 51
270.0000109999999
  0
ARC
  5
3C8
330
A
100
AcDbEntity
  8
PV
  6
Continuous
 62
   254
100
AcDbCircle
 10
1.645
 20
137.583
 30
0.0
 40
1.007
100
AcDbArc
 50
89.999975
 51
179.99995
  0
ARC
  5
3C9
330
A
100
AcDbEntity
  8
PV
  6
Continuous
 62
   254
100
AcDbCircle
 10
1.868999999999999
 20
137.583
 30
0.0
 40
1.007
100
AcDbArc
 50
359.999996
 51
89.999975
  0
ARC
  5
3CA
330
A
100
AcDbEntity
  8
PV
  6
Continuous
 62
   254
100
AcDbCircle
 10
1.645
 20
137.583
 30
0.0
 40
0.5600000000000001
100
AcDbArc
 50
89.999975
 51
179.99995
  0
ARC
  5
3CB
330
A
100
AcDbEntity
  8
PV
  6
Continuous
 62
   254
100
AcDbCircle
 10
1.868999999999999
 20
137.583
 30
0.0
 40
0.5600000000000001
100
AcDbArc
 50
359.999996
 51
89.999975
  0
ARC
  5
3CC
330
A
100
AcDbEntity
  8
PV
  6
Continuous
 62
   254
100
AcDbCircle
 10
-5.631
 20
137.471
 30
0.0
 40
1.118999999999999
100
AcDbArc
 50
89.999975
 51
179.99995
  0
ARC
  5
3CD
330
A
100
AcDbEntity
  8
PV
  6
Continuous
 62
   254
100
AcDbCircle
 10
-5.407
 20
137.471
 30
0.0
 40
1.118999999999999
100
AcDbArc
 50
270.0000109999999
 51
359.999996
  0
ARC
  5
3CE
330
A
100
AcDbEntity
  8
PV
  6
Continuous
 62
   254
100
AcDbCircle
 10
-5.631
 20
137.471
 30
0.0
 40
0.6720000000000001
100
AcDbArc
 50
89.999975
 51
179.99995
  0
ARC
  5
3CF
330
A
100
AcDbEntity
  8
PV
  6
Continuous
 62
   254
100
AcDbCircle
 10
-5.407
 20
137.471
 30
0.0
 40
0.6720000000000001
100
AcDbArc
 50
270.0000109999999
 51
359.999996
  0
ARC
  5
3D0
330
A
100
AcDbEntity
  8
PV
  6
Continuous
 62
   254
100
AcDbCircle
 10
9.637999999999999
 20
136.631
 30
0.0
 40
0.28
100
AcDbArc
 50
319.9999189999999
 51
241.536827
  0
CIRCLE
  5
3D1
330
A
100
AcDbEntity
  8
PV
  6
Continuous
 62
   254
100
AcDbCircle
 10
8.920999999999999
 20
136.631
 30
0.0
 40
0.28
  0
ARC
  5
3D2
330
A
100
AcDbEntity
  8
PV
  6
Continuous
 62
   254
100
AcDbCircle
 10
11.048
 20
137.247
 30
0.0
 40
0.8959999999999999
100
AcDbArc
 50
179.999978
 51
270.000001
  0
ARC
  5
3D3
330
A
100
AcDbEntity
  8
PV
  6
Continuous
 62
   254
100
AcDbCircle
 10
11.048
 20
137.247
 30
0.0
 40
0.448
100
AcDbArc
 50
179.999978
 51
270.000001
  0
ARC
  5
3D4
330
A
100
AcDbEntity
  8
PV
  6
Continuous
 62
   254
100
AcDbCircle
 10
15.638
 20
137.471
 30
0.0
 40
1.118999999999999
100
AcDbArc
 50
270.0000109999999
 51
359.999996
  0
ARC
  5
3D5
330
A
100
AcDbEntity
  8
PV
  6
Continuous
 62
   254
100
AcDbCircle
 10
15.638
 20
137.471
 30
0.0
 40
0.6720000000000001
100
AcDbArc
 50
270.0000109999999
 51
359.999996
  0
ARC
  5
3D6
330
A
100
AcDbEntity
  8
PV
  6
Continuous
 62
   254
100
AcDbCircle
 10
5.003
 20
137.471
 30
0.0
 40
1.118999999999999
100
AcDbArc
 50
89.999975
 51
270.000001
  0
ARC
  5
3D7
330
A
100
AcDbEntity
  8
PV
  6
Continuous
 62
   254
100
AcDbCircle
 10
5.003
 20
137.471
 30
0.0
 40
0.6720000000000001
100
AcDbArc
 50
89.999975
 51
270.000001
  0
ARC
  5
3D8
330
A
100
AcDbEntity
  8
PV
  6
Continuous
 62
   254
100
AcDbCircle
 10
-14.139
 20
137.918
 30
0.0
 40
0.224
100
AcDbArc
 50
359.999996
 51
89.999975
  0
ARC
  5
3D9
330
A
100
AcDbEntity
  8
PV
  6
Continuous
 62
   254
100
AcDbCircle
 10
-14.139
 20
137.918
 30
0.0
 40
0.6720000000000001
100
AcDbArc
 50
359.999996
 51
89.999975
  0
ARC
  5
3DA
330
A
100
AcDbEntity
  8
PV
  6
Continuous
 62
   254
100
AcDbCircle
 10
-5.407
 20
137.471
 30
0.0
 40
1.118999999999999
100
AcDbArc
 50
359.999996
 51
89.999975
  0
ARC
  5
3DB
330
A
100
AcDbEntity
  8
PV
  6
Continuous
 62
   254
100
AcDbCircle
 10
-5.407
 20
137.471
 30
0.0
 40
0.6720000000000001
100
AcDbArc
 50
359.999996
 51
89.999975
  0
ARC
  5
3DC
330
A
100
AcDbEntity
  8
PV
  6
Continuous
 62
   254
100
AcDbCircle
 10
-5.631
 20
137.471
 30
0.0
 40
0.6720000000000001
100
AcDbArc
 50
179.999978
 51
270.000001
  0
ARC
  5
3DD
330
A
100
AcDbEntity
  8
PV
  6
Continuous
 62
   254
100
AcDbCircle
 10
-5.631
 20
137.471
 30
0.0
 40
1.118999999999999
100
AcDbArc
 50
179.999978
 51
270.000001
  0
ARC
  5
3DE
330
A
100
AcDbEntity
  8
PV
  6
Continuous
 62
   254
100
AcDbCircle
 10
7.354
 20
137.471
 30
0.0
 40
1.118999999999999
100
AcDbArc
 50
179.999978
 51
270.000001
  0
ARC
  5
3DF
330
A
100
AcDbEntity
  8
PV
  6
Continuous
 62
   254
100
AcDbCircle
 10
7.354
 20
137.471
 30
0.0
 40
0.6720000000000001
100
AcDbArc
 50
179.999978
 51
270.000001
  0
ARC
  5
3E0
330
A
100
AcDbEntity
  8
PV
  6
Continuous
 62
   254
100
AcDbCircle
 10
7.577999999999999
 20
137.471
 30
0.0
 40
0.6720000000000001
100
AcDbArc
 50
359.999996
 51
89.999975
  0
ARC
  5
3E1
330
A
100
AcDbEntity
  8
PV
  6
Continuous
 62
   254
100
AcDbCircle
 10
7.577999999999999
 20
137.471
 30
0.0
 40
1.118999999999999
100
AcDbArc
 50
359.999996
 51
89.999975
  0
ARC
  5
3E2
330
A
100
AcDbEntity
  8
PV
  6
Continuous
 62
   254
100
AcDbCircle
 10
15.638
 20
137.471
 30
0.0
 40
0.6720000000000001
100
AcDbArc
 50
359.999996
 51
90.00003000000001
  0
ARC
  5
3E3
330
A
100
AcDbEntity
  8
PV
  6
Continuous
 62
   254
100
AcDbCircle
 10
15.638
 20
137.471
 30
0.0
 40
1.118999999999999
100
AcDbArc
 50
359.999996
 51
90.00003000000001
  0
ARC
  5
3E4
330
A
100
AcDbEntity
  8
PV
  6
Continuous
 62
     7
100
AcDbCircle
 10
-1.618
 20
117.7989999999999
 30
0.0
 40
17.25
100
AcDbArc
 50
228.339771
 51
243.535371
  0
ARC
  5
3E5
330
A
100
AcDbEntity
  8
PV
  6
Continuous
 62
     7
100
AcDbCircle
 10
1.175
 20
117.562
 30
0.0
 40
17.25
100
AcDbArc
 50
294.333537
 51
311.660234
  0
LWPOLYLINE
  5
3E6
330
A
100
AcDbEntity
  8
PV
  6
Continuous
 62
     7
100
AcDbPolyline
 90
      113
 70
     0
 43
0.0
 10
-11.561
 20
128.882
 10
-11.632
 20
128.892
 10
-11.704
 20
128.899
 10
-11.77599999999999
 20
128.9029999999999
 10
-11.84799999999999
 20
128.9029999999999
 10
-11.91999999999999
 20
128.899
 10
-11.993
 20
128.892
 10
-12.065
 20
128.881
 10
-12.137
 20
128.867
 10
-12.208
 20
128.8489999999999
 10
-12.279
 20
128.827
 10
-12.34799999999999
 20
128.802
 10
-12.418
 20
128.774
 10
-12.48599999999999
 20
128.742
 10
-12.553
 20
128.7069999999999
 10
-12.618
 20
128.6689999999999
 10
-12.68299999999999
 20
128.6279999999999
 10
-12.74499999999999
 20
128.584
 10
-12.807
 20
128.536
 10
-12.86599999999999
 20
128.4859999999999
 10
-12.924
 20
128.4329999999999
 10
-12.979
 20
128.377
 10
-13.033
 20
128.3179999999999
 10
-13.084
 20
128.2569999999999
 10
-13.13299999999999
 20
128.1939999999999
 10
-13.18
 20
128.129
 10
-13.224
 20
128.061
 10
-13.266
 20
127.991
 10
-13.305
 20
127.92
 10
-13.341
 20
127.846
 10
-13.375
 20
127.771
 10
-13.406
 20
127.695
 10
-13.434
 20
127.617
 10
-13.459
 20
127.539
 10
-13.481
 20
127.459
 10
-13.5
 20
127.3779999999999
 10
-13.51599999999999
 20
127.297
 10
-13.529
 20
127.215
 10
-13.538
 20
127.133
 10
-13.545
 20
127.0499999999999
 10
-13.548
 20
126.9679999999999
 10
-13.549
 20
126.885
 10
-13.546
 20
126.8029999999999
 10
-13.54
 20
126.721
 10
-13.53099999999999
 20
126.6399999999999
 10
-13.51799999999999
 20
126.5589999999999
 10
-13.503
 20
126.479
 10
-13.484
 20
126.401
 10
-13.463
 20
126.3229999999999
 10
-13.439
 20
126.247
 10
-13.41099999999999
 20
126.172
 10
-13.38099999999999
 20
126.0989999999999
 10
-13.34799999999999
 20
126.027
 10
-13.312
 20
125.9579999999999
 10
-13.273
 20
125.89
 10
-13.232
 20
125.824
 10
-13.18799999999999
 20
125.761
 10
-13.142
 20
125.7
 10
-13.093
 20
125.642
 10
-13.042
 20
125.5859999999999
 10
-12.989
 20
125.5329999999999
 10
-12.934
 20
125.4829999999999
 10
-12.877
 20
125.436
 10
-12.817
 20
125.391
 10
-12.757
 20
125.35
 10
-12.694
 20
125.312
 10
-12.63
 20
125.2769999999999
 10
-12.56499999999999
 20
125.246
 10
-12.498
 20
125.217
 10
-12.43
 20
125.1929999999999
 10
-12.36099999999999
 20
125.171
 10
-12.29099999999999
 20
125.154
 10
-12.22099999999999
 20
125.139
 10
-12.15
 20
125.129
 10
-12.07799999999999
 20
125.121
 10
-12.00599999999999
 20
125.1179999999999
 10
-11.934
 20
125.1179999999999
 10
-11.86099999999999
 20
125.122
 10
-11.789
 20
125.129
 10
-11.717
 20
125.14
 10
-11.645
 20
125.154
 10
-11.574
 20
125.172
 10
-11.503
 20
125.1929999999999
 10
-11.43299999999999
 20
125.2179999999999
 10
-11.364
 20
125.247
 10
-11.29599999999999
 20
125.278
 10
-11.229
 20
125.3129999999999
 10
-11.163
 20
125.3519999999999
 10
-11.099
 20
125.3929999999999
 10
-11.03599999999999
 20
125.437
 10
-10.97499999999999
 20
125.485
 10
-10.91599999999999
 20
125.5349999999999
 10
-10.85799999999999
 20
125.5879999999999
 10
-10.803
 20
125.644
 10
-10.749
 20
125.702
 10
-10.698
 20
125.763
 10
-10.649
 20
125.827
 10
-10.602
 20
125.892
 10
-10.558
 20
125.96
 10
-10.51599999999999
 20
126.0299999999999
 10
-10.477
 20
126.1009999999999
 10
-10.44
 20
126.1739999999999
 10
-10.40699999999999
 20
126.2489999999999
 10
-10.376
 20
126.326
 10
-10.34799999999999
 20
126.4029999999999
 10
-10.32299999999999
 20
126.482
 10
-10.30099999999999
 20
126.562
 10
-10.282
 20
126.6429999999999
 10
-10.26599999999999
 20
126.7239999999999
 10
-10.253
 20
126.8059999999999
 10
-10.24299999999999
 20
126.888
 10
-10.237
 20
126.971
 10
-10.235
 20
127.01
  0
LWPOLYLINE
  5
3E7
330
A
100
AcDbEntity
  8
PV
  6
Continuous
 62
     7
100
AcDbPolyline
 90
       26
 70
     0
 43
0.0
 10
-10.318
 20
127.695
 10
-10.319
 20
127.698
 10
-10.34299999999999
 20
127.774
 10
-10.37099999999999
 20
127.8489999999999
 10
-10.401
 20
127.922
 10
-10.434
 20
127.994
 10
-10.47
 20
128.0629999999999
 10
-10.509
 20
128.1309999999999
 10
-10.55
 20
128.1959999999999
 10
-10.594
 20
128.2599999999999
 10
-10.64
 20
128.3199999999999
 10
-10.68899999999999
 20
128.3789999999999
 10
-10.739
 20
128.435
 10
-10.79299999999999
 20
128.488
 10
-10.84799999999999
 20
128.5379999999999
 10
-10.905
 20
128.585
 10
-10.964
 20
128.6289999999999
 10
-11.025
 20
128.671
 10
-11.088
 20
128.709
 10
-11.152
 20
128.7439999999999
 10
-11.217
 20
128.775
 10
-11.284
 20
128.803
 10
-11.35199999999999
 20
128.828
 10
-11.42099999999999
 20
128.8489999999999
 10
-11.49
 20
128.867
 10
-11.561
 20
128.882
  0
LWPOLYLINE
  5
3E8
330
A
100
AcDbEntity
  8
PV
  6
Continuous
 62
     7
100
AcDbPolyline
 90
       94
 70
     0
 43
0.0
 10
19.96199999999999
 20
125.856
 10
19.963
 20
125.851
 10
19.97799999999999
 20
125.8059999999999
 10
19.99399999999999
 20
125.761
 10
20.013
 20
125.717
 10
20.033
 20
125.6739999999999
 10
20.055
 20
125.632
 10
20.079
 20
125.591
 10
20.104
 20
125.551
 10
20.132
 20
125.5129999999999
 10
20.16
 20
125.475
 10
20.19
 20
125.4389999999999
 10
20.222
 20
125.404
 10
20.255
 20
125.371
 10
20.28999999999999
 20
125.34
 10
20.325
 20
125.31
 10
20.362
 20
125.2809999999999
 10
20.4
 20
125.255
 10
20.44
 20
125.2299999999999
 10
20.48
 20
125.207
 10
20.521
 20
125.185
 10
20.563
 20
125.1659999999999
 10
20.605
 20
125.1489999999999
 10
20.649
 20
125.133
 10
20.693
 20
125.12
 10
20.737
 20
125.1079999999999
 10
20.78199999999999
 20
125.0989999999999
 10
20.82699999999999
 20
125.092
 10
20.873
 20
125.086
 10
20.919
 20
125.083
 10
20.965
 20
125.082
 10
21.01
 20
125.083
 10
21.05599999999999
 20
125.086
 10
21.10199999999999
 20
125.092
 10
21.147
 20
125.0989999999999
 10
21.19199999999999
 20
125.1079999999999
 10
21.236
 20
125.12
 10
21.28
 20
125.133
 10
21.324
 20
125.1489999999999
 10
21.366
 20
125.1659999999999
 10
21.408
 20
125.185
 10
21.449
 20
125.207
 10
21.49
 20
125.2299999999999
 10
21.529
 20
125.255
 10
21.56699999999999
 20
125.2809999999999
 10
21.604
 20
125.31
 10
21.63899999999999
 20
125.34
 10
21.674
 20
125.371
 10
21.70699999999999
 20
125.404
 10
21.739
 20
125.4389999999999
 10
21.769
 20
125.475
 10
21.798
 20
125.5129999999999
 10
21.825
 20
125.551
 10
21.85
 20
125.591
 10
21.874
 20
125.632
 10
21.89599999999999
 20
125.6739999999999
 10
21.916
 20
125.717
 10
21.93499999999999
 20
125.761
 10
21.951
 20
125.8059999999999
 10
21.96599999999999
 20
125.851
 10
21.979
 20
125.8979999999999
 10
21.98999999999999
 20
125.944
 10
21.999
 20
125.991
 10
22.006
 20
126.039
 10
22.01099999999999
 20
126.086
 10
22.014
 20
126.134
 10
22.015
 20
126.1819999999999
 10
22.014
 20
126.2299999999999
 10
22.01099999999999
 20
126.278
 10
22.006
 20
126.326
 10
21.999
 20
126.373
 10
21.98999999999999
 20
126.4199999999999
 10
21.979
 20
126.467
 10
21.96599999999999
 20
126.5129999999999
 10
21.951
 20
126.5579999999999
 10
21.93499999999999
 20
126.6029999999999
 10
21.916
 20
126.6469999999999
 10
21.89599999999999
 20
126.6899999999999
 10
21.874
 20
126.732
 10
21.85
 20
126.773
 10
21.825
 20
126.8129999999999
 10
21.798
 20
126.852
 10
21.769
 20
126.889
 10
21.739
 20
126.9249999999999
 10
21.70699999999999
 20
126.96
 10
21.674
 20
126.993
 10
21.63899999999999
 20
127.025
 10
21.604
 20
127.055
 10
21.56699999999999
 20
127.0829999999999
 10
21.529
 20
127.11
 10
21.49
 20
127.1349999999999
 10
21.449
 20
127.1579999999999
 10
21.408
 20
127.1789999999999
 10
21.37999999999999
 20
127.192
  0
LWPOLYLINE
  5
3E9
330
A
100
AcDbEntity
  8
PV
  6
Continuous
 62
     7
100
AcDbPolyline
 90
       94
 70
     0
 43
0.0
 10
22.36699999999999
 20
128.206
 10
22.366
 20
128.21
 10
22.351
 20
128.2559999999999
 10
22.335
 20
128.3
 10
22.31599999999999
 20
128.3439999999999
 10
22.296
 20
128.387
 10
22.274
 20
128.429
 10
22.25
 20
128.4699999999999
 10
22.225
 20
128.5099999999999
 10
22.198
 20
128.549
 10
22.169
 20
128.586
 10
22.139
 20
128.6229999999999
 10
22.107
 20
128.657
 10
22.074
 20
128.6899999999999
 10
22.039
 20
128.722
 10
22.004
 20
128.752
 10
21.96699999999999
 20
128.78
 10
21.929
 20
128.807
 10
21.89
 20
128.8319999999999
 10
21.849
 20
128.8549999999999
 10
21.808
 20
128.876
 10
21.766
 20
128.896
 10
21.724
 20
128.9129999999999
 10
21.68
 20
128.929
 10
21.636
 20
128.942
 10
21.59199999999999
 20
128.953
 10
21.54699999999999
 20
128.963
 10
21.50199999999999
 20
128.97
 10
21.45599999999999
 20
128.9749999999999
 10
21.41
 20
128.9779999999999
 10
21.36499999999999
 20
128.9789999999999
 10
21.319
 20
128.9779999999999
 10
21.273
 20
128.9749999999999
 10
21.22699999999999
 20
128.97
 10
21.18199999999999
 20
128.963
 10
21.13699999999999
 20
128.953
 10
21.093
 20
128.942
 10
21.049
 20
128.929
 10
21.00499999999999
 20
128.9129999999999
 10
20.963
 20
128.896
 10
20.92099999999999
 20
128.876
 10
20.88
 20
128.8549999999999
 10
20.84
 20
128.8319999999999
 10
20.8
 20
128.807
 10
20.76199999999999
 20
128.78
 10
20.725
 20
128.752
 10
20.69
 20
128.722
 10
20.655
 20
128.6899999999999
 10
20.622
 20
128.657
 10
20.59
 20
128.6229999999999
 10
20.56
 20
128.586
 10
20.53199999999999
 20
128.549
 10
20.504
 20
128.5099999999999
 10
20.47899999999999
 20
128.4699999999999
 10
20.455
 20
128.429
 10
20.43299999999999
 20
128.387
 10
20.413
 20
128.3439999999999
 10
20.394
 20
128.3
 10
20.378
 20
128.2559999999999
 10
20.363
 20
128.21
 10
20.35
 20
128.1639999999999
 10
20.339
 20
128.1179999999999
 10
20.32999999999999
 20
128.0699999999999
 10
20.324
 20
128.0229999999999
 10
20.319
 20
127.9749999999999
 10
20.316
 20
127.927
 10
20.315
 20
127.8789999999999
 10
20.316
 20
127.831
 10
20.319
 20
127.7839999999999
 10
20.324
 20
127.736
 10
20.32999999999999
 20
127.688
 10
20.339
 20
127.641
 10
20.35
 20
127.5949999999999
 10
20.363
 20
127.549
 10
20.378
 20
127.5029999999999
 10
20.394
 20
127.458
 10
20.413
 20
127.415
 10
20.43299999999999
 20
127.372
 10
20.455
 20
127.329
 10
20.47899999999999
 20
127.288
 10
20.504
 20
127.2479999999999
 10
20.53199999999999
 20
127.21
 10
20.56
 20
127.172
 10
20.59
 20
127.136
 10
20.622
 20
127.102
 10
20.655
 20
127.068
 10
20.69
 20
127.0369999999999
 10
20.725
 20
127.007
 10
20.76199999999999
 20
126.9779999999999
 10
20.8
 20
126.952
 10
20.84
 20
126.927
 10
20.88
 20
126.9039999999999
 10
20.92099999999999
 20
126.882
 10
20.949
 20
126.869
  0
MTEXT
  5
3EA
330
A
100
AcDbEntity
  8
PV
  6
Continuous
 62
     7
100
AcDbMText
 10
0.003
 20
115.7929999999999
 30
0.0
 40
2.0
 41
0.0
 71
     2
 72
     1
  1
\W0.925;\A1;HIGH VACUUM VALVES
 73
     1
 44
1.0
  0
MTEXT
  5
3EB
330
A
100
AcDbEntity
  8
PV
  6
Continuous
 62
     7
100
AcDbMText
 10
-0.06
 20
110.731
 30
0.0
 40
2.0
 41
0.0
 71
     2
 72
     1
  1
\W0.930;\A1;METAL BELLOWS
 73
     1
 44
1.0
  0
MTEXT
  5
3EC
330
A
100
AcDbEntity
  8
PV
  6
Continuous
 62
     7
100
AcDbMText
 10
2.852097999999999
 20
101.131179
 30
0.0
 40
1.5
 41
0.0
 71
     2
 72
     1
  1
\W1.048;\A1;O
 11
0.9935718815697162
 21
0.113202986506601
 31
0.0
 73
     1
 44
1.0
  0
MTEXT
  5
3ED
330
A
100
AcDbEntity
  8
PV
  6
Continuous
 62
     7
100
AcDbMText
 10
4.274473999999999
 20
101.3559439999999
 30
0.0
 40
1.5
 41
0.0
 71
     2
 72
     1
  1
\A1;P
 11
0.9799247035488139
 21
0.1993679396863229
 31
0.0
 73
     1
 44
1.0
  0
MTEXT
  5
3EE
330
A
100
AcDbEntity
  8
PV
  6
Continuous
 62
     7
100
AcDbMText
 10
5.670988999999999
 20
101.704115
 30
0.0
 40
1.5
 41
0.0
 71
     2
 72
     1
  1
\W0.905;\A1;E
 11
0.9588198501244839
 21
0.2840149556049157
 31
0.0
 73
     1
 44
1.0
  0
MTEXT
  5
3EF
330
A
100
AcDbEntity
  8
PV
  6
Continuous
 62
     7
100
AcDbMText
 10
-8.17698
 20
102.7474709999999
 30
0.0
 40
1.5
 41
0.0
 71
     2
 72
     1
  1
\A1;C
 11
0.909961315861277
 21
-0.4146931439462357
 31
0.0
 73
     1
 44
1.0
  0
MTEXT
  5
3F0
330
A
100
AcDbEntity
  8
PV
  6
Continuous
 62
     7
100
AcDbMText
 10
-6.842645
 20
102.207981
 30
0.0
 40
1.5
 41
0.0
 71
     2
 72
     1
  1
\W0.810;\A1;L
 11
0.9426413920776289
 21
-0.3338071388421012
 31
0.0
 73
     1
 44
1.0
  0
MTEXT
  5
3F1
330
A
100
AcDbEntity
  8
PV
  6
Continuous
 62
     7
100
AcDbMText
 10
-5.466215
 20
101.7871109999999
 30
0.0
 40
1.5
 41
0.0
 71
     2
 72
     1
  1
\W1.048;\A1;O
 11
0.9681476639056603
 21
-0.2503799130801275
 31
0.0
 73
     1
 44
1.0
  0
MTEXT
  5
3F2
330
A
100
AcDbEntity
  8
PV
  6
Continuous
 62
     7
100
AcDbMText
 10
-4.058213999999999
 20
101.487714
 30
0.0
 40
1.5
 41
0.0
 71
     2
 72
     1
  1
\W0.952;\A1;S
 11
0.9862855482320082
 21
-0.1650479243998155
 31
0.0
 73
     1
 44
1.0
  0
MTEXT
  5
3F3
330
A
100
AcDbEntity
  8
PV
  6
Continuous
 62
     7
100
AcDbMText
 10
-2.629156
 20
101.3126879999999
 30
0.0
 40
1.5
 41
0.0
 71
     2
 72
     1
  1
\W0.905;\A1;E
 11
0.9969173391662902
 21
-0.0784590266929423
 31
0.0
 73
     1
 44
1.0
  0
MTEXT
  5
3F4
330
A
100
AcDbEntity
  8
PV
  6
Continuous
 62
     7
100
AcDbMText
 10
7.032124
 20
102.172813
 30
0.0
 40
1.5
 41
0.0
 71
     2
 72
     1
  1
\W1.048;\A1;N
 11
0.9304177033247322
 21
0.3665008831366308
 31
0.0
 73
     1
 44
1.0
  0
SOLID
  5
3F5
330
A
100
AcDbEntity
  8
PV
  6
Continuous
 62
     7
100
AcDbTrace
 10
-2.7
 20
141.816
 30
0.0
 11
-1.149999999999999
 21
141.816
 31
0.0
 12
-2.7
 22
145.366
 32
0.0
 13
-1.149999999999999
 23
145.366
 33
0.0
  0
SOLID
  5
3F6
330
A
100
AcDbEntity
  8
PV
  6
Continuous
 62
     7
100
AcDbTrace
 10
-16.60099999999999
 20
136.3509999999999
 30
0.0
 11
-16.15299999999999
 21
136.3509999999999
 31
0.0
 12
-16.60099999999999
 22
138.59
 32
0.0
 13
-16.15299999999999
 23
138.59
 33
0.0
  0
SOLID
  5
3F7
330
A
100
AcDbEntity
  8
PV
  6
Continuous
 62
     7
100
AcDbTrace
 10
-13.13099999999999
 20
136.3509999999999
 30
0.0
 11
-12.68299999999999
 21
136.3509999999999
 31
0.0
 12
-13.13099999999999
 22
138.59
 32
0.0
 13
-12.68299999999999
 23
138.59
 33
0.0
  0
LINE
  5
3F8
330
A
100
AcDbEntity
  8
PV
  6
Continuous
 62
     7
100
AcDbLine
 10
-31.0
 20
88.542
 30
0.0
 11
-28.0
 21
90.274
 31
0.0
  0
LINE
  5
3F9
330
A
100
AcDbEntity
  8
PV
  6
Continuous
 62
     7
100
AcDbLine
 10
-34.0
 20
93.73800000000001
 30
0.0
 11
-31.0
 21
95.471
 31
0.0
  0
LINE
  5
3FA
330
A
100
AcDbEntity
  8
PV
  6
Continuous
 62
     7
100
AcDbLine
 10
-28.0
 20
93.73800000000001
 30
0.0
 11
-28.0
 21
90.274
 31
0.0
  0
LINE
  5
3FB
330
A
100
AcDbEntity
  8
PV
  6
Continuous
 62
     7
100
AcDbLine
 10
-34.0
 20
93.73800000000001
 30
0.0
 11
-34.0
 21
90.274
 31
0.0
  0
LINE
  5
3FC
330
A
100
AcDbEntity
  8
PV
  6
Continuous
 62
     7
100
AcDbLine
 10
-31.0
 20
95.471
 30
0.0
 11
-28.0
 21
93.73800000000001
 31
0.0
  0
LINE
  5
3FD
330
A
100
AcDbEntity
  8
PV
  6
Continuous
 62
     7
100
AcDbLine
 10
-34.0
 20
90.274
 30
0.0
 11
-31.0
 21
88.542
 31
0.0
  0
CIRCLE
  5
3FE
330
A
100
AcDbEntity
  8
PV
  6
Continuous
 62
     7
100
AcDbCircle
 10
-31.0
 20
92.00599999999999
 30
0.0
 40
6.5
  0
CIRCLE
  5
3FF
330
A
100
AcDbEntity
  8
PV
  6
Continuous
 62
     7
100
AcDbCircle
 10
-31.0
 20
92.00599999999999
 30
0.0
 40
5.633999999999999
  0
LINE
  5
400
330
A
100
AcDbEntity
  8
PV
  6
Continuous
 62
     7
100
AcDbLine
 10
31.0
 20
88.542
 30
0.0
 11
34.0
 21
90.274
 31
0.0
  0
LINE
  5
401
330
A
100
AcDbEntity
  8
PV
  6
Continuous
 62
     7
100
AcDbLine
 10
28.0
 20
93.73800000000001
 30
0.0
 11
31.0
 21
95.471
 31
0.0
  0
LINE
  5
402
330
A
100
AcDbEntity
  8
PV
  6
Continuous
 62
     7
100
AcDbLine
 10
34.0
 20
93.73800000000001
 30
0.0
 11
34.0
 21
90.274
 31
0.0
  0
LINE
  5
403
330
A
100
AcDbEntity
  8
PV
  6
Continuous
 62
     7
100
AcDbLine
 10
28.0
 20
93.73800000000001
 30
0.0
 11
28.0
 21
90.274
 31
0.0
  0
LINE
  5
404
330
A
100
AcDbEntity
  8
PV
  6
Continuous
 62
     7
100
AcDbLine
 10
31.0
 20
95.471
 30
0.0
 11
34.0
 21
93.73800000000001
 31
0.0
  0
LINE
  5
405
330
A
100
AcDbEntity
  8
PV
  6
Continuous
 62
     7
100
AcDbLine
 10
28.0
 20
90.274
 30
0.0
 11
31.0
 21
88.542
 31
0.0
  0
CIRCLE
  5
406
330
A
100
AcDbEntity
  8
PV
  6
Continuous
 62
     7
100
AcDbCircle
 10
31.0
 20
92.00599999999999
 30
0.0
 40
6.5
  0
CIRCLE
  5
407
330
A
100
AcDbEntity
  8
PV
  6
Continuous
 62
     7
100
AcDbCircle
 10
31.0
 20
92.00599999999999
 30
0.0
 40
5.633999999999999
  0
LINE
  5
408
330
A
100
AcDbEntity
  8
PV
  6
Continuous
 62
     7
100
AcDbLine
 10
31.0
 20
150.5419999999999
 30
0.0
 11
34.0
 21
152.2739999999999
 31
0.0
  0
LINE
  5
409
330
A
100
AcDbEntity
  8
PV
  6
Continuous
 62
     7
100
AcDbLine
 10
28.0
 20
155.738
 30
0.0
 11
31.0
 21
157.471
 31
0.0
  0
LINE
  5
40A
330
A
100
AcDbEntity
  8
PV
  6
Continuous
 62
     7
100
AcDbLine
 10
34.0
 20
155.738
 30
0.0
 11
34.0
 21
152.2739999999999
 31
0.0
  0
LINE
  5
40B
330
A
100
AcDbEntity
  8
PV
  6
Continuous
 62
     7
100
AcDbLine
 10
28.0
 20
155.738
 30
0.0
 11
28.0
 21
152.2739999999999
 31
0.0
  0
LINE
  5
40C
330
A
100
AcDbEntity
  8
PV
  6
Continuous
 62
     7
100
AcDbLine
 10
31.0
 20
157.471
 30
0.0
 11
34.0
 21
155.738
 31
0.0
  0
LINE
  5
40D
330
A
100
AcDbEntity
  8
PV
  6
Continuous
 62
     7
100
AcDbLine
 10
28.0
 20
152.2739999999999
 30
0.0
 11
31.0
 21
150.5419999999999
 31
0.0
  0
CIRCLE
  5
40E
330
A
100
AcDbEntity
  8
PV
  6
Continuous
 62
     7
100
AcDbCircle
 10
31.0
 20
154.0059999999999
 30
0.0
 40
6.5
  0
CIRCLE
  5
40F
330
A
100
AcDbEntity
  8
PV
  6
Continuous
 62
     7
100
AcDbCircle
 10
31.0
 20
154.0059999999999
 30
0.0
 40
5.633999999999999
  0
LINE
  5
410
330
A
100
AcDbEntity
  8
PV
  6
Continuous
 62
     7
100
AcDbLine
 10
-31.0
 20
150.5419999999999
 30
0.0
 11
-28.0
 21
152.2739999999999
 31
0.0
  0
LINE
  5
411
330
A
100
AcDbEntity
  8
PV
  6
Continuous
 62
     7
100
AcDbLine
 10
-34.0
 20
155.738
 30
0.0
 11
-31.0
 21
157.471
 31
0.0
  0
LINE
  5
412
330
A
100
AcDbEntity
  8
PV
  6
Continuous
 62
     7
100
AcDbLine
 10
-28.0
 20
155.738
 30
0.0
 11
-28.0
 21
152.2739999999999
 31
0.0
  0
LINE
  5
413
330
A
100
AcDbEntity
  8
PV
  6
Continuous
 62
     7
100
AcDbLine
 10
-34.0
 20
155.738
 30
0.0
 11
-34.0
 21
152.2739999999999
 31
0.0
  0
LINE
  5
414
330
A
100
AcDbEntity
  8
PV
  6
Continuous
 62
     7
100
AcDbLine
 10
-31.0
 20
157.471
 30
0.0
 11
-28.0
 21
155.738
 31
0.0
  0
LINE
  5
415
330
A
100
AcDbEntity
  8
PV
  6
Continuous
 62
     7
100
AcDbLine
 10
-34.0
 20
152.2739999999999
 30
0.0
 11
-31.0
 21
150.5419999999999
 31
0.0
  0
CIRCLE
  5
416
330
A
100
AcDbEntity
  8
PV
  6
Continuous
 62
     7
100
AcDbCircle
 10
-31.0
 20
154.0059999999999
 30
0.0
 40
6.5
  0
CIRCLE
  5
417
330
A
100
AcDbEntity
  8
PV
  6
Continuous
 62
     7
100
AcDbCircle
 10
-31.0
 20
154.0059999999999
 30
0.0
 40
5.633999999999999
  0
LINE
  5
418
330
A
100
AcDbEntity
  8
PV
  6
Continuous
 62
     7
100
AcDbLine
 10
40.49999999999999
 20
159.733
 30
0.0
 11
40.49999999999999
 21
177.512
 31
0.0
  0
LINE
  5
419
330
A
100
AcDbEntity
  8
PV
  6
Continuous
 62
     7
100
AcDbLine
 10
-70.0
 20
159.396
 30
0.0
 11
-70.0
 21
177.512
 31
0.0
  0
LINE
  5
41A
330
A
100
AcDbEntity
  8
PV
  6
Continuous
 62
     7
100
AcDbLine
 10
-70.0
 20
175.2259999999999
 30
0.0
 11
40.49999999999999
 21
175.2259999999999
 31
0.0
  0
LINE
  5
41B
330
A
100
AcDbEntity
  8
PV
  6
Continuous
 62
     7
100
AcDbLine
 10
40.49999999999999
 20
175.2259999999999
 30
0.0
 11
37.72999999999999
 21
175.2259999999999
 31
0.0
  0
LINE
  5
41C
330
A
100
AcDbEntity
  8
PV
  6
Continuous
 62
     7
100
AcDbLine
 10
40.49999999999999
 20
175.2259999999999
 30
0.0
 11
37.72999999999999
 21
174.484
 31
0.0
  0
LINE
  5
41D
330
A
100
AcDbEntity
  8
PV
  6
Continuous
 62
     7
100
AcDbLine
 10
37.72999999999999
 20
175.9679999999999
 30
0.0
 11
40.49999999999999
 21
175.2259999999999
 31
0.0
  0
LINE
  5
41E
330
A
100
AcDbEntity
  8
PV
  6
Continuous
 62
     7
100
AcDbLine
 10
-70.0
 20
175.2259999999999
 30
0.0
 11
-67.23
 21
175.2259999999999
 31
0.0
  0
LINE
  5
41F
330
A
100
AcDbEntity
  8
PV
  6
Continuous
 62
     7
100
AcDbLine
 10
-70.0
 20
175.2259999999999
 30
0.0
 11
-67.23
 21
175.9679999999999
 31
0.0
  0
LINE
  5
420
330
A
100
AcDbEntity
  8
PV
  6
Continuous
 62
     7
100
AcDbLine
 10
-67.23
 20
174.484
 30
0.0
 11
-70.0
 21
175.2259999999999
 31
0.0
  0
LINE
  5
421
330
A
100
AcDbEntity
  8
PV
  6
Continuous
 62
     7
100
AcDbLine
 10
-26.096
 20
-9.853999999999999
 30
0.0
 11
-26.072
 21
-9.882999999999999
 31
0.0
  0
LINE
  5
422
330
A
100
AcDbEntity
  8
PV
  6
Continuous
 62
     7
100
AcDbLine
 10
-26.12
 20
-9.823999999999999
 30
0.0
 11
-26.096
 21
-9.853999999999999
 31
0.0
  0
LINE
  5
423
330
A
100
AcDbEntity
  8
PV
  6
Continuous
 62
     7
100
AcDbLine
 10
-26.144
 20
-9.792999999999999
 30
0.0
 11
-26.12
 21
-9.823999999999999
 31
0.0
  0
LINE
  5
424
330
A
100
AcDbEntity
  8
PV
  6
Continuous
 62
     7
100
AcDbLine
 10
-26.16699999999999
 20
-9.762999999999999
 30
0.0
 11
-26.144
 21
-9.792999999999999
 31
0.0
  0
LINE
  5
425
330
A
100
AcDbEntity
  8
PV
  6
Continuous
 62
     7
100
AcDbLine
 10
-26.19
 20
-9.732000000000001
 30
0.0
 11
-26.16699999999999
 21
-9.762999999999999
 31
0.0
  0
LINE
  5
426
330
A
100
AcDbEntity
  8
PV
  6
Continuous
 62
     7
100
AcDbLine
 10
-26.21199999999999
 20
-9.699999999999999
 30
0.0
 11
-26.19
 21
-9.732000000000001
 31
0.0
  0
LINE
  5
427
330
A
100
AcDbEntity
  8
PV
  6
Continuous
 62
     7
100
AcDbLine
 10
-26.234
 20
-9.669
 30
0.0
 11
-26.21199999999999
 21
-9.699999999999999
 31
0.0
  0
LINE
  5
428
330
A
100
AcDbEntity
  8
PV
  6
Continuous
 62
     7
100
AcDbLine
 10
-26.256
 20
-9.637
 30
0.0
 11
-26.234
 21
-9.669
 31
0.0
  0
LINE
  5
429
330
A
100
AcDbEntity
  8
PV
  6
Continuous
 62
     7
100
AcDbLine
 10
-26.27699999999999
 20
-9.605
 30
0.0
 11
-26.256
 21
-9.637
 31
0.0
  0
LINE
  5
42A
330
A
100
AcDbEntity
  8
PV
  6
Continuous
 62
     7
100
AcDbLine
 10
-26.298
 20
-9.572
 30
0.0
 11
-26.27699999999999
 21
-9.605
 31
0.0
  0
LINE
  5
42B
330
A
100
AcDbEntity
  8
PV
  6
Continuous
 62
     7
100
AcDbLine
 10
-26.318
 20
-9.539999999999999
 30
0.0
 11
-26.298
 21
-9.572
 31
0.0
  0
LINE
  5
42C
330
A
100
AcDbEntity
  8
PV
  6
Continuous
 62
     7
100
AcDbLine
 10
-26.339
 20
-9.506999999999999
 30
0.0
 11
-26.318
 21
-9.539999999999999
 31
0.0
  0
LINE
  5
42D
330
A
100
AcDbEntity
  8
PV
  6
Continuous
 62
     7
100
AcDbLine
 10
-26.358
 20
-9.474
 30
0.0
 11
-26.339
 21
-9.506999999999999
 31
0.0
  0
LINE
  5
42E
330
A
100
AcDbEntity
  8
PV
  6
Continuous
 62
     7
100
AcDbLine
 10
-26.378
 20
-9.441
 30
0.0
 11
-26.358
 21
-9.474
 31
0.0
  0
LINE
  5
42F
330
A
100
AcDbEntity
  8
PV
  6
Continuous
 62
     7
100
AcDbLine
 10
-26.39699999999999
 20
-9.407
 30
0.0
 11
-26.378
 21
-9.441
 31
0.0
  0
LINE
  5
430
330
A
100
AcDbEntity
  8
PV
  6
Continuous
 62
     7
100
AcDbLine
 10
-26.416
 20
-9.374
 30
0.0
 11
-26.39699999999999
 21
-9.407
 31
0.0
  0
LINE
  5
431
330
A
100
AcDbEntity
  8
PV
  6
Continuous
 62
     7
100
AcDbLine
 10
-26.434
 20
-9.339999999999999
 30
0.0
 11
-26.416
 21
-9.374
 31
0.0
  0
LINE
  5
432
330
A
100
AcDbEntity
  8
PV
  6
Continuous
 62
     7
100
AcDbLine
 10
-26.453
 20
-9.306
 30
0.0
 11
-26.434
 21
-9.339999999999999
 31
0.0
  0
LINE
  5
433
330
A
100
AcDbEntity
  8
PV
  6
Continuous
 62
     7
100
AcDbLine
 10
-26.47
 20
-9.272
 30
0.0
 11
-26.453
 21
-9.306
 31
0.0
  0
LINE
  5
434
330
A
100
AcDbEntity
  8
PV
  6
Continuous
 62
     7
100
AcDbLine
 10
-26.488
 20
-9.237
 30
0.0
 11
-26.47
 21
-9.272
 31
0.0
  0
LINE
  5
435
330
A
100
AcDbEntity
  8
PV
  6
Continuous
 62
     7
100
AcDbLine
 10
-26.505
 20
-9.202999999999999
 30
0.0
 11
-26.488
 21
-9.237
 31
0.0
  0
LINE
  5
436
330
A
100
AcDbEntity
  8
PV
  6
Continuous
 62
     7
100
AcDbLine
 10
-26.522
 20
-9.167999999999999
 30
0.0
 11
-26.505
 21
-9.202999999999999
 31
0.0
  0
LINE
  5
437
330
A
100
AcDbEntity
  8
PV
  6
Continuous
 62
     7
100
AcDbLine
 10
-26.539
 20
-9.134
 30
0.0
 11
-26.522
 21
-9.167999999999999
 31
0.0
  0
LINE
  5
438
330
A
100
AcDbEntity
  8
PV
  6
Continuous
 62
     7
100
AcDbLine
 10
-26.55599999999999
 20
-9.099
 30
0.0
 11
-26.539
 21
-9.134
 31
0.0
  0
LINE
  5
439
330
A
100
AcDbEntity
  8
PV
  6
Continuous
 62
     7
100
AcDbLine
 10
-26.572
 20
-9.064
 30
0.0
 11
-26.55599999999999
 21
-9.099
 31
0.0
  0
LINE
  5
43A
330
A
100
AcDbEntity
  8
PV
  6
Continuous
 62
     7
100
AcDbLine
 10
-26.588
 20
-9.028999999999999
 30
0.0
 11
-26.572
 21
-9.064
 31
0.0
  0
LINE
  5
43B
330
A
100
AcDbEntity
  8
PV
  6
Continuous
 62
     7
100
AcDbLine
 10
-26.604
 20
-8.993999999999999
 30
0.0
 11
-26.588
 21
-9.028999999999999
 31
0.0
  0
LINE
  5
43C
330
A
100
AcDbEntity
  8
PV
  6
Continuous
 62
     7
100
AcDbLine
 10
-26.619
 20
-8.958999999999999
 30
0.0
 11
-26.604
 21
-8.993999999999999
 31
0.0
  0
LINE
  5
43D
330
A
100
AcDbEntity
  8
PV
  6
Continuous
 62
     7
100
AcDbLine
 10
-26.634
 20
-8.923
 30
0.0
 11
-26.619
 21
-8.958999999999999
 31
0.0
  0
LINE
  5
43E
330
A
100
AcDbEntity
  8
PV
  6
Continuous
 62
     7
100
AcDbLine
 10
-26.649
 20
-8.887999999999999
 30
0.0
 11
-26.634
 21
-8.923
 31
0.0
  0
LINE
  5
43F
330
A
100
AcDbEntity
  8
PV
  6
Continuous
 62
     7
100
AcDbLine
 10
-26.664
 20
-8.852
 30
0.0
 11
-26.649
 21
-8.887999999999999
 31
0.0
  0
LINE
  5
440
330
A
100
AcDbEntity
  8
PV
  6
Continuous
 62
     7
100
AcDbLine
 10
-26.679
 20
-8.817
 30
0.0
 11
-26.664
 21
-8.852
 31
0.0
  0
LINE
  5
441
330
A
100
AcDbEntity
  8
PV
  6
Continuous
 62
     7
100
AcDbLine
 10
-26.693
 20
-8.781
 30
0.0
 11
-26.679
 21
-8.817
 31
0.0
  0
LINE
  5
442
330
A
100
AcDbEntity
  8
PV
  6
Continuous
 62
     7
100
AcDbLine
 10
-26.707
 20
-8.744999999999999
 30
0.0
 11
-26.693
 21
-8.781
 31
0.0
  0
LINE
  5
443
330
A
100
AcDbEntity
  8
PV
  6
Continuous
 62
     7
100
AcDbLine
 10
-26.721
 20
-8.708999999999999
 30
0.0
 11
-26.707
 21
-8.744999999999999
 31
0.0
  0
LINE
  5
444
330
A
100
AcDbEntity
  8
PV
  6
Continuous
 62
     7
100
AcDbLine
 10
-26.734
 20
-8.673
 30
0.0
 11
-26.721
 21
-8.708999999999999
 31
0.0
  0
LINE
  5
445
330
A
100
AcDbEntity
  8
PV
  6
Continuous
 62
     7
100
AcDbLine
 10
-26.748
 20
-8.637
 30
0.0
 11
-26.734
 21
-8.673
 31
0.0
  0
LINE
  5
446
330
A
100
AcDbEntity
  8
PV
  6
Continuous
 62
     7
100
AcDbLine
 10
-26.76099999999999
 20
-8.601
 30
0.0
 11
-26.748
 21
-8.637
 31
0.0
  0
LINE
  5
447
330
A
100
AcDbEntity
  8
PV
  6
Continuous
 62
     7
100
AcDbLine
 10
-26.774
 20
-8.564999999999999
 30
0.0
 11
-26.76099999999999
 21
-8.601
 31
0.0
  0
LINE
  5
448
330
A
100
AcDbEntity
  8
PV
  6
Continuous
 62
     7
100
AcDbLine
 10
-26.787
 20
-8.527999999999998
 30
0.0
 11
-26.774
 21
-8.564999999999999
 31
0.0
  0
LINE
  5
449
330
A
100
AcDbEntity
  8
PV
  6
Continuous
 62
     7
100
AcDbLine
 10
-26.79899999999999
 20
-8.492
 30
0.0
 11
-26.787
 21
-8.527999999999998
 31
0.0
  0
LINE
  5
44A
330
A
100
AcDbEntity
  8
PV
  6
Continuous
 62
     7
100
AcDbLine
 10
-26.811
 20
-8.455
 30
0.0
 11
-26.79899999999999
 21
-8.492
 31
0.0
  0
LINE
  5
44B
330
A
100
AcDbEntity
  8
PV
  6
Continuous
 62
     7
100
AcDbLine
 10
-26.823
 20
-8.419
 30
0.0
 11
-26.811
 21
-8.455
 31
0.0
  0
LINE
  5
44C
330
A
100
AcDbEntity
  8
PV
  6
Continuous
 62
     7
100
AcDbLine
 10
-26.835
 20
-8.381999999999999
 30
0.0
 11
-26.823
 21
-8.419
 31
0.0
  0
LINE
  5
44D
330
A
100
AcDbEntity
  8
PV
  6
Continuous
 62
     7
100
AcDbLine
 10
-26.84699999999999
 20
-8.346
 30
0.0
 11
-26.835
 21
-8.381999999999999
 31
0.0
  0
LINE
  5
44E
330
A
100
AcDbEntity
  8
PV
  6
Continuous
 62
     7
100
AcDbLine
 10
-26.859
 20
-8.308999999999999
 30
0.0
 11
-26.84699999999999
 21
-8.346
 31
0.0
  0
LINE
  5
44F
330
A
100
AcDbEntity
  8
PV
  6
Continuous
 62
     7
100
AcDbLine
 10
-26.87
 20
-8.272
 30
0.0
 11
-26.859
 21
-8.308999999999999
 31
0.0
  0
LINE
  5
450
330
A
100
AcDbEntity
  8
PV
  6
Continuous
 62
     7
100
AcDbLine
 10
-26.881
 20
-8.234999999999999
 30
0.0
 11
-26.87
 21
-8.272
 31
0.0
  0
LINE
  5
451
330
A
100
AcDbEntity
  8
PV
  6
Continuous
 62
     7
100
AcDbLine
 10
-26.892
 20
-8.198
 30
0.0
 11
-26.881
 21
-8.234999999999999
 31
0.0
  0
LINE
  5
452
330
A
100
AcDbEntity
  8
PV
  6
Continuous
 62
     7
100
AcDbLine
 10
-26.903
 20
-8.162
 30
0.0
 11
-26.892
 21
-8.198
 31
0.0
  0
LINE
  5
453
330
A
100
AcDbEntity
  8
PV
  6
Continuous
 62
     7
100
AcDbLine
 10
-26.913
 20
-8.125
 30
0.0
 11
-26.903
 21
-8.162
 31
0.0
  0
LINE
  5
454
330
A
100
AcDbEntity
  8
PV
  6
Continuous
 62
     7
100
AcDbLine
 10
-26.924
 20
-8.086999999999999
 30
0.0
 11
-26.913
 21
-8.125
 31
0.0
  0
LINE
  5
455
330
A
100
AcDbEntity
  8
PV
  6
Continuous
 62
     7
100
AcDbLine
 10
-26.934
 20
-8.05
 30
0.0
 11
-26.924
 21
-8.086999999999999
 31
0.0
  0
LINE
  5
456
330
A
100
AcDbEntity
  8
PV
  6
Continuous
 62
     7
100
AcDbLine
 10
-26.944
 20
-8.012999999999999
 30
0.0
 11
-26.934
 21
-8.05
 31
0.0
  0
LINE
  5
457
330
A
100
AcDbEntity
  8
PV
  6
Continuous
 62
     7
100
AcDbLine
 10
-26.954
 20
-7.975999999999999
 30
0.0
 11
-26.944
 21
-8.012999999999999
 31
0.0
  0
LINE
  5
458
330
A
100
AcDbEntity
  8
PV
  6
Continuous
 62
     7
100
AcDbLine
 10
-26.963
 20
-7.939
 30
0.0
 11
-26.954
 21
-7.975999999999999
 31
0.0
  0
LINE
  5
459
330
A
100
AcDbEntity
  8
PV
  6
Continuous
 62
     7
100
AcDbLine
 10
-26.973
 20
-7.900999999999999
 30
0.0
 11
-26.963
 21
-7.939
 31
0.0
  0
LINE
  5
45A
330
A
100
AcDbEntity
  8
PV
  6
Continuous
 62
     7
100
AcDbLine
 10
-26.98199999999999
 20
-7.863999999999999
 30
0.0
 11
-26.973
 21
-7.900999999999999
 31
0.0
  0
LINE
  5
45B
330
A
100
AcDbEntity
  8
PV
  6
Continuous
 62
     7
100
AcDbLine
 10
-26.991
 20
-7.827
 30
0.0
 11
-26.98199999999999
 21
-7.863999999999999
 31
0.0
  0
LINE
  5
45C
330
A
100
AcDbEntity
  8
PV
  6
Continuous
 62
     7
100
AcDbLine
 10
-27.0
 20
-7.788999999999999
 30
0.0
 11
-26.991
 21
-7.827
 31
0.0
  0
LINE
  5
45D
330
A
100
AcDbEntity
  8
PV
  6
Continuous
 62
     7
100
AcDbLine
 10
-27.009
 20
-7.752
 30
0.0
 11
-27.0
 21
-7.788999999999999
 31
0.0
  0
LINE
  5
45E
330
A
100
AcDbEntity
  8
PV
  6
Continuous
 62
     7
100
AcDbLine
 10
-27.017
 20
-7.713999999999999
 30
0.0
 11
-27.009
 21
-7.752
 31
0.0
  0
LINE
  5
45F
330
A
100
AcDbEntity
  8
PV
  6
Continuous
 62
     7
100
AcDbLine
 10
-27.026
 20
-7.677
 30
0.0
 11
-27.017
 21
-7.713999999999999
 31
0.0
  0
LINE
  5
460
330
A
100
AcDbEntity
  8
PV
  6
Continuous
 62
     7
100
AcDbLine
 10
-27.034
 20
-7.638999999999999
 30
0.0
 11
-27.026
 21
-7.677
 31
0.0
  0
LINE
  5
461
330
A
100
AcDbEntity
  8
PV
  6
Continuous
 62
     7
100
AcDbLine
 10
-27.042
 20
-7.602
 30
0.0
 11
-27.034
 21
-7.638999999999999
 31
0.0
  0
LINE
  5
462
330
A
100
AcDbEntity
  8
PV
  6
Continuous
 62
     7
100
AcDbLine
 10
-27.05
 20
-7.564
 30
0.0
 11
-27.042
 21
-7.602
 31
0.0
  0
LINE
  5
463
330
A
100
AcDbEntity
  8
PV
  6
Continuous
 62
     7
100
AcDbLine
 10
-27.058
 20
-7.525999999999999
 30
0.0
 11
-27.05
 21
-7.564
 31
0.0
  0
LINE
  5
464
330
A
100
AcDbEntity
  8
PV
  6
Continuous
 62
     7
100
AcDbLine
 10
-27.065
 20
-7.487999999999999
 30
0.0
 11
-27.058
 21
-7.525999999999999
 31
0.0
  0
LINE
  5
465
330
A
100
AcDbEntity
  8
PV
  6
Continuous
 62
     7
100
AcDbLine
 10
-27.073
 20
-7.451
 30
0.0
 11
-27.065
 21
-7.487999999999999
 31
0.0
  0
LINE
  5
466
330
A
100
AcDbEntity
  8
PV
  6
Continuous
 62
     7
100
AcDbLine
 10
-27.08
 20
-7.412999999999999
 30
0.0
 11
-27.073
 21
-7.451
 31
0.0
  0
LINE
  5
467
330
A
100
AcDbEntity
  8
PV
  6
Continuous
 62
     7
100
AcDbLine
 10
-27.087
 20
-7.375
 30
0.0
 11
-27.08
 21
-7.412999999999999
 31
0.0
  0
LINE
  5
468
330
A
100
AcDbEntity
  8
PV
  6
Continuous
 62
     7
100
AcDbLine
 10
-27.094
 20
-7.337
 30
0.0
 11
-27.087
 21
-7.375
 31
0.0
  0
LINE
  5
469
330
A
100
AcDbEntity
  8
PV
  6
Continuous
 62
     7
100
AcDbLine
 10
-27.101
 20
-7.298999999999999
 30
0.0
 11
-27.094
 21
-7.337
 31
0.0
  0
LINE
  5
46A
330
A
100
AcDbEntity
  8
PV
  6
Continuous
 62
     7
100
AcDbLine
 10
-27.108
 20
-7.262
 30
0.0
 11
-27.101
 21
-7.298999999999999
 31
0.0
  0
LINE
  5
46B
330
A
100
AcDbEntity
  8
PV
  6
Continuous
 62
     7
100
AcDbLine
 10
-27.114
 20
-7.224
 30
0.0
 11
-27.108
 21
-7.262
 31
0.0
  0
LINE
  5
46C
330
A
100
AcDbEntity
  8
PV
  6
Continuous
 62
     7
100
AcDbLine
 10
-27.12099999999999
 20
-7.185999999999999
 30
0.0
 11
-27.114
 21
-7.224
 31
0.0
  0
LINE
  5
46D
330
A
100
AcDbEntity
  8
PV
  6
Continuous
 62
     7
100
AcDbLine
 10
-27.12699999999999
 20
-7.147999999999999
 30
0.0
 11
-27.12099999999999
 21
-7.185999999999999
 31
0.0
  0
LINE
  5
46E
330
A
100
AcDbEntity
  8
PV
  6
Continuous
 62
     7
100
AcDbLine
 10
-27.133
 20
-7.11
 30
0.0
 11
-27.12699999999999
 21
-7.147999999999999
 31
0.0
  0
LINE
  5
46F
330
A
100
AcDbEntity
  8
PV
  6
Continuous
 62
     7
100
AcDbLine
 10
-27.139
 20
-7.072
 30
0.0
 11
-27.133
 21
-7.11
 31
0.0
  0
LINE
  5
470
330
A
100
AcDbEntity
  8
PV
  6
Continuous
 62
     7
100
AcDbLine
 10
-27.144
 20
-7.033999999999999
 30
0.0
 11
-27.139
 21
-7.072
 31
0.0
  0
LINE
  5
471
330
A
100
AcDbEntity
  8
PV
  6
Continuous
 62
     7
100
AcDbLine
 10
-27.14999999999999
 20
-6.996
 30
0.0
 11
-27.144
 21
-7.033999999999999
 31
0.0
  0
LINE
  5
472
330
A
100
AcDbEntity
  8
PV
  6
Continuous
 62
     7
100
AcDbLine
 10
-27.156
 20
-6.957
 30
0.0
 11
-27.14999999999999
 21
-6.996
 31
0.0
  0
LINE
  5
473
330
A
100
AcDbEntity
  8
PV
  6
Continuous
 62
     7
100
AcDbLine
 10
-27.16099999999999
 20
-6.918999999999999
 30
0.0
 11
-27.156
 21
-6.957
 31
0.0
  0
LINE
  5
474
330
A
100
AcDbEntity
  8
PV
  6
Continuous
 62
     7
100
AcDbLine
 10
-27.166
 20
-6.881
 30
0.0
 11
-27.16099999999999
 21
-6.918999999999999
 31
0.0
  0
LINE
  5
475
330
A
100
AcDbEntity
  8
PV
  6
Continuous
 62
     7
100
AcDbLine
 10
-27.171
 20
-6.842999999999999
 30
0.0
 11
-27.166
 21
-6.881
 31
0.0
  0
LINE
  5
476
330
A
100
AcDbEntity
  8
PV
  6
Continuous
 62
     7
100
AcDbLine
 10
-27.176
 20
-6.804999999999999
 30
0.0
 11
-27.171
 21
-6.842999999999999
 31
0.0
  0
LINE
  5
477
330
A
100
AcDbEntity
  8
PV
  6
Continuous
 62
     7
100
AcDbLine
 10
-27.17999999999999
 20
-6.767
 30
0.0
 11
-27.176
 21
-6.804999999999999
 31
0.0
  0
LINE
  5
478
330
A
100
AcDbEntity
  8
PV
  6
Continuous
 62
     7
100
AcDbLine
 10
-27.185
 20
-6.727999999999999
 30
0.0
 11
-27.17999999999999
 21
-6.767
 31
0.0
  0
LINE
  5
479
330
A
100
AcDbEntity
  8
PV
  6
Continuous
 62
     7
100
AcDbLine
 10
-27.189
 20
-6.69
 30
0.0
 11
-27.185
 21
-6.727999999999999
 31
0.0
  0
LINE
  5
47A
330
A
100
AcDbEntity
  8
PV
  6
Continuous
 62
     7
100
AcDbLine
 10
-27.194
 20
-6.652
 30
0.0
 11
-27.189
 21
-6.69
 31
0.0
  0
LINE
  5
47B
330
A
100
AcDbEntity
  8
PV
  6
Continuous
 62
     7
100
AcDbLine
 10
-27.198
 20
-6.613999999999999
 30
0.0
 11
-27.194
 21
-6.652
 31
0.0
  0
LINE
  5
47C
330
A
100
AcDbEntity
  8
PV
  6
Continuous
 62
     7
100
AcDbLine
 10
-27.202
 20
-6.575
 30
0.0
 11
-27.198
 21
-6.613999999999999
 31
0.0
  0
LINE
  5
47D
330
A
100
AcDbEntity
  8
PV
  6
Continuous
 62
     7
100
AcDbLine
 10
-27.206
 20
-6.537
 30
0.0
 11
-27.202
 21
-6.575
 31
0.0
  0
LINE
  5
47E
330
A
100
AcDbEntity
  8
PV
  6
Continuous
 62
     7
100
AcDbLine
 10
-27.209
 20
-6.498999999999999
 30
0.0
 11
-27.206
 21
-6.537
 31
0.0
  0
LINE
  5
47F
330
A
100
AcDbEntity
  8
PV
  6
Continuous
 62
     7
100
AcDbLine
 10
-27.213
 20
-6.461
 30
0.0
 11
-27.209
 21
-6.498999999999999
 31
0.0
  0
LINE
  5
480
330
A
100
AcDbEntity
  8
PV
  6
Continuous
 62
     7
100
AcDbLine
 10
-27.216
 20
-6.422
 30
0.0
 11
-27.213
 21
-6.461
 31
0.0
  0
LINE
  5
481
330
A
100
AcDbEntity
  8
PV
  6
Continuous
 62
     7
100
AcDbLine
 10
-27.219
 20
-6.383999999999999
 30
0.0
 11
-27.216
 21
-6.422
 31
0.0
  0
LINE
  5
482
330
A
100
AcDbEntity
  8
PV
  6
Continuous
 62
     7
100
AcDbLine
 10
-27.223
 20
-6.346
 30
0.0
 11
-27.219
 21
-6.383999999999999
 31
0.0
  0
LINE
  5
483
330
A
100
AcDbEntity
  8
PV
  6
Continuous
 62
     7
100
AcDbLine
 10
-27.225
 20
-6.307
 30
0.0
 11
-27.223
 21
-6.346
 31
0.0
  0
LINE
  5
484
330
A
100
AcDbEntity
  8
PV
  6
Continuous
 62
     7
100
AcDbLine
 10
-27.228
 20
-6.269
 30
0.0
 11
-27.225
 21
-6.307
 31
0.0
  0
LINE
  5
485
330
A
100
AcDbEntity
  8
PV
  6
Continuous
 62
     7
100
AcDbLine
 10
-27.231
 20
-6.23
 30
0.0
 11
-27.228
 21
-6.269
 31
0.0
  0
LINE
  5
486
330
A
100
AcDbEntity
  8
PV
  6
Continuous
 62
     7
100
AcDbLine
 10
-27.234
 20
-6.192
 30
0.0
 11
-27.231
 21
-6.23
 31
0.0
  0
LINE
  5
487
330
A
100
AcDbEntity
  8
PV
  6
Continuous
 62
     7
100
AcDbLine
 10
-27.236
 20
-6.153999999999999
 30
0.0
 11
-27.234
 21
-6.192
 31
0.0
  0
LINE
  5
488
330
A
100
AcDbEntity
  8
PV
  6
Continuous
 62
     7
100
AcDbLine
 10
-27.238
 20
-6.115
 30
0.0
 11
-27.236
 21
-6.153999999999999
 31
0.0
  0
LINE
  5
489
330
A
100
AcDbEntity
  8
PV
  6
Continuous
 62
     7
100
AcDbLine
 10
-27.24
 20
-6.077
 30
0.0
 11
-27.238
 21
-6.115
 31
0.0
  0
LINE
  5
48A
330
A
100
AcDbEntity
  8
PV
  6
Continuous
 62
     7
100
AcDbLine
 10
-27.24199999999999
 20
-6.037999999999999
 30
0.0
 11
-27.24
 21
-6.077
 31
0.0
  0
LINE
  5
48B
330
A
100
AcDbEntity
  8
PV
  6
Continuous
 62
     7
100
AcDbLine
 10
-27.244
 20
-6.0
 30
0.0
 11
-27.24199999999999
 21
-6.037999999999999
 31
0.0
  0
LINE
  5
48C
330
A
100
AcDbEntity
  8
PV
  6
Continuous
 62
     7
100
AcDbLine
 10
-27.246
 20
-5.961
 30
0.0
 11
-27.244
 21
-6.0
 31
0.0
  0
LINE
  5
48D
330
A
100
AcDbEntity
  8
PV
  6
Continuous
 62
     7
100
AcDbLine
 10
-27.248
 20
-5.922999999999999
 30
0.0
 11
-27.246
 21
-5.961
 31
0.0
  0
LINE
  5
48E
330
A
100
AcDbEntity
  8
PV
  6
Continuous
 62
     7
100
AcDbLine
 10
-27.249
 20
-5.884999999999999
 30
0.0
 11
-27.248
 21
-5.922999999999999
 31
0.0
  0
LINE
  5
48F
330
A
100
AcDbEntity
  8
PV
  6
Continuous
 62
     7
100
AcDbLine
 10
-27.25
 20
-5.846
 30
0.0
 11
-27.249
 21
-5.884999999999999
 31
0.0
  0
LINE
  5
490
330
A
100
AcDbEntity
  8
PV
  6
Continuous
 62
     7
100
AcDbLine
 10
-27.25099999999999
 20
-5.807999999999999
 30
0.0
 11
-27.25
 21
-5.846
 31
0.0
  0
LINE
  5
491
330
A
100
AcDbEntity
  8
PV
  6
Continuous
 62
     7
100
AcDbLine
 10
-27.252
 20
-5.769
 30
0.0
 11
-27.25099999999999
 21
-5.807999999999999
 31
0.0
  0
LINE
  5
492
330
A
100
AcDbEntity
  8
PV
  6
Continuous
 62
     7
100
AcDbLine
 10
-27.253
 20
-5.730999999999999
 30
0.0
 11
-27.252
 21
-5.769
 31
0.0
  0
LINE
  5
493
330
A
100
AcDbEntity
  8
PV
  6
Continuous
 62
     7
100
AcDbLine
 10
-27.254
 20
-5.692
 30
0.0
 11
-27.253
 21
-5.730999999999999
 31
0.0
  0
LINE
  5
494
330
A
100
AcDbEntity
  8
PV
  6
Continuous
 62
     7
100
AcDbLine
 10
-27.255
 20
-5.653999999999999
 30
0.0
 11
-27.254
 21
-5.692
 31
0.0
  0
LINE
  5
495
330
A
100
AcDbEntity
  8
PV
  6
Continuous
 62
     7
100
AcDbLine
 10
-27.255
 20
-5.615
 30
0.0
 11
-27.255
 21
-5.653999999999999
 31
0.0
  0
LINE
  5
496
330
A
100
AcDbEntity
  8
PV
  6
Continuous
 62
     7
100
AcDbLine
 10
-27.256
 20
-5.577
 30
0.0
 11
-27.255
 21
-5.615
 31
0.0
  0
LINE
  5
497
330
A
100
AcDbEntity
  8
PV
  6
Continuous
 62
     7
100
AcDbLine
 10
-27.256
 20
-5.537999999999999
 30
0.0
 11
-27.256
 21
-5.577
 31
0.0
  0
LINE
  5
498
330
A
100
AcDbEntity
  8
PV
  6
Continuous
 62
     7
100
AcDbLine
 10
-27.256
 20
-5.5
 30
0.0
 11
-27.256
 21
-5.537999999999999
 31
0.0
  0
LINE
  5
499
330
A
100
AcDbEntity
  8
PV
  6
Continuous
 62
     7
100
AcDbLine
 10
27.256
 20
-5.537999999999999
 30
0.0
 11
27.256
 21
-5.5
 31
0.0
  0
LINE
  5
49A
330
A
100
AcDbEntity
  8
PV
  6
Continuous
 62
     7
100
AcDbLine
 10
27.256
 20
-5.577
 30
0.0
 11
27.256
 21
-5.537999999999999
 31
0.0
  0
LINE
  5
49B
330
A
100
AcDbEntity
  8
PV
  6
Continuous
 62
     7
100
AcDbLine
 10
27.255
 20
-5.615
 30
0.0
 11
27.256
 21
-5.577
 31
0.0
  0
LINE
  5
49C
330
A
100
AcDbEntity
  8
PV
  6
Continuous
 62
     7
100
AcDbLine
 10
27.255
 20
-5.653999999999999
 30
0.0
 11
27.255
 21
-5.615
 31
0.0
  0
LINE
  5
49D
330
A
100
AcDbEntity
  8
PV
  6
Continuous
 62
     7
100
AcDbLine
 10
27.254
 20
-5.692
 30
0.0
 11
27.255
 21
-5.653999999999999
 31
0.0
  0
LINE
  5
49E
330
A
100
AcDbEntity
  8
PV
  6
Continuous
 62
     7
100
AcDbLine
 10
27.253
 20
-5.730999999999999
 30
0.0
 11
27.254
 21
-5.692
 31
0.0
  0
LINE
  5
49F
330
A
100
AcDbEntity
  8
PV
  6
Continuous
 62
     7
100
AcDbLine
 10
27.253
 20
-5.769
 30
0.0
 11
27.253
 21
-5.730999999999999
 31
0.0
  0
LINE
  5
4A0
330
A
100
AcDbEntity
  8
PV
  6
Continuous
 62
     7
100
AcDbLine
 10
27.25099999999999
 20
-5.807999999999999
 30
0.0
 11
27.253
 21
-5.769
 31
0.0
  0
LINE
  5
4A1
330
A
100
AcDbEntity
  8
PV
  6
Continuous
 62
     7
100
AcDbLine
 10
27.25
 20
-5.846
 30
0.0
 11
27.25099999999999
 21
-5.807999999999999
 31
0.0
  0
LINE
  5
4A2
330
A
100
AcDbEntity
  8
PV
  6
Continuous
 62
     7
100
AcDbLine
 10
27.249
 20
-5.884999999999999
 30
0.0
 11
27.25
 21
-5.846
 31
0.0
  0
LINE
  5
4A3
330
A
100
AcDbEntity
  8
PV
  6
Continuous
 62
     7
100
AcDbLine
 10
27.248
 20
-5.922999999999999
 30
0.0
 11
27.249
 21
-5.884999999999999
 31
0.0
  0
LINE
  5
4A4
330
A
100
AcDbEntity
  8
PV
  6
Continuous
 62
     7
100
AcDbLine
 10
27.246
 20
-5.961
 30
0.0
 11
27.248
 21
-5.922999999999999
 31
0.0
  0
LINE
  5
4A5
330
A
100
AcDbEntity
  8
PV
  6
Continuous
 62
     7
100
AcDbLine
 10
27.244
 20
-6.0
 30
0.0
 11
27.246
 21
-5.961
 31
0.0
  0
LINE
  5
4A6
330
A
100
AcDbEntity
  8
PV
  6
Continuous
 62
     7
100
AcDbLine
 10
27.24199999999999
 20
-6.037999999999999
 30
0.0
 11
27.244
 21
-6.0
 31
0.0
  0
LINE
  5
4A7
330
A
100
AcDbEntity
  8
PV
  6
Continuous
 62
     7
100
AcDbLine
 10
27.24
 20
-6.077
 30
0.0
 11
27.24199999999999
 21
-6.037999999999999
 31
0.0
  0
LINE
  5
4A8
330
A
100
AcDbEntity
  8
PV
  6
Continuous
 62
     7
100
AcDbLine
 10
27.238
 20
-6.115
 30
0.0
 11
27.24
 21
-6.077
 31
0.0
  0
LINE
  5
4A9
330
A
100
AcDbEntity
  8
PV
  6
Continuous
 62
     7
100
AcDbLine
 10
27.236
 20
-6.153999999999999
 30
0.0
 11
27.238
 21
-6.115
 31
0.0
  0
LINE
  5
4AA
330
A
100
AcDbEntity
  8
PV
  6
Continuous
 62
     7
100
AcDbLine
 10
27.234
 20
-6.192
 30
0.0
 11
27.236
 21
-6.153999999999999
 31
0.0
  0
LINE
  5
4AB
330
A
100
AcDbEntity
  8
PV
  6
Continuous
 62
     7
100
AcDbLine
 10
27.231
 20
-6.23
 30
0.0
 11
27.234
 21
-6.192
 31
0.0
  0
LINE
  5
4AC
330
A
100
AcDbEntity
  8
PV
  6
Continuous
 62
     7
100
AcDbLine
 10
27.228
 20
-6.269
 30
0.0
 11
27.231
 21
-6.23
 31
0.0
  0
LINE
  5
4AD
330
A
100
AcDbEntity
  8
PV
  6
Continuous
 62
     7
100
AcDbLine
 10
27.22599999999999
 20
-6.307
 30
0.0
 11
27.228
 21
-6.269
 31
0.0
  0
LINE
  5
4AE
330
A
100
AcDbEntity
  8
PV
  6
Continuous
 62
     7
100
AcDbLine
 10
27.223
 20
-6.346
 30
0.0
 11
27.22599999999999
 21
-6.307
 31
0.0
  0
LINE
  5
4AF
330
A
100
AcDbEntity
  8
PV
  6
Continuous
 62
     7
100
AcDbLine
 10
27.219
 20
-6.383999999999999
 30
0.0
 11
27.223
 21
-6.346
 31
0.0
  0
LINE
  5
4B0
330
A
100
AcDbEntity
  8
PV
  6
Continuous
 62
     7
100
AcDbLine
 10
27.216
 20
-6.422
 30
0.0
 11
27.219
 21
-6.383999999999999
 31
0.0
  0
LINE
  5
4B1
330
A
100
AcDbEntity
  8
PV
  6
Continuous
 62
     7
100
AcDbLine
 10
27.213
 20
-6.461
 30
0.0
 11
27.216
 21
-6.422
 31
0.0
  0
LINE
  5
4B2
330
A
100
AcDbEntity
  8
PV
  6
Continuous
 62
     7
100
AcDbLine
 10
27.209
 20
-6.498999999999999
 30
0.0
 11
27.213
 21
-6.461
 31
0.0
  0
LINE
  5
4B3
330
A
100
AcDbEntity
  8
PV
  6
Continuous
 62
     7
100
AcDbLine
 10
27.206
 20
-6.537
 30
0.0
 11
27.209
 21
-6.498999999999999
 31
0.0
  0
LINE
  5
4B4
330
A
100
AcDbEntity
  8
PV
  6
Continuous
 62
     7
100
AcDbLine
 10
27.202
 20
-6.575
 30
0.0
 11
27.206
 21
-6.537
 31
0.0
  0
LINE
  5
4B5
330
A
100
AcDbEntity
  8
PV
  6
Continuous
 62
     7
100
AcDbLine
 10
27.198
 20
-6.613999999999999
 30
0.0
 11
27.202
 21
-6.575
 31
0.0
  0
LINE
  5
4B6
330
A
100
AcDbEntity
  8
PV
  6
Continuous
 62
     7
100
AcDbLine
 10
27.194
 20
-6.652
 30
0.0
 11
27.198
 21
-6.613999999999999
 31
0.0
  0
LINE
  5
4B7
330
A
100
AcDbEntity
  8
PV
  6
Continuous
 62
     7
100
AcDbLine
 10
27.189
 20
-6.69
 30
0.0
 11
27.194
 21
-6.652
 31
0.0
  0
LINE
  5
4B8
330
A
100
AcDbEntity
  8
PV
  6
Continuous
 62
     7
100
AcDbLine
 10
27.185
 20
-6.727999999999999
 30
0.0
 11
27.189
 21
-6.69
 31
0.0
  0
LINE
  5
4B9
330
A
100
AcDbEntity
  8
PV
  6
Continuous
 62
     7
100
AcDbLine
 10
27.17999999999999
 20
-6.767
 30
0.0
 11
27.185
 21
-6.727999999999999
 31
0.0
  0
LINE
  5
4BA
330
A
100
AcDbEntity
  8
PV
  6
Continuous
 62
     7
100
AcDbLine
 10
27.176
 20
-6.804999999999999
 30
0.0
 11
27.17999999999999
 21
-6.767
 31
0.0
  0
LINE
  5
4BB
330
A
100
AcDbEntity
  8
PV
  6
Continuous
 62
     7
100
AcDbLine
 10
27.171
 20
-6.842999999999999
 30
0.0
 11
27.176
 21
-6.804999999999999
 31
0.0
  0
LINE
  5
4BC
330
A
100
AcDbEntity
  8
PV
  6
Continuous
 62
     7
100
AcDbLine
 10
27.166
 20
-6.881
 30
0.0
 11
27.171
 21
-6.842999999999999
 31
0.0
  0
LINE
  5
4BD
330
A
100
AcDbEntity
  8
PV
  6
Continuous
 62
     7
100
AcDbLine
 10
27.16099999999999
 20
-6.918999999999999
 30
0.0
 11
27.166
 21
-6.881
 31
0.0
  0
LINE
  5
4BE
330
A
100
AcDbEntity
  8
PV
  6
Continuous
 62
     7
100
AcDbLine
 10
27.156
 20
-6.957
 30
0.0
 11
27.16099999999999
 21
-6.918999999999999
 31
0.0
  0
LINE
  5
4BF
330
A
100
AcDbEntity
  8
PV
  6
Continuous
 62
     7
100
AcDbLine
 10
27.14999999999999
 20
-6.996
 30
0.0
 11
27.156
 21
-6.957
 31
0.0
  0
LINE
  5
4C0
330
A
100
AcDbEntity
  8
PV
  6
Continuous
 62
     7
100
AcDbLine
 10
27.145
 20
-7.033999999999999
 30
0.0
 11
27.14999999999999
 21
-6.996
 31
0.0
  0
LINE
  5
4C1
330
A
100
AcDbEntity
  8
PV
  6
Continuous
 62
     7
100
AcDbLine
 10
27.139
 20
-7.072
 30
0.0
 11
27.145
 21
-7.033999999999999
 31
0.0
  0
LINE
  5
4C2
330
A
100
AcDbEntity
  8
PV
  6
Continuous
 62
     7
100
AcDbLine
 10
27.133
 20
-7.11
 30
0.0
 11
27.139
 21
-7.072
 31
0.0
  0
LINE
  5
4C3
330
A
100
AcDbEntity
  8
PV
  6
Continuous
 62
     7
100
AcDbLine
 10
27.12699999999999
 20
-7.147999999999999
 30
0.0
 11
27.133
 21
-7.11
 31
0.0
  0
LINE
  5
4C4
330
A
100
AcDbEntity
  8
PV
  6
Continuous
 62
     7
100
AcDbLine
 10
27.12099999999999
 20
-7.185999999999999
 30
0.0
 11
27.12699999999999
 21
-7.147999999999999
 31
0.0
  0
LINE
  5
4C5
330
A
100
AcDbEntity
  8
PV
  6
Continuous
 62
     7
100
AcDbLine
 10
27.114
 20
-7.224
 30
0.0
 11
27.12099999999999
 21
-7.185999999999999
 31
0.0
  0
LINE
  5
4C6
330
A
100
AcDbEntity
  8
PV
  6
Continuous
 62
     7
100
AcDbLine
 10
27.108
 20
-7.262
 30
0.0
 11
27.114
 21
-7.224
 31
0.0
  0
LINE
  5
4C7
330
A
100
AcDbEntity
  8
PV
  6
Continuous
 62
     7
100
AcDbLine
 10
27.101
 20
-7.298999999999999
 30
0.0
 11
27.108
 21
-7.262
 31
0.0
  0
LINE
  5
4C8
330
A
100
AcDbEntity
  8
PV
  6
Continuous
 62
     7
100
AcDbLine
 10
27.094
 20
-7.337
 30
0.0
 11
27.101
 21
-7.298999999999999
 31
0.0
  0
LINE
  5
4C9
330
A
100
AcDbEntity
  8
PV
  6
Continuous
 62
     7
100
AcDbLine
 10
27.087
 20
-7.375
 30
0.0
 11
27.094
 21
-7.337
 31
0.0
  0
LINE
  5
4CA
330
A
100
AcDbEntity
  8
PV
  6
Continuous
 62
     7
100
AcDbLine
 10
27.08
 20
-7.412999999999999
 30
0.0
 11
27.087
 21
-7.375
 31
0.0
  0
LINE
  5
4CB
330
A
100
AcDbEntity
  8
PV
  6
Continuous
 62
     7
100
AcDbLine
 10
27.073
 20
-7.451
 30
0.0
 11
27.08
 21
-7.412999999999999
 31
0.0
  0
LINE
  5
4CC
330
A
100
AcDbEntity
  8
PV
  6
Continuous
 62
     7
100
AcDbLine
 10
27.065
 20
-7.487999999999999
 30
0.0
 11
27.073
 21
-7.451
 31
0.0
  0
LINE
  5
4CD
330
A
100
AcDbEntity
  8
PV
  6
Continuous
 62
     7
100
AcDbLine
 10
27.058
 20
-7.525999999999999
 30
0.0
 11
27.065
 21
-7.487999999999999
 31
0.0
  0
LINE
  5
4CE
330
A
100
AcDbEntity
  8
PV
  6
Continuous
 62
     7
100
AcDbLine
 10
27.05
 20
-7.564
 30
0.0
 11
27.058
 21
-7.525999999999999
 31
0.0
  0
LINE
  5
4CF
330
A
100
AcDbEntity
  8
PV
  6
Continuous
 62
     7
100
AcDbLine
 10
27.042
 20
-7.602
 30
0.0
 11
27.05
 21
-7.564
 31
0.0
  0
LINE
  5
4D0
330
A
100
AcDbEntity
  8
PV
  6
Continuous
 62
     7
100
AcDbLine
 10
27.034
 20
-7.638999999999999
 30
0.0
 11
27.042
 21
-7.602
 31
0.0
  0
LINE
  5
4D1
330
A
100
AcDbEntity
  8
PV
  6
Continuous
 62
     7
100
AcDbLine
 10
27.026
 20
-7.677
 30
0.0
 11
27.034
 21
-7.638999999999999
 31
0.0
  0
LINE
  5
4D2
330
A
100
AcDbEntity
  8
PV
  6
Continuous
 62
     7
100
AcDbLine
 10
27.017
 20
-7.713999999999999
 30
0.0
 11
27.026
 21
-7.677
 31
0.0
  0
LINE
  5
4D3
330
A
100
AcDbEntity
  8
PV
  6
Continuous
 62
     7
100
AcDbLine
 10
27.009
 20
-7.752
 30
0.0
 11
27.017
 21
-7.713999999999999
 31
0.0
  0
LINE
  5
4D4
330
A
100
AcDbEntity
  8
PV
  6
Continuous
 62
     7
100
AcDbLine
 10
27.0
 20
-7.788999999999999
 30
0.0
 11
27.009
 21
-7.752
 31
0.0
  0
LINE
  5
4D5
330
A
100
AcDbEntity
  8
PV
  6
Continuous
 62
     7
100
AcDbLine
 10
26.991
 20
-7.827
 30
0.0
 11
27.0
 21
-7.788999999999999
 31
0.0
  0
LINE
  5
4D6
330
A
100
AcDbEntity
  8
PV
  6
Continuous
 62
     7
100
AcDbLine
 10
26.98199999999999
 20
-7.863999999999999
 30
0.0
 11
26.991
 21
-7.827
 31
0.0
  0
LINE
  5
4D7
330
A
100
AcDbEntity
  8
PV
  6
Continuous
 62
     7
100
AcDbLine
 10
26.973
 20
-7.900999999999999
 30
0.0
 11
26.98199999999999
 21
-7.863999999999999
 31
0.0
  0
LINE
  5
4D8
330
A
100
AcDbEntity
  8
PV
  6
Continuous
 62
     7
100
AcDbLine
 10
26.963
 20
-7.939
 30
0.0
 11
26.973
 21
-7.900999999999999
 31
0.0
  0
LINE
  5
4D9
330
A
100
AcDbEntity
  8
PV
  6
Continuous
 62
     7
100
AcDbLine
 10
26.954
 20
-7.975999999999999
 30
0.0
 11
26.963
 21
-7.939
 31
0.0
  0
LINE
  5
4DA
330
A
100
AcDbEntity
  8
PV
  6
Continuous
 62
     7
100
AcDbLine
 10
26.944
 20
-8.012999999999999
 30
0.0
 11
26.954
 21
-7.975999999999999
 31
0.0
  0
LINE
  5
4DB
330
A
100
AcDbEntity
  8
PV
  6
Continuous
 62
     7
100
AcDbLine
 10
26.934
 20
-8.05
 30
0.0
 11
26.944
 21
-8.012999999999999
 31
0.0
  0
LINE
  5
4DC
330
A
100
AcDbEntity
  8
PV
  6
Continuous
 62
     7
100
AcDbLine
 10
26.924
 20
-8.086999999999999
 30
0.0
 11
26.934
 21
-8.05
 31
0.0
  0
LINE
  5
4DD
330
A
100
AcDbEntity
  8
PV
  6
Continuous
 62
     7
100
AcDbLine
 10
26.913
 20
-8.125
 30
0.0
 11
26.924
 21
-8.086999999999999
 31
0.0
  0
LINE
  5
4DE
330
A
100
AcDbEntity
  8
PV
  6
Continuous
 62
     7
100
AcDbLine
 10
26.903
 20
-8.162
 30
0.0
 11
26.913
 21
-8.125
 31
0.0
  0
LINE
  5
4DF
330
A
100
AcDbEntity
  8
PV
  6
Continuous
 62
     7
100
AcDbLine
 10
26.892
 20
-8.198
 30
0.0
 11
26.903
 21
-8.162
 31
0.0
  0
LINE
  5
4E0
330
A
100
AcDbEntity
  8
PV
  6
Continuous
 62
     7
100
AcDbLine
 10
26.881
 20
-8.234999999999999
 30
0.0
 11
26.892
 21
-8.198
 31
0.0
  0
LINE
  5
4E1
330
A
100
AcDbEntity
  8
PV
  6
Continuous
 62
     7
100
AcDbLine
 10
26.87
 20
-8.272
 30
0.0
 11
26.881
 21
-8.234999999999999
 31
0.0
  0
LINE
  5
4E2
330
A
100
AcDbEntity
  8
PV
  6
Continuous
 62
     7
100
AcDbLine
 10
26.859
 20
-8.308999999999999
 30
0.0
 11
26.87
 21
-8.272
 31
0.0
  0
LINE
  5
4E3
330
A
100
AcDbEntity
  8
PV
  6
Continuous
 62
     7
100
AcDbLine
 10
26.84699999999999
 20
-8.346
 30
0.0
 11
26.859
 21
-8.308999999999999
 31
0.0
  0
LINE
  5
4E4
330
A
100
AcDbEntity
  8
PV
  6
Continuous
 62
     7
100
AcDbLine
 10
26.835
 20
-8.381999999999999
 30
0.0
 11
26.84699999999999
 21
-8.346
 31
0.0
  0
LINE
  5
4E5
330
A
100
AcDbEntity
  8
PV
  6
Continuous
 62
     7
100
AcDbLine
 10
26.823
 20
-8.419
 30
0.0
 11
26.835
 21
-8.381999999999999
 31
0.0
  0
LINE
  5
4E6
330
A
100
AcDbEntity
  8
PV
  6
Continuous
 62
     7
100
AcDbLine
 10
26.811
 20
-8.455
 30
0.0
 11
26.823
 21
-8.419
 31
0.0
  0
LINE
  5
4E7
330
A
100
AcDbEntity
  8
PV
  6
Continuous
 62
     7
100
AcDbLine
 10
26.79899999999999
 20
-8.492
 30
0.0
 11
26.811
 21
-8.455
 31
0.0
  0
LINE
  5
4E8
330
A
100
AcDbEntity
  8
PV
  6
Continuous
 62
     7
100
AcDbLine
 10
26.787
 20
-8.527999999999998
 30
0.0
 11
26.79899999999999
 21
-8.492
 31
0.0
  0
LINE
  5
4E9
330
A
100
AcDbEntity
  8
PV
  6
Continuous
 62
     7
100
AcDbLine
 10
26.774
 20
-8.564999999999999
 30
0.0
 11
26.787
 21
-8.527999999999998
 31
0.0
  0
LINE
  5
4EA
330
A
100
AcDbEntity
  8
PV
  6
Continuous
 62
     7
100
AcDbLine
 10
26.76099999999999
 20
-8.601
 30
0.0
 11
26.774
 21
-8.564999999999999
 31
0.0
  0
LINE
  5
4EB
330
A
100
AcDbEntity
  8
PV
  6
Continuous
 62
     7
100
AcDbLine
 10
26.748
 20
-8.637
 30
0.0
 11
26.76099999999999
 21
-8.601
 31
0.0
  0
LINE
  5
4EC
330
A
100
AcDbEntity
  8
PV
  6
Continuous
 62
     7
100
AcDbLine
 10
26.734
 20
-8.673
 30
0.0
 11
26.748
 21
-8.637
 31
0.0
  0
LINE
  5
4ED
330
A
100
AcDbEntity
  8
PV
  6
Continuous
 62
     7
100
AcDbLine
 10
26.721
 20
-8.708999999999999
 30
0.0
 11
26.734
 21
-8.673
 31
0.0
  0
LINE
  5
4EE
330
A
100
AcDbEntity
  8
PV
  6
Continuous
 62
     7
100
AcDbLine
 10
26.707
 20
-8.744999999999999
 30
0.0
 11
26.721
 21
-8.708999999999999
 31
0.0
  0
LINE
  5
4EF
330
A
100
AcDbEntity
  8
PV
  6
Continuous
 62
     7
100
AcDbLine
 10
26.693
 20
-8.781
 30
0.0
 11
26.707
 21
-8.744999999999999
 31
0.0
  0
LINE
  5
4F0
330
A
100
AcDbEntity
  8
PV
  6
Continuous
 62
     7
100
AcDbLine
 10
26.679
 20
-8.817
 30
0.0
 11
26.693
 21
-8.781
 31
0.0
  0
LINE
  5
4F1
330
A
100
AcDbEntity
  8
PV
  6
Continuous
 62
     7
100
AcDbLine
 10
26.664
 20
-8.852
 30
0.0
 11
26.679
 21
-8.817
 31
0.0
  0
LINE
  5
4F2
330
A
100
AcDbEntity
  8
PV
  6
Continuous
 62
     7
100
AcDbLine
 10
26.649
 20
-8.887999999999999
 30
0.0
 11
26.664
 21
-8.852
 31
0.0
  0
LINE
  5
4F3
330
A
100
AcDbEntity
  8
PV
  6
Continuous
 62
     7
100
AcDbLine
 10
26.634
 20
-8.923
 30
0.0
 11
26.649
 21
-8.887999999999999
 31
0.0
  0
LINE
  5
4F4
330
A
100
AcDbEntity
  8
PV
  6
Continuous
 62
     7
100
AcDbLine
 10
26.619
 20
-8.958999999999999
 30
0.0
 11
26.634
 21
-8.923
 31
0.0
  0
LINE
  5
4F5
330
A
100
AcDbEntity
  8
PV
  6
Continuous
 62
     7
100
AcDbLine
 10
26.604
 20
-8.993999999999999
 30
0.0
 11
26.619
 21
-8.958999999999999
 31
0.0
  0
LINE
  5
4F6
330
A
100
AcDbEntity
  8
PV
  6
Continuous
 62
     7
100
AcDbLine
 10
26.588
 20
-9.028999999999999
 30
0.0
 11
26.604
 21
-8.993999999999999
 31
0.0
  0
LINE
  5
4F7
330
A
100
AcDbEntity
  8
PV
  6
Continuous
 62
     7
100
AcDbLine
 10
26.572
 20
-9.064
 30
0.0
 11
26.588
 21
-9.028999999999999
 31
0.0
  0
LINE
  5
4F8
330
A
100
AcDbEntity
  8
PV
  6
Continuous
 62
     7
100
AcDbLine
 10
26.55599999999999
 20
-9.099
 30
0.0
 11
26.572
 21
-9.064
 31
0.0
  0
LINE
  5
4F9
330
A
100
AcDbEntity
  8
PV
  6
Continuous
 62
     7
100
AcDbLine
 10
26.539
 20
-9.134
 30
0.0
 11
26.55599999999999
 21
-9.099
 31
0.0
  0
LINE
  5
4FA
330
A
100
AcDbEntity
  8
PV
  6
Continuous
 62
     7
100
AcDbLine
 10
26.522
 20
-9.167999999999999
 30
0.0
 11
26.539
 21
-9.134
 31
0.0
  0
LINE
  5
4FB
330
A
100
AcDbEntity
  8
PV
  6
Continuous
 62
     7
100
AcDbLine
 10
26.505
 20
-9.202999999999999
 30
0.0
 11
26.522
 21
-9.167999999999999
 31
0.0
  0
LINE
  5
4FC
330
A
100
AcDbEntity
  8
PV
  6
Continuous
 62
     7
100
AcDbLine
 10
26.488
 20
-9.237
 30
0.0
 11
26.505
 21
-9.202999999999999
 31
0.0
  0
LINE
  5
4FD
330
A
100
AcDbEntity
  8
PV
  6
Continuous
 62
     7
100
AcDbLine
 10
26.47
 20
-9.272
 30
0.0
 11
26.488
 21
-9.237
 31
0.0
  0
LINE
  5
4FE
330
A
100
AcDbEntity
  8
PV
  6
Continuous
 62
     7
100
AcDbLine
 10
26.453
 20
-9.306
 30
0.0
 11
26.47
 21
-9.272
 31
0.0
  0
LINE
  5
4FF
330
A
100
AcDbEntity
  8
PV
  6
Continuous
 62
     7
100
AcDbLine
 10
26.434
 20
-9.339999999999999
 30
0.0
 11
26.453
 21
-9.306
 31
0.0
  0
LINE
  5
500
330
A
100
AcDbEntity
  8
PV
  6
Continuous
 62
     7
100
AcDbLine
 10
26.416
 20
-9.374
 30
0.0
 11
26.434
 21
-9.339999999999999
 31
0.0
  0
LINE
  5
501
330
A
100
AcDbEntity
  8
PV
  6
Continuous
 62
     7
100
AcDbLine
 10
26.39699999999999
 20
-9.407
 30
0.0
 11
26.416
 21
-9.374
 31
0.0
  0
LINE
  5
502
330
A
100
AcDbEntity
  8
PV
  6
Continuous
 62
     7
100
AcDbLine
 10
26.378
 20
-9.441
 30
0.0
 11
26.39699999999999
 21
-9.407
 31
0.0
  0
LINE
  5
503
330
A
100
AcDbEntity
  8
PV
  6
Continuous
 62
     7
100
AcDbLine
 10
26.358
 20
-9.474
 30
0.0
 11
26.378
 21
-9.441
 31
0.0
  0
LINE
  5
504
330
A
100
AcDbEntity
  8
PV
  6
Continuous
 62
     7
100
AcDbLine
 10
26.339
 20
-9.506999999999999
 30
0.0
 11
26.358
 21
-9.474
 31
0.0
  0
LINE
  5
505
330
A
100
AcDbEntity
  8
PV
  6
Continuous
 62
     7
100
AcDbLine
 10
26.318
 20
-9.539999999999999
 30
0.0
 11
26.339
 21
-9.506999999999999
 31
0.0
  0
LINE
  5
506
330
A
100
AcDbEntity
  8
PV
  6
Continuous
 62
     7
100
AcDbLine
 10
26.298
 20
-9.572
 30
0.0
 11
26.318
 21
-9.539999999999999
 31
0.0
  0
LINE
  5
507
330
A
100
AcDbEntity
  8
PV
  6
Continuous
 62
     7
100
AcDbLine
 10
26.27699999999999
 20
-9.605
 30
0.0
 11
26.298
 21
-9.572
 31
0.0
  0
LINE
  5
508
330
A
100
AcDbEntity
  8
PV
  6
Continuous
 62
     7
100
AcDbLine
 10
26.256
 20
-9.637
 30
0.0
 11
26.27699999999999
 21
-9.605
 31
0.0
  0
LINE
  5
509
330
A
100
AcDbEntity
  8
PV
  6
Continuous
 62
     7
100
AcDbLine
 10
26.234
 20
-9.669
 30
0.0
 11
26.256
 21
-9.637
 31
0.0
  0
LINE
  5
50A
330
A
100
AcDbEntity
  8
PV
  6
Continuous
 62
     7
100
AcDbLine
 10
26.21199999999999
 20
-9.699999999999999
 30
0.0
 11
26.234
 21
-9.669
 31
0.0
  0
LINE
  5
50B
330
A
100
AcDbEntity
  8
PV
  6
Continuous
 62
     7
100
AcDbLine
 10
26.19
 20
-9.732000000000001
 30
0.0
 11
26.21199999999999
 21
-9.699999999999999
 31
0.0
  0
LINE
  5
50C
330
A
100
AcDbEntity
  8
PV
  6
Continuous
 62
     7
100
AcDbLine
 10
26.16699999999999
 20
-9.762999999999999
 30
0.0
 11
26.19
 21
-9.732000000000001
 31
0.0
  0
LINE
  5
50D
330
A
100
AcDbEntity
  8
PV
  6
Continuous
 62
     7
100
AcDbLine
 10
26.144
 20
-9.792999999999999
 30
0.0
 11
26.16699999999999
 21
-9.762999999999999
 31
0.0
  0
LINE
  5
50E
330
A
100
AcDbEntity
  8
PV
  6
Continuous
 62
     7
100
AcDbLine
 10
26.12
 20
-9.823999999999999
 30
0.0
 11
26.144
 21
-9.792999999999999
 31
0.0
  0
LINE
  5
50F
330
A
100
AcDbEntity
  8
PV
  6
Continuous
 62
     7
100
AcDbLine
 10
26.096
 20
-9.853999999999999
 30
0.0
 11
26.12
 21
-9.823999999999999
 31
0.0
  0
LINE
  5
510
330
A
100
AcDbEntity
  8
PV
  6
Continuous
 62
     7
100
AcDbLine
 10
26.072
 20
-9.882999999999999
 30
0.0
 11
26.096
 21
-9.853999999999999
 31
0.0
  0
LINE
  5
511
330
A
100
AcDbEntity
  8
PV
  6
Continuous
 62
     7
100
AcDbLine
 10
59.80399999999999
 20
-29.0
 30
0.0
 11
59.80399999999999
 21
9.5
 31
0.0
  0
LINE
  5
512
330
A
100
AcDbEntity
  8
PV
  6
Continuous
 62
     7
100
AcDbLine
 10
59.80399999999999
 20
9.5
 30
0.0
 11
59.80399999999999
 21
6.73
 31
0.0
  0
LINE
  5
513
330
A
100
AcDbEntity
  8
PV
  6
Continuous
 62
     7
100
AcDbLine
 10
59.80399999999999
 20
9.5
 30
0.0
 11
60.546
 21
6.73
 31
0.0
  0
LINE
  5
514
330
A
100
AcDbEntity
  8
PV
  6
Continuous
 62
     7
100
AcDbLine
 10
59.062
 20
6.73
 30
0.0
 11
59.80399999999999
 21
9.5
 31
0.0
  0
LINE
  5
515
330
A
100
AcDbEntity
  8
PV
  6
Continuous
 62
     7
100
AcDbLine
 10
59.80399999999999
 20
-29.0
 30
0.0
 11
59.80399999999999
 21
-26.23
 31
0.0
  0
LINE
  5
516
330
A
100
AcDbEntity
  8
PV
  6
Continuous
 62
     7
100
AcDbLine
 10
59.80399999999999
 20
-29.0
 30
0.0
 11
59.062
 21
-26.23
 31
0.0
  0
LINE
  5
517
330
A
100
AcDbEntity
  8
PV
  6
Continuous
 62
     7
100
AcDbLine
 10
60.546
 20
-26.23
 30
0.0
 11
59.80399999999999
 21
-29.0
 31
0.0
  0
LINE
  5
518
330
A
100
AcDbEntity
  8
PV
  6
Continuous
 62
     7
100
AcDbLine
 10
32.54
 20
-16.5
 30
0.0
 11
46.726
 21
-16.5
 31
0.0
  0
LINE
  5
519
330
A
100
AcDbEntity
  8
PV
  6
Continuous
 62
     7
100
AcDbLine
 10
44.43999999999999
 20
9.5
 30
0.0
 11
44.43999999999999
 21
-16.5
 31
0.0
  0
LINE
  5
51A
330
A
100
AcDbEntity
  8
PV
  6
Continuous
 62
     7
100
AcDbLine
 10
44.43999999999999
 20
-16.5
 30
0.0
 11
44.43999999999999
 21
-13.73
 31
0.0
  0
LINE
  5
51B
330
A
100
AcDbEntity
  8
PV
  6
Continuous
 62
     7
100
AcDbLine
 10
44.43999999999999
 20
-16.5
 30
0.0
 11
43.698
 21
-13.73
 31
0.0
  0
LINE
  5
51C
330
A
100
AcDbEntity
  8
PV
  6
Continuous
 62
     7
100
AcDbLine
 10
45.18199999999999
 20
-13.73
 30
0.0
 11
44.43999999999999
 21
-16.5
 31
0.0
  0
LINE
  5
51D
330
A
100
AcDbEntity
  8
PV
  6
Continuous
 62
     7
100
AcDbLine
 10
44.43999999999999
 20
9.5
 30
0.0
 11
44.43999999999999
 21
6.73
 31
0.0
  0
LINE
  5
51E
330
A
100
AcDbEntity
  8
PV
  6
Continuous
 62
     7
100
AcDbLine
 10
44.43999999999999
 20
9.5
 30
0.0
 11
45.18199999999999
 21
6.73
 31
0.0
  0
LINE
  5
51F
330
A
100
AcDbEntity
  8
PV
  6
Continuous
 62
     7
100
AcDbLine
 10
43.698
 20
6.73
 30
0.0
 11
44.43999999999999
 21
9.5
 31
0.0
  0
LINE
  5
520
330
A
100
AcDbEntity
  8
PV
  6
Continuous
 62
     7
100
AcDbLine
 10
30.0
 20
-13.96
 30
0.0
 11
30.0
 21
34.89199999999999
 31
0.0
  0
LINE
  5
521
330
A
100
AcDbEntity
  8
PV
  6
Continuous
 62
     7
100
AcDbLine
 10
-30.0
 20
-13.96
 30
0.0
 11
-30.0
 21
34.89199999999999
 31
0.0
  0
LINE
  5
522
330
A
100
AcDbEntity
  8
PV
  6
Continuous
 62
     7
100
AcDbLine
 10
-30.0
 20
32.606
 30
0.0
 11
30.0
 21
32.606
 31
0.0
  0
LINE
  5
523
330
A
100
AcDbEntity
  8
PV
  6
Continuous
 62
     7
100
AcDbLine
 10
30.0
 20
32.606
 30
0.0
 11
27.23
 21
32.606
 31
0.0
  0
LINE
  5
524
330
A
100
AcDbEntity
  8
PV
  6
Continuous
 62
     7
100
AcDbLine
 10
30.0
 20
32.606
 30
0.0
 11
27.23
 21
31.864
 31
0.0
  0
LINE
  5
525
330
A
100
AcDbEntity
  8
PV
  6
Continuous
 62
     7
100
AcDbLine
 10
27.23
 20
33.34799999999999
 30
0.0
 11
30.0
 21
32.606
 31
0.0
  0
LINE
  5
526
330
A
100
AcDbEntity
  8
PV
  6
Continuous
 62
     7
100
AcDbLine
 10
-30.0
 20
32.606
 30
0.0
 11
-27.23
 21
32.606
 31
0.0
  0
LINE
  5
527
330
A
100
AcDbEntity
  8
PV
  6
Continuous
 62
     7
100
AcDbLine
 10
-30.0
 20
32.606
 30
0.0
 11
-27.23
 21
33.34799999999999
 31
0.0
  0
LINE
  5
528
330
A
100
AcDbEntity
  8
PV
  6
Continuous
 62
     7
100
AcDbLine
 10
-27.23
 20
31.864
 30
0.0
 11
-30.0
 21
32.606
 31
0.0
  0
LINE
  5
529
330
A
100
AcDbEntity
  8
PV
  6
Continuous
 62
     7
100
AcDbLine
 10
51.981
 20
-16.896
 30
0.0
 11
51.981
 21
44.237071
 31
0.0
  0
LINE
  5
52A
330
A
100
AcDbEntity
  8
PV
  6
Continuous
 62
     7
100
AcDbLine
 10
44.43999999999999
 20
-21.25
 30
0.0
 11
51.981
 21
-16.896
 31
0.0
  0
LINE
  5
52B
330
A
100
AcDbEntity
  8
PV
  6
Continuous
 62
     7
100
AcDbLine
 10
28.54
 20
-24.0
 30
0.0
 11
46.726
 21
-24.0
 31
0.0
  0
LINE
  5
52C
330
A
100
AcDbEntity
  8
PV
  6
Continuous
 62
     7
100
AcDbLine
 10
44.43999999999999
 20
-16.5
 30
0.0
 11
44.43999999999999
 21
-24.0
 31
0.0
  0
LINE
  5
52D
330
A
100
AcDbEntity
  8
PV
  6
Continuous
 62
     7
100
AcDbLine
 10
44.43999999999999
 20
-24.0
 30
0.0
 11
44.43999999999999
 21
-21.23
 31
0.0
  0
LINE
  5
52E
330
A
100
AcDbEntity
  8
PV
  6
Continuous
 62
     7
100
AcDbLine
 10
44.43999999999999
 20
-24.0
 30
0.0
 11
43.698
 21
-21.23
 31
0.0
  0
LINE
  5
52F
330
A
100
AcDbEntity
  8
PV
  6
Continuous
 62
     7
100
AcDbLine
 10
45.18199999999999
 20
-21.23
 30
0.0
 11
44.43999999999999
 21
-24.0
 31
0.0
  0
LINE
  5
530
330
A
100
AcDbEntity
  8
PV
  6
Continuous
 62
     7
100
AcDbLine
 10
44.43999999999999
 20
-16.5
 30
0.0
 11
44.43999999999999
 21
-19.26999999999999
 31
0.0
  0
LINE
  5
531
330
A
100
AcDbEntity
  8
PV
  6
Continuous
 62
     7
100
AcDbLine
 10
44.43999999999999
 20
-16.5
 30
0.0
 11
45.18199999999999
 21
-19.26999999999999
 31
0.0
  0
LINE
  5
532
330
A
100
AcDbEntity
  8
PV
  6
Continuous
 62
     7
100
AcDbLine
 10
43.698
 20
-19.26999999999999
 30
0.0
 11
44.43999999999999
 21
-16.5
 31
0.0
  0
LINE
  5
533
330
A
100
AcDbEntity
  8
PV
  6
Continuous
 62
     7
100
AcDbLine
 10
44.43999999999999
 20
-21.25
 30
0.0
 11
46.839
 21
-19.86499999999999
 31
0.0
  0
LINE
  5
534
330
A
100
AcDbEntity
  8
PV
  6
Continuous
 62
     7
100
AcDbLine
 10
44.43999999999999
 20
-21.25
 30
0.0
 11
46.468
 21
-19.222
 31
0.0
  0
LINE
  5
535
330
A
100
AcDbEntity
  8
PV
  6
Continuous
 62
     7
100
AcDbLine
 10
47.21
 20
-20.508
 30
0.0
 11
44.43999999999999
 21
-21.25
 31
0.0
  0
LINE
  5
536
330
A
100
AcDbEntity
  8
PV
  6
Continuous
 62
     7
100
AcDbLine
 10
38.0
 20
-112.012
 30
0.0
 11
-38.0
 21
-112.012
 31
0.0
  0
LINE
  5
537
330
A
100
AcDbEntity
  8
PV
  6
Continuous
 62
     7
100
AcDbLine
 10
-38.0
 20
-112.012
 30
0.0
 11
-35.22999999999999
 21
-112.012
 31
0.0
  0
LINE
  5
538
330
A
100
AcDbEntity
  8
PV
  6
Continuous
 62
     7
100
AcDbLine
 10
-38.0
 20
-112.012
 30
0.0
 11
-35.22999999999999
 21
-111.2689999999999
 31
0.0
  0
LINE
  5
539
330
A
100
AcDbEntity
  8
PV
  6
Continuous
 62
     7
100
AcDbLine
 10
-35.22999999999999
 20
-112.7539999999999
 30
0.0
 11
-38.0
 21
-112.012
 31
0.0
  0
LINE
  5
53A
330
A
100
AcDbEntity
  8
PV
  6
Continuous
 62
     7
100
AcDbLine
 10
38.0
 20
-112.012
 30
0.0
 11
35.22999999999999
 21
-112.012
 31
0.0
  0
LINE
  5
53B
330
A
100
AcDbEntity
  8
PV
  6
Continuous
 62
     7
100
AcDbLine
 10
38.0
 20
-112.012
 30
0.0
 11
35.22999999999999
 21
-112.7539999999999
 31
0.0
  0
LINE
  5
53C
330
A
100
AcDbEntity
  8
PV
  6
Continuous
 62
     7
100
AcDbLine
 10
35.22999999999999
 20
-111.2689999999999
 30
0.0
 11
38.0
 21
-112.012
 31
0.0
  0
LINE
  5
53D
330
A
100
AcDbEntity
  8
PV
  6
Continuous
 62
     7
100
AcDbLine
 10
36.39
 20
-158.4999999999999
 30
0.0
 11
62.09
 21
-158.4999999999999
 31
0.0
  0
LINE
  5
53E
330
A
100
AcDbEntity
  8
PV
  6
Continuous
 62
     7
100
AcDbLine
 10
42.03999999999999
 20
-29.0
 30
0.0
 11
62.09
 21
-29.0
 31
0.0
  0
LINE
  5
53F
330
A
100
AcDbEntity
  8
PV
  6
Continuous
 62
     7
100
AcDbLine
 10
59.80399999999999
 20
-29.0
 30
0.0
 11
59.80399999999999
 21
-158.4999999999999
 31
0.0
  0
LINE
  5
540
330
A
100
AcDbEntity
  8
PV
  6
Continuous
 62
     7
100
AcDbLine
 10
59.80399999999999
 20
-158.4999999999999
 30
0.0
 11
59.80399999999999
 21
-155.7299999999999
 31
0.0
  0
LINE
  5
541
330
A
100
AcDbEntity
  8
PV
  6
Continuous
 62
     7
100
AcDbLine
 10
59.80399999999999
 20
-158.4999999999999
 30
0.0
 11
59.062
 21
-155.7299999999999
 31
0.0
  0
LINE
  5
542
330
A
100
AcDbEntity
  8
PV
  6
Continuous
 62
     7
100
AcDbLine
 10
60.546
 20
-155.7299999999999
 30
0.0
 11
59.80399999999999
 21
-158.4999999999999
 31
0.0
  0
LINE
  5
543
330
A
100
AcDbEntity
  8
PV
  6
Continuous
 62
     7
100
AcDbLine
 10
59.80399999999999
 20
-29.0
 30
0.0
 11
59.80399999999999
 21
-31.77
 31
0.0
  0
LINE
  5
544
330
A
100
AcDbEntity
  8
PV
  6
Continuous
 62
     7
100
AcDbLine
 10
59.80399999999999
 20
-29.0
 30
0.0
 11
60.546
 21
-31.77
 31
0.0
  0
LINE
  5
545
330
A
100
AcDbEntity
  8
PV
  6
Continuous
 62
     7
100
AcDbLine
 10
59.062
 20
-31.77
 30
0.0
 11
59.80399999999999
 21
-29.0
 31
0.0
  0
LINE
  5
546
330
A
100
AcDbEntity
  8
PV
  6
Continuous
 62
     7
100
AcDbLine
 10
36.39
 20
-158.4999999999999
 30
0.0
 11
76.124
 21
-158.4999999999999
 31
0.0
  0
LINE
  5
547
330
A
100
AcDbEntity
  8
PV
  6
Continuous
 62
     7
100
AcDbLine
 10
28.04
 20
9.5
 30
0.0
 11
76.124
 21
9.5
 31
0.0
  0
LINE
  5
548
330
A
100
AcDbEntity
  8
PV
  6
Continuous
 62
     7
100
AcDbLine
 10
73.838
 20
9.5
 30
0.0
 11
73.838
 21
-158.4999999999999
 31
0.0
  0
LINE
  5
549
330
A
100
AcDbEntity
  8
PV
  6
Continuous
 62
     7
100
AcDbLine
 10
73.838
 20
-158.4999999999999
 30
0.0
 11
73.838
 21
-155.7299999999999
 31
0.0
  0
LINE
  5
54A
330
A
100
AcDbEntity
  8
PV
  6
Continuous
 62
     7
100
AcDbLine
 10
73.838
 20
-158.4999999999999
 30
0.0
 11
73.09499999999999
 21
-155.7299999999999
 31
0.0
  0
LINE
  5
54B
330
A
100
AcDbEntity
  8
PV
  6
Continuous
 62
     7
100
AcDbLine
 10
74.58
 20
-155.7299999999999
 30
0.0
 11
73.838
 21
-158.4999999999999
 31
0.0
  0
LINE
  5
54C
330
A
100
AcDbEntity
  8
PV
  6
Continuous
 62
     7
100
AcDbLine
 10
73.838
 20
9.5
 30
0.0
 11
73.838
 21
6.73
 31
0.0
  0
LINE
  5
54D
330
A
100
AcDbEntity
  8
PV
  6
Continuous
 62
     7
100
AcDbLine
 10
73.838
 20
9.5
 30
0.0
 11
74.58
 21
6.73
 31
0.0
  0
LINE
  5
54E
330
A
100
AcDbEntity
  8
PV
  6
Continuous
 62
     7
100
AcDbLine
 10
73.09499999999999
 20
6.73
 30
0.0
 11
73.838
 21
9.5
 31
0.0
  0
LINE
  5
54F
330
A
100
AcDbEntity
  8
PV
  6
Continuous
 62
     7
100
AcDbLine
 10
-88.73631899999999
 20
-88.49999999999999
 30
0.0
 11
-110.322
 21
-88.49999999999999
 31
0.0
  0
LINE
  5
550
330
A
100
AcDbEntity
  8
PV
  6
Continuous
 62
     7
100
AcDbLine
 10
-37.761003
 20
-158.4999999999999
 30
0.0
 11
-110.322
 21
-158.4999999999999
 31
0.0
  0
LINE
  5
551
330
A
100
AcDbEntity
  8
PV
  6
Continuous
 62
     7
100
AcDbLine
 10
-108.0359999999999
 20
-158.4999999999999
 30
0.0
 11
-108.0359999999999
 21
-88.49999999999999
 31
0.0
  0
LINE
  5
552
330
A
100
AcDbEntity
  8
PV
  6
Continuous
 62
     7
100
AcDbLine
 10
-108.0359999999999
 20
-88.49999999999999
 30
0.0
 11
-108.0359999999999
 21
-91.27
 31
0.0
  0
LINE
  5
553
330
A
100
AcDbEntity
  8
PV
  6
Continuous
 62
     7
100
AcDbLine
 10
-108.0359999999999
 20
-88.49999999999999
 30
0.0
 11
-107.294
 21
-91.27
 31
0.0
  0
LINE
  5
554
330
A
100
AcDbEntity
  8
PV
  6
Continuous
 62
     7
100
AcDbLine
 10
-108.7779999999999
 20
-91.27
 30
0.0
 11
-108.0359999999999
 21
-88.49999999999999
 31
0.0
  0
LINE
  5
555
330
A
100
AcDbEntity
  8
PV
  6
Continuous
 62
     7
100
AcDbLine
 10
-108.0359999999999
 20
-158.4999999999999
 30
0.0
 11
-108.0359999999999
 21
-155.7299999999999
 31
0.0
  0
LINE
  5
556
330
A
100
AcDbEntity
  8
PV
  6
Continuous
 62
     7
100
AcDbLine
 10
-108.0359999999999
 20
-158.4999999999999
 30
0.0
 11
-108.7779999999999
 21
-155.7299999999999
 31
0.0
  0
LINE
  5
557
330
A
100
AcDbEntity
  8
PV
  6
Continuous
 62
     7
100
AcDbLine
 10
-107.294
 20
-155.7299999999999
 30
0.0
 11
-108.0359999999999
 21
-158.4999999999999
 31
0.0
  0
LINE
  5
558
330
A
100
AcDbEntity
  8
PV
  6
Continuous
 62
     7
100
AcDbLine
 10
-71.73999999999999
 20
-53.85
 30
0.0
 11
-89.806
 21
-53.85
 31
0.0
  0
LINE
  5
559
330
A
100
AcDbEntity
  8
PV
  6
Continuous
 62
     7
100
AcDbLine
 10
-71.73999999999999
 20
-123.15
 30
0.0
 11
-89.806
 21
-123.15
 31
0.0
  0
LINE
  5
55A
330
A
100
AcDbEntity
  8
PV
  6
Continuous
 62
     7
100
AcDbLine
 10
-87.52
 20
-123.15
 30
0.0
 11
-87.52
 21
-53.85
 31
0.0
  0
LINE
  5
55B
330
A
100
AcDbEntity
  8
PV
  6
Continuous
 62
     7
100
AcDbLine
 10
-87.52
 20
-53.85
 30
0.0
 11
-87.52
 21
-56.61999999999999
 31
0.0
  0
LINE
  5
55C
330
A
100
AcDbEntity
  8
PV
  6
Continuous
 62
     7
100
AcDbLine
 10
-87.52
 20
-53.85
 30
0.0
 11
-86.77699999999999
 21
-56.61999999999999
 31
0.0
  0
LINE
  5
55D
330
A
100
AcDbEntity
  8
PV
  6
Continuous
 62
     7
100
AcDbLine
 10
-88.262
 20
-56.61999999999999
 30
0.0
 11
-87.52
 21
-53.85
 31
0.0
  0
LINE
  5
55E
330
A
100
AcDbEntity
  8
PV
  6
Continuous
 62
     7
100
AcDbLine
 10
-87.52
 20
-123.15
 30
0.0
 11
-87.52
 21
-120.3799999999999
 31
0.0
  0
LINE
  5
55F
330
A
100
AcDbEntity
  8
PV
  6
Continuous
 62
     7
100
AcDbLine
 10
-87.52
 20
-123.15
 30
0.0
 11
-88.262
 21
-120.3799999999999
 31
0.0
  0
LINE
  5
560
330
A
100
AcDbEntity
  8
PV
  6
Continuous
 62
     7
100
AcDbLine
 10
-86.77699999999999
 20
-120.3799999999999
 30
0.0
 11
-87.52
 21
-123.15
 31
0.0
  0
LINE
  5
561
330
A
100
AcDbEntity
  8
PV
  6
Continuous
 62
     7
100
AcDbLine
 10
34.64999999999999
 20
-159.3233429999999
 30
0.0
 11
34.64999999999999
 21
-183.237
 31
0.0
  0
LINE
  5
562
330
A
100
AcDbEntity
  8
PV
  6
Continuous
 62
     7
100
AcDbLine
 10
34.64999999999999
 20
-181.2369999999999
 30
0.0
 11
-34.64999999999999
 21
-181.2369999999999
 31
0.0
  0
LINE
  5
563
330
A
100
AcDbEntity
  8
PV
  6
Continuous
 62
     7
100
AcDbLine
 10
-34.64999999999999
 20
-181.2369999999999
 30
0.0
 11
-31.88
 21
-181.2369999999999
 31
0.0
  0
LINE
  5
564
330
A
100
AcDbEntity
  8
PV
  6
Continuous
 62
     7
100
AcDbLine
 10
-34.64999999999999
 20
-181.2369999999999
 30
0.0
 11
-31.88
 21
-180.495
 31
0.0
  0
LINE
  5
565
330
A
100
AcDbEntity
  8
PV
  6
Continuous
 62
     7
100
AcDbLine
 10
-31.88
 20
-181.979
 30
0.0
 11
-34.64999999999999
 21
-181.2369999999999
 31
0.0
  0
LINE
  5
566
330
A
100
AcDbEntity
  8
PV
  6
Continuous
 62
     7
100
AcDbLine
 10
34.64999999999999
 20
-181.2369999999999
 30
0.0
 11
31.88
 21
-181.2369999999999
 31
0.0
  0
LINE
  5
567
330
A
100
AcDbEntity
  8
PV
  6
Continuous
 62
     7
100
AcDbLine
 10
34.64999999999999
 20
-181.2369999999999
 30
0.0
 11
31.88
 21
-181.979
 31
0.0
  0
LINE
  5
568
330
A
100
AcDbEntity
  8
PV
  6
Continuous
 62
     7
100
AcDbLine
 10
31.88
 20
-180.495
 30
0.0
 11
34.64999999999999
 21
-181.2369999999999
 31
0.0
  0
MTEXT
  5
569
330
A
100
AcDbEntity
  8
PV
  6
Continuous
 62
     7
100
AcDbMText
 10
53.052333
 20
123.1479999999999
 30
0.0
 40
8.4
 41
0.0
 71
     2
 72
     1
  1
\A1;□81
 11
0.0
 21
1.0
 31
0.0
 73
     1
 44
1.0
  0
LINE
  5
56A
330
A
100
AcDbEntity
  8
PV
  6
Continuous
 62
     7
100
AcDbLine
 10
36.72699999999999
 20
82.506
 30
0.0
 11
64.80500000000001
 21
82.506
 31
0.0
  0
LINE
  5
56B
330
A
100
AcDbEntity
  8
PV
  6
Continuous
 62
     7
100
AcDbLine
 10
36.72699999999999
 20
163.506
 30
0.0
 11
64.80500000000001
 21
163.506
 31
0.0
  0
LINE
  5
56C
330
A
100
AcDbEntity
  8
PV
  6
Continuous
 62
     7
100
AcDbLine
 10
62.519
 20
163.506
 30
0.0
 11
62.519
 21
82.506
 31
0.0
  0
LINE
  5
56D
330
A
100
AcDbEntity
  8
PV
  6
Continuous
 62
     7
100
AcDbLine
 10
62.519
 20
82.506
 30
0.0
 11
62.519
 21
85.27600000000001
 31
0.0
  0
LINE
  5
56E
330
A
100
AcDbEntity
  8
PV
  6
Continuous
 62
     7
100
AcDbLine
 10
62.519
 20
82.506
 30
0.0
 11
61.776
 21
85.27600000000001
 31
0.0
  0
LINE
  5
56F
330
A
100
AcDbEntity
  8
PV
  6
Continuous
 62
     7
100
AcDbLine
 10
63.261
 20
85.27600000000001
 30
0.0
 11
62.519
 21
82.506
 31
0.0
  0
LINE
  5
570
330
A
100
AcDbEntity
  8
PV
  6
Continuous
 62
     7
100
AcDbLine
 10
62.519
 20
163.506
 30
0.0
 11
62.519
 21
160.7359999999999
 31
0.0
  0
LINE
  5
571
330
A
100
AcDbEntity
  8
PV
  6
Continuous
 62
     7
100
AcDbLine
 10
62.519
 20
163.506
 30
0.0
 11
63.261
 21
160.7359999999999
 31
0.0
  0
LINE
  5
572
330
A
100
AcDbEntity
  8
PV
  6
Continuous
 62
     7
100
AcDbLine
 10
61.776
 20
160.7359999999999
 30
0.0
 11
62.519
 21
163.506
 31
0.0
  0
MTEXT
  5
573
330
A
100
AcDbEntity
  8
PV
  6
Continuous
 62
     7
100
AcDbMText
 10
-14.75
 20
184.692667
 30
0.0
 40
8.4
 41
0.0
 71
     2
 72
     1
  1
\A1;110.5
 73
     1
 44
1.0
  0
LINE
  5
574
330
A
100
AcDbEntity
  8
PV
  6
Continuous
 62
     7
100
AcDbLine
 10
40.49999999999999
 20
175.2259999999999
 30
0.0
 11
37.72999999999999
 21
175.2259999999999
 31
0.0
  0
LINE
  5
575
330
A
100
AcDbEntity
  8
PV
  6
Continuous
 62
     7
100
AcDbLine
 10
-70.0
 20
175.2259999999999
 30
0.0
 11
-67.23
 21
175.2259999999999
 31
0.0
  0
LINE
  5
576
330
A
100
AcDbEntity
  8
PV
  6
Continuous
 62
     7
100
AcDbLine
 10
-26.096
 20
-9.853999999999999
 30
0.0
 11
-26.072
 21
-9.882999999999999
 31
0.0
  0
LINE
  5
577
330
A
100
AcDbEntity
  8
PV
  6
Continuous
 62
     7
100
AcDbLine
 10
-26.12
 20
-9.823999999999999
 30
0.0
 11
-26.096
 21
-9.853999999999999
 31
0.0
  0
LINE
  5
578
330
A
100
AcDbEntity
  8
PV
  6
Continuous
 62
     7
100
AcDbLine
 10
-26.144
 20
-9.792999999999999
 30
0.0
 11
-26.12
 21
-9.823999999999999
 31
0.0
  0
LINE
  5
579
330
A
100
AcDbEntity
  8
PV
  6
Continuous
 62
     7
100
AcDbLine
 10
-26.16699999999999
 20
-9.762999999999999
 30
0.0
 11
-26.144
 21
-9.792999999999999
 31
0.0
  0
LINE
  5
57A
330
A
100
AcDbEntity
  8
PV
  6
Continuous
 62
     7
100
AcDbLine
 10
-26.19
 20
-9.732000000000001
 30
0.0
 11
-26.16699999999999
 21
-9.762999999999999
 31
0.0
  0
LINE
  5
57B
330
A
100
AcDbEntity
  8
PV
  6
Continuous
 62
     7
100
AcDbLine
 10
-26.21199999999999
 20
-9.699999999999999
 30
0.0
 11
-26.19
 21
-9.732000000000001
 31
0.0
  0
LINE
  5
57C
330
A
100
AcDbEntity
  8
PV
  6
Continuous
 62
     7
100
AcDbLine
 10
-26.234
 20
-9.669
 30
0.0
 11
-26.21199999999999
 21
-9.699999999999999
 31
0.0
  0
LINE
  5
57D
330
A
100
AcDbEntity
  8
PV
  6
Continuous
 62
     7
100
AcDbLine
 10
-26.256
 20
-9.637
 30
0.0
 11
-26.234
 21
-9.669
 31
0.0
  0
LINE
  5
57E
330
A
100
AcDbEntity
  8
PV
  6
Continuous
 62
     7
100
AcDbLine
 10
-26.27699999999999
 20
-9.605
 30
0.0
 11
-26.256
 21
-9.637
 31
0.0
  0
LINE
  5
57F
330
A
100
AcDbEntity
  8
PV
  6
Continuous
 62
     7
100
AcDbLine
 10
-26.298
 20
-9.572
 30
0.0
 11
-26.27699999999999
 21
-9.605
 31
0.0
  0
LINE
  5
580
330
A
100
AcDbEntity
  8
PV
  6
Continuous
 62
     7
100
AcDbLine
 10
-26.318
 20
-9.539999999999999
 30
0.0
 11
-26.298
 21
-9.572
 31
0.0
  0
LINE
  5
581
330
A
100
AcDbEntity
  8
PV
  6
Continuous
 62
     7
100
AcDbLine
 10
-26.339
 20
-9.506999999999999
 30
0.0
 11
-26.318
 21
-9.539999999999999
 31
0.0
  0
LINE
  5
582
330
A
100
AcDbEntity
  8
PV
  6
Continuous
 62
     7
100
AcDbLine
 10
-26.358
 20
-9.474
 30
0.0
 11
-26.339
 21
-9.506999999999999
 31
0.0
  0
LINE
  5
583
330
A
100
AcDbEntity
  8
PV
  6
Continuous
 62
     7
100
AcDbLine
 10
-26.378
 20
-9.441
 30
0.0
 11
-26.358
 21
-9.474
 31
0.0
  0
LINE
  5
584
330
A
100
AcDbEntity
  8
PV
  6
Continuous
 62
     7
100
AcDbLine
 10
-26.39699999999999
 20
-9.407
 30
0.0
 11
-26.378
 21
-9.441
 31
0.0
  0
LINE
  5
585
330
A
100
AcDbEntity
  8
PV
  6
Continuous
 62
     7
100
AcDbLine
 10
-26.416
 20
-9.374
 30
0.0
 11
-26.39699999999999
 21
-9.407
 31
0.0
  0
LINE
  5
586
330
A
100
AcDbEntity
  8
PV
  6
Continuous
 62
     7
100
AcDbLine
 10
-26.434
 20
-9.339999999999999
 30
0.0
 11
-26.416
 21
-9.374
 31
0.0
  0
LINE
  5
587
330
A
100
AcDbEntity
  8
PV
  6
Continuous
 62
     7
100
AcDbLine
 10
-26.453
 20
-9.306
 30
0.0
 11
-26.434
 21
-9.339999999999999
 31
0.0
  0
LINE
  5
588
330
A
100
AcDbEntity
  8
PV
  6
Continuous
 62
     7
100
AcDbLine
 10
-26.47
 20
-9.272
 30
0.0
 11
-26.453
 21
-9.306
 31
0.0
  0
LINE
  5
589
330
A
100
AcDbEntity
  8
PV
  6
Continuous
 62
     7
100
AcDbLine
 10
-26.488
 20
-9.237
 30
0.0
 11
-26.47
 21
-9.272
 31
0.0
  0
LINE
  5
58A
330
A
100
AcDbEntity
  8
PV
  6
Continuous
 62
     7
100
AcDbLine
 10
-26.505
 20
-9.202999999999999
 30
0.0
 11
-26.488
 21
-9.237
 31
0.0
  0
LINE
  5
58B
330
A
100
AcDbEntity
  8
PV
  6
Continuous
 62
     7
100
AcDbLine
 10
-26.522
 20
-9.167999999999999
 30
0.0
 11
-26.505
 21
-9.202999999999999
 31
0.0
  0
LINE
  5
58C
330
A
100
AcDbEntity
  8
PV
  6
Continuous
 62
     7
100
AcDbLine
 10
-26.539
 20
-9.134
 30
0.0
 11
-26.522
 21
-9.167999999999999
 31
0.0
  0
LINE
  5
58D
330
A
100
AcDbEntity
  8
PV
  6
Continuous
 62
     7
100
AcDbLine
 10
-26.55599999999999
 20
-9.099
 30
0.0
 11
-26.539
 21
-9.134
 31
0.0
  0
LINE
  5
58E
330
A
100
AcDbEntity
  8
PV
  6
Continuous
 62
     7
100
AcDbLine
 10
-26.572
 20
-9.064
 30
0.0
 11
-26.55599999999999
 21
-9.099
 31
0.0
  0
LINE
  5
58F
330
A
100
AcDbEntity
  8
PV
  6
Continuous
 62
     7
100
AcDbLine
 10
-26.588
 20
-9.028999999999999
 30
0.0
 11
-26.572
 21
-9.064
 31
0.0
  0
LINE
  5
590
330
A
100
AcDbEntity
  8
PV
  6
Continuous
 62
     7
100
AcDbLine
 10
-26.604
 20
-8.993999999999999
 30
0.0
 11
-26.588
 21
-9.028999999999999
 31
0.0
  0
LINE
  5
591
330
A
100
AcDbEntity
  8
PV
  6
Continuous
 62
     7
100
AcDbLine
 10
-26.619
 20
-8.958999999999999
 30
0.0
 11
-26.604
 21
-8.993999999999999
 31
0.0
  0
LINE
  5
592
330
A
100
AcDbEntity
  8
PV
  6
Continuous
 62
     7
100
AcDbLine
 10
-26.634
 20
-8.923
 30
0.0
 11
-26.619
 21
-8.958999999999999
 31
0.0
  0
LINE
  5
593
330
A
100
AcDbEntity
  8
PV
  6
Continuous
 62
     7
100
AcDbLine
 10
-26.649
 20
-8.887999999999999
 30
0.0
 11
-26.634
 21
-8.923
 31
0.0
  0
LINE
  5
594
330
A
100
AcDbEntity
  8
PV
  6
Continuous
 62
     7
100
AcDbLine
 10
-26.664
 20
-8.852
 30
0.0
 11
-26.649
 21
-8.887999999999999
 31
0.0
  0
LINE
  5
595
330
A
100
AcDbEntity
  8
PV
  6
Continuous
 62
     7
100
AcDbLine
 10
-26.679
 20
-8.817
 30
0.0
 11
-26.664
 21
-8.852
 31
0.0
  0
LINE
  5
596
330
A
100
AcDbEntity
  8
PV
  6
Continuous
 62
     7
100
AcDbLine
 10
-26.693
 20
-8.781
 30
0.0
 11
-26.679
 21
-8.817
 31
0.0
  0
LINE
  5
597
330
A
100
AcDbEntity
  8
PV
  6
Continuous
 62
     7
100
AcDbLine
 10
-26.707
 20
-8.744999999999999
 30
0.0
 11
-26.693
 21
-8.781
 31
0.0
  0
LINE
  5
598
330
A
100
AcDbEntity
  8
PV
  6
Continuous
 62
     7
100
AcDbLine
 10
-26.721
 20
-8.708999999999999
 30
0.0
 11
-26.707
 21
-8.744999999999999
 31
0.0
  0
LINE
  5
599
330
A
100
AcDbEntity
  8
PV
  6
Continuous
 62
     7
100
AcDbLine
 10
-26.734
 20
-8.673
 30
0.0
 11
-26.721
 21
-8.708999999999999
 31
0.0
  0
LINE
  5
59A
330
A
100
AcDbEntity
  8
PV
  6
Continuous
 62
     7
100
AcDbLine
 10
-26.748
 20
-8.637
 30
0.0
 11
-26.734
 21
-8.673
 31
0.0
  0
LINE
  5
59B
330
A
100
AcDbEntity
  8
PV
  6
Continuous
 62
     7
100
AcDbLine
 10
-26.76099999999999
 20
-8.601
 30
0.0
 11
-26.748
 21
-8.637
 31
0.0
  0
LINE
  5
59C
330
A
100
AcDbEntity
  8
PV
  6
Continuous
 62
     7
100
AcDbLine
 10
-26.774
 20
-8.564999999999999
 30
0.0
 11
-26.76099999999999
 21
-8.601
 31
0.0
  0
LINE
  5
59D
330
A
100
AcDbEntity
  8
PV
  6
Continuous
 62
     7
100
AcDbLine
 10
-26.787
 20
-8.527999999999998
 30
0.0
 11
-26.774
 21
-8.564999999999999
 31
0.0
  0
LINE
  5
59E
330
A
100
AcDbEntity
  8
PV
  6
Continuous
 62
     7
100
AcDbLine
 10
-26.79899999999999
 20
-8.492
 30
0.0
 11
-26.787
 21
-8.527999999999998
 31
0.0
  0
LINE
  5
59F
330
A
100
AcDbEntity
  8
PV
  6
Continuous
 62
     7
100
AcDbLine
 10
-26.811
 20
-8.455
 30
0.0
 11
-26.79899999999999
 21
-8.492
 31
0.0
  0
LINE
  5
5A0
330
A
100
AcDbEntity
  8
PV
  6
Continuous
 62
     7
100
AcDbLine
 10
-26.823
 20
-8.419
 30
0.0
 11
-26.811
 21
-8.455
 31
0.0
  0
LINE
  5
5A1
330
A
100
AcDbEntity
  8
PV
  6
Continuous
 62
     7
100
AcDbLine
 10
-26.835
 20
-8.381999999999999
 30
0.0
 11
-26.823
 21
-8.419
 31
0.0
  0
LINE
  5
5A2
330
A
100
AcDbEntity
  8
PV
  6
Continuous
 62
     7
100
AcDbLine
 10
-26.84699999999999
 20
-8.346
 30
0.0
 11
-26.835
 21
-8.381999999999999
 31
0.0
  0
LINE
  5
5A3
330
A
100
AcDbEntity
  8
PV
  6
Continuous
 62
     7
100
AcDbLine
 10
-26.859
 20
-8.308999999999999
 30
0.0
 11
-26.84699999999999
 21
-8.346
 31
0.0
  0
LINE
  5
5A4
330
A
100
AcDbEntity
  8
PV
  6
Continuous
 62
     7
100
AcDbLine
 10
-26.87
 20
-8.272
 30
0.0
 11
-26.859
 21
-8.308999999999999
 31
0.0
  0
LINE
  5
5A5
330
A
100
AcDbEntity
  8
PV
  6
Continuous
 62
     7
100
AcDbLine
 10
-26.881
 20
-8.234999999999999
 30
0.0
 11
-26.87
 21
-8.272
 31
0.0
  0
LINE
  5
5A6
330
A
100
AcDbEntity
  8
PV
  6
Continuous
 62
     7
100
AcDbLine
 10
-26.892
 20
-8.198
 30
0.0
 11
-26.881
 21
-8.234999999999999
 31
0.0
  0
LINE
  5
5A7
330
A
100
AcDbEntity
  8
PV
  6
Continuous
 62
     7
100
AcDbLine
 10
-26.903
 20
-8.162
 30
0.0
 11
-26.892
 21
-8.198
 31
0.0
  0
LINE
  5
5A8
330
A
100
AcDbEntity
  8
PV
  6
Continuous
 62
     7
100
AcDbLine
 10
-26.913
 20
-8.125
 30
0.0
 11
-26.903
 21
-8.162
 31
0.0
  0
LINE
  5
5A9
330
A
100
AcDbEntity
  8
PV
  6
Continuous
 62
     7
100
AcDbLine
 10
-26.924
 20
-8.086999999999999
 30
0.0
 11
-26.913
 21
-8.125
 31
0.0
  0
LINE
  5
5AA
330
A
100
AcDbEntity
  8
PV
  6
Continuous
 62
     7
100
AcDbLine
 10
-26.934
 20
-8.05
 30
0.0
 11
-26.924
 21
-8.086999999999999
 31
0.0
  0
LINE
  5
5AB
330
A
100
AcDbEntity
  8
PV
  6
Continuous
 62
     7
100
AcDbLine
 10
-26.944
 20
-8.012999999999999
 30
0.0
 11
-26.934
 21
-8.05
 31
0.0
  0
LINE
  5
5AC
330
A
100
AcDbEntity
  8
PV
  6
Continuous
 62
     7
100
AcDbLine
 10
-26.954
 20
-7.975999999999999
 30
0.0
 11
-26.944
 21
-8.012999999999999
 31
0.0
  0
LINE
  5
5AD
330
A
100
AcDbEntity
  8
PV
  6
Continuous
 62
     7
100
AcDbLine
 10
-26.963
 20
-7.939
 30
0.0
 11
-26.954
 21
-7.975999999999999
 31
0.0
  0
LINE
  5
5AE
330
A
100
AcDbEntity
  8
PV
  6
Continuous
 62
     7
100
AcDbLine
 10
-26.973
 20
-7.900999999999999
 30
0.0
 11
-26.963
 21
-7.939
 31
0.0
  0
LINE
  5
5AF
330
A
100
AcDbEntity
  8
PV
  6
Continuous
 62
     7
100
AcDbLine
 10
-26.98199999999999
 20
-7.863999999999999
 30
0.0
 11
-26.973
 21
-7.900999999999999
 31
0.0
  0
LINE
  5
5B0
330
A
100
AcDbEntity
  8
PV
  6
Continuous
 62
     7
100
AcDbLine
 10
-26.991
 20
-7.827
 30
0.0
 11
-26.98199999999999
 21
-7.863999999999999
 31
0.0
  0
LINE
  5
5B1
330
A
100
AcDbEntity
  8
PV
  6
Continuous
 62
     7
100
AcDbLine
 10
-27.0
 20
-7.788999999999999
 30
0.0
 11
-26.991
 21
-7.827
 31
0.0
  0
LINE
  5
5B2
330
A
100
AcDbEntity
  8
PV
  6
Continuous
 62
     7
100
AcDbLine
 10
-27.009
 20
-7.752
 30
0.0
 11
-27.0
 21
-7.788999999999999
 31
0.0
  0
LINE
  5
5B3
330
A
100
AcDbEntity
  8
PV
  6
Continuous
 62
     7
100
AcDbLine
 10
-27.017
 20
-7.713999999999999
 30
0.0
 11
-27.009
 21
-7.752
 31
0.0
  0
LINE
  5
5B4
330
A
100
AcDbEntity
  8
PV
  6
Continuous
 62
     7
100
AcDbLine
 10
-27.026
 20
-7.677
 30
0.0
 11
-27.017
 21
-7.713999999999999
 31
0.0
  0
LINE
  5
5B5
330
A
100
AcDbEntity
  8
PV
  6
Continuous
 62
     7
100
AcDbLine
 10
-27.034
 20
-7.638999999999999
 30
0.0
 11
-27.026
 21
-7.677
 31
0.0
  0
LINE
  5
5B6
330
A
100
AcDbEntity
  8
PV
  6
Continuous
 62
     7
100
AcDbLine
 10
-27.042
 20
-7.602
 30
0.0
 11
-27.034
 21
-7.638999999999999
 31
0.0
  0
LINE
  5
5B7
330
A
100
AcDbEntity
  8
PV
  6
Continuous
 62
     7
100
AcDbLine
 10
-27.05
 20
-7.564
 30
0.0
 11
-27.042
 21
-7.602
 31
0.0
  0
LINE
  5
5B8
330
A
100
AcDbEntity
  8
PV
  6
Continuous
 62
     7
100
AcDbLine
 10
-27.058
 20
-7.525999999999999
 30
0.0
 11
-27.05
 21
-7.564
 31
0.0
  0
LINE
  5
5B9
330
A
100
AcDbEntity
  8
PV
  6
Continuous
 62
     7
100
AcDbLine
 10
-27.065
 20
-7.487999999999999
 30
0.0
 11
-27.058
 21
-7.525999999999999
 31
0.0
  0
LINE
  5
5BA
330
A
100
AcDbEntity
  8
PV
  6
Continuous
 62
     7
100
AcDbLine
 10
-27.073
 20
-7.451
 30
0.0
 11
-27.065
 21
-7.487999999999999
 31
0.0
  0
LINE
  5
5BB
330
A
100
AcDbEntity
  8
PV
  6
Continuous
 62
     7
100
AcDbLine
 10
-27.08
 20
-7.412999999999999
 30
0.0
 11
-27.073
 21
-7.451
 31
0.0
  0
LINE
  5
5BC
330
A
100
AcDbEntity
  8
PV
  6
Continuous
 62
     7
100
AcDbLine
 10
-27.087
 20
-7.375
 30
0.0
 11
-27.08
 21
-7.412999999999999
 31
0.0
  0
LINE
  5
5BD
330
A
100
AcDbEntity
  8
PV
  6
Continuous
 62
     7
100
AcDbLine
 10
-27.094
 20
-7.337
 30
0.0
 11
-27.087
 21
-7.375
 31
0.0
  0
LINE
  5
5BE
330
A
100
AcDbEntity
  8
PV
  6
Continuous
 62
     7
100
AcDbLine
 10
-27.101
 20
-7.298999999999999
 30
0.0
 11
-27.094
 21
-7.337
 31
0.0
  0
LINE
  5
5BF
330
A
100
AcDbEntity
  8
PV
  6
Continuous
 62
     7
100
AcDbLine
 10
-27.108
 20
-7.262
 30
0.0
 11
-27.101
 21
-7.298999999999999
 31
0.0
  0
LINE
  5
5C0
330
A
100
AcDbEntity
  8
PV
  6
Continuous
 62
     7
100
AcDbLine
 10
-27.114
 20
-7.224
 30
0.0
 11
-27.108
 21
-7.262
 31
0.0
  0
LINE
  5
5C1
330
A
100
AcDbEntity
  8
PV
  6
Continuous
 62
     7
100
AcDbLine
 10
-27.12099999999999
 20
-7.185999999999999
 30
0.0
 11
-27.114
 21
-7.224
 31
0.0
  0
LINE
  5
5C2
330
A
100
AcDbEntity
  8
PV
  6
Continuous
 62
     7
100
AcDbLine
 10
-27.12699999999999
 20
-7.147999999999999
 30
0.0
 11
-27.12099999999999
 21
-7.185999999999999
 31
0.0
  0
LINE
  5
5C3
330
A
100
AcDbEntity
  8
PV
  6
Continuous
 62
     7
100
AcDbLine
 10
-27.133
 20
-7.11
 30
0.0
 11
-27.12699999999999
 21
-7.147999999999999
 31
0.0
  0
LINE
  5
5C4
330
A
100
AcDbEntity
  8
PV
  6
Continuous
 62
     7
100
AcDbLine
 10
-27.139
 20
-7.072
 30
0.0
 11
-27.133
 21
-7.11
 31
0.0
  0
LINE
  5
5C5
330
A
100
AcDbEntity
  8
PV
  6
Continuous
 62
     7
100
AcDbLine
 10
-27.144
 20
-7.033999999999999
 30
0.0
 11
-27.139
 21
-7.072
 31
0.0
  0
LINE
  5
5C6
330
A
100
AcDbEntity
  8
PV
  6
Continuous
 62
     7
100
AcDbLine
 10
-27.14999999999999
 20
-6.996
 30
0.0
 11
-27.144
 21
-7.033999999999999
 31
0.0
  0
LINE
  5
5C7
330
A
100
AcDbEntity
  8
PV
  6
Continuous
 62
     7
100
AcDbLine
 10
-27.156
 20
-6.957
 30
0.0
 11
-27.14999999999999
 21
-6.996
 31
0.0
  0
LINE
  5
5C8
330
A
100
AcDbEntity
  8
PV
  6
Continuous
 62
     7
100
AcDbLine
 10
-27.16099999999999
 20
-6.918999999999999
 30
0.0
 11
-27.156
 21
-6.957
 31
0.0
  0
LINE
  5
5C9
330
A
100
AcDbEntity
  8
PV
  6
Continuous
 62
     7
100
AcDbLine
 10
-27.166
 20
-6.881
 30
0.0
 11
-27.16099999999999
 21
-6.918999999999999
 31
0.0
  0
LINE
  5
5CA
330
A
100
AcDbEntity
  8
PV
  6
Continuous
 62
     7
100
AcDbLine
 10
-27.171
 20
-6.842999999999999
 30
0.0
 11
-27.166
 21
-6.881
 31
0.0
  0
LINE
  5
5CB
330
A
100
AcDbEntity
  8
PV
  6
Continuous
 62
     7
100
AcDbLine
 10
-27.176
 20
-6.804999999999999
 30
0.0
 11
-27.171
 21
-6.842999999999999
 31
0.0
  0
LINE
  5
5CC
330
A
100
AcDbEntity
  8
PV
  6
Continuous
 62
     7
100
AcDbLine
 10
-27.17999999999999
 20
-6.767
 30
0.0
 11
-27.176
 21
-6.804999999999999
 31
0.0
  0
LINE
  5
5CD
330
A
100
AcDbEntity
  8
PV
  6
Continuous
 62
     7
100
AcDbLine
 10
-27.185
 20
-6.727999999999999
 30
0.0
 11
-27.17999999999999
 21
-6.767
 31
0.0
  0
LINE
  5
5CE
330
A
100
AcDbEntity
  8
PV
  6
Continuous
 62
     7
100
AcDbLine
 10
-27.189
 20
-6.69
 30
0.0
 11
-27.185
 21
-6.727999999999999
 31
0.0
  0
LINE
  5
5CF
330
A
100
AcDbEntity
  8
PV
  6
Continuous
 62
     7
100
AcDbLine
 10
-27.194
 20
-6.652
 30
0.0
 11
-27.189
 21
-6.69
 31
0.0
  0
LINE
  5
5D0
330
A
100
AcDbEntity
  8
PV
  6
Continuous
 62
     7
100
AcDbLine
 10
-27.198
 20
-6.613999999999999
 30
0.0
 11
-27.194
 21
-6.652
 31
0.0
  0
LINE
  5
5D1
330
A
100
AcDbEntity
  8
PV
  6
Continuous
 62
     7
100
AcDbLine
 10
-27.202
 20
-6.575
 30
0.0
 11
-27.198
 21
-6.613999999999999
 31
0.0
  0
LINE
  5
5D2
330
A
100
AcDbEntity
  8
PV
  6
Continuous
 62
     7
100
AcDbLine
 10
-27.206
 20
-6.537
 30
0.0
 11
-27.202
 21
-6.575
 31
0.0
  0
LINE
  5
5D3
330
A
100
AcDbEntity
  8
PV
  6
Continuous
 62
     7
100
AcDbLine
 10
-27.209
 20
-6.498999999999999
 30
0.0
 11
-27.206
 21
-6.537
 31
0.0
  0
LINE
  5
5D4
330
A
100
AcDbEntity
  8
PV
  6
Continuous
 62
     7
100
AcDbLine
 10
-27.213
 20
-6.461
 30
0.0
 11
-27.209
 21
-6.498999999999999
 31
0.0
  0
LINE
  5
5D5
330
A
100
AcDbEntity
  8
PV
  6
Continuous
 62
     7
100
AcDbLine
 10
-27.216
 20
-6.422
 30
0.0
 11
-27.213
 21
-6.461
 31
0.0
  0
LINE
  5
5D6
330
A
100
AcDbEntity
  8
PV
  6
Continuous
 62
     7
100
AcDbLine
 10
-27.219
 20
-6.383999999999999
 30
0.0
 11
-27.216
 21
-6.422
 31
0.0
  0
LINE
  5
5D7
330
A
100
AcDbEntity
  8
PV
  6
Continuous
 62
     7
100
AcDbLine
 10
-27.223
 20
-6.346
 30
0.0
 11
-27.219
 21
-6.383999999999999
 31
0.0
  0
LINE
  5
5D8
330
A
100
AcDbEntity
  8
PV
  6
Continuous
 62
     7
100
AcDbLine
 10
-27.225
 20
-6.307
 30
0.0
 11
-27.223
 21
-6.346
 31
0.0
  0
LINE
  5
5D9
330
A
100
AcDbEntity
  8
PV
  6
Continuous
 62
     7
100
AcDbLine
 10
-27.228
 20
-6.269
 30
0.0
 11
-27.225
 21
-6.307
 31
0.0
  0
LINE
  5
5DA
330
A
100
AcDbEntity
  8
PV
  6
Continuous
 62
     7
100
AcDbLine
 10
-27.231
 20
-6.23
 30
0.0
 11
-27.228
 21
-6.269
 31
0.0
  0
LINE
  5
5DB
330
A
100
AcDbEntity
  8
PV
  6
Continuous
 62
     7
100
AcDbLine
 10
-27.234
 20
-6.192
 30
0.0
 11
-27.231
 21
-6.23
 31
0.0
  0
LINE
  5
5DC
330
A
100
AcDbEntity
  8
PV
  6
Continuous
 62
     7
100
AcDbLine
 10
-27.236
 20
-6.153999999999999
 30
0.0
 11
-27.234
 21
-6.192
 31
0.0
  0
LINE
  5
5DD
330
A
100
AcDbEntity
  8
PV
  6
Continuous
 62
     7
100
AcDbLine
 10
-27.238
 20
-6.115
 30
0.0
 11
-27.236
 21
-6.153999999999999
 31
0.0
  0
LINE
  5
5DE
330
A
100
AcDbEntity
  8
PV
  6
Continuous
 62
     7
100
AcDbLine
 10
-27.24
 20
-6.077
 30
0.0
 11
-27.238
 21
-6.115
 31
0.0
  0
LINE
  5
5DF
330
A
100
AcDbEntity
  8
PV
  6
Continuous
 62
     7
100
AcDbLine
 10
-27.24199999999999
 20
-6.037999999999999
 30
0.0
 11
-27.24
 21
-6.077
 31
0.0
  0
LINE
  5
5E0
330
A
100
AcDbEntity
  8
PV
  6
Continuous
 62
     7
100
AcDbLine
 10
-27.244
 20
-6.0
 30
0.0
 11
-27.24199999999999
 21
-6.037999999999999
 31
0.0
  0
LINE
  5
5E1
330
A
100
AcDbEntity
  8
PV
  6
Continuous
 62
     7
100
AcDbLine
 10
-27.246
 20
-5.961
 30
0.0
 11
-27.244
 21
-6.0
 31
0.0
  0
LINE
  5
5E2
330
A
100
AcDbEntity
  8
PV
  6
Continuous
 62
     7
100
AcDbLine
 10
-27.248
 20
-5.922999999999999
 30
0.0
 11
-27.246
 21
-5.961
 31
0.0
  0
LINE
  5
5E3
330
A
100
AcDbEntity
  8
PV
  6
Continuous
 62
     7
100
AcDbLine
 10
-27.249
 20
-5.884999999999999
 30
0.0
 11
-27.248
 21
-5.922999999999999
 31
0.0
  0
LINE
  5
5E4
330
A
100
AcDbEntity
  8
PV
  6
Continuous
 62
     7
100
AcDbLine
 10
-27.25
 20
-5.846
 30
0.0
 11
-27.249
 21
-5.884999999999999
 31
0.0
  0
LINE
  5
5E5
330
A
100
AcDbEntity
  8
PV
  6
Continuous
 62
     7
100
AcDbLine
 10
-27.25099999999999
 20
-5.807999999999999
 30
0.0
 11
-27.25
 21
-5.846
 31
0.0
  0
LINE
  5
5E6
330
A
100
AcDbEntity
  8
PV
  6
Continuous
 62
     7
100
AcDbLine
 10
-27.252
 20
-5.769
 30
0.0
 11
-27.25099999999999
 21
-5.807999999999999
 31
0.0
  0
LINE
  5
5E7
330
A
100
AcDbEntity
  8
PV
  6
Continuous
 62
     7
100
AcDbLine
 10
-27.253
 20
-5.730999999999999
 30
0.0
 11
-27.252
 21
-5.769
 31
0.0
  0
LINE
  5
5E8
330
A
100
AcDbEntity
  8
PV
  6
Continuous
 62
     7
100
AcDbLine
 10
-27.254
 20
-5.692
 30
0.0
 11
-27.253
 21
-5.730999999999999
 31
0.0
  0
LINE
  5
5E9
330
A
100
AcDbEntity
  8
PV
  6
Continuous
 62
     7
100
AcDbLine
 10
-27.255
 20
-5.653999999999999
 30
0.0
 11
-27.254
 21
-5.692
 31
0.0
  0
LINE
  5
5EA
330
A
100
AcDbEntity
  8
PV
  6
Continuous
 62
     7
100
AcDbLine
 10
-27.255
 20
-5.615
 30
0.0
 11
-27.255
 21
-5.653999999999999
 31
0.0
  0
LINE
  5
5EB
330
A
100
AcDbEntity
  8
PV
  6
Continuous
 62
     7
100
AcDbLine
 10
-27.256
 20
-5.577
 30
0.0
 11
-27.255
 21
-5.615
 31
0.0
  0
LINE
  5
5EC
330
A
100
AcDbEntity
  8
PV
  6
Continuous
 62
     7
100
AcDbLine
 10
-27.256
 20
-5.537999999999999
 30
0.0
 11
-27.256
 21
-5.577
 31
0.0
  0
LINE
  5
5ED
330
A
100
AcDbEntity
  8
PV
  6
Continuous
 62
     7
100
AcDbLine
 10
-27.256
 20
-5.5
 30
0.0
 11
-27.256
 21
-5.537999999999999
 31
0.0
  0
LINE
  5
5EE
330
A
100
AcDbEntity
  8
PV
  6
Continuous
 62
     7
100
AcDbLine
 10
27.256
 20
-5.537999999999999
 30
0.0
 11
27.256
 21
-5.5
 31
0.0
  0
LINE
  5
5EF
330
A
100
AcDbEntity
  8
PV
  6
Continuous
 62
     7
100
AcDbLine
 10
27.256
 20
-5.577
 30
0.0
 11
27.256
 21
-5.537999999999999
 31
0.0
  0
LINE
  5
5F0
330
A
100
AcDbEntity
  8
PV
  6
Continuous
 62
     7
100
AcDbLine
 10
27.255
 20
-5.615
 30
0.0
 11
27.256
 21
-5.577
 31
0.0
  0
LINE
  5
5F1
330
A
100
AcDbEntity
  8
PV
  6
Continuous
 62
     7
100
AcDbLine
 10
27.255
 20
-5.653999999999999
 30
0.0
 11
27.255
 21
-5.615
 31
0.0
  0
LINE
  5
5F2
330
A
100
AcDbEntity
  8
PV
  6
Continuous
 62
     7
100
AcDbLine
 10
27.254
 20
-5.692
 30
0.0
 11
27.255
 21
-5.653999999999999
 31
0.0
  0
LINE
  5
5F3
330
A
100
AcDbEntity
  8
PV
  6
Continuous
 62
     7
100
AcDbLine
 10
27.253
 20
-5.730999999999999
 30
0.0
 11
27.254
 21
-5.692
 31
0.0
  0
LINE
  5
5F4
330
A
100
AcDbEntity
  8
PV
  6
Continuous
 62
     7
100
AcDbLine
 10
27.253
 20
-5.769
 30
0.0
 11
27.253
 21
-5.730999999999999
 31
0.0
  0
LINE
  5
5F5
330
A
100
AcDbEntity
  8
PV
  6
Continuous
 62
     7
100
AcDbLine
 10
27.25099999999999
 20
-5.807999999999999
 30
0.0
 11
27.253
 21
-5.769
 31
0.0
  0
LINE
  5
5F6
330
A
100
AcDbEntity
  8
PV
  6
Continuous
 62
     7
100
AcDbLine
 10
27.25
 20
-5.846
 30
0.0
 11
27.25099999999999
 21
-5.807999999999999
 31
0.0
  0
LINE
  5
5F7
330
A
100
AcDbEntity
  8
PV
  6
Continuous
 62
     7
100
AcDbLine
 10
27.249
 20
-5.884999999999999
 30
0.0
 11
27.25
 21
-5.846
 31
0.0
  0
LINE
  5
5F8
330
A
100
AcDbEntity
  8
PV
  6
Continuous
 62
     7
100
AcDbLine
 10
27.248
 20
-5.922999999999999
 30
0.0
 11
27.249
 21
-5.884999999999999
 31
0.0
  0
LINE
  5
5F9
330
A
100
AcDbEntity
  8
PV
  6
Continuous
 62
     7
100
AcDbLine
 10
27.246
 20
-5.961
 30
0.0
 11
27.248
 21
-5.922999999999999
 31
0.0
  0
LINE
  5
5FA
330
A
100
AcDbEntity
  8
PV
  6
Continuous
 62
     7
100
AcDbLine
 10
27.244
 20
-6.0
 30
0.0
 11
27.246
 21
-5.961
 31
0.0
  0
LINE
  5
5FB
330
A
100
AcDbEntity
  8
PV
  6
Continuous
 62
     7
100
AcDbLine
 10
27.24199999999999
 20
-6.037999999999999
 30
0.0
 11
27.244
 21
-6.0
 31
0.0
  0
LINE
  5
5FC
330
A
100
AcDbEntity
  8
PV
  6
Continuous
 62
     7
100
AcDbLine
 10
27.24
 20
-6.077
 30
0.0
 11
27.24199999999999
 21
-6.037999999999999
 31
0.0
  0
LINE
  5
5FD
330
A
100
AcDbEntity
  8
PV
  6
Continuous
 62
     7
100
AcDbLine
 10
27.238
 20
-6.115
 30
0.0
 11
27.24
 21
-6.077
 31
0.0
  0
LINE
  5
5FE
330
A
100
AcDbEntity
  8
PV
  6
Continuous
 62
     7
100
AcDbLine
 10
27.236
 20
-6.153999999999999
 30
0.0
 11
27.238
 21
-6.115
 31
0.0
  0
LINE
  5
5FF
330
A
100
AcDbEntity
  8
PV
  6
Continuous
 62
     7
100
AcDbLine
 10
27.234
 20
-6.192
 30
0.0
 11
27.236
 21
-6.153999999999999
 31
0.0
  0
LINE
  5
600
330
A
100
AcDbEntity
  8
PV
  6
Continuous
 62
     7
100
AcDbLine
 10
27.231
 20
-6.23
 30
0.0
 11
27.234
 21
-6.192
 31
0.0
  0
LINE
  5
601
330
A
100
AcDbEntity
  8
PV
  6
Continuous
 62
     7
100
AcDbLine
 10
27.228
 20
-6.269
 30
0.0
 11
27.231
 21
-6.23
 31
0.0
  0
LINE
  5
602
330
A
100
AcDbEntity
  8
PV
  6
Continuous
 62
     7
100
AcDbLine
 10
27.22599999999999
 20
-6.307
 30
0.0
 11
27.228
 21
-6.269
 31
0.0
  0
LINE
  5
603
330
A
100
AcDbEntity
  8
PV
  6
Continuous
 62
     7
100
AcDbLine
 10
27.223
 20
-6.346
 30
0.0
 11
27.22599999999999
 21
-6.307
 31
0.0
  0
LINE
  5
604
330
A
100
AcDbEntity
  8
PV
  6
Continuous
 62
     7
100
AcDbLine
 10
27.219
 20
-6.383999999999999
 30
0.0
 11
27.223
 21
-6.346
 31
0.0
  0
LINE
  5
605
330
A
100
AcDbEntity
  8
PV
  6
Continuous
 62
     7
100
AcDbLine
 10
27.216
 20
-6.422
 30
0.0
 11
27.219
 21
-6.383999999999999
 31
0.0
  0
LINE
  5
606
330
A
100
AcDbEntity
  8
PV
  6
Continuous
 62
     7
100
AcDbLine
 10
27.213
 20
-6.461
 30
0.0
 11
27.216
 21
-6.422
 31
0.0
  0
LINE
  5
607
330
A
100
AcDbEntity
  8
PV
  6
Continuous
 62
     7
100
AcDbLine
 10
27.209
 20
-6.498999999999999
 30
0.0
 11
27.213
 21
-6.461
 31
0.0
  0
LINE
  5
608
330
A
100
AcDbEntity
  8
PV
  6
Continuous
 62
     7
100
AcDbLine
 10
27.206
 20
-6.537
 30
0.0
 11
27.209
 21
-6.498999999999999
 31
0.0
  0
LINE
  5
609
330
A
100
AcDbEntity
  8
PV
  6
Continuous
 62
     7
100
AcDbLine
 10
27.202
 20
-6.575
 30
0.0
 11
27.206
 21
-6.537
 31
0.0
  0
LINE
  5
60A
330
A
100
AcDbEntity
  8
PV
  6
Continuous
 62
     7
100
AcDbLine
 10
27.198
 20
-6.613999999999999
 30
0.0
 11
27.202
 21
-6.575
 31
0.0
  0
LINE
  5
60B
330
A
100
AcDbEntity
  8
PV
  6
Continuous
 62
     7
100
AcDbLine
 10
27.194
 20
-6.652
 30
0.0
 11
27.198
 21
-6.613999999999999
 31
0.0
  0
LINE
  5
60C
330
A
100
AcDbEntity
  8
PV
  6
Continuous
 62
     7
100
AcDbLine
 10
27.189
 20
-6.69
 30
0.0
 11
27.194
 21
-6.652
 31
0.0
  0
LINE
  5
60D
330
A
100
AcDbEntity
  8
PV
  6
Continuous
 62
     7
100
AcDbLine
 10
27.185
 20
-6.727999999999999
 30
0.0
 11
27.189
 21
-6.69
 31
0.0
  0
LINE
  5
60E
330
A
100
AcDbEntity
  8
PV
  6
Continuous
 62
     7
100
AcDbLine
 10
27.17999999999999
 20
-6.767
 30
0.0
 11
27.185
 21
-6.727999999999999
 31
0.0
  0
LINE
  5
60F
330
A
100
AcDbEntity
  8
PV
  6
Continuous
 62
     7
100
AcDbLine
 10
27.176
 20
-6.804999999999999
 30
0.0
 11
27.17999999999999
 21
-6.767
 31
0.0
  0
LINE
  5
610
330
A
100
AcDbEntity
  8
PV
  6
Continuous
 62
     7
100
AcDbLine
 10
27.171
 20
-6.842999999999999
 30
0.0
 11
27.176
 21
-6.804999999999999
 31
0.0
  0
LINE
  5
611
330
A
100
AcDbEntity
  8
PV
  6
Continuous
 62
     7
100
AcDbLine
 10
27.166
 20
-6.881
 30
0.0
 11
27.171
 21
-6.842999999999999
 31
0.0
  0
LINE
  5
612
330
A
100
AcDbEntity
  8
PV
  6
Continuous
 62
     7
100
AcDbLine
 10
27.16099999999999
 20
-6.918999999999999
 30
0.0
 11
27.166
 21
-6.881
 31
0.0
  0
LINE
  5
613
330
A
100
AcDbEntity
  8
PV
  6
Continuous
 62
     7
100
AcDbLine
 10
27.156
 20
-6.957
 30
0.0
 11
27.16099999999999
 21
-6.918999999999999
 31
0.0
  0
LINE
  5
614
330
A
100
AcDbEntity
  8
PV
  6
Continuous
 62
     7
100
AcDbLine
 10
27.14999999999999
 20
-6.996
 30
0.0
 11
27.156
 21
-6.957
 31
0.0
  0
LINE
  5
615
330
A
100
AcDbEntity
  8
PV
  6
Continuous
 62
     7
100
AcDbLine
 10
27.145
 20
-7.033999999999999
 30
0.0
 11
27.14999999999999
 21
-6.996
 31
0.0
  0
LINE
  5
616
330
A
100
AcDbEntity
  8
PV
  6
Continuous
 62
     7
100
AcDbLine
 10
27.139
 20
-7.072
 30
0.0
 11
27.145
 21
-7.033999999999999
 31
0.0
  0
LINE
  5
617
330
A
100
AcDbEntity
  8
PV
  6
Continuous
 62
     7
100
AcDbLine
 10
27.133
 20
-7.11
 30
0.0
 11
27.139
 21
-7.072
 31
0.0
  0
LINE
  5
618
330
A
100
AcDbEntity
  8
PV
  6
Continuous
 62
     7
100
AcDbLine
 10
27.12699999999999
 20
-7.147999999999999
 30
0.0
 11
27.133
 21
-7.11
 31
0.0
  0
LINE
  5
619
330
A
100
AcDbEntity
  8
PV
  6
Continuous
 62
     7
100
AcDbLine
 10
27.12099999999999
 20
-7.185999999999999
 30
0.0
 11
27.12699999999999
 21
-7.147999999999999
 31
0.0
  0
LINE
  5
61A
330
A
100
AcDbEntity
  8
PV
  6
Continuous
 62
     7
100
AcDbLine
 10
27.114
 20
-7.224
 30
0.0
 11
27.12099999999999
 21
-7.185999999999999
 31
0.0
  0
LINE
  5
61B
330
A
100
AcDbEntity
  8
PV
  6
Continuous
 62
     7
100
AcDbLine
 10
27.108
 20
-7.262
 30
0.0
 11
27.114
 21
-7.224
 31
0.0
  0
LINE
  5
61C
330
A
100
AcDbEntity
  8
PV
  6
Continuous
 62
     7
100
AcDbLine
 10
27.101
 20
-7.298999999999999
 30
0.0
 11
27.108
 21
-7.262
 31
0.0
  0
LINE
  5
61D
330
A
100
AcDbEntity
  8
PV
  6
Continuous
 62
     7
100
AcDbLine
 10
27.094
 20
-7.337
 30
0.0
 11
27.101
 21
-7.298999999999999
 31
0.0
  0
LINE
  5
61E
330
A
100
AcDbEntity
  8
PV
  6
Continuous
 62
     7
100
AcDbLine
 10
27.087
 20
-7.375
 30
0.0
 11
27.094
 21
-7.337
 31
0.0
  0
LINE
  5
61F
330
A
100
AcDbEntity
  8
PV
  6
Continuous
 62
     7
100
AcDbLine
 10
27.08
 20
-7.412999999999999
 30
0.0
 11
27.087
 21
-7.375
 31
0.0
  0
LINE
  5
620
330
A
100
AcDbEntity
  8
PV
  6
Continuous
 62
     7
100
AcDbLine
 10
27.073
 20
-7.451
 30
0.0
 11
27.08
 21
-7.412999999999999
 31
0.0
  0
LINE
  5
621
330
A
100
AcDbEntity
  8
PV
  6
Continuous
 62
     7
100
AcDbLine
 10
27.065
 20
-7.487999999999999
 30
0.0
 11
27.073
 21
-7.451
 31
0.0
  0
LINE
  5
622
330
A
100
AcDbEntity
  8
PV
  6
Continuous
 62
     7
100
AcDbLine
 10
27.058
 20
-7.525999999999999
 30
0.0
 11
27.065
 21
-7.487999999999999
 31
0.0
  0
LINE
  5
623
330
A
100
AcDbEntity
  8
PV
  6
Continuous
 62
     7
100
AcDbLine
 10
27.05
 20
-7.564
 30
0.0
 11
27.058
 21
-7.525999999999999
 31
0.0
  0
LINE
  5
624
330
A
100
AcDbEntity
  8
PV
  6
Continuous
 62
     7
100
AcDbLine
 10
27.042
 20
-7.602
 30
0.0
 11
27.05
 21
-7.564
 31
0.0
  0
LINE
  5
625
330
A
100
AcDbEntity
  8
PV
  6
Continuous
 62
     7
100
AcDbLine
 10
27.034
 20
-7.638999999999999
 30
0.0
 11
27.042
 21
-7.602
 31
0.0
  0
LINE
  5
626
330
A
100
AcDbEntity
  8
PV
  6
Continuous
 62
     7
100
AcDbLine
 10
27.026
 20
-7.677
 30
0.0
 11
27.034
 21
-7.638999999999999
 31
0.0
  0
LINE
  5
627
330
A
100
AcDbEntity
  8
PV
  6
Continuous
 62
     7
100
AcDbLine
 10
27.017
 20
-7.713999999999999
 30
0.0
 11
27.026
 21
-7.677
 31
0.0
  0
LINE
  5
628
330
A
100
AcDbEntity
  8
PV
  6
Continuous
 62
     7
100
AcDbLine
 10
27.009
 20
-7.752
 30
0.0
 11
27.017
 21
-7.713999999999999
 31
0.0
  0
LINE
  5
629
330
A
100
AcDbEntity
  8
PV
  6
Continuous
 62
     7
100
AcDbLine
 10
27.0
 20
-7.788999999999999
 30
0.0
 11
27.009
 21
-7.752
 31
0.0
  0
LINE
  5
62A
330
A
100
AcDbEntity
  8
PV
  6
Continuous
 62
     7
100
AcDbLine
 10
26.991
 20
-7.827
 30
0.0
 11
27.0
 21
-7.788999999999999
 31
0.0
  0
LINE
  5
62B
330
A
100
AcDbEntity
  8
PV
  6
Continuous
 62
     7
100
AcDbLine
 10
26.98199999999999
 20
-7.863999999999999
 30
0.0
 11
26.991
 21
-7.827
 31
0.0
  0
LINE
  5
62C
330
A
100
AcDbEntity
  8
PV
  6
Continuous
 62
     7
100
AcDbLine
 10
26.973
 20
-7.900999999999999
 30
0.0
 11
26.98199999999999
 21
-7.863999999999999
 31
0.0
  0
LINE
  5
62D
330
A
100
AcDbEntity
  8
PV
  6
Continuous
 62
     7
100
AcDbLine
 10
26.963
 20
-7.939
 30
0.0
 11
26.973
 21
-7.900999999999999
 31
0.0
  0
LINE
  5
62E
330
A
100
AcDbEntity
  8
PV
  6
Continuous
 62
     7
100
AcDbLine
 10
26.954
 20
-7.975999999999999
 30
0.0
 11
26.963
 21
-7.939
 31
0.0
  0
LINE
  5
62F
330
A
100
AcDbEntity
  8
PV
  6
Continuous
 62
     7
100
AcDbLine
 10
26.944
 20
-8.012999999999999
 30
0.0
 11
26.954
 21
-7.975999999999999
 31
0.0
  0
LINE
  5
630
330
A
100
AcDbEntity
  8
PV
  6
Continuous
 62
     7
100
AcDbLine
 10
26.934
 20
-8.05
 30
0.0
 11
26.944
 21
-8.012999999999999
 31
0.0
  0
LINE
  5
631
330
A
100
AcDbEntity
  8
PV
  6
Continuous
 62
     7
100
AcDbLine
 10
26.924
 20
-8.086999999999999
 30
0.0
 11
26.934
 21
-8.05
 31
0.0
  0
LINE
  5
632
330
A
100
AcDbEntity
  8
PV
  6
Continuous
 62
     7
100
AcDbLine
 10
26.913
 20
-8.125
 30
0.0
 11
26.924
 21
-8.086999999999999
 31
0.0
  0
LINE
  5
633
330
A
100
AcDbEntity
  8
PV
  6
Continuous
 62
     7
100
AcDbLine
 10
26.903
 20
-8.162
 30
0.0
 11
26.913
 21
-8.125
 31
0.0
  0
LINE
  5
634
330
A
100
AcDbEntity
  8
PV
  6
Continuous
 62
     7
100
AcDbLine
 10
26.892
 20
-8.198
 30
0.0
 11
26.903
 21
-8.162
 31
0.0
  0
LINE
  5
635
330
A
100
AcDbEntity
  8
PV
  6
Continuous
 62
     7
100
AcDbLine
 10
26.881
 20
-8.234999999999999
 30
0.0
 11
26.892
 21
-8.198
 31
0.0
  0
LINE
  5
636
330
A
100
AcDbEntity
  8
PV
  6
Continuous
 62
     7
100
AcDbLine
 10
26.87
 20
-8.272
 30
0.0
 11
26.881
 21
-8.234999999999999
 31
0.0
  0
LINE
  5
637
330
A
100
AcDbEntity
  8
PV
  6
Continuous
 62
     7
100
AcDbLine
 10
26.859
 20
-8.308999999999999
 30
0.0
 11
26.87
 21
-8.272
 31
0.0
  0
LINE
  5
638
330
A
100
AcDbEntity
  8
PV
  6
Continuous
 62
     7
100
AcDbLine
 10
26.84699999999999
 20
-8.346
 30
0.0
 11
26.859
 21
-8.308999999999999
 31
0.0
  0
LINE
  5
639
330
A
100
AcDbEntity
  8
PV
  6
Continuous
 62
     7
100
AcDbLine
 10
26.835
 20
-8.381999999999999
 30
0.0
 11
26.84699999999999
 21
-8.346
 31
0.0
  0
LINE
  5
63A
330
A
100
AcDbEntity
  8
PV
  6
Continuous
 62
     7
100
AcDbLine
 10
26.823
 20
-8.419
 30
0.0
 11
26.835
 21
-8.381999999999999
 31
0.0
  0
LINE
  5
63B
330
A
100
AcDbEntity
  8
PV
  6
Continuous
 62
     7
100
AcDbLine
 10
26.811
 20
-8.455
 30
0.0
 11
26.823
 21
-8.419
 31
0.0
  0
LINE
  5
63C
330
A
100
AcDbEntity
  8
PV
  6
Continuous
 62
     7
100
AcDbLine
 10
26.79899999999999
 20
-8.492
 30
0.0
 11
26.811
 21
-8.455
 31
0.0
  0
LINE
  5
63D
330
A
100
AcDbEntity
  8
PV
  6
Continuous
 62
     7
100
AcDbLine
 10
26.787
 20
-8.527999999999998
 30
0.0
 11
26.79899999999999
 21
-8.492
 31
0.0
  0
LINE
  5
63E
330
A
100
AcDbEntity
  8
PV
  6
Continuous
 62
     7
100
AcDbLine
 10
26.774
 20
-8.564999999999999
 30
0.0
 11
26.787
 21
-8.527999999999998
 31
0.0
  0
LINE
  5
63F
330
A
100
AcDbEntity
  8
PV
  6
Continuous
 62
     7
100
AcDbLine
 10
26.76099999999999
 20
-8.601
 30
0.0
 11
26.774
 21
-8.564999999999999
 31
0.0
  0
LINE
  5
640
330
A
100
AcDbEntity
  8
PV
  6
Continuous
 62
     7
100
AcDbLine
 10
26.748
 20
-8.637
 30
0.0
 11
26.76099999999999
 21
-8.601
 31
0.0
  0
LINE
  5
641
330
A
100
AcDbEntity
  8
PV
  6
Continuous
 62
     7
100
AcDbLine
 10
26.734
 20
-8.673
 30
0.0
 11
26.748
 21
-8.637
 31
0.0
  0
LINE
  5
642
330
A
100
AcDbEntity
  8
PV
  6
Continuous
 62
     7
100
AcDbLine
 10
26.721
 20
-8.708999999999999
 30
0.0
 11
26.734
 21
-8.673
 31
0.0
  0
LINE
  5
643
330
A
100
AcDbEntity
  8
PV
  6
Continuous
 62
     7
100
AcDbLine
 10
26.707
 20
-8.744999999999999
 30
0.0
 11
26.721
 21
-8.708999999999999
 31
0.0
  0
LINE
  5
644
330
A
100
AcDbEntity
  8
PV
  6
Continuous
 62
     7
100
AcDbLine
 10
26.693
 20
-8.781
 30
0.0
 11
26.707
 21
-8.744999999999999
 31
0.0
  0
LINE
  5
645
330
A
100
AcDbEntity
  8
PV
  6
Continuous
 62
     7
100
AcDbLine
 10
26.679
 20
-8.817
 30
0.0
 11
26.693
 21
-8.781
 31
0.0
  0
LINE
  5
646
330
A
100
AcDbEntity
  8
PV
  6
Continuous
 62
     7
100
AcDbLine
 10
26.664
 20
-8.852
 30
0.0
 11
26.679
 21
-8.817
 31
0.0
  0
LINE
  5
647
330
A
100
AcDbEntity
  8
PV
  6
Continuous
 62
     7
100
AcDbLine
 10
26.649
 20
-8.887999999999999
 30
0.0
 11
26.664
 21
-8.852
 31
0.0
  0
LINE
  5
648
330
A
100
AcDbEntity
  8
PV
  6
Continuous
 62
     7
100
AcDbLine
 10
26.634
 20
-8.923
 30
0.0
 11
26.649
 21
-8.887999999999999
 31
0.0
  0
LINE
  5
649
330
A
100
AcDbEntity
  8
PV
  6
Continuous
 62
     7
100
AcDbLine
 10
26.619
 20
-8.958999999999999
 30
0.0
 11
26.634
 21
-8.923
 31
0.0
  0
LINE
  5
64A
330
A
100
AcDbEntity
  8
PV
  6
Continuous
 62
     7
100
AcDbLine
 10
26.604
 20
-8.993999999999999
 30
0.0
 11
26.619
 21
-8.958999999999999
 31
0.0
  0
LINE
  5
64B
330
A
100
AcDbEntity
  8
PV
  6
Continuous
 62
     7
100
AcDbLine
 10
26.588
 20
-9.028999999999999
 30
0.0
 11
26.604
 21
-8.993999999999999
 31
0.0
  0
LINE
  5
64C
330
A
100
AcDbEntity
  8
PV
  6
Continuous
 62
     7
100
AcDbLine
 10
26.572
 20
-9.064
 30
0.0
 11
26.588
 21
-9.028999999999999
 31
0.0
  0
LINE
  5
64D
330
A
100
AcDbEntity
  8
PV
  6
Continuous
 62
     7
100
AcDbLine
 10
26.55599999999999
 20
-9.099
 30
0.0
 11
26.572
 21
-9.064
 31
0.0
  0
LINE
  5
64E
330
A
100
AcDbEntity
  8
PV
  6
Continuous
 62
     7
100
AcDbLine
 10
26.539
 20
-9.134
 30
0.0
 11
26.55599999999999
 21
-9.099
 31
0.0
  0
LINE
  5
64F
330
A
100
AcDbEntity
  8
PV
  6
Continuous
 62
     7
100
AcDbLine
 10
26.522
 20
-9.167999999999999
 30
0.0
 11
26.539
 21
-9.134
 31
0.0
  0
LINE
  5
650
330
A
100
AcDbEntity
  8
PV
  6
Continuous
 62
     7
100
AcDbLine
 10
26.505
 20
-9.202999999999999
 30
0.0
 11
26.522
 21
-9.167999999999999
 31
0.0
  0
LINE
  5
651
330
A
100
AcDbEntity
  8
PV
  6
Continuous
 62
     7
100
AcDbLine
 10
26.488
 20
-9.237
 30
0.0
 11
26.505
 21
-9.202999999999999
 31
0.0
  0
LINE
  5
652
330
A
100
AcDbEntity
  8
PV
  6
Continuous
 62
     7
100
AcDbLine
 10
26.47
 20
-9.272
 30
0.0
 11
26.488
 21
-9.237
 31
0.0
  0
LINE
  5
653
330
A
100
AcDbEntity
  8
PV
  6
Continuous
 62
     7
100
AcDbLine
 10
26.453
 20
-9.306
 30
0.0
 11
26.47
 21
-9.272
 31
0.0
  0
LINE
  5
654
330
A
100
AcDbEntity
  8
PV
  6
Continuous
 62
     7
100
AcDbLine
 10
26.434
 20
-9.339999999999999
 30
0.0
 11
26.453
 21
-9.306
 31
0.0
  0
LINE
  5
655
330
A
100
AcDbEntity
  8
PV
  6
Continuous
 62
     7
100
AcDbLine
 10
26.416
 20
-9.374
 30
0.0
 11
26.434
 21
-9.339999999999999
 31
0.0
  0
LINE
  5
656
330
A
100
AcDbEntity
  8
PV
  6
Continuous
 62
     7
100
AcDbLine
 10
26.39699999999999
 20
-9.407
 30
0.0
 11
26.416
 21
-9.374
 31
0.0
  0
LINE
  5
657
330
A
100
AcDbEntity
  8
PV
  6
Continuous
 62
     7
100
AcDbLine
 10
26.378
 20
-9.441
 30
0.0
 11
26.39699999999999
 21
-9.407
 31
0.0
  0
LINE
  5
658
330
A
100
AcDbEntity
  8
PV
  6
Continuous
 62
     7
100
AcDbLine
 10
26.358
 20
-9.474
 30
0.0
 11
26.378
 21
-9.441
 31
0.0
  0
LINE
  5
659
330
A
100
AcDbEntity
  8
PV
  6
Continuous
 62
     7
100
AcDbLine
 10
26.339
 20
-9.506999999999999
 30
0.0
 11
26.358
 21
-9.474
 31
0.0
  0
LINE
  5
65A
330
A
100
AcDbEntity
  8
PV
  6
Continuous
 62
     7
100
AcDbLine
 10
26.318
 20
-9.539999999999999
 30
0.0
 11
26.339
 21
-9.506999999999999
 31
0.0
  0
LINE
  5
65B
330
A
100
AcDbEntity
  8
PV
  6
Continuous
 62
     7
100
AcDbLine
 10
26.298
 20
-9.572
 30
0.0
 11
26.318
 21
-9.539999999999999
 31
0.0
  0
LINE
  5
65C
330
A
100
AcDbEntity
  8
PV
  6
Continuous
 62
     7
100
AcDbLine
 10
26.27699999999999
 20
-9.605
 30
0.0
 11
26.298
 21
-9.572
 31
0.0
  0
LINE
  5
65D
330
A
100
AcDbEntity
  8
PV
  6
Continuous
 62
     7
100
AcDbLine
 10
26.256
 20
-9.637
 30
0.0
 11
26.27699999999999
 21
-9.605
 31
0.0
  0
LINE
  5
65E
330
A
100
AcDbEntity
  8
PV
  6
Continuous
 62
     7
100
AcDbLine
 10
26.234
 20
-9.669
 30
0.0
 11
26.256
 21
-9.637
 31
0.0
  0
LINE
  5
65F
330
A
100
AcDbEntity
  8
PV
  6
Continuous
 62
     7
100
AcDbLine
 10
26.21199999999999
 20
-9.699999999999999
 30
0.0
 11
26.234
 21
-9.669
 31
0.0
  0
LINE
  5
660
330
A
100
AcDbEntity
  8
PV
  6
Continuous
 62
     7
100
AcDbLine
 10
26.19
 20
-9.732000000000001
 30
0.0
 11
26.21199999999999
 21
-9.699999999999999
 31
0.0
  0
LINE
  5
661
330
A
100
AcDbEntity
  8
PV
  6
Continuous
 62
     7
100
AcDbLine
 10
26.16699999999999
 20
-9.762999999999999
 30
0.0
 11
26.19
 21
-9.732000000000001
 31
0.0
  0
LINE
  5
662
330
A
100
AcDbEntity
  8
PV
  6
Continuous
 62
     7
100
AcDbLine
 10
26.144
 20
-9.792999999999999
 30
0.0
 11
26.16699999999999
 21
-9.762999999999999
 31
0.0
  0
LINE
  5
663
330
A
100
AcDbEntity
  8
PV
  6
Continuous
 62
     7
100
AcDbLine
 10
26.12
 20
-9.823999999999999
 30
0.0
 11
26.144
 21
-9.792999999999999
 31
0.0
  0
LINE
  5
664
330
A
100
AcDbEntity
  8
PV
  6
Continuous
 62
     7
100
AcDbLine
 10
26.096
 20
-9.853999999999999
 30
0.0
 11
26.12
 21
-9.823999999999999
 31
0.0
  0
LINE
  5
665
330
A
100
AcDbEntity
  8
PV
  6
Continuous
 62
     7
100
AcDbLine
 10
26.072
 20
-9.882999999999999
 30
0.0
 11
26.096
 21
-9.853999999999999
 31
0.0
  0
MTEXT
  5
666
330
A
100
AcDbEntity
  8
PV
  6
Continuous
 62
     7
100
AcDbMText
 10
64.37133299999999
 20
-74.5
 30
0.0
 40
8.4
 41
0.0
 71
     2
 72
     1
  1
\A1;168～183
 11
0.0
 21
1.0
 31
0.0
 73
     1
 44
1.0
  0
LINE
  5
667
330
A
100
AcDbEntity
  8
PV
  6
Continuous
 62
     7
100
AcDbLine
 10
36.39
 20
-158.4999999999999
 30
0.0
 11
76.124
 21
-158.4999999999999
 31
0.0
  0
LINE
  5
668
330
A
100
AcDbEntity
  8
PV
  6
Continuous
 62
     7
100
AcDbLine
 10
28.04
 20
9.5
 30
0.0
 11
76.124
 21
9.5
 31
0.0
  0
LINE
  5
669
330
A
100
AcDbEntity
  8
PV
  6
Continuous
 62
     7
100
AcDbLine
 10
73.838
 20
-158.4999999999999
 30
0.0
 11
73.838
 21
-155.7299999999999
 31
0.0
  0
LINE
  5
66A
330
A
100
AcDbEntity
  8
PV
  6
Continuous
 62
     7
100
AcDbLine
 10
73.838
 20
-158.4999999999999
 30
0.0
 11
73.09499999999999
 21
-155.7299999999999
 31
0.0
  0
LINE
  5
66B
330
A
100
AcDbEntity
  8
PV
  6
Continuous
 62
     7
100
AcDbLine
 10
74.58
 20
-155.7299999999999
 30
0.0
 11
73.838
 21
-158.4999999999999
 31
0.0
  0
LINE
  5
66C
330
A
100
AcDbEntity
  8
PV
  6
Continuous
 62
     7
100
AcDbLine
 10
73.838
 20
9.5
 30
0.0
 11
73.838
 21
6.73
 31
0.0
  0
LINE
  5
66D
330
A
100
AcDbEntity
  8
PV
  6
Continuous
 62
     7
100
AcDbLine
 10
73.838
 20
9.5
 30
0.0
 11
74.58
 21
6.73
 31
0.0
  0
LINE
  5
66E
330
A
100
AcDbEntity
  8
PV
  6
Continuous
 62
     7
100
AcDbLine
 10
73.09499999999999
 20
6.73
 30
0.0
 11
73.838
 21
9.5
 31
0.0
  0
MTEXT
  5
66F
330
A
100
AcDbEntity
  8
PV
  6
Continuous
 62
     7
100
AcDbMText
 10
-118.043602
 20
-121.666292
 30
0.0
 40
8.4
 41
0.0
 71
     2
 72
     1
  1
\A1;70
 11
0.0
 21
1.0
 31
0.0
 73
     1
 44
1.0
  0
LINE
  5
670
330
A
100
AcDbEntity
  8
PV
  6
Continuous
 62
     7
100
AcDbLine
 10
-108.0359999999999
 20
-88.49999999999999
 30
0.0
 11
-108.0359999999999
 21
-91.27
 31
0.0
  0
LINE
  5
671
330
A
100
AcDbEntity
  8
PV
  6
Continuous
 62
     7
100
AcDbLine
 10
-108.0359999999999
 20
-88.49999999999999
 30
0.0
 11
-107.294
 21
-91.27
 31
0.0
  0
LINE
  5
672
330
A
100
AcDbEntity
  8
PV
  6
Continuous
 62
     7
100
AcDbLine
 10
-108.7779999999999
 20
-91.27
 30
0.0
 11
-108.0359999999999
 21
-88.49999999999999
 31
0.0
  0
LINE
  5
673
330
A
100
AcDbEntity
  8
PV
  6
Continuous
 62
     7
100
AcDbLine
 10
-108.0359999999999
 20
-158.4999999999999
 30
0.0
 11
-108.0359999999999
 21
-155.7299999999999
 31
0.0
  0
LINE
  5
674
330
A
100
AcDbEntity
  8
PV
  6
Continuous
 62
     7
100
AcDbLine
 10
-108.0359999999999
 20
-158.4999999999999
 30
0.0
 11
-108.7779999999999
 21
-155.7299999999999
 31
0.0
  0
LINE
  5
675
330
A
100
AcDbEntity
  8
PV
  6
Continuous
 62
     7
100
AcDbLine
 10
-107.294
 20
-155.7299999999999
 30
0.0
 11
-108.0359999999999
 21
-158.4999999999999
 31
0.0
  0
MTEXT
  5
676
330
A
100
AcDbEntity
  8
PV
  6
Continuous
 62
     7
100
AcDbMText
 10
54.37111899999999
 20
29.74154
 30
0.0
 40
5.0
 41
0.0
 71
     2
 72
     1
  1
\A1;38.5～53.5
 11
0.0
 21
1.0
 31
0.0
 73
     1
 44
1.0
  0
LINE
  5
677
330
A
100
AcDbEntity
  8
PV
  6
Continuous
 62
     7
100
AcDbLine
 10
59.80399999999999
 20
9.5
 30
0.0
 11
59.80399999999999
 21
6.73
 31
0.0
  0
LINE
  5
678
330
A
100
AcDbEntity
  8
PV
  6
Continuous
 62
     7
100
AcDbLine
 10
59.80399999999999
 20
9.5
 30
0.0
 11
60.546
 21
6.73
 31
0.0
  0
LINE
  5
679
330
A
100
AcDbEntity
  8
PV
  6
Continuous
 62
     7
100
AcDbLine
 10
59.062
 20
6.73
 30
0.0
 11
59.80399999999999
 21
9.5
 31
0.0
  0
LINE
  5
67A
330
A
100
AcDbEntity
  8
PV
  6
Continuous
 62
     7
100
AcDbLine
 10
59.80399999999999
 20
-29.0
 30
0.0
 11
59.80399999999999
 21
-26.23
 31
0.0
  0
LINE
  5
67B
330
A
100
AcDbEntity
  8
PV
  6
Continuous
 62
     7
100
AcDbLine
 10
59.80399999999999
 20
-29.0
 30
0.0
 11
59.062
 21
-26.23
 31
0.0
  0
LINE
  5
67C
330
A
100
AcDbEntity
  8
PV
  6
Continuous
 62
     7
100
AcDbLine
 10
60.546
 20
-26.23
 30
0.0
 11
59.80399999999999
 21
-29.0
 31
0.0
  0
MTEXT
  5
67D
330
A
100
AcDbEntity
  8
PV
  6
Continuous
 62
     7
100
AcDbMText
 10
34.973334
 20
-3.5
 30
0.0
 40
8.4
 41
0.0
 71
     2
 72
     1
  1
\W0.952;\A1;26
 11
0.0
 21
1.0
 31
0.0
 73
     1
 44
1.0
  0
LINE
  5
67E
330
A
100
AcDbEntity
  8
PV
  6
Continuous
 62
     7
100
AcDbLine
 10
32.54
 20
-16.5
 30
0.0
 11
46.726
 21
-16.5
 31
0.0
  0
LINE
  5
67F
330
A
100
AcDbEntity
  8
PV
  6
Continuous
 62
     7
100
AcDbLine
 10
44.43999999999999
 20
9.5
 30
0.0
 11
44.43999999999999
 21
-16.5
 31
0.0
  0
LINE
  5
680
330
A
100
AcDbEntity
  8
PV
  6
Continuous
 62
     7
100
AcDbLine
 10
44.43999999999999
 20
-16.5
 30
0.0
 11
44.43999999999999
 21
-13.73
 31
0.0
  0
LINE
  5
681
330
A
100
AcDbEntity
  8
PV
  6
Continuous
 62
     7
100
AcDbLine
 10
44.43999999999999
 20
-16.5
 30
0.0
 11
43.698
 21
-13.73
 31
0.0
  0
LINE
  5
682
330
A
100
AcDbEntity
  8
PV
  6
Continuous
 62
     7
100
AcDbLine
 10
45.18199999999999
 20
-13.73
 30
0.0
 11
44.43999999999999
 21
-16.5
 31
0.0
  0
LINE
  5
683
330
A
100
AcDbEntity
  8
PV
  6
Continuous
 62
     7
100
AcDbLine
 10
44.43999999999999
 20
9.5
 30
0.0
 11
44.43999999999999
 21
6.73
 31
0.0
  0
LINE
  5
684
330
A
100
AcDbEntity
  8
PV
  6
Continuous
 62
     7
100
AcDbLine
 10
44.43999999999999
 20
9.5
 30
0.0
 11
45.18199999999999
 21
6.73
 31
0.0
  0
LINE
  5
685
330
A
100
AcDbEntity
  8
PV
  6
Continuous
 62
     7
100
AcDbLine
 10
43.698
 20
6.73
 30
0.0
 11
44.43999999999999
 21
9.5
 31
0.0
  0
MTEXT
  5
686
330
A
100
AcDbEntity
  8
PV
  6
Continuous
 62
     7
100
AcDbMText
 10
0.0
 20
42.07266699999999
 30
0.0
 40
8.4
 41
0.0
 71
     2
 72
     1
  1
\T1.020;\W1.004;\A1;\U+220560
 73
     1
 44
1.0
  0
LINE
  5
687
330
A
100
AcDbEntity
  8
PV
  6
Continuous
 62
     7
100
AcDbLine
 10
30.0
 20
32.606
 30
0.0
 11
27.23
 21
32.606
 31
0.0
  0
LINE
  5
688
330
A
100
AcDbEntity
  8
PV
  6
Continuous
 62
     7
100
AcDbLine
 10
30.0
 20
32.606
 30
0.0
 11
27.23
 21
31.864
 31
0.0
  0
LINE
  5
689
330
A
100
AcDbEntity
  8
PV
  6
Continuous
 62
     7
100
AcDbLine
 10
27.23
 20
33.34799999999999
 30
0.0
 11
30.0
 21
32.606
 31
0.0
  0
LINE
  5
68A
330
A
100
AcDbEntity
  8
PV
  6
Continuous
 62
     7
100
AcDbLine
 10
-30.0
 20
32.606
 30
0.0
 11
-27.23
 21
32.606
 31
0.0
  0
LINE
  5
68B
330
A
100
AcDbEntity
  8
PV
  6
Continuous
 62
     7
100
AcDbLine
 10
-30.0
 20
32.606
 30
0.0
 11
-27.23
 21
33.34799999999999
 31
0.0
  0
LINE
  5
68C
330
A
100
AcDbEntity
  8
PV
  6
Continuous
 62
     7
100
AcDbLine
 10
-27.23
 20
31.864
 30
0.0
 11
-30.0
 21
32.606
 31
0.0
  0
MTEXT
  5
68D
330
A
100
AcDbEntity
  8
PV
  6
Continuous
 62
     7
100
AcDbMText
 10
46.10539199999999
 20
27.49769399999999
 30
0.0
 40
5.0
 41
0.0
 71
     2
 72
     1
  1
\A1;7.5～22.5
 11
0.0
 21
1.0
 31
0.0
 73
     1
 44
1.0
  0
LINE
  5
68E
330
A
100
AcDbEntity
  8
PV
  6
Continuous
 62
     7
100
AcDbLine
 10
28.54
 20
-24.0
 30
0.0
 11
46.726
 21
-24.0
 31
0.0
  0
LINE
  5
68F
330
A
100
AcDbEntity
  8
PV
  6
Continuous
 62
     7
100
AcDbLine
 10
44.43999999999999
 20
-16.5
 30
0.0
 11
44.43999999999999
 21
-24.0
 31
0.0
  0
LINE
  5
690
330
A
100
AcDbEntity
  8
PV
  6
Continuous
 62
     7
100
AcDbLine
 10
44.43999999999999
 20
-24.0
 30
0.0
 11
44.43999999999999
 21
-21.23
 31
0.0
  0
LINE
  5
691
330
A
100
AcDbEntity
  8
PV
  6
Continuous
 62
     7
100
AcDbLine
 10
44.43999999999999
 20
-24.0
 30
0.0
 11
43.698
 21
-21.23
 31
0.0
  0
LINE
  5
692
330
A
100
AcDbEntity
  8
PV
  6
Continuous
 62
     7
100
AcDbLine
 10
45.18199999999999
 20
-21.23
 30
0.0
 11
44.43999999999999
 21
-24.0
 31
0.0
  0
LINE
  5
693
330
A
100
AcDbEntity
  8
PV
  6
Continuous
 62
     7
100
AcDbLine
 10
44.43999999999999
 20
-16.5
 30
0.0
 11
44.43999999999999
 21
-19.26999999999999
 31
0.0
  0
LINE
  5
694
330
A
100
AcDbEntity
  8
PV
  6
Continuous
 62
     7
100
AcDbLine
 10
44.43999999999999
 20
-16.5
 30
0.0
 11
45.18199999999999
 21
-19.26999999999999
 31
0.0
  0
LINE
  5
695
330
A
100
AcDbEntity
  8
PV
  6
Continuous
 62
     7
100
AcDbLine
 10
43.698
 20
-19.26999999999999
 30
0.0
 11
44.43999999999999
 21
-16.5
 31
0.0
  0
LINE
  5
696
330
A
100
AcDbEntity
  8
PV
  6
Continuous
 62
     7
100
AcDbLine
 10
44.43999999999999
 20
-21.25
 30
0.0
 11
46.839
 21
-19.86499999999999
 31
0.0
  0
MTEXT
  5
697
330
A
100
AcDbEntity
  8
PV
  6
Continuous
 62
     7
100
AcDbMText
 10
50.337334
 20
-93.75
 30
0.0
 40
8.4
 41
0.0
 71
     2
 72
     1
  1
\A1;129.5
 11
0.0
 21
1.0
 31
0.0
 73
     1
 44
1.0
  0
LINE
  5
698
330
A
100
AcDbEntity
  8
PV
  6
Continuous
 62
     7
100
AcDbLine
 10
36.39
 20
-158.4999999999999
 30
0.0
 11
62.09
 21
-158.4999999999999
 31
0.0
  0
LINE
  5
699
330
A
100
AcDbEntity
  8
PV
  6
Continuous
 62
     7
100
AcDbLine
 10
42.03999999999999
 20
-29.0
 30
0.0
 11
62.09
 21
-29.0
 31
0.0
  0
LINE
  5
69A
330
A
100
AcDbEntity
  8
PV
  6
Continuous
 62
     7
100
AcDbLine
 10
59.80399999999999
 20
-158.4999999999999
 30
0.0
 11
59.80399999999999
 21
-155.7299999999999
 31
0.0
  0
LINE
  5
69B
330
A
100
AcDbEntity
  8
PV
  6
Continuous
 62
     7
100
AcDbLine
 10
59.80399999999999
 20
-158.4999999999999
 30
0.0
 11
59.062
 21
-155.7299999999999
 31
0.0
  0
LINE
  5
69C
330
A
100
AcDbEntity
  8
PV
  6
Continuous
 62
     7
100
AcDbLine
 10
60.546
 20
-155.7299999999999
 30
0.0
 11
59.80399999999999
 21
-158.4999999999999
 31
0.0
  0
LINE
  5
69D
330
A
100
AcDbEntity
  8
PV
  6
Continuous
 62
     7
100
AcDbLine
 10
59.80399999999999
 20
-29.0
 30
0.0
 11
59.80399999999999
 21
-31.77
 31
0.0
  0
LINE
  5
69E
330
A
100
AcDbEntity
  8
PV
  6
Continuous
 62
     7
100
AcDbLine
 10
59.80399999999999
 20
-29.0
 30
0.0
 11
60.546
 21
-31.77
 31
0.0
  0
LINE
  5
69F
330
A
100
AcDbEntity
  8
PV
  6
Continuous
 62
     7
100
AcDbLine
 10
59.062
 20
-31.77
 30
0.0
 11
59.80399999999999
 21
-29.0
 31
0.0
  0
MTEXT
  5
6A0
330
A
100
AcDbEntity
  8
PV
  6
Continuous
 62
     7
100
AcDbMText
 10
13.052
 20
-102.5453329999999
 30
0.0
 40
8.4
 41
0.0
 71
     2
 72
     1
  1
\T0.891;\W1.089;\A1;\U+220576
 73
     1
 44
1.0
  0
LINE
  5
6A1
330
A
100
AcDbEntity
  8
PV
  6
Continuous
 62
     7
100
AcDbLine
 10
38.0
 20
-112.012
 30
0.0
 11
-38.0
 21
-112.012
 31
0.0
  0
LINE
  5
6A2
330
A
100
AcDbEntity
  8
PV
  6
Continuous
 62
     7
100
AcDbLine
 10
-38.0
 20
-112.012
 30
0.0
 11
-35.22999999999999
 21
-112.012
 31
0.0
  0
LINE
  5
6A3
330
A
100
AcDbEntity
  8
PV
  6
Continuous
 62
     7
100
AcDbLine
 10
-38.0
 20
-112.012
 30
0.0
 11
-35.22999999999999
 21
-111.2689999999999
 31
0.0
  0
LINE
  5
6A4
330
A
100
AcDbEntity
  8
PV
  6
Continuous
 62
     7
100
AcDbLine
 10
-35.22999999999999
 20
-112.7539999999999
 30
0.0
 11
-38.0
 21
-112.012
 31
0.0
  0
LINE
  5
6A5
330
A
100
AcDbEntity
  8
PV
  6
Continuous
 62
     7
100
AcDbLine
 10
38.0
 20
-112.012
 30
0.0
 11
35.22999999999999
 21
-112.012
 31
0.0
  0
LINE
  5
6A6
330
A
100
AcDbEntity
  8
PV
  6
Continuous
 62
     7
100
AcDbLine
 10
38.0
 20
-112.012
 30
0.0
 11
35.22999999999999
 21
-112.7539999999999
 31
0.0
  0
LINE
  5
6A7
330
A
100
AcDbEntity
  8
PV
  6
Continuous
 62
     7
100
AcDbLine
 10
35.22999999999999
 20
-111.2689999999999
 30
0.0
 11
38.0
 21
-112.012
 31
0.0
  0
MTEXT
  5
6A8
330
A
100
AcDbEntity
  8
PV
  6
Continuous
 62
     7
100
AcDbMText
 10
-96.98666700000002
 20
-77.25926499999999
 30
0.0
 40
8.4
 41
0.0
 71
     2
 72
     1
  1
\A1;\U+220569.3
 11
0.0
 21
1.0
 31
0.0
 73
     1
 44
1.0
  0
LINE
  5
6A9
330
A
100
AcDbEntity
  8
PV
  6
Continuous
 62
     7
100
AcDbLine
 10
-87.52
 20
-123.15
 30
0.0
 11
-87.52
 21
-53.85
 31
0.0
  0
LINE
  5
6AA
330
A
100
AcDbEntity
  8
PV
  6
Continuous
 62
     7
100
AcDbLine
 10
-87.52
 20
-53.85
 30
0.0
 11
-87.52
 21
-56.61999999999999
 31
0.0
  0
LINE
  5
6AB
330
A
100
AcDbEntity
  8
PV
  6
Continuous
 62
     7
100
AcDbLine
 10
-87.52
 20
-53.85
 30
0.0
 11
-86.77699999999999
 21
-56.61999999999999
 31
0.0
  0
LINE
  5
6AC
330
A
100
AcDbEntity
  8
PV
  6
Continuous
 62
     7
100
AcDbLine
 10
-88.262
 20
-56.61999999999999
 30
0.0
 11
-87.52
 21
-53.85
 31
0.0
  0
LINE
  5
6AD
330
A
100
AcDbEntity
  8
PV
  6
Continuous
 62
     7
100
AcDbLine
 10
-87.52
 20
-123.15
 30
0.0
 11
-87.52
 21
-120.3799999999999
 31
0.0
  0
LINE
  5
6AE
330
A
100
AcDbEntity
  8
PV
  6
Continuous
 62
     7
100
AcDbLine
 10
-87.52
 20
-123.15
 30
0.0
 11
-88.262
 21
-120.3799999999999
 31
0.0
  0
LINE
  5
6AF
330
A
100
AcDbEntity
  8
PV
  6
Continuous
 62
     7
100
AcDbLine
 10
-86.77699999999999
 20
-120.3799999999999
 30
0.0
 11
-87.52
 21
-123.15
 31
0.0
  0
MTEXT
  5
6B0
330
A
100
AcDbEntity
  8
PV
  6
Continuous
 62
     7
100
AcDbMText
 10
11.83185099999999
 20
-172.027031
 30
0.0
 40
8.4
 41
0.0
 71
     2
 72
     1
  1
\A1;\U+220569.3
 73
     1
 44
1.0
  0
LINE
  5
6B1
330
A
100
AcDbEntity
  8
PV
  6
Continuous
 62
     7
100
AcDbLine
 10
-34.64999999999999
 20
-159.3233429999999
 30
0.0
 11
-34.64999999999999
 21
-183.237
 31
0.0
  0
LINE
  5
6B2
330
A
100
AcDbEntity
  8
PV
  6
Continuous
 62
     7
100
AcDbLine
 10
-34.64999999999999
 20
-181.2369999999999
 30
0.0
 11
-31.88
 21
-181.2369999999999
 31
0.0
  0
LINE
  5
6B3
330
A
100
AcDbEntity
  8
PV
  6
Continuous
 62
     7
100
AcDbLine
 10
-34.64999999999999
 20
-181.2369999999999
 30
0.0
 11
-31.88
 21
-180.495
 31
0.0
  0
LINE
  5
6B4
330
A
100
AcDbEntity
  8
PV
  6
Continuous
 62
     7
100
AcDbLine
 10
-31.88
 20
-181.979
 30
0.0
 11
-34.64999999999999
 21
-181.2369999999999
 31
0.0
  0
LINE
  5
6B5
330
A
100
AcDbEntity
  8
PV
  6
Continuous
 62
     7
100
AcDbLine
 10
34.64999999999999
 20
-181.2369999999999
 30
0.0
 11
31.88
 21
-181.2369999999999
 31
0.0
  0
LINE
  5
6B6
330
A
100
AcDbEntity
  8
PV
  6
Continuous
 62
     7
100
AcDbLine
 10
34.64999999999999
 20
-181.2369999999999
 30
0.0
 11
31.88
 21
-181.979
 31
0.0
  0
LINE
  5
6B7
330
A
100
AcDbEntity
  8
PV
  6
Continuous
 62
     7
100
AcDbLine
 10
31.88
 20
-180.495
 30
0.0
 11
34.64999999999999
 21
-181.2369999999999
 31
0.0
  0
ENDSEC
  0
SECTION
  2
OBJECTS
  0
DICTIONARY
  5
19
330
0
100
AcDbDictionary
281
     1
  3
ACAD_GROUP
350
1A
  3
ACAD_LAYOUT
350
1E
  3
ACAD_MLINESTYLE
350
1B
  3
ACAD_PLOTSETTINGS
350
22
  3
ACAD_PLOTSTYLENAME
350
1F
  0
DICTIONARY
  5
1A
102
{ACAD_REACTORS
330
19
102
}
330
19
100
AcDbDictionary
281
     1
  0
DICTIONARY
  5
1E
102
{ACAD_REACTORS
330
19
102
}
330
19
100
AcDbDictionary
281
     1
  3
Layout1
350
21
  3
Model
350
20
  0
DICTIONARY
  5
1B
102
{ACAD_REACTORS
330
19
102
}
330
19
100
AcDbDictionary
281
     1
  3
Standard
350
1C
  0
DICTIONARY
  5
22
102
{ACAD_REACTORS
330
19
102
}
330
19
100
AcDbDictionary
281
     1
  0
ACDBDICTIONARYWDFLT
  5
1F
102
{ACAD_REACTORS
330
19
102
}
330
19
100
AcDbDictionary
281
     1
  3
Normal
350
1D
100
AcDbDictionaryWithDefault
340
1D
  0
LAYOUT
  5
21
102
{ACAD_REACTORS
330
1E
102
}
330
1E
100
AcDbPlotSettings
  1

  2

  4

  6

 40
0.0
 41
0.0
 42
0.0
 43
0.0
 44
0.0
 45
0.0
 46
0.0
 47
0.0
 48
0.0
 49
0.0
140
0.0
141
0.0
142
1.0
143
1.0
 70
     0
 72
     0
 73
     0
 74
     0
  7

 75
     0
147
1.0
148
0.0
149
0.0
100
AcDbLayout
  1
Layout1
 70
     0
 71
     1
 10
0.0
 20
0.0
 11
12.0
 21
9.0
 12
0.0
 22
0.0
 32
0.0
 14
1.000000000000000E+20
 24
1.000000000000000E+20
 34
1.000000000000000E+20
 15
-1.000000000000000E+20
 25
-1.000000000000000E+20
 35
-1.000000000000000E+20
146
0.0
 13
0.0
 23
0.0
 33
0.0
 16
1.0
 26
0.0
 36
0.0
 17
0.0
 27
1.0
 37
0.0
 76
     0
330
B
  0
LAYOUT
  5
20
102
{ACAD_REACTORS
330
1E
102
}
330
1E
100
AcDbPlotSettings
  1

  2
Adobe PDF
  4
A4
  6

 40
3.174999952316284
 41
3.174999952316284
 42
3.175003051757812
 43
3.17498779296875
 44
209.9098358154297
 45
297.0318298339843
 46
27.39
 47
0.0
 48
0.0
 49
0.0
140
0.0
141
0.0
142
1.0
143
1.323953048579368
 70
 11284
 72
     1
 73
     0
 74
     2
  7

 75
     0
147
0.7553137938486737
148
120.843602
149
197.3564439999999
100
AcDbLayout
  1
Model
 70
     0
 71
     0
 10
0.0
 20
0.0
 11
0.0
 21
0.0
 12
0.0
 22
0.0
 32
0.0
 14
0.0
 24
0.0
 34
0.0
 15
0.0
 25
0.0
 35
0.0
146
0.0
 13
0.0
 23
0.0
 33
0.0
 16
0.0
 26
0.0
 36
0.0
 17
0.0
 27
0.0
 37
0.0
 76
     0
330
A
  0
MLINESTYLE
  5
1C
102
{ACAD_REACTORS
330
1B
102
}
330
1B
100
AcDbMlineStyle
  2
STANDARD
 70
     0
  3

 62
     0
 51
90.0
 52
90.0
 71
     2
 49
0.5
 62
   256
  6
BYLAYER
 49
-0.5
 62
   256
  6
BYLAYER
  0
ACDBPLACEHOLDER
  5
1D
102
{ACAD_REACTORS
330
1F
102
}
330
1F
  0
ENDSEC
  0
EOF
