  0
SECTION
  2
HEADER
  9
$ACADVER
  1
AC1015
  9
$ACADMAINTVER
 70
     6
  9
$DWGCODEPAGE
  3
ANSI_932
  9
$INSBASE
 10
0.0
 20
0.0
 30
0.0
  9
$EXTMIN
 10
-203.766667
 20
-199.30369
 30
0.0
  9
$EXTMAX
 10
142.342614
 20
181.219667
 30
0.0
  9
$LIMMIN
 10
-203.766667
 20
-199.30369
  9
$LIMMAX
 10
142.342614
 20
181.219667
  9
$ORTHOMODE
 70
     0
  9
$REGENMODE
 70
     1
  9
$FILLMODE
 70
     1
  9
$QTEXTMODE
 70
     0
  9
$MIRRTEXT
 70
     1
  9
$LTSCALE
 40
1.0
  9
$ATTMODE
 70
     1
  9
$TEXTSIZE
 40
3.2
  9
$TRACEWID
 40
0.05
  9
$TEXTSTYLE
  7
MX_NOTE_STANDARD
  9
$CLAYER
  8
0
  9
$CELTYPE
  6
CONTINUOUS
  9
$CECOLOR
 62
   256
  9
$CELTSCALE
 40
1.0
  9
$DISPSILH
 70
     0
  9
$DIMSCALE
 40
1.0
  9
$DIMASZ
 40
2.5
  9
$DIMEXO
 40
2.54
  9
$DIMDLI
 40
3.75
  9
$DIMRND
 40
0.0
  9
$DIMDLE
 40
0.0
  9
$DIMEXE
 40
2.286
  9
$DIMTP
 40
0.0
  9
$DIMTM
 40
0.0
  9
$DIMTXT
 40
3.2
  9
$DIMCEN
 40
2.5
  9
$DIMTSZ
 40
0.0
  9
$DIMTOL
 70
     0
  9
$DIMLIM
 70
     0
  9
$DIMTIH
 70
     0
  9
$DIMTOH
 70
     0
  9
$DIMSE1
 70
     0
  9
$DIMSE2
 70
     0
  9
$DIMTAD
 70
     1
  9
$DIMZIN
 70
     8
  9
$DIMBLK
  1

  9
$DIMASO
 70
     1
  9
$DIMSHO
 70
     1
  9
$DIMPOST
  1

  9
$DIMAPOST
  1

  9
$DIMALT
 70
     0
  9
$DIMALTD
 70
     4
  9
$DIMALTF
 40
0.03937
  9
$DIMLFAC
 40
1.0
  9
$DIMTOFL
 70
     1
  9
$DIMTVP
 40
0.0
  9
$DIMTIX
 70
     0
  9
$DIMSOXD
 70
     0
  9
$DIMSAH
 70
     1
  9
$DIMBLK1
  1
_OPEN30
  9
$DIMBLK2
  1
_OPEN30
  9
$DIMSTYLE
  2
MXDIMSTYLE
  9
$DIMCLRD
 70
     0
  9
$DIMCLRE
 70
     0
  9
$DIMCLRT
 70
     0
  9
$DIMTFAC
 40
1.0
  9
$DIMGAP
 40
1.0
  9
$DIMJUST
 70
     0
  9
$DIMSD1
 70
     0
  9
$DIMSD2
 70
     0
  9
$DIMTOLJ
 70
     0
  9
$DIMTZIN
 70
     0
  9
$DIMALTZ
 70
     0
  9
$DIMALTTZ
 70
     0
  9
$DIMUPT
 70
     1
  9
$DIMDEC
 70
     2
  9
$DIMTDEC
 70
     2
  9
$DIMALTU
 70
     2
  9
$DIMALTTD
 70
     4
  9
$DIMTXSTY
  7
MX_NOTE_STANDARD
  9
$DIMAUNIT
 70
     0
  9
$DIMADEC
 70
     0
  9
$DIMALTRND
 40
0.0
  9
$DIMAZIN
 70
     0
  9
$DIMDSEP
 70
    46
  9
$DIMATFIT
 70
     3
  9
$DIMFRAC
 70
     0
  9
$DIMLDRBLK
  1
_OPEN30
  9
$DIMLUNIT
 70
     2
  9
$DIMLWD
 70
    -2
  9
$DIMLWE
 70
    -2
  9
$DIMTMOVE
 70
     0
  9
$LUNITS
 70
     2
  9
$LUPREC
 70
     4
  9
$SKETCHINC
 40
0.1
  9
$FILLETRAD
 40
0.0
  9
$AUNITS
 70
     0
  9
$AUPREC
 70
     0
  9
$MENU
  1
acad
  9
$ELEVATION
 40
0.0
  9
$PELEVATION
 40
0.0
  9
$THICKNESS
 40
0.0
  9
$LIMCHECK
 70
     0
  9
$CHAMFERA
 40
0.0
  9
$CHAMFERB
 40
0.0
  9
$CHAMFERC
 40
0.0
  9
$CHAMFERD
 40
0.0
  9
$SKPOLY
 70
     0
  9
$TDCREATE
 40
2455288.554884259
  9
$TDUCREATE
 40
0.000000000
  9
$TDUPDATE
 40
2455288.554884259
  9
$TDUUPDATE
 40
0.000000000
  9
$TDINDWG
 40
0.0000000000
  9
$TDUSRTIMER
 40
0.0000000000
  9
$USRTIMER
 70
     1
  9
$ANGBASE
 50
0.0
  9
$ANGDIR
 70
     0
  9
$PDMODE
 70
     0
  9
$PDSIZE
 40
0.0
  9
$PLINEWID
 40
0.0
  9
$SPLFRAME
 70
     0
  9
$SPLINETYPE
 70
     6
  9
$SPLINESEGS
 70
     8
  9
$HANDSEED
  5
33A
  9
$SURFTAB1
 70
     6
  9
$SURFTAB2
 70
     6
  9
$SURFTYPE
 70
     6
  9
$SURFU
 70
     6
  9
$SURFV
 70
     6
  9
$UCSBASE
  2

  9
$UCSNAME
  2

  9
$UCSORG
 10
0.0
 20
0.0
 30
0.0
  9
$UCSXDIR
 10
1.0
 20
0.0
 30
0.0
  9
$UCSYDIR
 10
0.0
 20
1.0
 30
0.0
  9
$UCSORTHOREF
  2

  9
$UCSORTHOVIEW
 70
     0
  9
$UCSORGTOP
 10
0.0
 20
0.0
 30
0.0
  9
$UCSORGBOTTOM
 10
0.0
 20
0.0
 30
0.0
  9
$UCSORGLEFT
 10
0.0
 20
0.0
 30
0.0
  9
$UCSORGRIGHT
 10
0.0
 20
0.0
 30
0.0
  9
$UCSORGFRONT
 10
0.0
 20
0.0
 30
0.0
  9
$UCSORGBACK
 10
0.0
 20
0.0
 30
0.0
  9
$PUCSBASE
  2

  9
$PUCSNAME
  2

  9
$PUCSORG
 10
0.0
 20
0.0
 30
0.0
  9
$PUCSXDIR
 10
1.0
 20
0.0
 30
0.0
  9
$PUCSYDIR
 10
0.0
 20
1.0
 30
0.0
  9
$PUCSORTHOREF
  2

  9
$PUCSORTHOVIEW
 70
     0
  9
$PUCSORGTOP
 10
0.0
 20
0.0
 30
0.0
  9
$PUCSORGBOTTOM
 10
0.0
 20
0.0
 30
0.0
  9
$PUCSORGLEFT
 10
0.0
 20
0.0
 30
0.0
  9
$PUCSORGRIGHT
 10
0.0
 20
0.0
 30
0.0
  9
$PUCSORGFRONT
 10
0.0
 20
0.0
 30
0.0
  9
$PUCSORGBACK
 10
0.0
 20
0.0
 30
0.0
  9
$USERI1
 70
     0
  9
$USERI2
 70
     0
  9
$USERI3
 70
     0
  9
$USERI4
 70
     0
  9
$USERI5
 70
     0
  9
$USERR1
 40
0.0
  9
$USERR2
 40
0.0
  9
$USERR3
 40
0.0
  9
$USERR4
 40
0.0
  9
$USERR5
 40
0.0
  9
$WORLDVIEW
 70
     1
  9
$SHADEDGE
 70
     3
  9
$SHADEDIF
 70
    70
  9
$TILEMODE
 70
     1
  9
$MAXACTVP
 70
    16
  9
$PINSBASE
 10
0.0
 20
0.0
 30
0.0
  9
$PLIMCHECK
 70
     0
  9
$PEXTMIN
 10
1.000000E+20
 20
1.000000E+20
 30
1.000000E+20
  9
$PEXTMAX
 10
-1.000000E+20
 20
-1.000000E+20
 30
-1.000000E+20
  9
$PLIMMIN
 10
0.0
 20
0.0
  9
$PLIMMAX
 10
12.0
 20
9.0
  9
$UNITMODE
 70
     0
  9
$VISRETAIN
 70
     0
  9
$PLINEGEN
 70
     1
  9
$PSLTSCALE
 70
     0
  9
$TREEDEPTH
 70
  3020
  9
$CMLSTYLE
  2
Standard
  9
$CMLJUST
 70
     0
  9
$CMLSCALE
 40
1.0
  9
$PROXYGRAPHICS
 70
     0
  9
$MEASUREMENT
 70
     1
  9
$CELWEIGHT
370
     0
  9
$ENDCAPS
280
     0
  9
$JOINSTYLE
280
     0
  9
$LWDISPLAY
290
     0
  9
$INSUNITS
 70
     0
  9
$HYPERLINKBASE
  1

  9
$STYLESHEET
  1

  9
$XEDIT
290
     1
  9
$CEPSNTYPE
380
     0
  9
$PSTYLEMODE
290
     1
  9
$FINGERPRINTGUID
  2

  9
$VERSIONGUID
  2

  9
$EXTNAMES
290
     1
  9
$PSVPSCALE
 40
0.0
  0
ENDSEC
  0
SECTION
  2
CLASSES
  0
CLASS
  1
LWPOLYLINE
  2
AcDbPolyline
  3
AutoCAD 2000
 90
        0
280
     0
281
     1
  0
CLASS
  1
IMAGE
  2
AcDbRasterImage
  3
ISM
 90
      127
280
     0
281
     1
  0
CLASS
  1
OLE2FRAME
  2
AcDbOle2Frame
  3
AutoCAD 2000
 90
        0
280
     0
281
     1
  0
CLASS
  1
HATCH
  2
AcDbHatch
  3
AutoCAD 2000
 90
        0
280
     0
281
     1
  0
CLASS
  1
DICTIONARYVAR
  2
AcDbDictionaryVar
  3
AutoCAD 2000
 90
        0
280
     0
281
     0
  0
CLASS
  1
RASTERVARIABLES
  2
AcDbRasterVariables
  3
ISM
 90
        0
280
     0
281
     0
  0
CLASS
  1
IMAGEDEF
  2
AcDbRasterImageDef
  3
ISM
 90
        0
280
     0
281
     0
  0
CLASS
  1
IMAGEDEF_REACTOR
  2
AcDbRasterImageDefReactor
  3
ISM
 90
        1
280
     0
281
     0
  0
CLASS
  1
IDBUFFER
  2
AcDbIdBuffer
  3
AutoCAD 2000
 90
        0
280
     0
281
     0
  0
CLASS
  1
SPATIAL_FILTER
  2
AcDbSpatialFilter
  3
AutoCAD 2000
 90
        0
280
     0
281
     0
  0
CLASS
  1
XRECORD
  2
AcDbXrecord
  3
AutoCAD 2000
 90
        0
280
     0
281
     0
  0
CLASS
  1
SORTENTSTABLE
  2
AcDbSortentsTable
  3
AutoCAD 2000
 90
        0
280
     0
281
     0
  0
CLASS
  1
LAYER_INDEX
  2
AcDbLayerIndex
  3
AutoCAD 2000
 90
        0
280
     0
281
     0
  0
CLASS
  1
SPATIAL_INDEX
  2
AcDbSpatialIndex
  3
AutoCAD 2000
 90
        0
280
     0
281
     0
  0
CLASS
  1
OBJECT_PTR
  2
CAseDLPNTableRecord
  3
"ASE-LPNTableRecord"
 90
        1
280
     0
281
     0
  0
CLASS
  1
LAYOUT
  2
AcDbLayout
  3
AutoCAD 2000
 90
        0
280
     0
281
     0
  0
CLASS
  1
PLOTSETTINGS
  2
AcDbPlotSettings
  3
AutoCAD 2000
 90
        0
280
     0
281
     0
  0
CLASS
  1
ACDBDICTIONARYWDFLT
  2
AcDbDictionaryWithDefault
  3
AutoCAD 2000
 90
        0
280
     0
281
     0
  0
CLASS
  1
ACDBPLACEHOLDER
  2
AcDbPlaceHolder
  3
AutoCAD 2000
 90
        0
280
     0
281
     0
  0
ENDSEC
  0
SECTION
  2
TABLES
  0
TABLE
  2
VPORT
  5
7
100
AcDbSymbolTable
 70
     1
  0
VPORT
  5
15
100
AcDbSymbolTableRecord
100
AcDbViewportTableRecord
  2
*ACTIVE
 70
     0
 10
0.0
 20
0.0
 11
1.0
 21
1.0
 12
-30.712026
 22
-9.042012
 13
0.0
 23
0.0
 14
1.0
 24
1.0
 15
0.0
 25
0.0
 16
0.0
 26
0.0
 36
1.0
 17
0.0
 27
0.0
 37
0.0
 40
384.32859
 41
1.732051
 42
50.0
 43
0.0
 44
0.0
 50
0.0
 51
0.0
 71
     0
 72
   100
 73
     1
 74
     1
 75
     0
 76
     0
 77
     0
 78
     0
281
     0
 65
     0
110
0.0
120
0.0
130
0.0
111
1.0
121
0.0
131
0.0
112
0.0
122
1.0
132
0.0
345
0
346
0
 79
     0
146
0.0
  0
ENDTAB
  0
TABLE
  2
LTYPE
  5
4
100
AcDbSymbolTable
 70
     4
  0
LTYPE
  5
11
100
AcDbSymbolTableRecord
100
AcDbLinetypeTableRecord
  2
BYBLOCK
 70
    64
  3

 72
    65
 73
     0
 40
0.0
  0
LTYPE
  5
12
100
AcDbSymbolTableRecord
100
AcDbLinetypeTableRecord
  2
BYLAYER
 70
    64
  3

 72
    65
 73
     0
 40
0.0
  0
LTYPE
  5
13
100
AcDbSymbolTableRecord
100
AcDbLinetypeTableRecord
  2
CONTINUOUS
 70
    64
  3
Solid line
 72
    65
 73
     0
 40
0.0
  0
LTYPE
  5
3E
100
AcDbSymbolTableRecord
100
AcDbLinetypeTableRecord
  2
CENTER
 70
    64
  3
Center ____ _ ____ _ ____ _ ____ _ ____ _ ____
 72
    65
 73
     4
 40
50.8
 49
31.75
 74
     0
 49
-6.35
 74
     0
 49
6.35
 74
     0
 49
-6.35
 74
     0
  0
ENDTAB
  0
TABLE
  2
LAYER
  5
2
100
AcDbSymbolTable
 70
     4
  0
LAYER
  5
14
100
AcDbSymbolTableRecord
100
AcDbLayerTableRecord
  2
0
 70
     0
 62
     7
  6
CONTINUOUS
290
     1
370
    -3
390
1D
  0
LAYER
  5
23
100
AcDbSymbolTableRecord
100
AcDbLayerTableRecord
  2
DEFPOINTS
 70
     0
 62
     7
  6
CONTINUOUS
290
     0
370
    -3
390
1D
  0
LAYER
  5
24
100
AcDbSymbolTableRecord
100
AcDbLayerTableRecord
  2
PV
 70
     0
 62
     7
  6
CONTINUOUS
290
     1
370
    -3
390
1D
  0
LAYER
  5
25
100
AcDbSymbolTableRecord
100
AcDbLayerTableRecord
  2
WV
 70
     0
 62
     7
  6
CONTINUOUS
290
     1
370
    -3
390
1D
  0
ENDTAB
  0
TABLE
  2
STYLE
  5
3
100
AcDbSymbolTable
 70
     1
  0
STYLE
  5
17
100
AcDbSymbolTableRecord
100
AcDbTextStyleTableRecord
  2
MX_NOTE_STANDARD
 70
     0
 40
0.0
 41
1.0
 50
0.0
 71
     0
 42
3.2
  3
txt.shx
  4
extfont.shx
  0
ENDTAB
  0
TABLE
  2
VIEW
  5
5
100
AcDbSymbolTable
 70
     0
  0
ENDTAB
  0
TABLE
  2
UCS
  5
6
100
AcDbSymbolTable
 70
     0
  0
ENDTAB
  0
TABLE
  2
APPID
  5
8
100
AcDbSymbolTable
 70
     1
  0
APPID
  5
16
100
AcDbSymbolTableRecord
100
AcDbRegAppTableRecord
  2
ACAD
 70
     0
  0
ENDTAB
  0
TABLE
  2
DIMSTYLE
  5
9
100
AcDbSymbolTable
 70
     1
100
AcDbDimStyleTable
 71
     0
  0
DIMSTYLE
105
18
100
AcDbSymbolTableRecord
100
AcDbDimStyleTableRecord
  2
MXDIMSTYLE
 70
     0
  3

  4

 40
1.0
 41
2.5
 42
2.54
 43
3.75
 44
2.286
 45
0.0
 46
0.0
 47
0.0
 48
0.0
 71
     0
 72
     0
 73
     0
 74
     0
 75
     0
 76
     0
 77
     1
 78
     8
 79
     0
140
3.2
141
2.5
142
0.0
143
0.03937
144
1.0
145
0.0
146
1.0
147
1.0
148
0.0
170
     0
171
     4
172
     1
173
     1
174
     0
175
     0
176
     0
177
     0
178
     0
179
     0
271
     2
272
     2
273
     2
274
     4
275
     0
276
     0
277
     2
278
    46
279
     0
280
     0
281
     0
282
     0
283
     0
284
     0
285
     0
286
     0
288
     1
289
     3
340
17
341
26
342
0
343
26
344
26
371
    -2
372
    -2
  0
ENDTAB
  0
TABLE
  2
BLOCK_RECORD
  5
1
100
AcDbSymbolTable
 70
     3
  0
BLOCK_RECORD
  5
A
100
AcDbSymbolTableRecord
100
AcDbBlockTableRecord
  2
*MODEL_SPACE
340
20
  0
BLOCK_RECORD
  5
B
100
AcDbSymbolTableRecord
100
AcDbBlockTableRecord
  2
*PAPER_SPACE
340
21
  0
BLOCK_RECORD
  5
26
100
AcDbSymbolTableRecord
100
AcDbBlockTableRecord
  2
_OPEN30
340
0
102
{BLKREFS
331
33
102
}
  0
BLOCK_RECORD
  5
2E
100
AcDbSymbolTableRecord
100
AcDbBlockTableRecord
  2
*D1
340
0
  0
BLOCK_RECORD
  5
34
100
AcDbSymbolTableRecord
100
AcDbBlockTableRecord
  2
_NONE
340
0
  0
ENDTAB
  0
ENDSEC
  0
SECTION
  2
BLOCKS
  0
BLOCK
  5
D
100
AcDbEntity
  8
0
390
0
100
AcDbBlockBegin
  2
*MODEL_SPACE
 70
     0
 10
0.0
 20
0.0
 30
0.0
  3
*MODEL_SPACE
  1

  0
ENDBLK
  5
E
100
AcDbEntity
  8
0
390
0
100
AcDbBlockEnd
  0
BLOCK
  5
F
100
AcDbEntity
 67
     1
  8
0
390
0
100
AcDbBlockBegin
  2
*PAPER_SPACE
 70
     0
 10
0.0
 20
0.0
 30
0.0
  3
*PAPER_SPACE
  1

  0
ENDBLK
  5
10
100
AcDbEntity
 67
     1
  8
0
390
0
100
AcDbBlockEnd
  0
BLOCK
  5
27
100
AcDbEntity
  8
0
370
    -2
390
0
  6
ByBlock
 62
     0
100
AcDbBlockBegin
  2
_OPEN30
 70
     2
 10
0.0
 20
0.0
 30
0.0
  3
_OPEN30
  1

  0
LINE
  5
28
100
AcDbEntity
  8
0
370
    -2
390
0
  6
ByBlock
 62
     0
100
AcDbLine
 10
-1.0
 20
0.267949
 30
0.0
 11
0.0
 21
0.0
 31
0.0
  0
LINE
  5
29
100
AcDbEntity
  8
0
370
    -2
390
0
  6
ByBlock
 62
     0
100
AcDbLine
 10
0.0
 20
0.0
 30
0.0
 11
-1.0
 21
-0.267949
 31
0.0
  0
LINE
  5
2A
100
AcDbEntity
  8
0
370
    -2
390
0
  6
ByBlock
 62
     0
100
AcDbLine
 10
0.0
 20
0.0
 30
0.0
 11
-1.0
 21
0.0
 31
0.0
  0
ENDBLK
  5
2B
100
AcDbEntity
  8
0
370
    -2
390
0
  6
ByBlock
 62
     0
100
AcDbBlockEnd
  0
BLOCK
  5
2F
100
AcDbEntity
  8
0
370
    -2
390
0
  6
ByBlock
 62
     0
100
AcDbBlockBegin
  2
*D1
 70
     1
 10
0.0
 20
0.0
 30
0.0
  3
*D1
  1

  0
LINE
  5
30
100
AcDbEntity
  8
0
390
0
  6
CONTINUOUS
 62
     7
100
AcDbLine
 10
43.777409
 20
-178.470484
 30
0.0
 11
28.006075
 21
-193.305019
 31
0.0
  0
LINE
  5
31
100
AcDbEntity
  8
0
390
0
  6
CONTINUOUS
 62
     7
100
AcDbLine
 10
28.006075
 20
-193.305019
 30
0.0
 11
-62.76197
 21
-193.305019
 31
0.0
  0
LINE
  5
32
100
AcDbEntity
  8
0
390
0
  6
CONTINUOUS
 62
     7
100
AcDbLine
 10
43.777409
 20
-178.470484
 30
0.0
 11
39.152011
 21
-182.821139
 31
0.0
  0
INSERT
  5
33
100
AcDbEntity
  8
0
390
0
  6
CONTINUOUS
 62
     7
100
AcDbBlockReference
  2
_OPEN30
 10
43.777409
 20
-178.470484
 30
0.0
 41
2.77
 42
2.77
 43
2.77
 50
43.24681
  0
MTEXT
  5
38
100
AcDbEntity
  8
0
390
0
  6
CONTINUOUS
 62
     7
100
AcDbMText
 10
-16.561972
 20
-188.105019
 30
0.0
 40
8.4
 41
0.0
 71
     5
 72
     1
  1
\A1;6-6.8キリ（等配）
 11
1.0
 21
0.0
 31
0.0
 73
     1
 44
0.9
  0
POINT
  5
39
100
AcDbEntity
  8
DEFPOINTS
390
0
  6
CONTINUOUS
 62
     0
100
AcDbPoint
 10
43.777409
 20
-178.470484
 30
0.0
  0
POINT
  5
3A
100
AcDbEntity
  8
DEFPOINTS
390
0
  6
CONTINUOUS
 62
     0
100
AcDbPoint
 10
48.730591
 20
-173.811516
 30
0.0
  0
ENDBLK
  5
3B
100
AcDbEntity
  8
0
370
    -2
390
0
  6
ByBlock
 62
     0
100
AcDbBlockEnd
  0
BLOCK
  5
35
100
AcDbEntity
  8
0
370
    -2
390
0
  6
ByBlock
 62
     0
100
AcDbBlockBegin
  2
_NONE
 70
     2
 10
0.0
 20
0.0
 30
0.0
  3
_NONE
  1

  0
CIRCLE
  5
36
100
AcDbEntity
  8
0
370
    -2
390
0
  6
ByBlock
 62
     0
100
AcDbCircle
 10
0.0
 20
0.0
 30
0.0
 40
0.25
  0
ENDBLK
  5
37
100
AcDbEntity
  8
0
370
    -2
390
0
  6
ByBlock
 62
     0
100
AcDbBlockEnd
  0
ENDSEC
  0
SECTION
  2
ENTITIES
  0
LEADER
  5
2C
100
AcDbEntity
  8
0
390
0
  6
CONTINUOUS
 62
     7
100
AcDbLeader
  3
MXDIMSTYLE
 73
     3
 74
     0
 75
     0
 40
0.0
 76
     3
 10
60.929
 20
-15.5
 30
0.0
 10
88.629694
 20
58.495094
 30
0.0
 10
142.342614
 20
58.495094
 30
0.0
 77
     7
1001
ACAD
1000
DSTYLE
1002
{
1070
    41
1040
2.77
1002
}
  0
MTEXT
  5
2D
100
AcDbEntity
  8
0
390
0
  6
CONTINUOUS
 62
     7
100
AcDbMText
 10
91.942617
 20
65.795094
 30
0.0
 40
8.4
 41
0.0
 71
     4
 72
     1
  1
\W1.023;\A1;Rc　1/8
 73
     1
 44
0.9
  0
DIMENSION
  5
3C
100
AcDbEntity
  8
0
390
0
  6
CONTINUOUS
 62
     7
100
AcDbDimension
  2
*D1
 10
48.730591
 20
-173.811516
 30
0.0
 11
-16.561972
 21
-193.305019
 31
0.0
 70
   131
 71
     5
 72
     1
 41
0.9
 42
6.8
  1
6-<>
  3
MXDIMSTYLE
100
AcDbDiametricDimension
 15
43.777409
 25
-178.470484
 35
0.0
 40
0.0
1001
ACAD
1000
DSTYLE
1002
{
1070
     6
1000
_NONE
1070
    41
1040
2.77
1070
    73
1070
     1
1070
    74
1070
     1
1070
   140
1040
8.4
1070
   141
1040
0.0
1070
   172
1070
     0
1070
   271
1070
     1
1070
   284
1070
     8
1070
   343
1005
34
1002
}
  0
LEADER
  5
3D
100
AcDbEntity
  8
0
390
0
  6
CONTINUOUS
 62
     7
100
AcDbLeader
  3
MXDIMSTYLE
 73
     3
 74
     0
 75
     0
 40
0.0
 76
     2
 10
60.929
 20
17.5
 30
0.0
 10
88.629694
 20
58.495094
 30
0.0
 77
     7
1001
ACAD
1000
DSTYLE
1002
{
1070
    41
1040
2.77
1002
}
  0
LINE
  5
3F
100
AcDbEntity
  8
PV
390
0
  6
CENTER
 62
     7
100
AcDbLine
 10
-161.793
 20
-68.0
 30
0.0
 11
-121.157
 21
-68.0
 31
0.0
  0
LINE
  5
40
100
AcDbEntity
  8
PV
390
0
  6
CENTER
 62
     7
100
AcDbLine
 10
-39.508
 20
120.006
 30
0.0
 11
-180.0
 21
120.006
 31
0.0
  0
LINE
  5
41
100
AcDbEntity
  8
PV
390
0
  6
CENTER
 62
     7
100
AcDbLine
 10
-90.0
 20
162.852
 30
0.0
 11
-90.0
 21
76.406
 31
0.0
  0
LINE
  5
42
100
AcDbEntity
  8
PV
390
0
  6
CONTINUOUS
 62
     7
100
AcDbLine
 10
-46.0
 20
136.006
 30
0.0
 11
-46.0
 21
104.506
 31
0.0
  0
LINE
  5
43
100
AcDbEntity
  8
PV
390
0
  6
CONTINUOUS
 62
     7
100
AcDbLine
 10
-77.9
 20
80.506
 30
0.0
 11
-78.8
 21
80.506
 31
0.0
  0
LINE
  5
44
100
AcDbEntity
  8
PV
390
0
  6
CONTINUOUS
 62
     7
100
AcDbLine
 10
-77.9
 20
80.506
 30
0.0
 11
-77.9
 21
84.206
 31
0.0
  0
LINE
  5
45
100
AcDbEntity
  8
PV
390
0
  6
CONTINUOUS
 62
     7
100
AcDbLine
 10
-77.9
 20
84.206
 30
0.0
 11
-84.1
 21
84.206
 31
0.0
  0
LINE
  5
46
100
AcDbEntity
  8
PV
390
0
  6
CONTINUOUS
 62
     7
100
AcDbLine
 10
-84.1
 20
80.506
 30
0.0
 11
-84.1
 21
84.206
 31
0.0
  0
LINE
  5
47
100
AcDbEntity
  8
PV
390
0
  6
CONTINUOUS
 62
     7
100
AcDbLine
 10
-83.2
 20
80.506
 30
0.0
 11
-84.1
 21
80.506
 31
0.0
  0
LINE
  5
48
100
AcDbEntity
  8
PV
390
0
  6
CONTINUOUS
 62
     7
100
AcDbLine
 10
-95.9
 20
80.506
 30
0.0
 11
-96.8
 21
80.506
 31
0.0
  0
LINE
  5
49
100
AcDbEntity
  8
PV
390
0
  6
CONTINUOUS
 62
     7
100
AcDbLine
 10
-95.9
 20
80.506
 30
0.0
 11
-95.9
 21
84.206
 31
0.0
  0
LINE
  5
4A
100
AcDbEntity
  8
PV
390
0
  6
CONTINUOUS
 62
     7
100
AcDbLine
 10
-95.9
 20
84.206
 30
0.0
 11
-102.1
 21
84.206
 31
0.0
  0
LINE
  5
4B
100
AcDbEntity
  8
PV
390
0
  6
CONTINUOUS
 62
     7
100
AcDbLine
 10
-102.1
 20
80.506
 30
0.0
 11
-102.1
 21
84.206
 31
0.0
  0
LINE
  5
4C
100
AcDbEntity
  8
PV
390
0
  6
CONTINUOUS
 62
     7
100
AcDbLine
 10
-101.2
 20
80.506
 30
0.0
 11
-102.1
 21
80.506
 31
0.0
  0
LINE
  5
4D
100
AcDbEntity
  8
PV
390
0
  6
CONTINUOUS
 62
     7
100
AcDbLine
 10
-48.0
 20
102.506
 30
0.0
 11
-49.5
 21
102.506
 31
0.0
  0
LINE
  5
4E
100
AcDbEntity
  8
PV
390
0
  6
CONTINUOUS
 62
     7
100
AcDbLine
 10
-48.0
 20
137.506
 30
0.0
 11
-49.5
 21
137.506
 31
0.0
  0
LINE
  5
4F
100
AcDbEntity
  8
PV
390
0
  6
CONTINUOUS
 62
     7
100
AcDbLine
 10
-83.2
 20
79.506
 30
0.0
 11
-83.2
 21
80.506
 31
0.0
  0
LINE
  5
50
100
AcDbEntity
  8
PV
390
0
  6
CONTINUOUS
 62
     7
100
AcDbLine
 10
-78.8
 20
79.506
 30
0.0
 11
-78.8
 21
80.506
 31
0.0
  0
LINE
  5
51
100
AcDbEntity
  8
PV
390
0
  6
CONTINUOUS
 62
     7
100
AcDbLine
 10
-96.8
 20
79.506
 30
0.0
 11
-96.8
 21
80.506
 31
0.0
  0
LINE
  5
52
100
AcDbEntity
  8
PV
390
0
  6
CONTINUOUS
 62
     7
100
AcDbLine
 10
-101.2
 20
79.506
 30
0.0
 11
-101.2
 21
80.506
 31
0.0
  0
LINE
  5
53
100
AcDbEntity
  8
PV
390
0
  6
CENTER
 62
     7
100
AcDbLine
 10
-131.0
 20
89.006
 30
0.0
 11
-111.0
 21
89.006
 31
0.0
  0
LINE
  5
54
100
AcDbEntity
  8
PV
390
0
  6
CENTER
 62
     7
100
AcDbLine
 10
-121.0
 20
99.006
 30
0.0
 11
-121.0
 21
79.006
 31
0.0
  0
LINE
  5
55
100
AcDbEntity
  8
PV
390
0
  6
CONTINUOUS
 62
     7
100
AcDbLine
 10
-55.043
 20
79.506
 30
0.0
 11
-124.957
 21
79.506
 31
0.0
  0
LINE
  5
56
100
AcDbEntity
  8
PV
390
0
  6
CONTINUOUS
 62
     7
100
AcDbLine
 10
-55.043
 20
160.506
 30
0.0
 11
-76.029
 21
160.506
 31
0.0
  0
LINE
  5
57
100
AcDbEntity
  8
PV
390
0
  6
CONTINUOUS
 62
     7
100
AcDbLine
 10
-130.5
 20
154.964
 30
0.0
 11
-130.5
 21
85.049
 31
0.0
  0
LINE
  5
58
100
AcDbEntity
  8
PV
390
0
  6
CONTINUOUS
 62
     7
100
AcDbLine
 10
-49.5
 20
154.964
 30
0.0
 11
-49.5
 21
137.506
 31
0.0
  0
LINE
  5
59
100
AcDbEntity
  8
PV
390
0
  6
CONTINUOUS
 62
     7
100
AcDbLine
 10
-49.5
 20
102.506
 30
0.0
 11
-49.5
 21
85.049
 31
0.0
  0
LINE
  5
5A
100
AcDbEntity
  8
PV
390
0
  6
CENTER
 62
     7
100
AcDbLine
 10
-59.0
 20
99.006
 30
0.0
 11
-59.0
 21
79.006
 31
0.0
  0
LINE
  5
5B
100
AcDbEntity
  8
PV
390
0
  6
CENTER
 62
     7
100
AcDbLine
 10
-49.0
 20
89.006
 30
0.0
 11
-69.0
 21
89.006
 31
0.0
  0
LINE
  5
5C
100
AcDbEntity
  8
PV
390
0
  6
CENTER
 62
     7
100
AcDbLine
 10
-121.0
 20
141.006
 30
0.0
 11
-121.0
 21
161.006
 31
0.0
  0
LINE
  5
5D
100
AcDbEntity
  8
PV
390
0
  6
CENTER
 62
     7
100
AcDbLine
 10
-131.0
 20
151.006
 30
0.0
 11
-111.0
 21
151.006
 31
0.0
  0
LINE
  5
5E
100
AcDbEntity
  8
PV
390
0
  6
CENTER
 62
     7
100
AcDbLine
 10
-59.0
 20
141.006
 30
0.0
 11
-59.0
 21
161.006
 31
0.0
  0
LINE
  5
5F
100
AcDbEntity
  8
PV
390
0
  6
CENTER
 62
     7
100
AcDbLine
 10
-49.0
 20
151.006
 30
0.0
 11
-69.0
 21
151.006
 31
0.0
  0
LINE
  5
60
100
AcDbEntity
  8
PV
390
0
  6
CONTINUOUS
 62
     7
100
AcDbLine
 10
-104.141
 20
160.506
 30
0.0
 11
-124.957
 21
160.506
 31
0.0
  0
LINE
  5
61
100
AcDbEntity
  8
PV
390
0
  6
CONTINUOUS
 62
     7
100
AcDbLine
 10
-75.9
 20
160.506
 30
0.0
 11
-104.27
 21
160.506
 31
0.0
  0
LINE
  5
62
100
AcDbEntity
  8
PV
390
0
  6
CONTINUOUS
 62
     7
100
AcDbLine
 10
-102.1
 20
159.506
 30
0.0
 11
-102.1
 21
155.806
 31
0.0
  0
LINE
  5
63
100
AcDbEntity
  8
PV
390
0
  6
CONTINUOUS
 62
     7
100
AcDbLine
 10
-95.9
 20
155.806
 30
0.0
 11
-102.1
 21
155.806
 31
0.0
  0
LINE
  5
64
100
AcDbEntity
  8
PV
390
0
  6
CONTINUOUS
 62
     7
100
AcDbLine
 10
-95.9
 20
159.506
 30
0.0
 11
-95.9
 21
155.806
 31
0.0
  0
LINE
  5
65
100
AcDbEntity
  8
PV
390
0
  6
CONTINUOUS
 62
     7
100
AcDbLine
 10
-95.9
 20
159.506
 30
0.0
 11
-96.8
 21
159.506
 31
0.0
  0
LINE
  5
66
100
AcDbEntity
  8
PV
390
0
  6
CONTINUOUS
 62
     7
100
AcDbLine
 10
-101.2
 20
159.506
 30
0.0
 11
-102.1
 21
159.506
 31
0.0
  0
LINE
  5
67
100
AcDbEntity
  8
PV
390
0
  6
CONTINUOUS
 62
     7
100
AcDbLine
 10
-101.2
 20
160.506
 30
0.0
 11
-101.2
 21
159.506
 31
0.0
  0
LINE
  5
68
100
AcDbEntity
  8
PV
390
0
  6
CONTINUOUS
 62
     7
100
AcDbLine
 10
-96.8
 20
160.506
 30
0.0
 11
-96.8
 21
159.506
 31
0.0
  0
LINE
  5
69
100
AcDbEntity
  8
PV
390
0
  6
CONTINUOUS
 62
     7
100
AcDbLine
 10
-77.9
 20
155.806
 30
0.0
 11
-84.1
 21
155.806
 31
0.0
  0
LINE
  5
6A
100
AcDbEntity
  8
PV
390
0
  6
CONTINUOUS
 62
     7
100
AcDbLine
 10
-84.1
 20
159.506
 30
0.0
 11
-84.1
 21
155.806
 31
0.0
  0
LINE
  5
6B
100
AcDbEntity
  8
PV
390
0
  6
CONTINUOUS
 62
     7
100
AcDbLine
 10
-83.2
 20
159.506
 30
0.0
 11
-84.1
 21
159.506
 31
0.0
  0
LINE
  5
6C
100
AcDbEntity
  8
PV
390
0
  6
CONTINUOUS
 62
     7
100
AcDbLine
 10
-83.2
 20
160.506
 30
0.0
 11
-83.2
 21
159.506
 31
0.0
  0
LINE
  5
6D
100
AcDbEntity
  8
PV
390
0
  6
CONTINUOUS
 62
     7
100
AcDbLine
 10
-77.9
 20
159.506
 30
0.0
 11
-77.9
 21
155.806
 31
0.0
  0
LINE
  5
6E
100
AcDbEntity
  8
PV
390
0
  6
CONTINUOUS
 62
     7
100
AcDbLine
 10
-77.9
 20
159.506
 30
0.0
 11
-78.8
 21
159.506
 31
0.0
  0
LINE
  5
6F
100
AcDbEntity
  8
PV
390
0
  6
CONTINUOUS
 62
     7
100
AcDbLine
 10
-78.8
 20
160.506
 30
0.0
 11
-78.8
 21
159.506
 31
0.0
  0
LINE
  5
70
100
AcDbEntity
  8
PV
390
0
  6
CONTINUOUS
 62
     7
100
AcDbLine
 10
-159.2
 20
-33.35
 30
0.0
 11
-148.1
 21
-33.35
 31
0.0
  0
LINE
  5
71
100
AcDbEntity
  8
PV
390
0
  6
CONTINUOUS
 62
     7
100
AcDbLine
 10
-159.2
 20
-102.65
 30
0.0
 11
-148.1
 21
-102.65
 31
0.0
  0
LINE
  5
72
100
AcDbEntity
  8
PV
390
0
  6
CONTINUOUS
 62
     7
100
AcDbLine
 10
-160.0
 20
-101.85
 30
0.0
 11
-160.0
 21
-68.0
 31
0.0
  0
LINE
  5
73
100
AcDbEntity
  8
PV
390
0
  6
CONTINUOUS
 62
     7
100
AcDbLine
 10
-147.3
 20
-101.85
 30
0.0
 11
-147.3
 21
-34.15
 31
0.0
  0
LINE
  5
74
100
AcDbEntity
  8
PV
390
0
  6
CONTINUOUS
 62
     7
100
AcDbLine
 10
-147.3
 20
-101.85
 30
0.0
 11
-148.1
 21
-102.65
 31
0.0
  0
LINE
  5
75
100
AcDbEntity
  8
PV
390
0
  6
CONTINUOUS
 62
     7
100
AcDbLine
 10
-159.2
 20
-102.65
 30
0.0
 11
-160.0
 21
-101.85
 31
0.0
  0
LINE
  5
76
100
AcDbEntity
  8
PV
390
0
  6
CONTINUOUS
 62
     7
100
AcDbLine
 10
-160.0
 20
-34.15
 30
0.0
 11
-159.2
 21
-33.35
 31
0.0
  0
LINE
  5
77
100
AcDbEntity
  8
PV
390
0
  6
CONTINUOUS
 62
     7
100
AcDbLine
 10
-147.3
 20
-34.15
 30
0.0
 11
-148.1
 21
-33.35
 31
0.0
  0
LINE
  5
78
100
AcDbEntity
  8
PV
390
0
  6
CENTER
 62
     7
100
AcDbLine
 10
-165.0
 20
-97.35
 30
0.0
 11
-142.3
 21
-97.35
 31
0.0
  0
LINE
  5
79
100
AcDbEntity
  8
PV
390
0
  6
CENTER
 62
     7
100
AcDbLine
 10
-165.0
 20
-38.65
 30
0.0
 11
-142.3
 21
-38.65
 31
0.0
  0
LINE
  5
7A
100
AcDbEntity
  8
PV
390
0
  6
CONTINUOUS
 62
     7
100
AcDbLine
 10
-160.0
 20
-68.0
 30
0.0
 11
-160.0
 21
-34.15
 31
0.0
  0
LINE
  5
7B
100
AcDbEntity
  8
PV
390
0
  6
CONTINUOUS
 62
     7
100
AcDbLine
 10
-147.3
 20
-89.5
 30
0.0
 11
-128.0
 21
-89.5
 31
0.0
  0
LINE
  5
7C
100
AcDbEntity
  8
PV
390
0
  6
CONTINUOUS
 62
     7
100
AcDbLine
 10
-147.3
 20
-46.5
 30
0.0
 11
-128.0
 21
-46.5
 31
0.0
  0
LINE
  5
7D
100
AcDbEntity
  8
PV
390
0
  6
CONTINUOUS
 62
     7
100
AcDbLine
 10
-124.65
 20
-137.2
 30
0.0
 11
-124.65
 21
-126.1
 31
0.0
  0
LINE
  5
7E
100
AcDbEntity
  8
PV
390
0
  6
CONTINUOUS
 62
     7
100
AcDbLine
 10
-55.35
 20
-137.2
 30
0.0
 11
-55.35
 21
-126.1
 31
0.0
  0
LINE
  5
7F
100
AcDbEntity
  8
PV
390
0
  6
CONTINUOUS
 62
     7
100
AcDbLine
 10
-56.15
 20
-138.0
 30
0.0
 11
-90.0
 21
-138.0
 31
0.0
  0
LINE
  5
80
100
AcDbEntity
  8
PV
390
0
  6
CONTINUOUS
 62
     7
100
AcDbLine
 10
-56.15
 20
-125.3
 30
0.0
 11
-55.35
 21
-126.1
 31
0.0
  0
LINE
  5
81
100
AcDbEntity
  8
PV
390
0
  6
CONTINUOUS
 62
     7
100
AcDbLine
 10
-55.35
 20
-137.2
 30
0.0
 11
-56.15
 21
-138.0
 31
0.0
  0
LINE
  5
82
100
AcDbEntity
  8
PV
390
0
  6
CONTINUOUS
 62
     7
100
AcDbLine
 10
-123.85
 20
-138.0
 30
0.0
 11
-124.65
 21
-137.2
 31
0.0
  0
LINE
  5
83
100
AcDbEntity
  8
PV
390
0
  6
CONTINUOUS
 62
     7
100
AcDbLine
 10
-123.85
 20
-125.3
 30
0.0
 11
-124.65
 21
-126.1
 31
0.0
  0
LINE
  5
84
100
AcDbEntity
  8
PV
390
0
  6
CENTER
 62
     7
100
AcDbLine
 10
-60.65
 20
-143.0
 30
0.0
 11
-60.65
 21
-120.3
 31
0.0
  0
LINE
  5
85
100
AcDbEntity
  8
PV
390
0
  6
CENTER
 62
     7
100
AcDbLine
 10
-119.35
 20
-143.0
 30
0.0
 11
-119.35
 21
-120.3
 31
0.0
  0
LINE
  5
86
100
AcDbEntity
  8
PV
390
0
  6
CONTINUOUS
 62
     7
100
AcDbLine
 10
-90.0
 20
-138.0
 30
0.0
 11
-123.85
 21
-138.0
 31
0.0
  0
LINE
  5
87
100
AcDbEntity
  8
PV
390
0
  6
CONTINUOUS
 62
     7
100
AcDbLine
 10
-56.15
 20
-125.3
 30
0.0
 11
-123.85
 21
-125.3
 31
0.0
  0
LINE
  5
88
100
AcDbEntity
  8
PV
390
0
  6
CONTINUOUS
 62
     7
100
AcDbLine
 10
82.429
 20
-125.3
 30
0.0
 11
82.429
 21
-100.0
 31
0.0
  0
LINE
  5
89
100
AcDbEntity
  8
PV
390
0
  6
CONTINUOUS
 62
     7
100
AcDbLine
 10
39.429
 20
-125.3
 30
0.0
 11
39.429
 21
-100.0
 31
0.0
  0
LINE
  5
8A
100
AcDbEntity
  8
PV
390
0
  6
CONTINUOUS
 62
     7
100
AcDbLine
 10
26.279
 20
-137.2
 30
0.0
 11
26.279
 21
-126.1
 31
0.0
  0
LINE
  5
8B
100
AcDbEntity
  8
PV
390
0
  6
CONTINUOUS
 62
     7
100
AcDbLine
 10
95.579
 20
-137.2
 30
0.0
 11
95.579
 21
-126.1
 31
0.0
  0
LINE
  5
8C
100
AcDbEntity
  8
PV
390
0
  6
CONTINUOUS
 62
     7
100
AcDbLine
 10
94.779
 20
-138.0
 30
0.0
 11
60.929
 21
-138.0
 31
0.0
  0
LINE
  5
8D
100
AcDbEntity
  8
PV
390
0
  6
CONTINUOUS
 62
     7
100
AcDbLine
 10
94.779
 20
-125.3
 30
0.0
 11
60.929
 21
-125.3
 31
0.0
  0
LINE
  5
8E
100
AcDbEntity
  8
PV
390
0
  6
CONTINUOUS
 62
     7
100
AcDbLine
 10
94.779
 20
-125.3
 30
0.0
 11
95.579
 21
-126.1
 31
0.0
  0
LINE
  5
8F
100
AcDbEntity
  8
PV
390
0
  6
CONTINUOUS
 62
     7
100
AcDbLine
 10
95.579
 20
-137.2
 30
0.0
 11
94.779
 21
-138.0
 31
0.0
  0
LINE
  5
90
100
AcDbEntity
  8
PV
390
0
  6
CONTINUOUS
 62
     7
100
AcDbLine
 10
27.079
 20
-138.0
 30
0.0
 11
26.279
 21
-137.2
 31
0.0
  0
LINE
  5
91
100
AcDbEntity
  8
PV
390
0
  6
CONTINUOUS
 62
     7
100
AcDbLine
 10
27.079
 20
-125.3
 30
0.0
 11
26.279
 21
-126.1
 31
0.0
  0
LINE
  5
92
100
AcDbEntity
  8
PV
390
0
  6
CENTER
 62
     7
100
AcDbLine
 10
90.279
 20
-143.0
 30
0.0
 11
90.279
 21
-120.3
 31
0.0
  0
LINE
  5
93
100
AcDbEntity
  8
PV
390
0
  6
CENTER
 62
     7
100
AcDbLine
 10
31.579
 20
-143.0
 30
0.0
 11
31.579
 21
-120.3
 31
0.0
  0
LINE
  5
94
100
AcDbEntity
  8
PV
390
0
  6
CONTINUOUS
 62
     7
100
AcDbLine
 10
60.929
 20
-138.0
 30
0.0
 11
27.079
 21
-138.0
 31
0.0
  0
LINE
  5
95
100
AcDbEntity
  8
PV
390
0
  6
CONTINUOUS
 62
     7
100
AcDbLine
 10
60.929
 20
-125.3
 30
0.0
 11
27.079
 21
-125.3
 31
0.0
  0
LINE
  5
96
100
AcDbEntity
  8
PV
390
0
  6
CONTINUOUS
 62
     7
100
AcDbLine
 10
-159.2
 20
154.656
 30
0.0
 11
-148.1
 21
154.656
 31
0.0
  0
LINE
  5
97
100
AcDbEntity
  8
PV
390
0
  6
CONTINUOUS
 62
     7
100
AcDbLine
 10
-159.2
 20
85.356
 30
0.0
 11
-148.1
 21
85.356
 31
0.0
  0
LINE
  5
98
100
AcDbEntity
  8
PV
390
0
  6
CONTINUOUS
 62
     7
100
AcDbLine
 10
-160.0
 20
86.156
 30
0.0
 11
-160.0
 21
120.006
 31
0.0
  0
LINE
  5
99
100
AcDbEntity
  8
PV
390
0
  6
CONTINUOUS
 62
     7
100
AcDbLine
 10
-147.3
 20
86.156
 30
0.0
 11
-147.3
 21
120.006
 31
0.0
  0
LINE
  5
9A
100
AcDbEntity
  8
PV
390
0
  6
CONTINUOUS
 62
     7
100
AcDbLine
 10
-147.3
 20
86.156
 30
0.0
 11
-148.1
 21
85.356
 31
0.0
  0
LINE
  5
9B
100
AcDbEntity
  8
PV
390
0
  6
CONTINUOUS
 62
     7
100
AcDbLine
 10
-159.2
 20
85.356
 30
0.0
 11
-160.0
 21
86.156
 31
0.0
  0
LINE
  5
9C
100
AcDbEntity
  8
PV
390
0
  6
CONTINUOUS
 62
     7
100
AcDbLine
 10
-160.0
 20
153.856
 30
0.0
 11
-159.2
 21
154.656
 31
0.0
  0
LINE
  5
9D
100
AcDbEntity
  8
PV
390
0
  6
CONTINUOUS
 62
     7
100
AcDbLine
 10
-147.3
 20
153.856
 30
0.0
 11
-148.1
 21
154.656
 31
0.0
  0
LINE
  5
9E
100
AcDbEntity
  8
PV
390
0
  6
CENTER
 62
     7
100
AcDbLine
 10
-165.0
 20
90.656
 30
0.0
 11
-142.3
 21
90.656
 31
0.0
  0
LINE
  5
9F
100
AcDbEntity
  8
PV
390
0
  6
CENTER
 62
     7
100
AcDbLine
 10
-165.0
 20
149.356
 30
0.0
 11
-142.3
 21
149.356
 31
0.0
  0
LINE
  5
A0
100
AcDbEntity
  8
PV
390
0
  6
CONTINUOUS
 62
     7
100
AcDbLine
 10
-160.0
 20
120.006
 30
0.0
 11
-160.0
 21
153.856
 31
0.0
  0
LINE
  5
A1
100
AcDbEntity
  8
PV
390
0
  6
CONTINUOUS
 62
     7
100
AcDbLine
 10
-147.3
 20
120.006
 30
0.0
 11
-147.3
 21
153.856
 31
0.0
  0
LINE
  5
A2
100
AcDbEntity
  8
PV
390
0
  6
CONTINUOUS
 62
     7
100
AcDbLine
 10
-147.3
 20
98.506
 30
0.0
 11
-130.5
 21
98.506
 31
0.0
  0
LINE
  5
A3
100
AcDbEntity
  8
PV
390
0
  6
CONTINUOUS
 62
     7
100
AcDbLine
 10
-147.3
 20
141.506
 30
0.0
 11
-130.5
 21
141.506
 31
0.0
  0
LINE
  5
A4
100
AcDbEntity
  8
PV
390
0
  6
CONTINUOUS
 62
     7
100
AcDbLine
 10
-75.8
 20
-24.385
 30
0.0
 11
-75.8
 21
35.025
 31
0.0
  0
LINE
  5
A5
100
AcDbEntity
  8
PV
390
0
  6
CONTINUOUS
 62
     7
100
AcDbLine
 10
-80.2
 20
-24.385
 30
0.0
 11
-80.2
 21
35.025
 31
0.0
  0
LINE
  5
A6
100
AcDbEntity
  8
PV
390
0
  6
CONTINUOUS
 62
     7
100
AcDbLine
 10
-99.8
 20
-24.204
 30
0.0
 11
-99.8
 21
35.0
 31
0.0
  0
LINE
  5
A7
100
AcDbEntity
  8
PV
390
0
  6
CONTINUOUS
 62
     7
100
AcDbLine
 10
-104.2
 20
-24.204
 30
0.0
 11
-104.2
 21
35.0
 31
0.0
  0
LINE
  5
A8
100
AcDbEntity
  8
PV
390
0
  6
CONTINUOUS
 62
     7
100
AcDbLine
 10
-59.0
 20
-100.0
 30
0.0
 11
-121.0
 21
-100.0
 31
0.0
  0
LINE
  5
A9
100
AcDbEntity
  8
PV
390
0
  6
CONTINUOUS
 62
     7
100
AcDbLine
 10
-130.5
 20
35.0
 30
0.0
 11
-46.0
 21
35.0
 31
0.0
  0
LINE
  5
AA
100
AcDbEntity
  8
PV
390
0
  6
CENTER
 62
     7
100
AcDbLine
 10
-90.0
 20
40.417
 30
0.0
 11
-90.0
 21
-153.246
 31
0.0
  0
LINE
  5
AB
100
AcDbEntity
  8
PV
390
0
  6
CENTER
 62
     7
100
AcDbLine
 10
-121.0
 20
40.103
 30
0.0
 11
-121.0
 21
-38.612
 31
0.0
  0
LINE
  5
AC
100
AcDbEntity
  8
PV
390
0
  6
CENTER
 62
     7
100
AcDbLine
 10
-59.0
 20
37.417
 30
0.0
 11
-59.0
 21
-38.415
 31
0.0
  0
LINE
  5
AD
100
AcDbEntity
  8
PV
390
0
  6
CONTINUOUS
 62
     7
100
AcDbLine
 10
-130.5
 20
-24.5
 30
0.0
 11
-46.0
 21
-24.5
 31
0.0
  0
LINE
  5
AE
100
AcDbEntity
  8
PV
390
0
  6
CONTINUOUS
 62
     7
100
AcDbLine
 10
-46.0
 20
35.0
 30
0.0
 11
-46.0
 21
-24.5
 31
0.0
  0
LINE
  5
AF
100
AcDbEntity
  8
PV
390
0
  6
CENTER
 62
     7
100
AcDbLine
 10
-43.18
 20
-15.5
 30
0.0
 11
-62.411
 21
-15.5
 31
0.0
  0
LINE
  5
B0
100
AcDbEntity
  8
PV
390
0
  6
CENTER
 62
     7
100
AcDbLine
 10
-43.18
 20
17.5
 30
0.0
 11
-62.211
 21
17.5
 31
0.0
  0
LINE
  5
B1
100
AcDbEntity
  8
PV
390
0
  6
CONTINUOUS
 62
     7
100
AcDbLine
 10
-49.5
 20
-24.512
 30
0.0
 11
-49.5
 21
-36.0
 31
0.0
  0
LINE
  5
B2
100
AcDbEntity
  8
PV
390
0
  6
CONTINUOUS
 62
     7
100
AcDbLine
 10
-130.5
 20
-24.512
 30
0.0
 11
-130.5
 21
-36.0
 31
0.0
  0
LINE
  5
B3
100
AcDbEntity
  8
PV
390
0
  6
CONTINUOUS
 62
     7
100
AcDbLine
 10
-130.5
 20
35.0
 30
0.0
 11
-130.5
 21
-24.5
 31
0.0
  0
LINE
  5
B4
100
AcDbEntity
  8
PV
390
0
  6
CONTINUOUS
 62
     7
100
AcDbLine
 10
-49.5
 20
35.0
 30
0.0
 11
-49.5
 21
-24.5
 31
0.0
  0
LINE
  5
B5
100
AcDbEntity
  8
PV
390
0
  6
CONTINUOUS
 62
     7
100
AcDbLine
 10
-49.5
 20
-36.0
 30
0.0
 11
-130.5
 21
-36.0
 31
0.0
  0
LINE
  5
B6
100
AcDbEntity
  8
PV
390
0
  6
CONTINUOUS
 62
     7
100
AcDbLine
 10
-52.0
 20
-36.004
 30
0.0
 11
-52.0
 21
-93.0
 31
0.0
  0
LINE
  5
B7
100
AcDbEntity
  8
PV
390
0
  6
CONTINUOUS
 62
     7
100
AcDbLine
 10
-128.0
 20
-36.143
 30
0.0
 11
-128.0
 21
-46.447
 31
0.0
  0
LINE
  5
B8
100
AcDbEntity
  8
PV
390
0
  6
CONTINUOUS
 62
     7
100
AcDbLine
 10
-128.0
 20
-89.35
 30
0.0
 11
-128.0
 21
-93.0
 31
0.0
  0
LINE
  5
B9
100
AcDbEntity
  8
PV
390
0
  6
CONTINUOUS
 62
     7
100
AcDbLine
 10
-52.0
 20
-93.0
 30
0.0
 11
-59.0
 21
-100.0
 31
0.0
  0
LINE
  5
BA
100
AcDbEntity
  8
PV
390
0
  6
CONTINUOUS
 62
     7
100
AcDbLine
 10
-121.0
 20
-100.0
 30
0.0
 11
-128.0
 21
-93.0
 31
0.0
  0
LINE
  5
BB
100
AcDbEntity
  8
PV
390
0
  6
CONTINUOUS
 62
     7
100
AcDbLine
 10
-52.0
 20
-93.0
 30
0.0
 11
-128.0
 21
-93.0
 31
0.0
  0
LINE
  5
BC
100
AcDbEntity
  8
PV
390
0
  6
CONTINUOUS
 62
     7
100
AcDbLine
 10
91.929
 20
-100.0
 30
0.0
 11
29.929
 21
-100.0
 31
0.0
  0
LINE
  5
BD
100
AcDbEntity
  8
PV
390
0
  6
CONTINUOUS
 62
     7
100
AcDbLine
 10
20.429
 20
35.0
 30
0.0
 11
101.429
 21
35.0
 31
0.0
  0
LINE
  5
BE
100
AcDbEntity
  8
PV
390
0
  6
CENTER
 62
     7
100
AcDbLine
 10
60.929
 20
42.75
 30
0.0
 11
60.929
 21
-153.613
 31
0.0
  0
LINE
  5
BF
100
AcDbEntity
  8
PV
390
0
  6
CENTER
 62
     7
100
AcDbLine
 10
29.929
 20
39.083
 30
0.0
 11
29.929
 21
-38.612
 31
0.0
  0
LINE
  5
C0
100
AcDbEntity
  8
PV
390
0
  6
CENTER
 62
     7
100
AcDbLine
 10
91.929
 20
38.75
 30
0.0
 11
91.929
 21
-38.415
 31
0.0
  0
LINE
  5
C1
100
AcDbEntity
  8
PV
390
0
  6
CONTINUOUS
 62
     7
100
AcDbLine
 10
20.429
 20
-24.5
 30
0.0
 11
101.429
 21
-24.5
 31
0.0
  0
LINE
  5
C2
100
AcDbEntity
  8
PV
390
0
  6
CENTER
 62
     7
100
AcDbLine
 10
68.369
 20
-15.5
 30
0.0
 11
52.107
 21
-15.5
 31
0.0
  0
LINE
  5
C3
100
AcDbEntity
  8
PV
390
0
  6
CENTER
 62
     7
100
AcDbLine
 10
68.123
 20
17.5
 30
0.0
 11
52.969
 21
17.5
 31
0.0
  0
LINE
  5
C4
100
AcDbEntity
  8
PV
390
0
  6
CONTINUOUS
 62
     7
100
AcDbLine
 10
101.429
 20
-24.512
 30
0.0
 11
101.429
 21
-36.0
 31
0.0
  0
LINE
  5
C5
100
AcDbEntity
  8
PV
390
0
  6
CONTINUOUS
 62
     7
100
AcDbLine
 10
20.429
 20
-24.512
 30
0.0
 11
20.429
 21
-36.0
 31
0.0
  0
LINE
  5
C6
100
AcDbEntity
  8
PV
390
0
  6
CONTINUOUS
 62
     7
100
AcDbLine
 10
20.429
 20
35.0
 30
0.0
 11
20.429
 21
-24.5
 31
0.0
  0
LINE
  5
C7
100
AcDbEntity
  8
PV
390
0
  6
CONTINUOUS
 62
     7
100
AcDbLine
 10
101.429
 20
35.0
 30
0.0
 11
101.429
 21
-24.5
 31
0.0
  0
LINE
  5
C8
100
AcDbEntity
  8
PV
390
0
  6
CONTINUOUS
 62
     7
100
AcDbLine
 10
101.429
 20
-36.0
 30
0.0
 11
20.429
 21
-36.0
 31
0.0
  0
LINE
  5
C9
100
AcDbEntity
  8
PV
390
0
  6
CONTINUOUS
 62
     7
100
AcDbLine
 10
98.929
 20
-36.004
 30
0.0
 11
98.929
 21
-93.0
 31
0.0
  0
LINE
  5
CA
100
AcDbEntity
  8
PV
390
0
  6
CONTINUOUS
 62
     7
100
AcDbLine
 10
22.929
 20
-36.143
 30
0.0
 11
22.929
 21
-93.0
 31
0.0
  0
LINE
  5
CB
100
AcDbEntity
  8
PV
390
0
  6
CONTINUOUS
 62
     7
100
AcDbLine
 10
98.929
 20
-93.0
 30
0.0
 11
91.929
 21
-100.0
 31
0.0
  0
LINE
  5
CC
100
AcDbEntity
  8
PV
390
0
  6
CONTINUOUS
 62
     7
100
AcDbLine
 10
29.929
 20
-100.0
 30
0.0
 11
22.929
 21
-93.0
 31
0.0
  0
LINE
  5
CD
100
AcDbEntity
  8
PV
390
0
  6
CONTINUOUS
 62
     7
100
AcDbLine
 10
98.929
 20
-93.0
 30
0.0
 11
22.929
 21
-93.0
 31
0.0
  0
LINE
  5
CE
100
AcDbEntity
  8
PV
390
0
  6
CONTINUOUS
 62
     7
100
AcDbLine
 10
78.429
 20
35.0
 30
0.0
 11
78.429
 21
-24.5
 31
0.0
  0
LINE
  5
CF
100
AcDbEntity
  8
PV
390
0
  6
CONTINUOUS
 62
     7
100
AcDbLine
 10
43.429
 20
35.0
 30
0.0
 11
43.429
 21
-24.5
 31
0.0
  0
LINE
  5
D0
100
AcDbEntity
  8
PV
390
0
  6
CONTINUOUS
 62
     7
100
AcDbLine
 10
-124.957
 20
35.0
 30
0.0
 11
-124.957
 21
-36.0
 31
0.0
  0
LINE
  5
D1
100
AcDbEntity
  8
PV
390
0
  6
CONTINUOUS
 62
     7
100
AcDbLine
 10
-55.043
 20
35.0
 30
0.0
 11
-55.043
 21
-36.0
 31
0.0
  0
LINE
  5
D2
100
AcDbEntity
  8
PV
390
0
  6
CONTINUOUS
 62
     7
100
AcDbLine
 10
25.972
 20
35.0
 30
0.0
 11
25.972
 21
-36.0
 31
0.0
  0
LINE
  5
D3
100
AcDbEntity
  8
PV
390
0
  6
CONTINUOUS
 62
     7
100
AcDbLine
 10
95.886
 20
35.0
 30
0.0
 11
95.886
 21
-36.0
 31
0.0
  0
LINE
  5
D4
100
AcDbEntity
  8
PV
390
0
  6
CENTER
 62
     7
100
AcDbLine
 10
48.929
 20
33.607
 30
0.0
 11
48.929
 21
28.591
 31
0.0
  0
LINE
  5
D5
100
AcDbEntity
  8
PV
390
0
  6
CENTER
 62
     7
100
AcDbLine
 10
46.657
 20
31.0
 30
0.0
 11
51.26
 21
31.0
 31
0.0
  0
LINE
  5
D6
100
AcDbEntity
  8
PV
390
0
  6
CENTER
 62
     7
100
AcDbLine
 10
72.929
 20
33.607
 30
0.0
 11
72.929
 21
28.591
 31
0.0
  0
LINE
  5
D7
100
AcDbEntity
  8
PV
390
0
  6
CENTER
 62
     7
100
AcDbLine
 10
75.201
 20
31.0
 30
0.0
 11
70.598
 21
31.0
 31
0.0
  0
LINE
  5
D8
100
AcDbEntity
  8
PV
390
0
  6
CENTER
 62
     7
100
AcDbLine
 10
48.929
 20
-23.107
 30
0.0
 11
48.929
 21
-18.091
 31
0.0
  0
LINE
  5
D9
100
AcDbEntity
  8
PV
390
0
  6
CENTER
 62
     7
100
AcDbLine
 10
46.657
 20
-20.5
 30
0.0
 11
51.26
 21
-20.5
 31
0.0
  0
LINE
  5
DA
100
AcDbEntity
  8
PV
390
0
  6
CENTER
 62
     7
100
AcDbLine
 10
72.929
 20
-23.107
 30
0.0
 11
72.929
 21
-18.091
 31
0.0
  0
LINE
  5
DB
100
AcDbEntity
  8
PV
390
0
  6
CENTER
 62
     7
100
AcDbLine
 10
75.201
 20
-20.5
 30
0.0
 11
70.598
 21
-20.5
 31
0.0
  0
LINE
  5
DC
100
AcDbEntity
  8
PV
390
0
  6
CONTINUOUS
 62
     7
100
AcDbLine
 10
-159.2
 20
-33.35
 30
0.0
 11
-159.2
 21
-102.65
 31
0.0
  0
LINE
  5
DD
100
AcDbEntity
  8
PV
390
0
  6
CONTINUOUS
 62
     7
100
AcDbLine
 10
-148.1
 20
-33.35
 30
0.0
 11
-148.1
 21
-102.65
 31
0.0
  0
LINE
  5
DE
100
AcDbEntity
  8
PV
390
0
  6
CONTINUOUS
 62
     7
100
AcDbLine
 10
-124.65
 20
-126.1
 30
0.0
 11
-55.35
 21
-126.1
 31
0.0
  0
LINE
  5
DF
100
AcDbEntity
  8
PV
390
0
  6
CONTINUOUS
 62
     7
100
AcDbLine
 10
-124.65
 20
-137.2
 30
0.0
 11
-55.35
 21
-137.2
 31
0.0
  0
LINE
  5
E0
100
AcDbEntity
  8
PV
390
0
  6
CONTINUOUS
 62
     7
100
AcDbLine
 10
-111.5
 20
-125.3
 30
0.0
 11
-111.5
 21
-100.0
 31
0.0
  0
LINE
  5
E1
100
AcDbEntity
  8
PV
390
0
  6
CONTINUOUS
 62
     7
100
AcDbLine
 10
-68.5
 20
-125.3
 30
0.0
 11
-68.5
 21
-100.0
 31
0.0
  0
LINE
  5
E2
100
AcDbEntity
  8
PV
390
0
  6
CONTINUOUS
 62
     7
100
AcDbLine
 10
26.279
 20
-126.1
 30
0.0
 11
95.579
 21
-126.1
 31
0.0
  0
LINE
  5
E3
100
AcDbEntity
  8
PV
390
0
  6
CONTINUOUS
 62
     7
100
AcDbLine
 10
26.279
 20
-137.2
 30
0.0
 11
95.579
 21
-137.2
 31
0.0
  0
LINE
  5
E4
100
AcDbEntity
  8
PV
390
0
  6
CONTINUOUS
 62
     7
100
AcDbLine
 10
-159.2
 20
154.656
 30
0.0
 11
-159.2
 21
85.356
 31
0.0
  0
LINE
  5
E5
100
AcDbEntity
  8
PV
390
0
  6
CONTINUOUS
 62
     7
100
AcDbLine
 10
-148.1
 20
154.656
 30
0.0
 11
-148.1
 21
85.356
 31
0.0
  0
LINE
  5
E6
100
AcDbEntity
  8
PV
390
0
  6
CENTER
 62
     7
100
AcDbLine
 10
22.663
 20
-150.723
 30
0.0
 11
100.174
 21
-150.723
 31
0.0
  0
LINE
  5
E7
100
AcDbEntity
  8
PV
390
0
  6
CENTER
 62
     7
100
AcDbLine
 10
60.929
 20
-145.385
 30
0.0
 11
60.929
 21
-182.683
 31
0.0
  0
LINE
  5
E8
100
AcDbEntity
  8
PV
390
0
  6
CENTER
 62
     7
100
AcDbLine
 10
48.932
 20
-171.502
 30
0.0
 11
42.99
 21
-181.794
 31
0.0
  0
LINE
  5
E9
100
AcDbEntity
  8
PV
390
0
  6
CENTER
 62
     7
100
AcDbLine
 10
72.925
 20
-171.502
 30
0.0
 11
78.867
 21
-181.794
 31
0.0
  0
ARC
  5
EA
100
AcDbEntity
  8
PV
390
0
  6
CONTINUOUS
 62
     7
100
AcDbCircle
 10
-48.0
 20
135.506
 30
0.0
 40
2.0
100
AcDbArc
 50
0.0
 51
90.000003
  0
ARC
  5
EB
100
AcDbEntity
  8
PV
390
0
  6
CONTINUOUS
 62
     7
100
AcDbCircle
 10
-48.0
 20
104.506
 30
0.0
 40
2.0
100
AcDbArc
 50
269.999997
 51
0.0
  0
CIRCLE
  5
EC
100
AcDbEntity
  8
PV
390
0
  6
CONTINUOUS
 62
     7
100
AcDbCircle
 10
-59.0
 20
151.006
 30
0.0
 40
7.0
  0
CIRCLE
  5
ED
100
AcDbEntity
  8
PV
390
0
  6
CONTINUOUS
 62
     7
100
AcDbCircle
 10
-121.0
 20
151.006
 30
0.0
 40
7.0
  0
CIRCLE
  5
EE
100
AcDbEntity
  8
PV
390
0
  6
CONTINUOUS
 62
     7
100
AcDbCircle
 10
-121.0
 20
151.006
 30
0.0
 40
7.0
  0
CIRCLE
  5
EF
100
AcDbEntity
  8
PV
390
0
  6
CONTINUOUS
 62
     7
100
AcDbCircle
 10
-121.0
 20
89.006
 30
0.0
 40
7.0
  0
CIRCLE
  5
F0
100
AcDbEntity
  8
PV
390
0
  6
CONTINUOUS
 62
     7
100
AcDbCircle
 10
-59.0
 20
89.006
 30
0.0
 40
7.0
  0
ARC
  5
F1
100
AcDbEntity
  8
PV
390
0
  6
CONTINUOUS
 62
     7
100
AcDbCircle
 10
-90.0
 20
120.006
 30
0.0
 40
53.5
100
AcDbArc
 50
130.798737
 51
139.20125
  0
ARC
  5
F2
100
AcDbEntity
  8
PV
390
0
  6
CONTINUOUS
 62
     7
100
AcDbCircle
 10
-90.0
 20
120.006
 30
0.0
 40
53.5
100
AcDbArc
 50
40.798748
 51
49.201264
  0
ARC
  5
F3
100
AcDbEntity
  8
PV
390
0
  6
CONTINUOUS
 62
     7
100
AcDbCircle
 10
-90.0
 20
120.006
 30
0.0
 40
53.5
100
AcDbArc
 50
310.798746
 51
319.201252
  0
ARC
  5
F4
100
AcDbEntity
  8
PV
390
0
  6
CONTINUOUS
 62
     7
100
AcDbCircle
 10
-90.0
 20
120.006
 30
0.0
 40
53.5
100
AcDbArc
 50
220.79875
 51
229.201249
  0
ARC
  5
F5
100
AcDbEntity
  8
PV
390
0
  6
CONTINUOUS
 62
     7
100
AcDbCircle
 10
-82.153
 20
34.698
 30
0.0
 40
1.0
100
AcDbArc
 50
180.000009
 51
193.589899
  0
ARC
  5
F6
100
AcDbEntity
  8
PV
390
0
  6
CONTINUOUS
 62
     7
100
AcDbCircle
 10
-81.292
 20
35.926
 30
0.0
 40
1.0
100
AcDbArc
 50
180.000009
 51
193.589899
  0
ARC
  5
F7
100
AcDbEntity
  8
PV
390
0
  6
CONTINUOUS
 62
     7
100
AcDbCircle
 10
-82.376
 20
36.685
 30
0.0
 40
1.0
100
AcDbArc
 50
276.41
 51
289.999891
  0
ARC
  5
F8
100
AcDbEntity
  8
PV
390
0
  6
CONTINUOUS
 62
     7
100
AcDbCircle
 10
-97.847
 20
34.698
 30
0.0
 40
1.0
100
AcDbArc
 50
346.410107
 51
0.0
  0
ARC
  5
F9
100
AcDbEntity
  8
PV
390
0
  6
CONTINUOUS
 62
     7
100
AcDbCircle
 10
-98.708
 20
35.926
 30
0.0
 40
1.0
100
AcDbArc
 50
346.410107
 51
0.0
  0
ARC
  5
FA
100
AcDbEntity
  8
PV
390
0
  6
CONTINUOUS
 62
     7
100
AcDbCircle
 10
-97.624
 20
36.685
 30
0.0
 40
1.0
100
AcDbArc
 50
250.000111
 51
263.590002
  0
ARC
  5
FB
100
AcDbEntity
  8
PV
390
0
  6
CONTINUOUS
 62
     7
100
AcDbCircle
 10
-159.435
 20
-68.0
 30
0.0
 40
38.0
100
AcDbArc
 50
325.79806
 51
34.166925
  0
CIRCLE
  5
FC
100
AcDbEntity
  8
PV
390
0
  6
CONTINUOUS
 62
     7
100
AcDbCircle
 10
60.929
 20
-15.5
 30
0.0
 40
4.85
  0
CIRCLE
  5
FD
100
AcDbEntity
  8
PV
390
0
  6
CONTINUOUS
 62
     7
100
AcDbCircle
 10
60.929
 20
-15.5
 30
0.0
 40
3.85
  0
CIRCLE
  5
FE
100
AcDbEntity
  8
PV
390
0
  6
CONTINUOUS
 62
     7
100
AcDbCircle
 10
60.929
 20
17.5
 30
0.0
 40
3.85
  0
CIRCLE
  5
FF
100
AcDbEntity
  8
PV
390
0
  6
CONTINUOUS
 62
     7
100
AcDbCircle
 10
60.929
 20
17.5
 30
0.0
 40
4.85
  0
CIRCLE
  5
100
100
AcDbEntity
  8
PV
390
0
  6
CONTINUOUS
 62
     7
100
AcDbCircle
 10
48.929
 20
31.0
 30
0.0
 40
1.5
  0
CIRCLE
  5
101
100
AcDbEntity
  8
PV
390
0
  6
CONTINUOUS
 62
     7
100
AcDbCircle
 10
48.929
 20
31.0
 30
0.0
 40
1.2
  0
CIRCLE
  5
102
100
AcDbEntity
  8
PV
390
0
  6
CONTINUOUS
 62
     7
100
AcDbCircle
 10
72.929
 20
31.0
 30
0.0
 40
1.5
  0
CIRCLE
  5
103
100
AcDbEntity
  8
PV
390
0
  6
CONTINUOUS
 62
     7
100
AcDbCircle
 10
72.929
 20
31.0
 30
0.0
 40
1.2
  0
CIRCLE
  5
104
100
AcDbEntity
  8
PV
390
0
  6
CONTINUOUS
 62
     7
100
AcDbCircle
 10
48.929
 20
-20.5
 30
0.0
 40
1.5
  0
CIRCLE
  5
105
100
AcDbEntity
  8
PV
390
0
  6
CONTINUOUS
 62
     7
100
AcDbCircle
 10
48.929
 20
-20.5
 30
0.0
 40
1.2
  0
CIRCLE
  5
106
100
AcDbEntity
  8
PV
390
0
  6
CONTINUOUS
 62
     7
100
AcDbCircle
 10
72.929
 20
-20.5
 30
0.0
 40
1.5
  0
CIRCLE
  5
107
100
AcDbEntity
  8
PV
390
0
  6
CONTINUOUS
 62
     7
100
AcDbCircle
 10
72.929
 20
-20.5
 30
0.0
 40
1.2
  0
ARC
  5
108
100
AcDbEntity
  8
PV
390
0
  6
CENTER
 62
     7
100
AcDbCircle
 10
60.929
 20
-150.723
 30
0.0
 40
29.35
100
AcDbArc
 50
180.000009
 51
0.000001
  0
ARC
  5
109
100
AcDbEntity
  8
PV
390
0
  6
CONTINUOUS
 62
     7
100
AcDbCircle
 10
90.279
 20
-150.723
 30
0.0
 40
3.4
100
AcDbArc
 50
179.999991
 51
0.00001
  0
CIRCLE
  5
10A
100
AcDbEntity
  8
PV
390
0
  6
CONTINUOUS
 62
     7
100
AcDbCircle
 10
75.604
 20
-176.141
 30
0.0
 40
3.4
  0
CIRCLE
  5
10B
100
AcDbEntity
  8
PV
390
0
  6
CONTINUOUS
 62
     7
100
AcDbCircle
 10
46.254
 20
-176.141
 30
0.0
 40
3.4
  0
ARC
  5
10C
100
AcDbEntity
  8
PV
390
0
  6
CONTINUOUS
 62
     7
100
AcDbCircle
 10
31.579
 20
-150.723
 30
0.0
 40
3.4
100
AcDbArc
 50
179.999991
 51
0.00001
  0
MTEXT
  5
10D
100
AcDbEntity
  8
PV
390
0
  6
CONTINUOUS
 62
     7
100
AcDbMText
 10
-153.65
 20
153.406
 30
0.0
 40
0.5
 41
0.0
 71
     2
 72
     1
  1
\W1.010;\A1;CF070
 11
-1.0
 21
0.0
 31
0.0
 73
     1
 44
1.0
  0
LINE
  5
10E
100
AcDbEntity
  8
PV
390
0
  6
CONTINUOUS
 62
     7
100
AcDbLine
 10
-64.11
 20
137.506
 30
0.0
 11
-115.89
 21
137.506
 31
0.0
  0
LINE
  5
10F
100
AcDbEntity
  8
PV
390
0
  6
CONTINUOUS
 62
   254
100
AcDbLine
 10
-98.908
 20
139.81
 30
0.0
 11
-98.61
 21
139.81
 31
0.0
  0
LINE
  5
110
100
AcDbEntity
  8
PV
390
0
  6
CONTINUOUS
 62
     7
100
AcDbLine
 10
-91.15
 20
147.366
 30
0.0
 11
-91.15
 21
143.816
 31
0.0
  0
LINE
  5
111
100
AcDbEntity
  8
PV
390
0
  6
CONTINUOUS
 62
     7
100
AcDbLine
 10
-95.284
 20
146.416
 30
0.0
 11
-93.384
 21
146.416
 31
0.0
  0
LINE
  5
112
100
AcDbEntity
  8
PV
390
0
  6
CONTINUOUS
 62
     7
100
AcDbLine
 10
-95.284
 20
146.416
 30
0.0
 11
-95.284
 21
143.816
 31
0.0
  0
LINE
  5
113
100
AcDbEntity
  8
PV
390
0
  6
CONTINUOUS
 62
     7
100
AcDbLine
 10
-93.384
 20
146.416
 30
0.0
 11
-93.384
 21
143.816
 31
0.0
  0
LINE
  5
114
100
AcDbEntity
  8
PV
390
0
  6
CONTINUOUS
 62
     7
100
AcDbLine
 10
-95.284
 20
143.816
 30
0.0
 11
-93.384
 21
143.816
 31
0.0
  0
LINE
  5
115
100
AcDbEntity
  8
PV
390
0
  6
CONTINUOUS
 62
     7
100
AcDbLine
 10
-92.7
 20
147.366
 30
0.0
 11
-92.7
 21
143.816
 31
0.0
  0
LINE
  5
116
100
AcDbEntity
  8
PV
390
0
  6
CONTINUOUS
 62
     7
100
AcDbLine
 10
-92.7
 20
147.366
 30
0.0
 11
-91.15
 21
147.366
 31
0.0
  0
LINE
  5
117
100
AcDbEntity
  8
PV
390
0
  6
CONTINUOUS
 62
     7
100
AcDbLine
 10
-92.7
 20
143.816
 30
0.0
 11
-91.15
 21
143.816
 31
0.0
  0
LINE
  5
118
100
AcDbEntity
  8
PV
390
0
  6
CONTINUOUS
 62
     7
100
AcDbLine
 10
-89.375
 20
147.366
 30
0.0
 11
-89.375
 21
146.566
 31
0.0
  0
LINE
  5
119
100
AcDbEntity
  8
PV
390
0
  6
CONTINUOUS
 62
     7
100
AcDbLine
 10
-84.599
 20
146.591
 30
0.0
 11
-84.599
 21
144.591
 31
0.0
  0
LINE
  5
11A
100
AcDbEntity
  8
PV
390
0
  6
CONTINUOUS
 62
     7
100
AcDbLine
 10
-89.375
 20
144.616
 30
0.0
 11
-89.375
 21
143.816
 31
0.0
  0
LINE
  5
11B
100
AcDbEntity
  8
PV
390
0
  6
CONTINUOUS
 62
     7
100
AcDbLine
 10
-89.375
 20
146.566
 30
0.0
 11
-89.375
 21
144.616
 31
0.0
  0
LINE
  5
11C
100
AcDbEntity
  8
PV
390
0
  6
CONTINUOUS
 62
   254
100
AcDbLine
 10
-101.34
 20
140.142
 30
0.0
 11
-100.333
 21
140.142
 31
0.0
  0
LINE
  5
11D
100
AcDbEntity
  8
PV
390
0
  6
CONTINUOUS
 62
   254
100
AcDbLine
 10
-106.601
 20
140.59
 30
0.0
 11
-106.153
 21
140.59
 31
0.0
  0
LINE
  5
11E
100
AcDbEntity
  8
PV
390
0
  6
CONTINUOUS
 62
   254
100
AcDbLine
 10
-106.601
 20
138.351
 30
0.0
 11
-106.153
 21
138.351
 31
0.0
  0
LINE
  5
11F
100
AcDbEntity
  8
PV
390
0
  6
CONTINUOUS
 62
   254
100
AcDbLine
 10
-106.601
 20
140.59
 30
0.0
 11
-106.601
 21
138.351
 31
0.0
  0
LINE
  5
120
100
AcDbEntity
  8
PV
390
0
  6
CONTINUOUS
 62
   254
100
AcDbLine
 10
-106.153
 20
140.59
 30
0.0
 11
-106.153
 21
138.351
 31
0.0
  0
LINE
  5
121
100
AcDbEntity
  8
PV
390
0
  6
CONTINUOUS
 62
   254
100
AcDbLine
 10
-105.706
 20
140.59
 30
0.0
 11
-105.706
 21
139.918
 31
0.0
  0
LINE
  5
122
100
AcDbEntity
  8
PV
390
0
  6
CONTINUOUS
 62
   254
100
AcDbLine
 10
-105.258
 20
140.142
 30
0.0
 11
-105.258
 21
139.918
 31
0.0
  0
LINE
  5
123
100
AcDbEntity
  8
PV
390
0
  6
CONTINUOUS
 62
   254
100
AcDbLine
 10
-89.698
 20
140.59
 30
0.0
 11
-89.698
 21
140.142
 31
0.0
  0
LINE
  5
124
100
AcDbEntity
  8
PV
390
0
  6
CONTINUOUS
 62
   254
100
AcDbLine
 10
-105.258
 20
139.247
 30
0.0
 11
-104.641
 21
139.247
 31
0.0
  0
LINE
  5
125
100
AcDbEntity
  8
PV
390
0
  6
CONTINUOUS
 62
   254
100
AcDbLine
 10
-104.139
 20
140.142
 30
0.0
 11
-105.258
 21
140.142
 31
0.0
  0
LINE
  5
126
100
AcDbEntity
  8
PV
390
0
  6
CONTINUOUS
 62
   254
100
AcDbLine
 10
-104.139
 20
139.694
 30
0.0
 11
-105.258
 21
139.694
 31
0.0
  0
LINE
  5
127
100
AcDbEntity
  8
PV
390
0
  6
CONTINUOUS
 62
   254
100
AcDbLine
 10
-105.706
 20
138.351
 30
0.0
 11
-105.258
 21
138.351
 31
0.0
  0
LINE
  5
128
100
AcDbEntity
  8
PV
390
0
  6
CONTINUOUS
 62
   254
100
AcDbLine
 10
-105.706
 20
140.59
 30
0.0
 11
-104.139
 21
140.59
 31
0.0
  0
LINE
  5
129
100
AcDbEntity
  8
PV
390
0
  6
CONTINUOUS
 62
   254
100
AcDbLine
 10
-105.258
 20
139.247
 30
0.0
 11
-105.258
 21
138.351
 31
0.0
  0
LINE
  5
12A
100
AcDbEntity
  8
PV
390
0
  6
CONTINUOUS
 62
   254
100
AcDbLine
 10
-104.013
 20
138.351
 30
0.0
 11
-103.467
 21
138.351
 31
0.0
  0
LINE
  5
12B
100
AcDbEntity
  8
PV
390
0
  6
CONTINUOUS
 62
   254
100
AcDbLine
 10
-103.131
 20
140.59
 30
0.0
 11
-102.683
 21
140.59
 31
0.0
  0
LINE
  5
12C
100
AcDbEntity
  8
PV
390
0
  6
CONTINUOUS
 62
   254
100
AcDbLine
 10
-103.131
 20
138.351
 30
0.0
 11
-102.683
 21
138.351
 31
0.0
  0
LINE
  5
12D
100
AcDbEntity
  8
PV
390
0
  6
CONTINUOUS
 62
   254
100
AcDbLine
 10
-103.131
 20
140.59
 30
0.0
 11
-103.131
 21
138.351
 31
0.0
  0
LINE
  5
12E
100
AcDbEntity
  8
PV
390
0
  6
CONTINUOUS
 62
   254
100
AcDbLine
 10
-102.683
 20
140.59
 30
0.0
 11
-102.683
 21
138.351
 31
0.0
  0
LINE
  5
12F
100
AcDbEntity
  8
PV
390
0
  6
CONTINUOUS
 62
   254
100
AcDbLine
 10
-90.706
 20
140.59
 30
0.0
 11
-89.698
 21
140.59
 31
0.0
  0
LINE
  5
130
100
AcDbEntity
  8
PV
390
0
  6
CONTINUOUS
 62
   254
100
AcDbLine
 10
-90.706
 20
138.351
 30
0.0
 11
-89.698
 21
138.351
 31
0.0
  0
LINE
  5
131
100
AcDbEntity
  8
PV
390
0
  6
CONTINUOUS
 62
   254
100
AcDbLine
 10
-94.064
 20
140.59
 30
0.0
 11
-93.616
 21
140.59
 31
0.0
  0
LINE
  5
132
100
AcDbEntity
  8
PV
390
0
  6
CONTINUOUS
 62
   254
100
AcDbLine
 10
-94.064
 20
138.351
 30
0.0
 11
-93.616
 21
138.351
 31
0.0
  0
LINE
  5
133
100
AcDbEntity
  8
PV
390
0
  6
CONTINUOUS
 62
   254
100
AcDbLine
 10
-91.339
 20
139.247
 30
0.0
 11
-89.698
 21
139.247
 31
0.0
  0
LINE
  5
134
100
AcDbEntity
  8
PV
390
0
  6
CONTINUOUS
 62
   254
100
AcDbLine
 10
-91.339
 20
139.694
 30
0.0
 11
-89.698
 21
139.694
 31
0.0
  0
LINE
  5
135
100
AcDbEntity
  8
PV
390
0
  6
CONTINUOUS
 62
   254
100
AcDbLine
 10
-90.706
 20
138.799
 30
0.0
 11
-89.698
 21
138.799
 31
0.0
  0
LINE
  5
136
100
AcDbEntity
  8
PV
390
0
  6
CONTINUOUS
 62
   254
100
AcDbLine
 10
-90.706
 20
140.142
 30
0.0
 11
-89.698
 21
140.142
 31
0.0
  0
LINE
  5
137
100
AcDbEntity
  8
PV
390
0
  6
CONTINUOUS
 62
   254
100
AcDbLine
 10
-89.698
 20
139.694
 30
0.0
 11
-89.698
 21
139.247
 31
0.0
  0
LINE
  5
138
100
AcDbEntity
  8
PV
390
0
  6
CONTINUOUS
 62
   254
100
AcDbLine
 10
-89.698
 20
138.799
 30
0.0
 11
-89.698
 21
138.351
 31
0.0
  0
LINE
  5
139
100
AcDbEntity
  8
PV
390
0
  6
CONTINUOUS
 62
   254
100
AcDbLine
 10
-94.064
 20
140.59
 30
0.0
 11
-94.064
 21
138.351
 31
0.0
  0
LINE
  5
13A
100
AcDbEntity
  8
PV
390
0
  6
CONTINUOUS
 62
   254
100
AcDbLine
 10
-93.616
 20
140.59
 30
0.0
 11
-93.616
 21
139.804
 31
0.0
  0
LINE
  5
13B
100
AcDbEntity
  8
PV
390
0
  6
CONTINUOUS
 62
   254
100
AcDbLine
 10
-103.467
 20
138.351
 30
0.0
 11
-104.095
 21
139.248
 31
0.0
  0
LINE
  5
13C
100
AcDbEntity
  8
PV
390
0
  6
CONTINUOUS
 62
   254
100
AcDbLine
 10
-104.013
 20
138.351
 30
0.0
 11
-104.641
 21
139.247
 31
0.0
  0
LINE
  5
13D
100
AcDbEntity
  8
PV
390
0
  6
CONTINUOUS
 62
   254
100
AcDbLine
 10
-91.713
 20
138.351
 30
0.0
 11
-92.634
 21
139.945
 31
0.0
  0
LINE
  5
13E
100
AcDbEntity
  8
PV
390
0
  6
CONTINUOUS
 62
   254
100
AcDbLine
 10
-91.713
 20
140.59
 30
0.0
 11
-92.634
 21
139.945
 31
0.0
  0
LINE
  5
13F
100
AcDbEntity
  8
PV
390
0
  6
CONTINUOUS
 62
   254
100
AcDbLine
 10
-92.494
 20
140.59
 30
0.0
 11
-93.616
 21
139.804
 31
0.0
  0
LINE
  5
140
100
AcDbEntity
  8
PV
390
0
  6
CONTINUOUS
 62
   254
100
AcDbLine
 10
-92.23
 20
138.351
 30
0.0
 11
-93.002
 21
139.688
 31
0.0
  0
LINE
  5
141
100
AcDbEntity
  8
PV
390
0
  6
CONTINUOUS
 62
   254
100
AcDbLine
 10
-93.002
 20
139.688
 30
0.0
 11
-93.616
 21
139.257
 31
0.0
  0
LINE
  5
142
100
AcDbEntity
  8
PV
390
0
  6
CONTINUOUS
 62
   254
100
AcDbLine
 10
-93.616
 20
139.257
 30
0.0
 11
-93.616
 21
138.351
 31
0.0
  0
LINE
  5
143
100
AcDbEntity
  8
PV
390
0
  6
CONTINUOUS
 62
   254
100
AcDbLine
 10
-92.494
 20
140.59
 30
0.0
 11
-91.713
 21
140.59
 31
0.0
  0
LINE
  5
144
100
AcDbEntity
  8
PV
390
0
  6
CONTINUOUS
 62
   254
100
AcDbLine
 10
-92.23
 20
138.351
 30
0.0
 11
-91.713
 21
138.351
 31
0.0
  0
LINE
  5
145
100
AcDbEntity
  8
PV
390
0
  6
CONTINUOUS
 62
   254
100
AcDbLine
 10
-82.646
 20
138.351
 30
0.0
 11
-82.422
 21
138.351
 31
0.0
  0
LINE
  5
146
100
AcDbEntity
  8
PV
390
0
  6
CONTINUOUS
 62
   254
100
AcDbLine
 10
-82.646
 20
140.59
 30
0.0
 11
-82.422
 21
140.59
 31
0.0
  0
LINE
  5
147
100
AcDbEntity
  8
PV
390
0
  6
CONTINUOUS
 62
   254
100
AcDbLine
 10
-83.877
 20
138.354
 30
0.0
 11
-83.877
 21
138.799
 31
0.0
  0
LINE
  5
148
100
AcDbEntity
  8
PV
390
0
  6
CONTINUOUS
 62
   254
100
AcDbLine
 10
-82.646
 20
138.799
 30
0.0
 11
-82.422
 21
138.799
 31
0.0
  0
LINE
  5
149
100
AcDbEntity
  8
PV
390
0
  6
CONTINUOUS
 62
   254
100
AcDbLine
 10
-82.646
 20
140.142
 30
0.0
 11
-82.422
 21
140.142
 31
0.0
  0
LINE
  5
14A
100
AcDbEntity
  8
PV
390
0
  6
CONTINUOUS
 62
   254
100
AcDbLine
 10
-98.989
 20
140.59
 30
0.0
 11
-98.541
 21
140.59
 31
0.0
  0
LINE
  5
14B
100
AcDbEntity
  8
PV
390
0
  6
CONTINUOUS
 62
   254
100
AcDbLine
 10
-98.989
 20
138.351
 30
0.0
 11
-98.541
 21
138.351
 31
0.0
  0
LINE
  5
14C
100
AcDbEntity
  8
PV
390
0
  6
CONTINUOUS
 62
   254
100
AcDbLine
 10
-98.989
 20
140.59
 30
0.0
 11
-98.989
 21
138.351
 31
0.0
  0
LINE
  5
14D
100
AcDbEntity
  8
PV
390
0
  6
CONTINUOUS
 62
   254
100
AcDbLine
 10
-98.541
 20
140.59
 30
0.0
 11
-98.541
 21
139.804
 31
0.0
  0
LINE
  5
14E
100
AcDbEntity
  8
PV
390
0
  6
CONTINUOUS
 62
   254
100
AcDbLine
 10
-96.639
 20
138.351
 30
0.0
 11
-97.559
 21
139.945
 31
0.0
  0
LINE
  5
14F
100
AcDbEntity
  8
PV
390
0
  6
CONTINUOUS
 62
   254
100
AcDbLine
 10
-96.638
 20
140.59
 30
0.0
 11
-97.559
 21
139.945
 31
0.0
  0
LINE
  5
150
100
AcDbEntity
  8
PV
390
0
  6
CONTINUOUS
 62
   254
100
AcDbLine
 10
-97.419
 20
140.59
 30
0.0
 11
-98.541
 21
139.804
 31
0.0
  0
LINE
  5
151
100
AcDbEntity
  8
PV
390
0
  6
CONTINUOUS
 62
   254
100
AcDbLine
 10
-97.156
 20
138.351
 30
0.0
 11
-97.927
 21
139.688
 31
0.0
  0
LINE
  5
152
100
AcDbEntity
  8
PV
390
0
  6
CONTINUOUS
 62
   254
100
AcDbLine
 10
-97.927
 20
139.688
 30
0.0
 11
-98.541
 21
139.257
 31
0.0
  0
LINE
  5
153
100
AcDbEntity
  8
PV
390
0
  6
CONTINUOUS
 62
   254
100
AcDbLine
 10
-98.541
 20
139.257
 30
0.0
 11
-98.541
 21
138.351
 31
0.0
  0
LINE
  5
154
100
AcDbEntity
  8
PV
390
0
  6
CONTINUOUS
 62
   254
100
AcDbLine
 10
-97.419
 20
140.59
 30
0.0
 11
-96.639
 21
140.59
 31
0.0
  0
LINE
  5
155
100
AcDbEntity
  8
PV
390
0
  6
CONTINUOUS
 62
   254
100
AcDbLine
 10
-97.156
 20
138.351
 30
0.0
 11
-96.639
 21
138.351
 31
0.0
  0
LINE
  5
156
100
AcDbEntity
  8
PV
390
0
  6
CONTINUOUS
 62
   254
100
AcDbLine
 10
-100.333
 20
140.59
 30
0.0
 11
-100.333
 21
140.142
 31
0.0
  0
LINE
  5
157
100
AcDbEntity
  8
PV
390
0
  6
CONTINUOUS
 62
   254
100
AcDbLine
 10
-101.34
 20
140.59
 30
0.0
 11
-100.333
 21
140.59
 31
0.0
  0
LINE
  5
158
100
AcDbEntity
  8
PV
390
0
  6
CONTINUOUS
 62
   254
100
AcDbLine
 10
-101.34
 20
138.351
 30
0.0
 11
-100.333
 21
138.351
 31
0.0
  0
LINE
  5
159
100
AcDbEntity
  8
PV
390
0
  6
CONTINUOUS
 62
   254
100
AcDbLine
 10
-101.973
 20
139.247
 30
0.0
 11
-100.333
 21
139.247
 31
0.0
  0
LINE
  5
15A
100
AcDbEntity
  8
PV
390
0
  6
CONTINUOUS
 62
   254
100
AcDbLine
 10
-101.973
 20
139.694
 30
0.0
 11
-100.333
 21
139.694
 31
0.0
  0
LINE
  5
15B
100
AcDbEntity
  8
PV
390
0
  6
CONTINUOUS
 62
   254
100
AcDbLine
 10
-101.34
 20
138.799
 30
0.0
 11
-100.333
 21
138.799
 31
0.0
  0
LINE
  5
15C
100
AcDbEntity
  8
PV
390
0
  6
CONTINUOUS
 62
   254
100
AcDbLine
 10
-100.333
 20
139.694
 30
0.0
 11
-100.333
 21
139.247
 31
0.0
  0
LINE
  5
15D
100
AcDbEntity
  8
PV
390
0
  6
CONTINUOUS
 62
   254
100
AcDbLine
 10
-100.333
 20
138.799
 30
0.0
 11
-100.333
 21
138.351
 31
0.0
  0
LINE
  5
15E
100
AcDbEntity
  8
PV
390
0
  6
CONTINUOUS
 62
   254
100
AcDbLine
 10
-84.997
 20
138.351
 30
0.0
 11
-83.877
 21
138.351
 31
0.0
  0
LINE
  5
15F
100
AcDbEntity
  8
PV
390
0
  6
CONTINUOUS
 62
   254
100
AcDbLine
 10
-84.997
 20
140.59
 30
0.0
 11
-83.877
 21
140.59
 31
0.0
  0
LINE
  5
160
100
AcDbEntity
  8
PV
390
0
  6
CONTINUOUS
 62
   254
100
AcDbLine
 10
-84.997
 20
138.799
 30
0.0
 11
-83.877
 21
138.799
 31
0.0
  0
LINE
  5
161
100
AcDbEntity
  8
PV
390
0
  6
CONTINUOUS
 62
   254
100
AcDbLine
 10
-84.997
 20
140.142
 30
0.0
 11
-83.877
 21
140.142
 31
0.0
  0
LINE
  5
162
100
AcDbEntity
  8
PV
390
0
  6
CONTINUOUS
 62
   254
100
AcDbLine
 10
-83.877
 20
140.142
 30
0.0
 11
-83.877
 21
140.59
 31
0.0
  0
LINE
  5
163
100
AcDbEntity
  8
PV
390
0
  6
CONTINUOUS
 62
   254
100
AcDbLine
 10
-78.952
 20
138.351
 30
0.0
 11
-77.833
 21
138.351
 31
0.0
  0
LINE
  5
164
100
AcDbEntity
  8
PV
390
0
  6
CONTINUOUS
 62
   254
100
AcDbLine
 10
-89.36
 20
138.351
 30
0.0
 11
-88.915
 21
138.351
 31
0.0
  0
LINE
  5
165
100
AcDbEntity
  8
PV
390
0
  6
CONTINUOUS
 62
   254
100
AcDbLine
 10
-88.355
 20
140.59
 30
0.0
 11
-88.131
 21
140.59
 31
0.0
  0
LINE
  5
166
100
AcDbEntity
  8
PV
390
0
  6
CONTINUOUS
 62
   254
100
AcDbLine
 10
-89.362
 20
139.583
 30
0.0
 11
-89.362
 21
138.351
 31
0.0
  0
LINE
  5
167
100
AcDbEntity
  8
PV
390
0
  6
CONTINUOUS
 62
   254
100
AcDbLine
 10
-87.124
 20
139.583
 30
0.0
 11
-87.124
 21
138.351
 31
0.0
  0
LINE
  5
168
100
AcDbEntity
  8
PV
390
0
  6
CONTINUOUS
 62
   254
100
AcDbLine
 10
-88.355
 20
140.142
 30
0.0
 11
-88.131
 21
140.142
 31
0.0
  0
LINE
  5
169
100
AcDbEntity
  8
PV
390
0
  6
CONTINUOUS
 62
   254
100
AcDbLine
 10
-88.915
 20
139.583
 30
0.0
 11
-88.915
 21
138.351
 31
0.0
  0
LINE
  5
16A
100
AcDbEntity
  8
PV
390
0
  6
CONTINUOUS
 62
   254
100
AcDbLine
 10
-87.571
 20
139.583
 30
0.0
 11
-87.571
 21
138.351
 31
0.0
  0
LINE
  5
16B
100
AcDbEntity
  8
PV
390
0
  6
CONTINUOUS
 62
   254
100
AcDbLine
 10
-87.571
 20
138.351
 30
0.0
 11
-87.124
 21
138.351
 31
0.0
  0
LINE
  5
16C
100
AcDbEntity
  8
PV
390
0
  6
CONTINUOUS
 62
   254
100
AcDbLine
 10
-95.631
 20
138.351
 30
0.0
 11
-95.407
 21
138.351
 31
0.0
  0
LINE
  5
16D
100
AcDbEntity
  8
PV
390
0
  6
CONTINUOUS
 62
   254
100
AcDbLine
 10
-95.631
 20
140.59
 30
0.0
 11
-95.407
 21
140.59
 31
0.0
  0
LINE
  5
16E
100
AcDbEntity
  8
PV
390
0
  6
CONTINUOUS
 62
   254
100
AcDbLine
 10
-95.631
 20
138.799
 30
0.0
 11
-95.407
 21
138.799
 31
0.0
  0
LINE
  5
16F
100
AcDbEntity
  8
PV
390
0
  6
CONTINUOUS
 62
   254
100
AcDbLine
 10
-80.514
 20
138.015
 30
0.0
 11
-80.148
 21
138.451
 31
0.0
  0
LINE
  5
170
100
AcDbEntity
  8
PV
390
0
  6
CONTINUOUS
 62
   254
100
AcDbLine
 10
-80.685
 20
138.159
 30
0.0
 11
-80.496
 21
138.385
 31
0.0
  0
LINE
  5
171
100
AcDbEntity
  8
PV
390
0
  6
CONTINUOUS
 62
   254
100
AcDbLine
 10
-80.685
 20
138.159
 30
0.0
 11
-80.514
 21
138.015
 31
0.0
  0
LINE
  5
172
100
AcDbEntity
  8
PV
390
0
  6
CONTINUOUS
 62
   254
100
AcDbLine
 10
-79.847
 20
140.59
 30
0.0
 11
-79.847
 21
139.247
 31
0.0
  0
LINE
  5
173
100
AcDbEntity
  8
PV
390
0
  6
CONTINUOUS
 62
   254
100
AcDbLine
 10
-77.833
 20
138.799
 30
0.0
 11
-77.833
 21
138.351
 31
0.0
  0
LINE
  5
174
100
AcDbEntity
  8
PV
390
0
  6
CONTINUOUS
 62
   254
100
AcDbLine
 10
-79.4
 20
140.59
 30
0.0
 11
-79.4
 21
139.247
 31
0.0
  0
LINE
  5
175
100
AcDbEntity
  8
PV
390
0
  6
CONTINUOUS
 62
   254
100
AcDbLine
 10
-78.952
 20
138.799
 30
0.0
 11
-77.833
 21
138.799
 31
0.0
  0
LINE
  5
176
100
AcDbEntity
  8
PV
390
0
  6
CONTINUOUS
 62
   254
100
AcDbLine
 10
-75.594
 20
138.351
 30
0.0
 11
-74.362
 21
138.351
 31
0.0
  0
LINE
  5
177
100
AcDbEntity
  8
PV
390
0
  6
CONTINUOUS
 62
   254
100
AcDbLine
 10
-79.847
 20
140.59
 30
0.0
 11
-79.4
 21
140.59
 31
0.0
  0
LINE
  5
178
100
AcDbEntity
  8
PV
390
0
  6
CONTINUOUS
 62
   254
100
AcDbLine
 10
-78.056
 20
140.59
 30
0.0
 11
-75.818
 21
140.59
 31
0.0
  0
LINE
  5
179
100
AcDbEntity
  8
PV
390
0
  6
CONTINUOUS
 62
   254
100
AcDbLine
 10
-78.056
 20
140.59
 30
0.0
 11
-78.056
 21
140.142
 31
0.0
  0
LINE
  5
17A
100
AcDbEntity
  8
PV
390
0
  6
CONTINUOUS
 62
   254
100
AcDbLine
 10
-75.818
 20
140.59
 30
0.0
 11
-75.818
 21
140.142
 31
0.0
  0
LINE
  5
17B
100
AcDbEntity
  8
PV
390
0
  6
CONTINUOUS
 62
   254
100
AcDbLine
 10
-78.056
 20
140.142
 30
0.0
 11
-77.161
 21
140.142
 31
0.0
  0
LINE
  5
17C
100
AcDbEntity
  8
PV
390
0
  6
CONTINUOUS
 62
   254
100
AcDbLine
 10
-76.713
 20
140.142
 30
0.0
 11
-76.713
 21
138.351
 31
0.0
  0
LINE
  5
17D
100
AcDbEntity
  8
PV
390
0
  6
CONTINUOUS
 62
   254
100
AcDbLine
 10
-77.161
 20
140.142
 30
0.0
 11
-77.161
 21
138.351
 31
0.0
  0
LINE
  5
17E
100
AcDbEntity
  8
PV
390
0
  6
CONTINUOUS
 62
   254
100
AcDbLine
 10
-75.146
 20
140.142
 30
0.0
 11
-74.362
 21
140.142
 31
0.0
  0
LINE
  5
17F
100
AcDbEntity
  8
PV
390
0
  6
CONTINUOUS
 62
   254
100
AcDbLine
 10
-75.594
 20
140.59
 30
0.0
 11
-74.362
 21
140.59
 31
0.0
  0
LINE
  5
180
100
AcDbEntity
  8
PV
390
0
  6
CONTINUOUS
 62
   254
100
AcDbLine
 10
-76.713
 20
140.142
 30
0.0
 11
-75.818
 21
140.142
 31
0.0
  0
LINE
  5
181
100
AcDbEntity
  8
PV
390
0
  6
CONTINUOUS
 62
   254
100
AcDbLine
 10
-77.161
 20
138.351
 30
0.0
 11
-76.713
 21
138.351
 31
0.0
  0
LINE
  5
182
100
AcDbEntity
  8
PV
390
0
  6
CONTINUOUS
 62
   254
100
AcDbLine
 10
-75.594
 20
140.59
 30
0.0
 11
-75.594
 21
139.471
 31
0.0
  0
LINE
  5
183
100
AcDbEntity
  8
PV
390
0
  6
CONTINUOUS
 62
   254
100
AcDbLine
 10
-75.146
 20
138.799
 30
0.0
 11
-74.362
 21
138.799
 31
0.0
  0
LINE
  5
184
100
AcDbEntity
  8
PV
390
0
  6
CONTINUOUS
 62
   254
100
AcDbLine
 10
-75.146
 20
140.142
 30
0.0
 11
-75.146
 21
139.471
 31
0.0
  0
LINE
  5
185
100
AcDbEntity
  8
PV
390
0
  6
CONTINUOUS
 62
   254
100
AcDbLine
 10
-105.706
 20
139.918
 30
0.0
 11
-105.706
 21
138.351
 31
0.0
  0
LINE
  5
186
100
AcDbEntity
  8
PV
390
0
  6
CONTINUOUS
 62
   254
100
AcDbLine
 10
-105.258
 20
139.918
 30
0.0
 11
-105.258
 21
139.694
 31
0.0
  0
LINE
  5
187
100
AcDbEntity
  8
PV
390
0
  6
CONTINUOUS
 62
   254
100
AcDbLine
 10
-75.594
 20
139.471
 30
0.0
 11
-75.594
 21
138.351
 31
0.0
  0
LINE
  5
188
100
AcDbEntity
  8
PV
390
0
  6
CONTINUOUS
 62
   254
100
AcDbLine
 10
-75.146
 20
139.471
 30
0.0
 11
-75.146
 21
138.799
 31
0.0
  0
LINE
  5
189
100
AcDbEntity
  8
PV
390
0
  6
CONTINUOUS
 62
   254
100
AcDbLine
 10
-95.631
 20
140.142
 30
0.0
 11
-95.407
 21
140.142
 31
0.0
  0
ARC
  5
18A
100
AcDbEntity
  8
PV
390
0
  6
CONTINUOUS
 62
     7
100
AcDbCircle
 10
-94.334
 20
146.416
 30
0.0
 40
0.95
100
AcDbArc
 50
0.0
 51
180.000005
  0
ARC
  5
18B
100
AcDbEntity
  8
PV
390
0
  6
CONTINUOUS
 62
     7
100
AcDbCircle
 10
-94.334
 20
146.416
 30
0.0
 40
0.95
100
AcDbArc
 50
179.999991
 51
0.00001
  0
ARC
  5
18C
100
AcDbEntity
  8
PV
390
0
  6
CONTINUOUS
 62
     7
100
AcDbCircle
 10
-89.375
 20
145.591
 30
0.0
 40
1.775
100
AcDbArc
 50
90.000003
 51
270.000001
  0
ARC
  5
18D
100
AcDbEntity
  8
PV
390
0
  6
CONTINUOUS
 62
     7
100
AcDbCircle
 10
-89.375
 20
145.591
 30
0.0
 40
0.975
100
AcDbArc
 50
90.000003
 51
270.000001
  0
ARC
  5
18E
100
AcDbEntity
  8
PV
390
0
  6
CONTINUOUS
 62
     7
100
AcDbCircle
 10
-89.375
 20
145.591
 30
0.0
 40
0.975
100
AcDbArc
 50
269.999997
 51
90.000003
  0
ARC
  5
18F
100
AcDbEntity
  8
PV
390
0
  6
CONTINUOUS
 62
     7
100
AcDbCircle
 10
-86.124
 20
145.591
 30
0.0
 40
1.775
100
AcDbArc
 50
34.225552
 51
325.774451
  0
ARC
  5
190
100
AcDbEntity
  8
PV
390
0
  6
CONTINUOUS
 62
     7
100
AcDbCircle
 10
-84.599
 20
145.591
 30
0.0
 40
1.0
100
AcDbArc
 50
90.000003
 51
270.000001
  0
ARC
  5
191
100
AcDbEntity
  8
PV
390
0
  6
CONTINUOUS
 62
     7
100
AcDbCircle
 10
-84.599
 20
145.591
 30
0.0
 40
1.0
100
AcDbArc
 50
269.999997
 51
90.000003
  0
ARC
  5
192
100
AcDbEntity
  8
PV
390
0
  6
CONTINUOUS
 62
   254
100
AcDbCircle
 10
-104.139
 20
139.918
 30
0.0
 40
0.672
100
AcDbArc
 50
273.721836
 51
359.999996
  0
ARC
  5
193
100
AcDbEntity
  8
PV
390
0
  6
CONTINUOUS
 62
   254
100
AcDbCircle
 10
-104.139
 20
139.918
 30
0.0
 40
0.224
100
AcDbArc
 50
270.000011
 51
359.999996
  0
ARC
  5
194
100
AcDbEntity
  8
PV
390
0
  6
CONTINUOUS
 62
   254
100
AcDbCircle
 10
-90.706
 20
139.471
 30
0.0
 40
1.119
100
AcDbArc
 50
89.999975
 51
270.000001
  0
ARC
  5
195
100
AcDbEntity
  8
PV
390
0
  6
CONTINUOUS
 62
   254
100
AcDbCircle
 10
-90.706
 20
139.471
 30
0.0
 40
0.672
100
AcDbArc
 50
89.999975
 51
160.528775
  0
ARC
  5
196
100
AcDbEntity
  8
PV
390
0
  6
CONTINUOUS
 62
   254
100
AcDbCircle
 10
-90.706
 20
139.471
 30
0.0
 40
0.672
100
AcDbArc
 50
199.471211
 51
270.000011
  0
ARC
  5
197
100
AcDbEntity
  8
PV
390
0
  6
CONTINUOUS
 62
   254
100
AcDbCircle
 10
-82.646
 20
139.471
 30
0.0
 40
1.119
100
AcDbArc
 50
89.999975
 51
179.99995
  0
ARC
  5
198
100
AcDbEntity
  8
PV
390
0
  6
CONTINUOUS
 62
   254
100
AcDbCircle
 10
-82.422
 20
139.471
 30
0.0
 40
1.119
100
AcDbArc
 50
270.000011
 51
359.999996
  0
ARC
  5
199
100
AcDbEntity
  8
PV
390
0
  6
CONTINUOUS
 62
   254
100
AcDbCircle
 10
-82.646
 20
139.471
 30
0.0
 40
0.672
100
AcDbArc
 50
89.999975
 51
179.99995
  0
ARC
  5
19A
100
AcDbEntity
  8
PV
390
0
  6
CONTINUOUS
 62
   254
100
AcDbCircle
 10
-82.422
 20
139.471
 30
0.0
 40
0.672
100
AcDbArc
 50
270.000011
 51
359.999996
  0
ARC
  5
19B
100
AcDbEntity
  8
PV
390
0
  6
CONTINUOUS
 62
   254
100
AcDbCircle
 10
-101.34
 20
139.471
 30
0.0
 40
1.119
100
AcDbArc
 50
89.999975
 51
270.000001
  0
ARC
  5
19C
100
AcDbEntity
  8
PV
390
0
  6
CONTINUOUS
 62
   254
100
AcDbCircle
 10
-101.34
 20
139.471
 30
0.0
 40
0.672
100
AcDbArc
 50
89.999975
 51
160.528775
  0
ARC
  5
19D
100
AcDbEntity
  8
PV
390
0
  6
CONTINUOUS
 62
   254
100
AcDbCircle
 10
-101.34
 20
139.471
 30
0.0
 40
0.672
100
AcDbArc
 50
199.471211
 51
270.000011
  0
ARC
  5
19E
100
AcDbEntity
  8
PV
390
0
  6
CONTINUOUS
 62
   254
100
AcDbCircle
 10
-88.355
 20
139.583
 30
0.0
 40
1.007
100
AcDbArc
 50
89.999975
 51
179.99995
  0
ARC
  5
19F
100
AcDbEntity
  8
PV
390
0
  6
CONTINUOUS
 62
   254
100
AcDbCircle
 10
-88.131
 20
139.583
 30
0.0
 40
1.007
100
AcDbArc
 50
359.999996
 51
89.999975
  0
ARC
  5
1A0
100
AcDbEntity
  8
PV
390
0
  6
CONTINUOUS
 62
   254
100
AcDbCircle
 10
-88.355
 20
139.583
 30
0.0
 40
0.56
100
AcDbArc
 50
89.999975
 51
179.99995
  0
ARC
  5
1A1
100
AcDbEntity
  8
PV
390
0
  6
CONTINUOUS
 62
   254
100
AcDbCircle
 10
-88.131
 20
139.583
 30
0.0
 40
0.56
100
AcDbArc
 50
359.999996
 51
89.999975
  0
ARC
  5
1A2
100
AcDbEntity
  8
PV
390
0
  6
CONTINUOUS
 62
   254
100
AcDbCircle
 10
-95.631
 20
139.471
 30
0.0
 40
1.119
100
AcDbArc
 50
89.999975
 51
179.99995
  0
ARC
  5
1A3
100
AcDbEntity
  8
PV
390
0
  6
CONTINUOUS
 62
   254
100
AcDbCircle
 10
-95.407
 20
139.471
 30
0.0
 40
1.119
100
AcDbArc
 50
270.000011
 51
359.999996
  0
ARC
  5
1A4
100
AcDbEntity
  8
PV
390
0
  6
CONTINUOUS
 62
   254
100
AcDbCircle
 10
-95.631
 20
139.471
 30
0.0
 40
0.672
100
AcDbArc
 50
89.999975
 51
179.99995
  0
ARC
  5
1A5
100
AcDbEntity
  8
PV
390
0
  6
CONTINUOUS
 62
   254
100
AcDbCircle
 10
-95.407
 20
139.471
 30
0.0
 40
0.672
100
AcDbArc
 50
270.000011
 51
359.999996
  0
ARC
  5
1A6
100
AcDbEntity
  8
PV
390
0
  6
CONTINUOUS
 62
   254
100
AcDbCircle
 10
-80.362
 20
138.631
 30
0.0
 40
0.28
100
AcDbArc
 50
319.999919
 51
241.536827
  0
CIRCLE
  5
1A7
100
AcDbEntity
  8
PV
390
0
  6
CONTINUOUS
 62
   254
100
AcDbCircle
 10
-81.079
 20
138.631
 30
0.0
 40
0.28
  0
ARC
  5
1A8
100
AcDbEntity
  8
PV
390
0
  6
CONTINUOUS
 62
   254
100
AcDbCircle
 10
-78.952
 20
139.247
 30
0.0
 40
0.896
100
AcDbArc
 50
179.999978
 51
270.000001
  0
ARC
  5
1A9
100
AcDbEntity
  8
PV
390
0
  6
CONTINUOUS
 62
   254
100
AcDbCircle
 10
-78.952
 20
139.247
 30
0.0
 40
0.448
100
AcDbArc
 50
179.999978
 51
270.000001
  0
ARC
  5
1AA
100
AcDbEntity
  8
PV
390
0
  6
CONTINUOUS
 62
   254
100
AcDbCircle
 10
-74.362
 20
139.471
 30
0.0
 40
1.119
100
AcDbArc
 50
270.000011
 51
359.999996
  0
ARC
  5
1AB
100
AcDbEntity
  8
PV
390
0
  6
CONTINUOUS
 62
   254
100
AcDbCircle
 10
-74.362
 20
139.471
 30
0.0
 40
0.672
100
AcDbArc
 50
270.000011
 51
359.999996
  0
ARC
  5
1AC
100
AcDbEntity
  8
PV
390
0
  6
CONTINUOUS
 62
   254
100
AcDbCircle
 10
-84.997
 20
139.471
 30
0.0
 40
1.119
100
AcDbArc
 50
89.999975
 51
270.000001
  0
ARC
  5
1AD
100
AcDbEntity
  8
PV
390
0
  6
CONTINUOUS
 62
   254
100
AcDbCircle
 10
-84.997
 20
139.471
 30
0.0
 40
0.672
100
AcDbArc
 50
89.999975
 51
270.000001
  0
ARC
  5
1AE
100
AcDbEntity
  8
PV
390
0
  6
CONTINUOUS
 62
   254
100
AcDbCircle
 10
-104.139
 20
139.918
 30
0.0
 40
0.224
100
AcDbArc
 50
359.999996
 51
89.999975
  0
ARC
  5
1AF
100
AcDbEntity
  8
PV
390
0
  6
CONTINUOUS
 62
   254
100
AcDbCircle
 10
-104.139
 20
139.918
 30
0.0
 40
0.672
100
AcDbArc
 50
359.999996
 51
89.999975
  0
ARC
  5
1B0
100
AcDbEntity
  8
PV
390
0
  6
CONTINUOUS
 62
   254
100
AcDbCircle
 10
-95.407
 20
139.471
 30
0.0
 40
1.119
100
AcDbArc
 50
359.999996
 51
89.999975
  0
ARC
  5
1B1
100
AcDbEntity
  8
PV
390
0
  6
CONTINUOUS
 62
   254
100
AcDbCircle
 10
-95.407
 20
139.471
 30
0.0
 40
0.672
100
AcDbArc
 50
359.999996
 51
89.999975
  0
ARC
  5
1B2
100
AcDbEntity
  8
PV
390
0
  6
CONTINUOUS
 62
   254
100
AcDbCircle
 10
-95.631
 20
139.471
 30
0.0
 40
0.672
100
AcDbArc
 50
179.999978
 51
270.000001
  0
ARC
  5
1B3
100
AcDbEntity
  8
PV
390
0
  6
CONTINUOUS
 62
   254
100
AcDbCircle
 10
-95.631
 20
139.471
 30
0.0
 40
1.119
100
AcDbArc
 50
179.999978
 51
270.000001
  0
ARC
  5
1B4
100
AcDbEntity
  8
PV
390
0
  6
CONTINUOUS
 62
   254
100
AcDbCircle
 10
-82.646
 20
139.471
 30
0.0
 40
1.119
100
AcDbArc
 50
179.999978
 51
270.000001
  0
ARC
  5
1B5
100
AcDbEntity
  8
PV
390
0
  6
CONTINUOUS
 62
   254
100
AcDbCircle
 10
-82.646
 20
139.471
 30
0.0
 40
0.672
100
AcDbArc
 50
179.999978
 51
270.000001
  0
ARC
  5
1B6
100
AcDbEntity
  8
PV
390
0
  6
CONTINUOUS
 62
   254
100
AcDbCircle
 10
-82.422
 20
139.471
 30
0.0
 40
0.672
100
AcDbArc
 50
359.999996
 51
89.999975
  0
ARC
  5
1B7
100
AcDbEntity
  8
PV
390
0
  6
CONTINUOUS
 62
   254
100
AcDbCircle
 10
-82.422
 20
139.471
 30
0.0
 40
1.119
100
AcDbArc
 50
359.999996
 51
89.999975
  0
ARC
  5
1B8
100
AcDbEntity
  8
PV
390
0
  6
CONTINUOUS
 62
   254
100
AcDbCircle
 10
-74.362
 20
139.471
 30
0.0
 40
0.672
100
AcDbArc
 50
359.999996
 51
90.00003
  0
ARC
  5
1B9
100
AcDbEntity
  8
PV
390
0
  6
CONTINUOUS
 62
   254
100
AcDbCircle
 10
-74.362
 20
139.471
 30
0.0
 40
1.119
100
AcDbArc
 50
359.999996
 51
90.00003
  0
CIRCLE
  5
1BA
100
AcDbEntity
  8
PV
390
0
  6
CONTINUOUS
 62
     7
100
AcDbCircle
 10
-90.0
 20
120.006
 30
0.0
 40
31.5
  0
CIRCLE
  5
1BB
100
AcDbEntity
  8
PV
390
0
  6
CONTINUOUS
 62
     7
100
AcDbCircle
 10
-90.0
 20
120.006
 30
0.0
 40
31.25
  0
MTEXT
  5
1BC
100
AcDbEntity
  8
PV
390
0
  6
CONTINUOUS
 62
     7
100
AcDbMText
 10
-89.997
 20
112.093
 30
0.0
 40
2.6
 41
0.0
 71
     2
 72
     1
  1
\W0.925;\A1;HIGH VACUUM VALVES
 73
     1
 44
1.0
  0
MTEXT
  5
1BD
100
AcDbEntity
  8
PV
390
0
  6
CONTINUOUS
 62
     7
100
AcDbMText
 10
-89.637
 20
105.506
 30
0.0
 40
2.6
 41
0.0
 71
     2
 72
     1
  1
\W0.930;\A1;METAL BELLOWS
 73
     1
 44
1.0
  0
MTEXT
  5
1BE
100
AcDbEntity
  8
PV
390
0
  6
CONTINUOUS
 62
     7
100
AcDbMText
 10
-90.363
 20
98.222
 30
0.0
 40
1.5
 41
0.0
 71
     2
 72
     1
  1
\W0.980;\A1;MADE IN JAPAN
 73
     1
 44
1.0
  0
SOLID
  5
1BF
100
AcDbEntity
  8
PV
390
0
  6
CONTINUOUS
 62
     7
100
AcDbTrace
 10
-92.7
 20
143.816
 30
0.0
 11
-91.15
 21
143.816
 31
0.0
 12
-92.7
 22
147.366
 32
0.0
 13
-91.15
 23
147.366
 33
0.0
  0
SOLID
  5
1C0
100
AcDbEntity
  8
PV
390
0
  6
CONTINUOUS
 62
     7
100
AcDbTrace
 10
-106.601
 20
138.351
 30
0.0
 11
-106.153
 21
138.351
 31
0.0
 12
-106.601
 22
140.59
 32
0.0
 13
-106.153
 23
140.59
 33
0.0
  0
SOLID
  5
1C1
100
AcDbEntity
  8
PV
390
0
  6
CONTINUOUS
 62
     7
100
AcDbTrace
 10
-103.131
 20
138.351
 30
0.0
 11
-102.683
 21
138.351
 31
0.0
 12
-103.131
 22
140.59
 32
0.0
 13
-102.683
 23
140.59
 33
0.0
  0
LINE
  5
1C2
100
AcDbEntity
  8
PV
390
0
  6
CONTINUOUS
 62
     7
100
AcDbLine
 10
-64.977
 20
128.006
 30
0.0
 11
-63.748
 21
128.006
 31
0.0
  0
LINE
  5
1C3
100
AcDbEntity
  8
PV
390
0
  6
CONTINUOUS
 62
     7
100
AcDbLine
 10
-69.628
 20
128.006
 30
0.0
 11
-67.495
 21
128.006
 31
0.0
  0
LINE
  5
1C4
100
AcDbEntity
  8
PV
390
0
  6
CONTINUOUS
 62
     7
100
AcDbLine
 10
-72.475
 20
128.006
 30
0.0
 11
-71.982
 21
128.006
 31
0.0
  0
LINE
  5
1C5
100
AcDbEntity
  8
PV
390
0
  6
CONTINUOUS
 62
     7
100
AcDbLine
 10
-74.98
 20
128.006
 30
0.0
 11
-74.505
 21
128.006
 31
0.0
  0
LINE
  5
1C6
100
AcDbEntity
  8
PV
390
0
  6
CONTINUOUS
 62
     7
100
AcDbLine
 10
-78.44
 20
128.006
 30
0.0
 11
-77.965
 21
128.006
 31
0.0
  0
LINE
  5
1C7
100
AcDbEntity
  8
PV
390
0
  6
CONTINUOUS
 62
     7
100
AcDbLine
 10
-82.733
 20
128.006
 30
0.0
 11
-82.182
 21
128.006
 31
0.0
  0
LINE
  5
1C8
100
AcDbEntity
  8
PV
390
0
  6
CONTINUOUS
 62
     7
100
AcDbLine
 10
-85.975
 20
128.006
 30
0.0
 11
-85.482
 21
128.006
 31
0.0
  0
LINE
  5
1C9
100
AcDbEntity
  8
PV
390
0
  6
CONTINUOUS
 62
     7
100
AcDbLine
 10
-88.48
 20
128.006
 30
0.0
 11
-88.005
 21
128.006
 31
0.0
  0
LINE
  5
1CA
100
AcDbEntity
  8
PV
390
0
  6
CONTINUOUS
 62
     7
100
AcDbLine
 10
-95.188
 20
128.006
 30
0.0
 11
-93.055
 21
128.006
 31
0.0
  0
LINE
  5
1CB
100
AcDbEntity
  8
PV
390
0
  6
CONTINUOUS
 62
     7
100
AcDbLine
 10
-99.8
 20
128.006
 30
0.0
 11
-99.325
 21
128.006
 31
0.0
  0
LINE
  5
1CC
100
AcDbEntity
  8
PV
390
0
  6
CONTINUOUS
 62
     7
100
AcDbLine
 10
-104.687
 20
128.006
 30
0.0
 11
-103.665
 21
128.006
 31
0.0
  0
LINE
  5
1CD
100
AcDbEntity
  8
PV
390
0
  6
CONTINUOUS
 62
     7
100
AcDbLine
 10
-108.259
 20
128.006
 30
0.0
 11
-107.795
 21
128.006
 31
0.0
  0
LINE
  5
1CE
100
AcDbEntity
  8
PV
390
0
  6
CONTINUOUS
 62
     7
100
AcDbLine
 10
-110.896
 20
128.006
 30
0.0
 11
-110.438
 21
128.006
 31
0.0
  0
LINE
  5
1CF
100
AcDbEntity
  8
PV
390
0
  6
CONTINUOUS
 62
     7
100
AcDbLine
 10
-115.493
 20
128.006
 30
0.0
 11
-114.942
 21
128.006
 31
0.0
  0
LINE
  5
1D0
100
AcDbEntity
  8
PV
390
0
  6
CONTINUOUS
 62
     7
100
AcDbLine
 10
-65.614
 20
127.006
 30
0.0
 11
-65.19
 21
127.006
 31
0.0
  0
LINE
  5
1D1
100
AcDbEntity
  8
PV
390
0
  6
CONTINUOUS
 62
     7
100
AcDbLine
 10
-69.805
 20
127.006
 30
0.0
 11
-69.336
 21
127.006
 31
0.0
  0
LINE
  5
1D2
100
AcDbEntity
  8
PV
390
0
  6
CONTINUOUS
 62
     7
100
AcDbLine
 10
-72.839
 20
127.006
 30
0.0
 11
-72.346
 21
127.006
 31
0.0
  0
LINE
  5
1D3
100
AcDbEntity
  8
PV
390
0
  6
CONTINUOUS
 62
     7
100
AcDbLine
 10
-74.803
 20
127.006
 30
0.0
 11
-74.329
 21
127.006
 31
0.0
  0
LINE
  5
1D4
100
AcDbEntity
  8
PV
390
0
  6
CONTINUOUS
 62
     7
100
AcDbLine
 10
-78.617
 20
127.006
 30
0.0
 11
-78.142
 21
127.006
 31
0.0
  0
LINE
  5
1D5
100
AcDbEntity
  8
PV
390
0
  6
CONTINUOUS
 62
     7
100
AcDbLine
 10
-82.386
 20
127.006
 30
0.0
 11
-81.914
 21
127.006
 31
0.0
  0
LINE
  5
1D6
100
AcDbEntity
  8
PV
390
0
  6
CONTINUOUS
 62
     7
100
AcDbLine
 10
-83.097
 20
127.006
 30
0.0
 11
-82.611
 21
127.006
 31
0.0
  0
LINE
  5
1D7
100
AcDbEntity
  8
PV
390
0
  6
CONTINUOUS
 62
     7
100
AcDbLine
 10
-86.339
 20
127.006
 30
0.0
 11
-85.846
 21
127.006
 31
0.0
  0
LINE
  5
1D8
100
AcDbEntity
  8
PV
390
0
  6
CONTINUOUS
 62
     7
100
AcDbLine
 10
-88.303
 20
127.006
 30
0.0
 11
-87.829
 21
127.006
 31
0.0
  0
LINE
  5
1D9
100
AcDbEntity
  8
PV
390
0
  6
CONTINUOUS
 62
     7
100
AcDbLine
 10
-95.365
 20
127.006
 30
0.0
 11
-94.896
 21
127.006
 31
0.0
  0
LINE
  5
1DA
100
AcDbEntity
  8
PV
390
0
  6
CONTINUOUS
 62
     7
100
AcDbLine
 10
-99.977
 20
127.006
 30
0.0
 11
-99.502
 21
127.006
 31
0.0
  0
LINE
  5
1DB
100
AcDbEntity
  8
PV
390
0
  6
CONTINUOUS
 62
     7
100
AcDbLine
 10
-103.087
 20
127.006
 30
0.0
 11
-102.528
 21
127.006
 31
0.0
  0
LINE
  5
1DC
100
AcDbEntity
  8
PV
390
0
  6
CONTINUOUS
 62
     7
100
AcDbLine
 10
-105.908
 20
127.006
 30
0.0
 11
-105.325
 21
127.006
 31
0.0
  0
LINE
  5
1DD
100
AcDbEntity
  8
PV
390
0
  6
CONTINUOUS
 62
     7
100
AcDbLine
 10
-108.436
 20
127.006
 30
0.0
 11
-107.971
 21
127.006
 31
0.0
  0
LINE
  5
1DE
100
AcDbEntity
  8
PV
390
0
  6
CONTINUOUS
 62
     7
100
AcDbLine
 10
-110.535
 20
127.006
 30
0.0
 11
-110.014
 21
127.006
 31
0.0
  0
LINE
  5
1DF
100
AcDbEntity
  8
PV
390
0
  6
CONTINUOUS
 62
     7
100
AcDbLine
 10
-111.072
 20
127.006
 30
0.0
 11
-110.591
 21
127.006
 31
0.0
  0
LINE
  5
1E0
100
AcDbEntity
  8
PV
390
0
  6
CONTINUOUS
 62
     7
100
AcDbLine
 10
-115.146
 20
127.006
 30
0.0
 11
-114.674
 21
127.006
 31
0.0
  0
LINE
  5
1E1
100
AcDbEntity
  8
PV
390
0
  6
CONTINUOUS
 62
     7
100
AcDbLine
 10
-115.857
 20
127.006
 30
0.0
 11
-115.371
 21
127.006
 31
0.0
  0
LINE
  5
1E2
100
AcDbEntity
  8
PV
390
0
  6
CONTINUOUS
 62
     7
100
AcDbLine
 10
-65.328
 20
126.006
 30
0.0
 11
-64.295
 21
126.006
 31
0.0
  0
LINE
  5
1E3
100
AcDbEntity
  8
PV
390
0
  6
CONTINUOUS
 62
     7
100
AcDbLine
 10
-69.981
 20
126.006
 30
0.0
 11
-67.848
 21
126.006
 31
0.0
  0
LINE
  5
1E4
100
AcDbEntity
  8
PV
390
0
  6
CONTINUOUS
 62
     7
100
AcDbLine
 10
-73.203
 20
126.006
 30
0.0
 11
-72.71
 21
126.006
 31
0.0
  0
LINE
  5
1E5
100
AcDbEntity
  8
PV
390
0
  6
CONTINUOUS
 62
     7
100
AcDbLine
 10
-74.627
 20
126.006
 30
0.0
 11
-74.152
 21
126.006
 31
0.0
  0
LINE
  5
1E6
100
AcDbEntity
  8
PV
390
0
  6
CONTINUOUS
 62
     7
100
AcDbLine
 10
-78.793
 20
126.006
 30
0.0
 11
-78.318
 21
126.006
 31
0.0
  0
LINE
  5
1E7
100
AcDbEntity
  8
PV
390
0
  6
CONTINUOUS
 62
     7
100
AcDbLine
 10
-82.118
 20
126.006
 30
0.0
 11
-81.646
 21
126.006
 31
0.0
  0
LINE
  5
1E8
100
AcDbEntity
  8
PV
390
0
  6
CONTINUOUS
 62
     7
100
AcDbLine
 10
-83.461
 20
126.006
 30
0.0
 11
-82.975
 21
126.006
 31
0.0
  0
LINE
  5
1E9
100
AcDbEntity
  8
PV
390
0
  6
CONTINUOUS
 62
     7
100
AcDbLine
 10
-86.703
 20
126.006
 30
0.0
 11
-86.21
 21
126.006
 31
0.0
  0
LINE
  5
1EA
100
AcDbEntity
  8
PV
390
0
  6
CONTINUOUS
 62
     7
100
AcDbLine
 10
-88.127
 20
126.006
 30
0.0
 11
-87.652
 21
126.006
 31
0.0
  0
LINE
  5
1EB
100
AcDbEntity
  8
PV
390
0
  6
CONTINUOUS
 62
     7
100
AcDbLine
 10
-95.541
 20
126.006
 30
0.0
 11
-93.408
 21
126.006
 31
0.0
  0
LINE
  5
1EC
100
AcDbEntity
  8
PV
390
0
  6
CONTINUOUS
 62
     7
100
AcDbLine
 10
-100.153
 20
126.006
 30
0.0
 11
-99.678
 21
126.006
 31
0.0
  0
LINE
  5
1ED
100
AcDbEntity
  8
PV
390
0
  6
CONTINUOUS
 62
     7
100
AcDbLine
 10
-106.241
 20
126.006
 30
0.0
 11
-105.755
 21
126.006
 31
0.0
  0
LINE
  5
1EE
100
AcDbEntity
  8
PV
390
0
  6
CONTINUOUS
 62
     7
100
AcDbLine
 10
-108.612
 20
126.006
 30
0.0
 11
-108.147
 21
126.006
 31
0.0
  0
LINE
  5
1EF
100
AcDbEntity
  8
PV
390
0
  6
CONTINUOUS
 62
     7
100
AcDbLine
 10
-110.111
 20
126.006
 30
0.0
 11
-109.589
 21
126.006
 31
0.0
  0
LINE
  5
1F0
100
AcDbEntity
  8
PV
390
0
  6
CONTINUOUS
 62
     7
100
AcDbLine
 10
-111.248
 20
126.006
 30
0.0
 11
-110.768
 21
126.006
 31
0.0
  0
LINE
  5
1F1
100
AcDbEntity
  8
PV
390
0
  6
CONTINUOUS
 62
     7
100
AcDbLine
 10
-114.878
 20
126.006
 30
0.0
 11
-114.406
 21
126.006
 31
0.0
  0
LINE
  5
1F2
100
AcDbEntity
  8
PV
390
0
  6
CONTINUOUS
 62
     7
100
AcDbLine
 10
-116.221
 20
126.006
 30
0.0
 11
-115.735
 21
126.006
 31
0.0
  0
LINE
  5
1F3
100
AcDbEntity
  8
PV
390
0
  6
CONTINUOUS
 62
     7
100
AcDbLine
 10
-64.022
 20
125.006
 30
0.0
 11
-63.596
 21
125.006
 31
0.0
  0
LINE
  5
1F4
100
AcDbEntity
  8
PV
390
0
  6
CONTINUOUS
 62
     7
100
AcDbLine
 10
-70.157
 20
125.006
 30
0.0
 11
-69.689
 21
125.006
 31
0.0
  0
LINE
  5
1F5
100
AcDbEntity
  8
PV
390
0
  6
CONTINUOUS
 62
     7
100
AcDbLine
 10
-73.567
 20
125.006
 30
0.0
 11
-73.074
 21
125.006
 31
0.0
  0
LINE
  5
1F6
100
AcDbEntity
  8
PV
390
0
  6
CONTINUOUS
 62
     7
100
AcDbLine
 10
-74.451
 20
125.006
 30
0.0
 11
-73.976
 21
125.006
 31
0.0
  0
LINE
  5
1F7
100
AcDbEntity
  8
PV
390
0
  6
CONTINUOUS
 62
     7
100
AcDbLine
 10
-78.969
 20
125.006
 30
0.0
 11
-78.494
 21
125.006
 31
0.0
  0
LINE
  5
1F8
100
AcDbEntity
  8
PV
390
0
  6
CONTINUOUS
 62
     7
100
AcDbLine
 10
-81.85
 20
125.006
 30
0.0
 11
-81.378
 21
125.006
 31
0.0
  0
LINE
  5
1F9
100
AcDbEntity
  8
PV
390
0
  6
CONTINUOUS
 62
     7
100
AcDbLine
 10
-83.825
 20
125.006
 30
0.0
 11
-83.339
 21
125.006
 31
0.0
  0
LINE
  5
1FA
100
AcDbEntity
  8
PV
390
0
  6
CONTINUOUS
 62
     7
100
AcDbLine
 10
-87.067
 20
125.006
 30
0.0
 11
-86.574
 21
125.006
 31
0.0
  0
LINE
  5
1FB
100
AcDbEntity
  8
PV
390
0
  6
CONTINUOUS
 62
     7
100
AcDbLine
 10
-87.951
 20
125.006
 30
0.0
 11
-87.476
 21
125.006
 31
0.0
  0
LINE
  5
1FC
100
AcDbEntity
  8
PV
390
0
  6
CONTINUOUS
 62
     7
100
AcDbLine
 10
-95.717
 20
125.006
 30
0.0
 11
-95.249
 21
125.006
 31
0.0
  0
LINE
  5
1FD
100
AcDbEntity
  8
PV
390
0
  6
CONTINUOUS
 62
     7
100
AcDbLine
 10
-100.329
 20
125.006
 30
0.0
 11
-99.854
 21
125.006
 31
0.0
  0
LINE
  5
1FE
100
AcDbEntity
  8
PV
390
0
  6
CONTINUOUS
 62
     7
100
AcDbLine
 10
-102.967
 20
125.006
 30
0.0
 11
-102.445
 21
125.006
 31
0.0
  0
LINE
  5
1FF
100
AcDbEntity
  8
PV
390
0
  6
CONTINUOUS
 62
     7
100
AcDbLine
 10
-106.162
 20
125.006
 30
0.0
 11
-105.656
 21
125.006
 31
0.0
  0
LINE
  5
200
100
AcDbEntity
  8
PV
390
0
  6
CONTINUOUS
 62
     7
100
AcDbLine
 10
-108.788
 20
125.006
 30
0.0
 11
-108.324
 21
125.006
 31
0.0
  0
LINE
  5
201
100
AcDbEntity
  8
PV
390
0
  6
CONTINUOUS
 62
     7
100
AcDbLine
 10
-109.686
 20
125.006
 30
0.0
 11
-109.165
 21
125.006
 31
0.0
  0
LINE
  5
202
100
AcDbEntity
  8
PV
390
0
  6
CONTINUOUS
 62
     7
100
AcDbLine
 10
-111.424
 20
125.006
 30
0.0
 11
-110.944
 21
125.006
 31
0.0
  0
LINE
  5
203
100
AcDbEntity
  8
PV
390
0
  6
CONTINUOUS
 62
     7
100
AcDbLine
 10
-114.61
 20
125.006
 30
0.0
 11
-114.138
 21
125.006
 31
0.0
  0
LINE
  5
204
100
AcDbEntity
  8
PV
390
0
  6
CONTINUOUS
 62
     7
100
AcDbLine
 10
-116.585
 20
125.006
 30
0.0
 11
-116.099
 21
125.006
 31
0.0
  0
LINE
  5
205
100
AcDbEntity
  8
PV
390
0
  6
CONTINUOUS
 62
     7
100
AcDbLine
 10
-64.481
 20
124.006
 30
0.0
 11
-63.848
 21
124.006
 31
0.0
  0
LINE
  5
206
100
AcDbEntity
  8
PV
390
0
  6
CONTINUOUS
 62
     7
100
AcDbLine
 10
-65.837
 20
124.006
 30
0.0
 11
-65.204
 21
124.006
 31
0.0
  0
LINE
  5
207
100
AcDbEntity
  8
PV
390
0
  6
CONTINUOUS
 62
     7
100
AcDbLine
 10
-70.334
 20
124.006
 30
0.0
 11
-69.865
 21
124.006
 31
0.0
  0
LINE
  5
208
100
AcDbEntity
  8
PV
390
0
  6
CONTINUOUS
 62
     7
100
AcDbLine
 10
-74.274
 20
124.006
 30
0.0
 11
-73.438
 21
124.006
 31
0.0
  0
LINE
  5
209
100
AcDbEntity
  8
PV
390
0
  6
CONTINUOUS
 62
     7
100
AcDbLine
 10
-79.146
 20
124.006
 30
0.0
 11
-76.675
 21
124.006
 31
0.0
  0
LINE
  5
20A
100
AcDbEntity
  8
PV
390
0
  6
CONTINUOUS
 62
     7
100
AcDbLine
 10
-81.582
 20
124.006
 30
0.0
 11
-81.11
 21
124.006
 31
0.0
  0
LINE
  5
20B
100
AcDbEntity
  8
PV
390
0
  6
CONTINUOUS
 62
     7
100
AcDbLine
 10
-84.188
 20
124.006
 30
0.0
 11
-83.703
 21
124.006
 31
0.0
  0
LINE
  5
20C
100
AcDbEntity
  8
PV
390
0
  6
CONTINUOUS
 62
     7
100
AcDbLine
 10
-87.774
 20
124.006
 30
0.0
 11
-86.938
 21
124.006
 31
0.0
  0
LINE
  5
20D
100
AcDbEntity
  8
PV
390
0
  6
CONTINUOUS
 62
     7
100
AcDbLine
 10
-95.894
 20
124.006
 30
0.0
 11
-95.425
 21
124.006
 31
0.0
  0
LINE
  5
20E
100
AcDbEntity
  8
PV
390
0
  6
CONTINUOUS
 62
     7
100
AcDbLine
 10
-100.506
 20
124.006
 30
0.0
 11
-98.035
 21
124.006
 31
0.0
  0
LINE
  5
20F
100
AcDbEntity
  8
PV
390
0
  6
CONTINUOUS
 62
     7
100
AcDbLine
 10
-105.552
 20
124.006
 30
0.0
 11
-103.139
 21
124.006
 31
0.0
  0
LINE
  5
210
100
AcDbEntity
  8
PV
390
0
  6
CONTINUOUS
 62
     7
100
AcDbLine
 10
-109.262
 20
124.006
 30
0.0
 11
-108.5
 21
124.006
 31
0.0
  0
LINE
  5
211
100
AcDbEntity
  8
PV
390
0
  6
CONTINUOUS
 62
     7
100
AcDbLine
 10
-111.601
 20
124.006
 30
0.0
 11
-111.12
 21
124.006
 31
0.0
  0
LINE
  5
212
100
AcDbEntity
  8
PV
390
0
  6
CONTINUOUS
 62
     7
100
AcDbLine
 10
-114.342
 20
124.006
 30
0.0
 11
-113.87
 21
124.006
 31
0.0
  0
LINE
  5
213
100
AcDbEntity
  8
PV
390
0
  6
CONTINUOUS
 62
     7
100
AcDbLine
 10
-116.949
 20
124.006
 30
0.0
 11
-116.463
 21
124.006
 31
0.0
  0
LINE
  5
214
100
AcDbEntity
  8
PV
390
0
  6
CONTINUOUS
 62
     7
100
AcDbLine
 10
-111.685
 20
123.531
 30
0.0
 11
-111.204
 21
123.531
 31
0.0
  0
LINE
  5
215
100
AcDbEntity
  8
PV
390
0
  6
CONTINUOUS
 62
     7
100
AcDbLine
 10
-110.881
 20
128.091
 30
0.0
 11
-110.474
 21
128.091
 31
0.0
  0
LINE
  5
216
100
AcDbEntity
  8
PV
390
0
  6
CONTINUOUS
 62
     7
100
AcDbLine
 10
-108.584
 20
123.531
 30
0.0
 11
-107.78
 21
128.091
 31
0.0
  0
LINE
  5
217
100
AcDbEntity
  8
PV
390
0
  6
CONTINUOUS
 62
     7
100
AcDbLine
 10
-108.899
 20
124.379
 30
0.0
 11
-108.244
 21
128.091
 31
0.0
  0
LINE
  5
218
100
AcDbEntity
  8
PV
390
0
  6
CONTINUOUS
 62
     7
100
AcDbLine
 10
-111.204
 20
123.531
 30
0.0
 11
-110.575
 21
127.1
 31
0.0
  0
LINE
  5
219
100
AcDbEntity
  8
PV
390
0
  6
CONTINUOUS
 62
     7
100
AcDbLine
 10
-111.685
 20
123.531
 30
0.0
 11
-110.881
 21
128.091
 31
0.0
  0
LINE
  5
21A
100
AcDbEntity
  8
PV
390
0
  6
CONTINUOUS
 62
     7
100
AcDbLine
 10
-110.575
 20
127.1
 30
0.0
 11
-109.06
 21
123.531
 31
0.0
  0
LINE
  5
21B
100
AcDbEntity
  8
PV
390
0
  6
CONTINUOUS
 62
     7
100
AcDbLine
 10
-110.474
 20
128.091
 30
0.0
 11
-108.899
 21
124.379
 31
0.0
  0
LINE
  5
21C
100
AcDbEntity
  8
PV
390
0
  6
CONTINUOUS
 62
     7
100
AcDbLine
 10
-109.06
 20
123.531
 30
0.0
 11
-108.584
 21
123.531
 31
0.0
  0
LINE
  5
21D
100
AcDbEntity
  8
PV
390
0
  6
CONTINUOUS
 62
     7
100
AcDbLine
 10
-108.244
 20
128.091
 30
0.0
 11
-107.78
 21
128.091
 31
0.0
  0
LINE
  5
21E
100
AcDbEntity
  8
PV
390
0
  6
CONTINUOUS
 62
     7
100
AcDbLine
 10
-103.663
 20
125.811
 30
0.0
 11
-102.282
 21
125.811
 31
0.0
  0
LINE
  5
21F
100
AcDbEntity
  8
PV
390
0
  6
CONTINUOUS
 62
     7
100
AcDbLine
 10
-102.833
 20
126.468
 30
0.0
 11
-102.381
 21
126.632
 31
0.0
  0
LINE
  5
220
100
AcDbEntity
  8
PV
390
0
  6
CONTINUOUS
 62
     7
100
AcDbLine
 10
-103.743
 20
125.355
 30
0.0
 11
-103.663
 21
125.811
 31
0.0
  0
LINE
  5
221
100
AcDbEntity
  8
PV
390
0
  6
CONTINUOUS
 62
     7
100
AcDbLine
 10
-103.743
 20
125.355
 30
0.0
 11
-102.836
 21
125.355
 31
0.0
  0
LINE
  5
222
100
AcDbEntity
  8
PV
390
0
  6
CONTINUOUS
 62
     7
100
AcDbLine
 10
-117.121
 20
123.531
 30
0.0
 11
-116.636
 21
123.531
 31
0.0
  0
LINE
  5
223
100
AcDbEntity
  8
PV
390
0
  6
CONTINUOUS
 62
     7
100
AcDbLine
 10
-115.462
 20
128.091
 30
0.0
 11
-114.965
 21
128.091
 31
0.0
  0
LINE
  5
224
100
AcDbEntity
  8
PV
390
0
  6
CONTINUOUS
 62
     7
100
AcDbLine
 10
-117.121
 20
123.531
 30
0.0
 11
-115.462
 21
128.091
 31
0.0
  0
LINE
  5
225
100
AcDbEntity
  8
PV
390
0
  6
CONTINUOUS
 62
     7
100
AcDbLine
 10
-116.636
 20
123.531
 30
0.0
 11
-116.284
 21
124.499
 31
0.0
  0
LINE
  5
226
100
AcDbEntity
  8
PV
390
0
  6
CONTINUOUS
 62
     7
100
AcDbLine
 10
-114.965
 20
128.091
 30
0.0
 11
-113.743
 21
123.531
 31
0.0
  0
LINE
  5
227
100
AcDbEntity
  8
PV
390
0
  6
CONTINUOUS
 62
     7
100
AcDbLine
 10
-115.242
 20
127.363
 30
0.0
 11
-114.601
 21
124.974
 31
0.0
  0
LINE
  5
228
100
AcDbEntity
  8
PV
390
0
  6
CONTINUOUS
 62
     7
100
AcDbLine
 10
-114.215
 20
123.531
 30
0.0
 11
-113.743
 21
123.531
 31
0.0
  0
LINE
  5
229
100
AcDbEntity
  8
PV
390
0
  6
CONTINUOUS
 62
     7
100
AcDbLine
 10
-116.284
 20
124.499
 30
0.0
 11
-114.474
 21
124.499
 31
0.0
  0
LINE
  5
22A
100
AcDbEntity
  8
PV
390
0
  6
CONTINUOUS
 62
     7
100
AcDbLine
 10
-116.111
 20
124.974
 30
0.0
 11
-114.601
 21
124.974
 31
0.0
  0
LINE
  5
22B
100
AcDbEntity
  8
PV
390
0
  6
CONTINUOUS
 62
     7
100
AcDbLine
 10
-116.111
 20
124.974
 30
0.0
 11
-115.242
 21
127.363
 31
0.0
  0
LINE
  5
22C
100
AcDbEntity
  8
PV
390
0
  6
CONTINUOUS
 62
     7
100
AcDbLine
 10
-114.474
 20
124.499
 30
0.0
 11
-114.215
 21
123.531
 31
0.0
  0
LINE
  5
22D
100
AcDbEntity
  8
PV
390
0
  6
CONTINUOUS
 62
     7
100
AcDbLine
 10
-100.589
 20
123.531
 30
0.0
 11
-98.119
 21
123.531
 31
0.0
  0
LINE
  5
22E
100
AcDbEntity
  8
PV
390
0
  6
CONTINUOUS
 62
     7
100
AcDbLine
 10
-99.785
 20
128.091
 30
0.0
 11
-99.31
 21
128.091
 31
0.0
  0
LINE
  5
22F
100
AcDbEntity
  8
PV
390
0
  6
CONTINUOUS
 62
     7
100
AcDbLine
 10
-98.119
 20
123.531
 30
0.0
 11
-98.033
 21
124.016
 31
0.0
  0
LINE
  5
230
100
AcDbEntity
  8
PV
390
0
  6
CONTINUOUS
 62
     7
100
AcDbLine
 10
-100.589
 20
123.531
 30
0.0
 11
-99.785
 21
128.091
 31
0.0
  0
LINE
  5
231
100
AcDbEntity
  8
PV
390
0
  6
CONTINUOUS
 62
     7
100
AcDbLine
 10
-100.029
 20
124.016
 30
0.0
 11
-99.31
 21
128.091
 31
0.0
  0
LINE
  5
232
100
AcDbEntity
  8
PV
390
0
  6
CONTINUOUS
 62
     7
100
AcDbLine
 10
-100.029
 20
124.016
 30
0.0
 11
-98.033
 21
124.016
 31
0.0
  0
LINE
  5
233
100
AcDbEntity
  8
PV
390
0
  6
CONTINUOUS
 62
     7
100
AcDbLine
 10
-95.173
 20
128.091
 30
0.0
 11
-93.04
 21
128.091
 31
0.0
  0
LINE
  5
234
100
AcDbEntity
  8
PV
390
0
  6
CONTINUOUS
 62
     7
100
AcDbLine
 10
-95.978
 20
123.531
 30
0.0
 11
-93.844
 21
123.531
 31
0.0
  0
LINE
  5
235
100
AcDbEntity
  8
PV
390
0
  6
CONTINUOUS
 62
     7
100
AcDbLine
 10
-95.978
 20
123.531
 30
0.0
 11
-95.173
 21
128.091
 31
0.0
  0
LINE
  5
236
100
AcDbEntity
  8
PV
390
0
  6
CONTINUOUS
 62
     7
100
AcDbLine
 10
-93.844
 20
123.531
 30
0.0
 11
-93.763
 21
123.995
 31
0.0
  0
LINE
  5
237
100
AcDbEntity
  8
PV
390
0
  6
CONTINUOUS
 62
     7
100
AcDbLine
 10
-95.15
 20
125.565
 30
0.0
 11
-93.486
 21
125.565
 31
0.0
  0
LINE
  5
238
100
AcDbEntity
  8
PV
390
0
  6
CONTINUOUS
 62
     7
100
AcDbLine
 10
-95.067
 20
126.036
 30
0.0
 11
-93.403
 21
126.036
 31
0.0
  0
LINE
  5
239
100
AcDbEntity
  8
PV
390
0
  6
CONTINUOUS
 62
     7
100
AcDbLine
 10
-94.793
 20
127.59
 30
0.0
 11
-93.129
 21
127.59
 31
0.0
  0
LINE
  5
23A
100
AcDbEntity
  8
PV
390
0
  6
CONTINUOUS
 62
     7
100
AcDbLine
 10
-95.427
 20
123.995
 30
0.0
 11
-93.763
 21
123.995
 31
0.0
  0
LINE
  5
23B
100
AcDbEntity
  8
PV
390
0
  6
CONTINUOUS
 62
     7
100
AcDbLine
 10
-95.427
 20
123.995
 30
0.0
 11
-95.15
 21
125.565
 31
0.0
  0
LINE
  5
23C
100
AcDbEntity
  8
PV
390
0
  6
CONTINUOUS
 62
     7
100
AcDbLine
 10
-93.486
 20
125.565
 30
0.0
 11
-93.403
 21
126.036
 31
0.0
  0
LINE
  5
23D
100
AcDbEntity
  8
PV
390
0
  6
CONTINUOUS
 62
     7
100
AcDbLine
 10
-93.129
 20
127.59
 30
0.0
 11
-93.04
 21
128.091
 31
0.0
  0
LINE
  5
23E
100
AcDbEntity
  8
PV
390
0
  6
CONTINUOUS
 62
     7
100
AcDbLine
 10
-95.067
 20
126.036
 30
0.0
 11
-94.793
 21
127.59
 31
0.0
  0
LINE
  5
23F
100
AcDbEntity
  8
PV
390
0
  6
CONTINUOUS
 62
     7
100
AcDbLine
 10
-84.361
 20
123.531
 30
0.0
 11
-83.876
 21
123.531
 31
0.0
  0
LINE
  5
240
100
AcDbEntity
  8
PV
390
0
  6
CONTINUOUS
 62
     7
100
AcDbLine
 10
-82.702
 20
128.091
 30
0.0
 11
-82.205
 21
128.091
 31
0.0
  0
LINE
  5
241
100
AcDbEntity
  8
PV
390
0
  6
CONTINUOUS
 62
     7
100
AcDbLine
 10
-84.361
 20
123.531
 30
0.0
 11
-82.702
 21
128.091
 31
0.0
  0
LINE
  5
242
100
AcDbEntity
  8
PV
390
0
  6
CONTINUOUS
 62
     7
100
AcDbLine
 10
-83.876
 20
123.531
 30
0.0
 11
-83.524
 21
124.499
 31
0.0
  0
LINE
  5
243
100
AcDbEntity
  8
PV
390
0
  6
CONTINUOUS
 62
     7
100
AcDbLine
 10
-82.205
 20
128.091
 30
0.0
 11
-80.983
 21
123.531
 31
0.0
  0
LINE
  5
244
100
AcDbEntity
  8
PV
390
0
  6
CONTINUOUS
 62
     7
100
AcDbLine
 10
-82.482
 20
127.363
 30
0.0
 11
-81.841
 21
124.974
 31
0.0
  0
LINE
  5
245
100
AcDbEntity
  8
PV
390
0
  6
CONTINUOUS
 62
     7
100
AcDbLine
 10
-81.455
 20
123.531
 30
0.0
 11
-80.983
 21
123.531
 31
0.0
  0
LINE
  5
246
100
AcDbEntity
  8
PV
390
0
  6
CONTINUOUS
 62
     7
100
AcDbLine
 10
-83.524
 20
124.499
 30
0.0
 11
-81.714
 21
124.499
 31
0.0
  0
LINE
  5
247
100
AcDbEntity
  8
PV
390
0
  6
CONTINUOUS
 62
     7
100
AcDbLine
 10
-83.351
 20
124.974
 30
0.0
 11
-81.841
 21
124.974
 31
0.0
  0
LINE
  5
248
100
AcDbEntity
  8
PV
390
0
  6
CONTINUOUS
 62
     7
100
AcDbLine
 10
-83.351
 20
124.974
 30
0.0
 11
-82.482
 21
127.363
 31
0.0
  0
LINE
  5
249
100
AcDbEntity
  8
PV
390
0
  6
CONTINUOUS
 62
     7
100
AcDbLine
 10
-81.714
 20
124.499
 30
0.0
 11
-81.455
 21
123.531
 31
0.0
  0
LINE
  5
24A
100
AcDbEntity
  8
PV
390
0
  6
CONTINUOUS
 62
     7
100
AcDbLine
 10
-79.229
 20
123.531
 30
0.0
 11
-76.759
 21
123.531
 31
0.0
  0
LINE
  5
24B
100
AcDbEntity
  8
PV
390
0
  6
CONTINUOUS
 62
     7
100
AcDbLine
 10
-78.425
 20
128.091
 30
0.0
 11
-77.95
 21
128.091
 31
0.0
  0
LINE
  5
24C
100
AcDbEntity
  8
PV
390
0
  6
CONTINUOUS
 62
     7
100
AcDbLine
 10
-69.613
 20
128.091
 30
0.0
 11
-67.48
 21
128.091
 31
0.0
  0
LINE
  5
24D
100
AcDbEntity
  8
PV
390
0
  6
CONTINUOUS
 62
     7
100
AcDbLine
 10
-70.418
 20
123.531
 30
0.0
 11
-68.284
 21
123.531
 31
0.0
  0
LINE
  5
24E
100
AcDbEntity
  8
PV
390
0
  6
CONTINUOUS
 62
     7
100
AcDbLine
 10
-76.759
 20
123.531
 30
0.0
 11
-76.673
 21
124.016
 31
0.0
  0
LINE
  5
24F
100
AcDbEntity
  8
PV
390
0
  6
CONTINUOUS
 62
     7
100
AcDbLine
 10
-79.229
 20
123.531
 30
0.0
 11
-78.425
 21
128.091
 31
0.0
  0
LINE
  5
250
100
AcDbEntity
  8
PV
390
0
  6
CONTINUOUS
 62
     7
100
AcDbLine
 10
-78.669
 20
124.016
 30
0.0
 11
-77.95
 21
128.091
 31
0.0
  0
LINE
  5
251
100
AcDbEntity
  8
PV
390
0
  6
CONTINUOUS
 62
     7
100
AcDbLine
 10
-78.669
 20
124.016
 30
0.0
 11
-76.673
 21
124.016
 31
0.0
  0
LINE
  5
252
100
AcDbEntity
  8
PV
390
0
  6
CONTINUOUS
 62
     7
100
AcDbLine
 10
-70.418
 20
123.531
 30
0.0
 11
-69.613
 21
128.091
 31
0.0
  0
LINE
  5
253
100
AcDbEntity
  8
PV
390
0
  6
CONTINUOUS
 62
     7
100
AcDbLine
 10
-68.284
 20
123.531
 30
0.0
 11
-68.203
 21
123.995
 31
0.0
  0
LINE
  5
254
100
AcDbEntity
  8
PV
390
0
  6
CONTINUOUS
 62
     7
100
AcDbLine
 10
-69.59
 20
125.565
 30
0.0
 11
-67.926
 21
125.565
 31
0.0
  0
LINE
  5
255
100
AcDbEntity
  8
PV
390
0
  6
CONTINUOUS
 62
     7
100
AcDbLine
 10
-69.507
 20
126.036
 30
0.0
 11
-67.843
 21
126.036
 31
0.0
  0
LINE
  5
256
100
AcDbEntity
  8
PV
390
0
  6
CONTINUOUS
 62
     7
100
AcDbLine
 10
-69.233
 20
127.59
 30
0.0
 11
-67.569
 21
127.59
 31
0.0
  0
LINE
  5
257
100
AcDbEntity
  8
PV
390
0
  6
CONTINUOUS
 62
     7
100
AcDbLine
 10
-69.867
 20
123.995
 30
0.0
 11
-68.203
 21
123.995
 31
0.0
  0
LINE
  5
258
100
AcDbEntity
  8
PV
390
0
  6
CONTINUOUS
 62
     7
100
AcDbLine
 10
-69.867
 20
123.995
 30
0.0
 11
-69.59
 21
125.565
 31
0.0
  0
LINE
  5
259
100
AcDbEntity
  8
PV
390
0
  6
CONTINUOUS
 62
     7
100
AcDbLine
 10
-67.926
 20
125.565
 30
0.0
 11
-67.843
 21
126.036
 31
0.0
  0
LINE
  5
25A
100
AcDbEntity
  8
PV
390
0
  6
CONTINUOUS
 62
     7
100
AcDbLine
 10
-67.569
 20
127.59
 30
0.0
 11
-67.48
 21
128.091
 31
0.0
  0
LINE
  5
25B
100
AcDbEntity
  8
PV
390
0
  6
CONTINUOUS
 62
     7
100
AcDbLine
 10
-69.507
 20
126.036
 30
0.0
 11
-69.233
 21
127.59
 31
0.0
  0
LINE
  5
25C
100
AcDbEntity
  8
PV
390
0
  6
CONTINUOUS
 62
     7
100
AcDbLine
 10
-74.191
 20
123.531
 30
0.0
 11
-73.611
 21
123.531
 31
0.0
  0
LINE
  5
25D
100
AcDbEntity
  8
PV
390
0
  6
CONTINUOUS
 62
     7
100
AcDbLine
 10
-74.995
 20
128.091
 30
0.0
 11
-74.52
 21
128.091
 31
0.0
  0
LINE
  5
25E
100
AcDbEntity
  8
PV
390
0
  6
CONTINUOUS
 62
     7
100
AcDbLine
 10
-73.611
 20
123.531
 30
0.0
 11
-71.951
 21
128.091
 31
0.0
  0
LINE
  5
25F
100
AcDbEntity
  8
PV
390
0
  6
CONTINUOUS
 62
     7
100
AcDbLine
 10
-73.842
 20
124.249
 30
0.0
 11
-72.444
 21
128.091
 31
0.0
  0
LINE
  5
260
100
AcDbEntity
  8
PV
390
0
  6
CONTINUOUS
 62
     7
100
AcDbLine
 10
-74.52
 20
128.091
 30
0.0
 11
-73.842
 21
124.249
 31
0.0
  0
LINE
  5
261
100
AcDbEntity
  8
PV
390
0
  6
CONTINUOUS
 62
     7
100
AcDbLine
 10
-74.995
 20
128.091
 30
0.0
 11
-74.191
 21
123.531
 31
0.0
  0
LINE
  5
262
100
AcDbEntity
  8
PV
390
0
  6
CONTINUOUS
 62
     7
100
AcDbLine
 10
-72.444
 20
128.091
 30
0.0
 11
-71.951
 21
128.091
 31
0.0
  0
LINE
  5
263
100
AcDbEntity
  8
PV
390
0
  6
CONTINUOUS
 62
     7
100
AcDbLine
 10
-87.691
 20
123.531
 30
0.0
 11
-87.111
 21
123.531
 31
0.0
  0
LINE
  5
264
100
AcDbEntity
  8
PV
390
0
  6
CONTINUOUS
 62
     7
100
AcDbLine
 10
-88.495
 20
128.091
 30
0.0
 11
-88.02
 21
128.091
 31
0.0
  0
LINE
  5
265
100
AcDbEntity
  8
PV
390
0
  6
CONTINUOUS
 62
     7
100
AcDbLine
 10
-87.111
 20
123.531
 30
0.0
 11
-85.451
 21
128.091
 31
0.0
  0
LINE
  5
266
100
AcDbEntity
  8
PV
390
0
  6
CONTINUOUS
 62
     7
100
AcDbLine
 10
-87.342
 20
124.249
 30
0.0
 11
-85.944
 21
128.091
 31
0.0
  0
LINE
  5
267
100
AcDbEntity
  8
PV
390
0
  6
CONTINUOUS
 62
     7
100
AcDbLine
 10
-88.02
 20
128.091
 30
0.0
 11
-87.342
 21
124.249
 31
0.0
  0
LINE
  5
268
100
AcDbEntity
  8
PV
390
0
  6
CONTINUOUS
 62
     7
100
AcDbLine
 10
-88.495
 20
128.091
 30
0.0
 11
-87.691
 21
123.531
 31
0.0
  0
LINE
  5
269
100
AcDbEntity
  8
PV
390
0
  6
CONTINUOUS
 62
     7
100
AcDbLine
 10
-85.944
 20
128.091
 30
0.0
 11
-85.451
 21
128.091
 31
0.0
  0
LINE
  5
26A
100
AcDbEntity
  8
PV
390
0
  6
CONTINUOUS
 62
     7
100
AcDbLine
 10
-66.045
 20
124.425
 30
0.0
 11
-65.667
 21
124.643
 31
0.0
  0
LINE
  5
26B
100
AcDbEntity
  8
PV
390
0
  6
CONTINUOUS
 62
     7
100
AcDbLine
 10
-63.16
 20
127.247
 30
0.0
 11
-63.538
 21
127.028
 31
0.0
  0
LINE
  5
26C
100
AcDbEntity
  8
PV
390
0
  6
CONTINUOUS
 62
     7
100
AcDbLine
 10
-64.861
 20
125.641
 30
0.0
 11
-64.381
 21
125.569
 31
0.0
  0
LINE
  5
26D
100
AcDbEntity
  8
PV
390
0
  6
CONTINUOUS
 62
     7
100
AcDbLine
 10
-64.816
 20
126.098
 30
0.0
 11
-64.344
 21
126.03
 31
0.0
  0
LWPOLYLINE
  5
26E
100
AcDbEntity
  8
PV
390
0
  6
CONTINUOUS
 62
     7
100
AcDbPolyline
 90
      113
 70
     0
 10
-103.873
 20
128.057
 10
-103.958
 20
128.069
 10
-104.045
 20
128.078
 10
-104.131
 20
128.082
 10
-104.218
 20
128.082
 10
-104.304
 20
128.078
 10
-104.391
 20
128.069
 10
-104.478
 20
128.056
 10
-104.564
 20
128.039
 10
-104.649
 20
128.017
 10
-104.734
 20
127.991
 10
-104.818
 20
127.962
 10
-104.901
 20
127.928
 10
-104.983
 20
127.89
 10
-105.063
 20
127.848
 10
-105.142
 20
127.802
 10
-105.219
 20
127.752
 10
-105.294
 20
127.699
 10
-105.368
 20
127.642
 10
-105.439
 20
127.582
 10
-105.508
 20
127.518
 10
-105.575
 20
127.451
 10
-105.639
 20
127.381
 10
-105.701
 20
127.308
 10
-105.76
 20
127.232
 10
-105.816
 20
127.153
 10
-105.869
 20
127.072
 10
-105.919
 20
126.988
 10
-105.966
 20
126.902
 10
-106.01
 20
126.814
 10
-106.05
 20
126.724
 10
-106.087
 20
126.633
 10
-106.121
 20
126.54
 10
-106.151
 20
126.445
 10
-106.177
 20
126.349
 10
-106.2
 20
126.253
 10
-106.219
 20
126.155
 10
-106.234
 20
126.057
 10
-106.246
 20
125.958
 10
-106.254
 20
125.859
 10
-106.258
 20
125.76
 10
-106.258
 20
125.661
 10
-106.255
 20
125.562
 10
-106.248
 20
125.464
 10
-106.237
 20
125.366
 10
-106.222
 20
125.27
 10
-106.204
 20
125.174
 10
-106.181
 20
125.079
 10
-106.156
 20
124.986
 10
-106.126
 20
124.895
 10
-106.093
 20
124.805
 10
-106.057
 20
124.717
 10
-106.017
 20
124.631
 10
-105.974
 20
124.548
 10
-105.928
 20
124.467
 10
-105.878
 20
124.388
 10
-105.826
 20
124.312
 10
-105.77
 20
124.239
 10
-105.712
 20
124.169
 10
-105.651
 20
124.102
 10
-105.587
 20
124.039
 10
-105.521
 20
123.978
 10
-105.452
 20
123.922
 10
-105.381
 20
123.868
 10
-105.308
 20
123.819
 10
-105.233
 20
123.773
 10
-105.156
 20
123.731
 10
-105.078
 20
123.693
 10
-104.997
 20
123.66
 10
-104.916
 20
123.63
 10
-104.833
 20
123.604
 10
-104.75
 20
123.583
 10
-104.665
 20
123.566
 10
-104.579
 20
123.553
 10
-104.493
 20
123.544
 10
-104.407
 20
123.54
 10
-104.32
 20
123.54
 10
-104.233
 20
123.545
 10
-104.147
 20
123.553
 10
-104.06
 20
123.566
 10
-103.974
 20
123.584
 10
-103.889
 20
123.605
 10
-103.804
 20
123.631
 10
-103.72
 20
123.661
 10
-103.637
 20
123.695
 10
-103.555
 20
123.733
 10
-103.475
 20
123.775
 10
-103.396
 20
123.821
 10
-103.319
 20
123.87
 10
-103.244
 20
123.923
 10
-103.17
 20
123.98
 10
-103.099
 20
124.041
 10
-103.03
 20
124.105
 10
-102.963
 20
124.172
 10
-102.899
 20
124.242
 10
-102.837
 20
124.315
 10
-102.778
 20
124.391
 10
-102.722
 20
124.469
 10
-102.669
 20
124.551
 10
-102.619
 20
124.634
 10
-102.572
 20
124.72
 10
-102.528
 20
124.808
 10
-102.488
 20
124.898
 10
-102.451
 20
124.99
 10
-102.417
 20
125.083
 10
-102.387
 20
125.177
 10
-102.361
 20
125.273
 10
-102.338
 20
125.37
 10
-102.319
 20
125.467
 10
-102.304
 20
125.566
 10
-102.292
 20
125.664
 10
-102.284
 20
125.763
 10
-102.282
 20
125.811
  0
LWPOLYLINE
  5
26F
100
AcDbEntity
  8
PV
390
0
  6
CONTINUOUS
 62
     7
100
AcDbPolyline
 90
       26
 70
     0
 10
-102.381
 20
126.633
 10
-102.382
 20
126.636
 10
-102.412
 20
126.728
 10
-102.445
 20
126.817
 10
-102.481
 20
126.905
 10
-102.521
 20
126.991
 10
-102.564
 20
127.075
 10
-102.61
 20
127.156
 10
-102.66
 20
127.234
 10
-102.712
 20
127.31
 10
-102.768
 20
127.383
 10
-102.826
 20
127.453
 10
-102.887
 20
127.52
 10
-102.951
 20
127.584
 10
-103.017
 20
127.644
 10
-103.086
 20
127.701
 10
-103.157
 20
127.754
 10
-103.23
 20
127.804
 10
-103.305
 20
127.849
 10
-103.382
 20
127.891
 10
-103.46
 20
127.929
 10
-103.54
 20
127.963
 10
-103.622
 20
127.992
 10
-103.705
 20
128.018
 10
-103.788
 20
128.039
 10
-103.873
 20
128.057
  0
LWPOLYLINE
  5
270
100
AcDbEntity
  8
PV
390
0
  6
CONTINUOUS
 62
     7
100
AcDbPolyline
 90
       94
 70
     0
 10
-66.046
 20
124.426
 10
-66.044
 20
124.42
 10
-66.027
 20
124.366
 10
-66.007
 20
124.312
 10
-65.985
 20
124.26
 10
-65.96
 20
124.208
 10
-65.934
 20
124.157
 10
-65.905
 20
124.108
 10
-65.875
 20
124.06
 10
-65.842
 20
124.014
 10
-65.808
 20
123.969
 10
-65.772
 20
123.926
 10
-65.734
 20
123.884
 10
-65.694
 20
123.844
 10
-65.652
 20
123.806
 10
-65.61
 20
123.77
 10
-65.565
 20
123.736
 10
-65.52
 20
123.704
 10
-65.473
 20
123.674
 10
-65.424
 20
123.647
 10
-65.375
 20
123.621
 10
-65.325
 20
123.598
 10
-65.274
 20
123.577
 10
-65.221
 20
123.559
 10
-65.169
 20
123.542
 10
-65.115
 20
123.529
 10
-65.061
 20
123.517
 10
-65.007
 20
123.509
 10
-64.952
 20
123.502
 10
-64.898
 20
123.499
 10
-64.843
 20
123.497
 10
-64.788
 20
123.499
 10
-64.733
 20
123.502
 10
-64.678
 20
123.509
 10
-64.624
 20
123.517
 10
-64.57
 20
123.529
 10
-64.516
 20
123.542
 10
-64.464
 20
123.559
 10
-64.412
 20
123.577
 10
-64.36
 20
123.598
 10
-64.31
 20
123.621
 10
-64.261
 20
123.647
 10
-64.213
 20
123.674
 10
-64.166
 20
123.704
 10
-64.12
 20
123.736
 10
-64.076
 20
123.77
 10
-64.033
 20
123.806
 10
-63.991
 20
123.844
 10
-63.952
 20
123.884
 10
-63.914
 20
123.926
 10
-63.877
 20
123.969
 10
-63.843
 20
124.014
 10
-63.81
 20
124.06
 10
-63.78
 20
124.108
 10
-63.751
 20
124.157
 10
-63.725
 20
124.208
 10
-63.701
 20
124.26
 10
-63.678
 20
124.312
 10
-63.659
 20
124.366
 10
-63.641
 20
124.42
 10
-63.625
 20
124.476
 10
-63.612
 20
124.532
 10
-63.602
 20
124.588
 10
-63.593
 20
124.645
 10
-63.587
 20
124.702
 10
-63.584
 20
124.76
 10
-63.583
 20
124.817
 10
-63.584
 20
124.875
 10
-63.587
 20
124.932
 10
-63.593
 20
124.99
 10
-63.602
 20
125.047
 10
-63.612
 20
125.103
 10
-63.625
 20
125.159
 10
-63.641
 20
125.214
 10
-63.659
 20
125.269
 10
-63.678
 20
125.323
 10
-63.701
 20
125.375
 10
-63.725
 20
125.427
 10
-63.751
 20
125.477
 10
-63.78
 20
125.527
 10
-63.81
 20
125.575
 10
-63.843
 20
125.621
 10
-63.877
 20
125.666
 10
-63.914
 20
125.709
 10
-63.952
 20
125.751
 10
-63.991
 20
125.791
 10
-64.033
 20
125.829
 10
-64.076
 20
125.865
 10
-64.12
 20
125.899
 10
-64.166
 20
125.931
 10
-64.213
 20
125.961
 10
-64.261
 20
125.988
 10
-64.31
 20
126.014
 10
-64.344
 20
126.029
  0
LWPOLYLINE
  5
271
100
AcDbEntity
  8
PV
390
0
  6
CONTINUOUS
 62
     7
100
AcDbPolyline
 90
       94
 70
     0
 10
-63.159
 20
127.246
 10
-63.161
 20
127.251
 10
-63.179
 20
127.305
 10
-63.198
 20
127.359
 10
-63.221
 20
127.412
 10
-63.245
 20
127.464
 10
-63.271
 20
127.514
 10
-63.3
 20
127.563
 10
-63.33
 20
127.611
 10
-63.363
 20
127.658
 10
-63.397
 20
127.703
 10
-63.434
 20
127.746
 10
-63.472
 20
127.787
 10
-63.511
 20
127.827
 10
-63.553
 20
127.865
 10
-63.596
 20
127.901
 10
-63.64
 20
127.935
 10
-63.686
 20
127.967
 10
-63.733
 20
127.997
 10
-63.781
 20
128.025
 10
-63.83
 20
128.05
 10
-63.88
 20
128.074
 10
-63.932
 20
128.094
 10
-63.984
 20
128.113
 10
-64.036
 20
128.129
 10
-64.09
 20
128.143
 10
-64.144
 20
128.154
 10
-64.198
 20
128.163
 10
-64.253
 20
128.169
 10
-64.308
 20
128.173
 10
-64.363
 20
128.174
 10
-64.418
 20
128.173
 10
-64.472
 20
128.169
 10
-64.527
 20
128.163
 10
-64.581
 20
128.154
 10
-64.635
 20
128.143
 10
-64.689
 20
128.129
 10
-64.741
 20
128.113
 10
-64.793
 20
128.094
 10
-64.845
 20
128.074
 10
-64.895
 20
128.05
 10
-64.944
 20
128.025
 10
-64.993
 20
127.997
 10
-65.04
 20
127.967
 10
-65.085
 20
127.935
 10
-65.13
 20
127.901
 10
-65.172
 20
127.865
 10
-65.214
 20
127.827
 10
-65.254
 20
127.787
 10
-65.292
 20
127.746
 10
-65.328
 20
127.703
 10
-65.362
 20
127.658
 10
-65.395
 20
127.611
 10
-65.425
 20
127.563
 10
-65.454
 20
127.514
 10
-65.48
 20
127.464
 10
-65.504
 20
127.412
 10
-65.527
 20
127.359
 10
-65.547
 20
127.305
 10
-65.564
 20
127.251
 10
-65.58
 20
127.196
 10
-65.593
 20
127.14
 10
-65.603
 20
127.083
 10
-65.612
 20
127.026
 10
-65.618
 20
126.969
 10
-65.621
 20
126.912
 10
-65.623
 20
126.854
 10
-65.621
 20
126.796
 10
-65.618
 20
126.739
 10
-65.612
 20
126.682
 10
-65.603
 20
126.625
 10
-65.593
 20
126.568
 10
-65.58
 20
126.512
 10
-65.564
 20
126.457
 10
-65.547
 20
126.403
 10
-65.527
 20
126.349
 10
-65.504
 20
126.296
 10
-65.48
 20
126.245
 10
-65.454
 20
126.194
 10
-65.425
 20
126.145
 10
-65.395
 20
126.097
 10
-65.362
 20
126.05
 10
-65.328
 20
126.006
 10
-65.292
 20
125.962
 10
-65.254
 20
125.921
 10
-65.214
 20
125.881
 10
-65.172
 20
125.843
 10
-65.13
 20
125.807
 10
-65.085
 20
125.773
 10
-65.04
 20
125.741
 10
-64.993
 20
125.711
 10
-64.944
 20
125.683
 10
-64.895
 20
125.658
 10
-64.862
 20
125.642
  0
LINE
  5
272
100
AcDbEntity
  8
PV
390
0
  6
CONTINUOUS
 62
     7
100
AcDbLine
 10
-59.0
 20
147.542
 30
0.0
 11
-56.0
 21
149.274
 31
0.0
  0
LINE
  5
273
100
AcDbEntity
  8
PV
390
0
  6
CONTINUOUS
 62
     7
100
AcDbLine
 10
-62.0
 20
152.738
 30
0.0
 11
-59.0
 21
154.471
 31
0.0
  0
LINE
  5
274
100
AcDbEntity
  8
PV
390
0
  6
CONTINUOUS
 62
     7
100
AcDbLine
 10
-56.0
 20
152.738
 30
0.0
 11
-56.0
 21
149.274
 31
0.0
  0
LINE
  5
275
100
AcDbEntity
  8
PV
390
0
  6
CONTINUOUS
 62
     7
100
AcDbLine
 10
-62.0
 20
152.738
 30
0.0
 11
-62.0
 21
149.274
 31
0.0
  0
LINE
  5
276
100
AcDbEntity
  8
PV
390
0
  6
CONTINUOUS
 62
     7
100
AcDbLine
 10
-59.0
 20
154.471
 30
0.0
 11
-56.0
 21
152.738
 31
0.0
  0
LINE
  5
277
100
AcDbEntity
  8
PV
390
0
  6
CONTINUOUS
 62
     7
100
AcDbLine
 10
-62.0
 20
149.274
 30
0.0
 11
-59.0
 21
147.542
 31
0.0
  0
CIRCLE
  5
278
100
AcDbEntity
  8
PV
390
0
  6
CONTINUOUS
 62
     7
100
AcDbCircle
 10
-59.0
 20
151.006
 30
0.0
 40
6.5
  0
CIRCLE
  5
279
100
AcDbEntity
  8
PV
390
0
  6
CONTINUOUS
 62
     7
100
AcDbCircle
 10
-59.0
 20
151.006
 30
0.0
 40
5.634
  0
LINE
  5
27A
100
AcDbEntity
  8
PV
390
0
  6
CONTINUOUS
 62
     7
100
AcDbLine
 10
-121.0
 20
147.542
 30
0.0
 11
-118.0
 21
149.274
 31
0.0
  0
LINE
  5
27B
100
AcDbEntity
  8
PV
390
0
  6
CONTINUOUS
 62
     7
100
AcDbLine
 10
-124.0
 20
152.738
 30
0.0
 11
-121.0
 21
154.471
 31
0.0
  0
LINE
  5
27C
100
AcDbEntity
  8
PV
390
0
  6
CONTINUOUS
 62
     7
100
AcDbLine
 10
-118.0
 20
152.738
 30
0.0
 11
-118.0
 21
149.274
 31
0.0
  0
LINE
  5
27D
100
AcDbEntity
  8
PV
390
0
  6
CONTINUOUS
 62
     7
100
AcDbLine
 10
-124.0
 20
152.738
 30
0.0
 11
-124.0
 21
149.274
 31
0.0
  0
LINE
  5
27E
100
AcDbEntity
  8
PV
390
0
  6
CONTINUOUS
 62
     7
100
AcDbLine
 10
-121.0
 20
154.471
 30
0.0
 11
-118.0
 21
152.738
 31
0.0
  0
LINE
  5
27F
100
AcDbEntity
  8
PV
390
0
  6
CONTINUOUS
 62
     7
100
AcDbLine
 10
-124.0
 20
149.274
 30
0.0
 11
-121.0
 21
147.542
 31
0.0
  0
CIRCLE
  5
280
100
AcDbEntity
  8
PV
390
0
  6
CONTINUOUS
 62
     7
100
AcDbCircle
 10
-121.0
 20
151.006
 30
0.0
 40
6.5
  0
CIRCLE
  5
281
100
AcDbEntity
  8
PV
390
0
  6
CONTINUOUS
 62
     7
100
AcDbCircle
 10
-121.0
 20
151.006
 30
0.0
 40
5.634
  0
LINE
  5
282
100
AcDbEntity
  8
PV
390
0
  6
CONTINUOUS
 62
     7
100
AcDbLine
 10
-121.0
 20
147.542
 30
0.0
 11
-118.0
 21
149.274
 31
0.0
  0
LINE
  5
283
100
AcDbEntity
  8
PV
390
0
  6
CONTINUOUS
 62
     7
100
AcDbLine
 10
-124.0
 20
152.738
 30
0.0
 11
-121.0
 21
154.471
 31
0.0
  0
LINE
  5
284
100
AcDbEntity
  8
PV
390
0
  6
CONTINUOUS
 62
     7
100
AcDbLine
 10
-118.0
 20
152.738
 30
0.0
 11
-118.0
 21
149.274
 31
0.0
  0
LINE
  5
285
100
AcDbEntity
  8
PV
390
0
  6
CONTINUOUS
 62
     7
100
AcDbLine
 10
-124.0
 20
152.738
 30
0.0
 11
-124.0
 21
149.274
 31
0.0
  0
LINE
  5
286
100
AcDbEntity
  8
PV
390
0
  6
CONTINUOUS
 62
     7
100
AcDbLine
 10
-121.0
 20
154.471
 30
0.0
 11
-118.0
 21
152.738
 31
0.0
  0
LINE
  5
287
100
AcDbEntity
  8
PV
390
0
  6
CONTINUOUS
 62
     7
100
AcDbLine
 10
-124.0
 20
149.274
 30
0.0
 11
-121.0
 21
147.542
 31
0.0
  0
CIRCLE
  5
288
100
AcDbEntity
  8
PV
390
0
  6
CONTINUOUS
 62
     7
100
AcDbCircle
 10
-121.0
 20
151.006
 30
0.0
 40
6.5
  0
CIRCLE
  5
289
100
AcDbEntity
  8
PV
390
0
  6
CONTINUOUS
 62
     7
100
AcDbCircle
 10
-121.0
 20
151.006
 30
0.0
 40
5.634
  0
LINE
  5
28A
100
AcDbEntity
  8
PV
390
0
  6
CONTINUOUS
 62
     7
100
AcDbLine
 10
-121.0
 20
85.542
 30
0.0
 11
-118.0
 21
87.274
 31
0.0
  0
LINE
  5
28B
100
AcDbEntity
  8
PV
390
0
  6
CONTINUOUS
 62
     7
100
AcDbLine
 10
-124.0
 20
90.738
 30
0.0
 11
-121.0
 21
92.471
 31
0.0
  0
LINE
  5
28C
100
AcDbEntity
  8
PV
390
0
  6
CONTINUOUS
 62
     7
100
AcDbLine
 10
-118.0
 20
90.738
 30
0.0
 11
-118.0
 21
87.274
 31
0.0
  0
LINE
  5
28D
100
AcDbEntity
  8
PV
390
0
  6
CONTINUOUS
 62
     7
100
AcDbLine
 10
-124.0
 20
90.738
 30
0.0
 11
-124.0
 21
87.274
 31
0.0
  0
LINE
  5
28E
100
AcDbEntity
  8
PV
390
0
  6
CONTINUOUS
 62
     7
100
AcDbLine
 10
-121.0
 20
92.471
 30
0.0
 11
-118.0
 21
90.738
 31
0.0
  0
LINE
  5
28F
100
AcDbEntity
  8
PV
390
0
  6
CONTINUOUS
 62
     7
100
AcDbLine
 10
-124.0
 20
87.274
 30
0.0
 11
-121.0
 21
85.542
 31
0.0
  0
CIRCLE
  5
290
100
AcDbEntity
  8
PV
390
0
  6
CONTINUOUS
 62
     7
100
AcDbCircle
 10
-121.0
 20
89.006
 30
0.0
 40
6.5
  0
CIRCLE
  5
291
100
AcDbEntity
  8
PV
390
0
  6
CONTINUOUS
 62
     7
100
AcDbCircle
 10
-121.0
 20
89.006
 30
0.0
 40
5.634
  0
LINE
  5
292
100
AcDbEntity
  8
PV
390
0
  6
CONTINUOUS
 62
     7
100
AcDbLine
 10
-59.0
 20
85.542
 30
0.0
 11
-56.0
 21
87.274
 31
0.0
  0
LINE
  5
293
100
AcDbEntity
  8
PV
390
0
  6
CONTINUOUS
 62
     7
100
AcDbLine
 10
-62.0
 20
90.738
 30
0.0
 11
-59.0
 21
92.471
 31
0.0
  0
LINE
  5
294
100
AcDbEntity
  8
PV
390
0
  6
CONTINUOUS
 62
     7
100
AcDbLine
 10
-56.0
 20
90.738
 30
0.0
 11
-56.0
 21
87.274
 31
0.0
  0
LINE
  5
295
100
AcDbEntity
  8
PV
390
0
  6
CONTINUOUS
 62
     7
100
AcDbLine
 10
-62.0
 20
90.738
 30
0.0
 11
-62.0
 21
87.274
 31
0.0
  0
LINE
  5
296
100
AcDbEntity
  8
PV
390
0
  6
CONTINUOUS
 62
     7
100
AcDbLine
 10
-59.0
 20
92.471
 30
0.0
 11
-56.0
 21
90.738
 31
0.0
  0
LINE
  5
297
100
AcDbEntity
  8
PV
390
0
  6
CONTINUOUS
 62
     7
100
AcDbLine
 10
-62.0
 20
87.274
 30
0.0
 11
-59.0
 21
85.542
 31
0.0
  0
CIRCLE
  5
298
100
AcDbEntity
  8
PV
390
0
  6
CONTINUOUS
 62
     7
100
AcDbCircle
 10
-59.0
 20
89.006
 30
0.0
 40
6.5
  0
CIRCLE
  5
299
100
AcDbEntity
  8
PV
390
0
  6
CONTINUOUS
 62
     7
100
AcDbCircle
 10
-59.0
 20
89.006
 30
0.0
 40
5.634
  0
POINT
  5
29A
100
AcDbEntity
  8
PV
390
0
  6
CONTINUOUS
 62
     7
100
AcDbPoint
 10
-128.0
 20
-111.311
 30
0.0
  0
POINT
  5
29B
100
AcDbEntity
  8
PV
390
0
  6
CONTINUOUS
 62
     7
100
AcDbPoint
 10
-128.0
 20
-93.249
 30
0.0
  0
POINT
  5
29C
100
AcDbEntity
  8
PV
390
0
  6
CONTINUOUS
 62
     7
100
AcDbPoint
 10
-52.0
 20
-93.0
 30
0.0
  0
MTEXT
  5
29D
100
AcDbEntity
  8
PV
390
0
  6
CONTINUOUS
 62
     7
100
AcDbMText
 10
-81.387
 20
-101.844334
 30
0.0
 40
8.4
 41
0.0
 71
     2
 72
     1
  1
\T0.933;\W1.040;\A1;\U+220576
 73
     1
 44
1.0
  0
LINE
  5
29E
100
AcDbEntity
  8
PV
390
0
  6
CONTINUOUS
 62
     7
100
AcDbLine
 10
-128.0
 20
-95.789
 30
0.0
 11
-128.0
 21
-113.597
 31
0.0
  0
LINE
  5
29F
100
AcDbEntity
  8
PV
390
0
  6
CONTINUOUS
 62
     7
100
AcDbLine
 10
-52.0
 20
-95.54
 30
0.0
 11
-52.0
 21
-113.597
 31
0.0
  0
LINE
  5
2A0
100
AcDbEntity
  8
PV
390
0
  6
CONTINUOUS
 62
     7
100
AcDbLine
 10
-52.0
 20
-111.311
 30
0.0
 11
-128.0
 21
-111.311
 31
0.0
  0
LINE
  5
2A1
100
AcDbEntity
  8
PV
390
0
  6
CONTINUOUS
 62
     7
100
AcDbLine
 10
-128.0
 20
-111.311
 30
0.0
 11
-125.23
 21
-111.311
 31
0.0
  0
LINE
  5
2A2
100
AcDbEntity
  8
PV
390
0
  6
CONTINUOUS
 62
     7
100
AcDbLine
 10
-128.0
 20
-111.311
 30
0.0
 11
-125.23
 21
-110.569
 31
0.0
  0
LINE
  5
2A3
100
AcDbEntity
  8
PV
390
0
  6
CONTINUOUS
 62
     7
100
AcDbLine
 10
-125.23
 20
-112.053
 30
0.0
 11
-128.0
 21
-111.311
 31
0.0
  0
LINE
  5
2A4
100
AcDbEntity
  8
PV
390
0
  6
CONTINUOUS
 62
     7
100
AcDbLine
 10
-52.0
 20
-111.311
 30
0.0
 11
-54.77
 21
-111.311
 31
0.0
  0
LINE
  5
2A5
100
AcDbEntity
  8
PV
390
0
  6
CONTINUOUS
 62
     7
100
AcDbLine
 10
-52.0
 20
-111.311
 30
0.0
 11
-54.77
 21
-112.053
 31
0.0
  0
LINE
  5
2A6
100
AcDbEntity
  8
PV
390
0
  6
CONTINUOUS
 62
     7
100
AcDbLine
 10
-54.77
 20
-110.569
 30
0.0
 11
-52.0
 21
-111.311
 31
0.0
  0
POINT
  5
2A7
100
AcDbEntity
  8
PV
390
0
  6
CONTINUOUS
 62
     7
100
AcDbPoint
 10
-22.24
 20
-24.5
 30
0.0
  0
POINT
  5
2A8
100
AcDbEntity
  8
PV
390
0
  6
CONTINUOUS
 62
     7
100
AcDbPoint
 10
-46.0
 20
-24.5
 30
0.0
  0
POINT
  5
2A9
100
AcDbEntity
  8
PV
390
0
  6
CONTINUOUS
 62
     7
100
AcDbPoint
 10
-46.0
 20
35.0
 30
0.0
  0
MTEXT
  5
2AA
100
AcDbEntity
  8
PV
390
0
  6
CONTINUOUS
 62
     7
100
AcDbMText
 10
-31.706666
 20
5.25
 30
0.0
 40
8.4
 41
0.0
 71
     2
 72
     1
  1
\A1;59.5
 11
0.0
 21
1.0
 31
0.0
 73
     1
 44
1.0
  0
LINE
  5
2AB
100
AcDbEntity
  8
PV
390
0
  6
CONTINUOUS
 62
     7
100
AcDbLine
 10
-43.46
 20
-24.5
 30
0.0
 11
-19.954
 21
-24.5
 31
0.0
  0
LINE
  5
2AC
100
AcDbEntity
  8
PV
390
0
  6
CONTINUOUS
 62
     7
100
AcDbLine
 10
-22.24
 20
35.0
 30
0.0
 11
-22.24
 21
-24.5
 31
0.0
  0
LINE
  5
2AD
100
AcDbEntity
  8
PV
390
0
  6
CONTINUOUS
 62
     7
100
AcDbLine
 10
-22.24
 20
-24.5
 30
0.0
 11
-22.24
 21
-21.73
 31
0.0
  0
LINE
  5
2AE
100
AcDbEntity
  8
PV
390
0
  6
CONTINUOUS
 62
     7
100
AcDbLine
 10
-22.24
 20
-24.5
 30
0.0
 11
-22.982
 21
-21.73
 31
0.0
  0
LINE
  5
2AF
100
AcDbEntity
  8
PV
390
0
  6
CONTINUOUS
 62
     7
100
AcDbLine
 10
-21.498
 20
-21.73
 30
0.0
 11
-22.24
 21
-24.5
 31
0.0
  0
LINE
  5
2B0
100
AcDbEntity
  8
PV
390
0
  6
CONTINUOUS
 62
     7
100
AcDbLine
 10
-22.24
 20
35.0
 30
0.0
 11
-22.24
 21
32.23
 31
0.0
  0
LINE
  5
2B1
100
AcDbEntity
  8
PV
390
0
  6
CONTINUOUS
 62
     7
100
AcDbLine
 10
-22.24
 20
35.0
 30
0.0
 11
-21.498
 21
32.23
 31
0.0
  0
LINE
  5
2B2
100
AcDbEntity
  8
PV
390
0
  6
CONTINUOUS
 62
     7
100
AcDbLine
 10
-22.982
 20
32.23
 30
0.0
 11
-22.24
 21
35.0
 31
0.0
  0
POINT
  5
2B3
100
AcDbEntity
  8
PV
390
0
  6
CONTINUOUS
 62
     7
100
AcDbPoint
 10
125.556
 20
-15.5
 30
0.0
  0
POINT
  5
2B4
100
AcDbEntity
  8
PV
390
0
  6
CONTINUOUS
 62
     7
100
AcDbPoint
 10
68.369
 20
-15.5
 30
0.0
  0
POINT
  5
2B5
100
AcDbEntity
  8
PV
390
0
  6
CONTINUOUS
 62
     7
100
AcDbPoint
 10
68.123
 20
17.5
 30
0.0
  0
MTEXT
  5
2B6
100
AcDbEntity
  8
PV
390
0
  6
CONTINUOUS
 62
     7
100
AcDbMText
 10
116.089334
 20
1.0
 30
0.0
 40
8.4
 41
0.0
 71
     2
 72
     1
  1
\W0.952;\A1;33
 11
0.0
 21
1.0
 31
0.0
 73
     1
 44
1.0
  0
LINE
  5
2B7
100
AcDbEntity
  8
PV
390
0
  6
CONTINUOUS
 62
     7
100
AcDbLine
 10
70.663
 20
17.5
 30
0.0
 11
127.842
 21
17.5
 31
0.0
  0
LINE
  5
2B8
100
AcDbEntity
  8
PV
390
0
  6
CONTINUOUS
 62
     7
100
AcDbLine
 10
125.556
 20
17.5
 30
0.0
 11
125.556
 21
-15.5
 31
0.0
  0
LINE
  5
2B9
100
AcDbEntity
  8
PV
390
0
  6
CONTINUOUS
 62
     7
100
AcDbLine
 10
125.556
 20
-15.5
 30
0.0
 11
125.556
 21
-12.73
 31
0.0
  0
LINE
  5
2BA
100
AcDbEntity
  8
PV
390
0
  6
CONTINUOUS
 62
     7
100
AcDbLine
 10
125.556
 20
-15.5
 30
0.0
 11
124.814
 21
-12.73
 31
0.0
  0
LINE
  5
2BB
100
AcDbEntity
  8
PV
390
0
  6
CONTINUOUS
 62
     7
100
AcDbLine
 10
126.298
 20
-12.73
 30
0.0
 11
125.556
 21
-15.5
 31
0.0
  0
LINE
  5
2BC
100
AcDbEntity
  8
PV
390
0
  6
CONTINUOUS
 62
     7
100
AcDbLine
 10
125.556
 20
17.5
 30
0.0
 11
125.556
 21
14.73
 31
0.0
  0
LINE
  5
2BD
100
AcDbEntity
  8
PV
390
0
  6
CONTINUOUS
 62
     7
100
AcDbLine
 10
125.556
 20
17.5
 30
0.0
 11
126.298
 21
14.73
 31
0.0
  0
LINE
  5
2BE
100
AcDbEntity
  8
PV
390
0
  6
CONTINUOUS
 62
     7
100
AcDbLine
 10
124.814
 20
14.73
 30
0.0
 11
125.556
 21
17.5
 31
0.0
  0
POINT
  5
2BF
100
AcDbEntity
  8
PV
390
0
  6
CONTINUOUS
 62
     7
100
AcDbPoint
 10
-160.0
 20
-179.676
 30
0.0
  0
POINT
  5
2C0
100
AcDbEntity
  8
PV
390
0
  6
CONTINUOUS
 62
     7
100
AcDbPoint
 10
-160.0
 20
-101.85
 30
0.0
  0
POINT
  5
2C1
100
AcDbEntity
  8
PV
390
0
  6
CONTINUOUS
 62
     7
100
AcDbPoint
 10
-90.0
 20
-153.246
 30
0.0
  0
MTEXT
  5
2C2
100
AcDbEntity
  8
PV
390
0
  6
CONTINUOUS
 62
     7
100
AcDbMText
 10
-132.312
 20
-170.209334
 30
0.0
 40
8.4
 41
0.0
 71
     2
 72
     1
  1
\A1;70
 73
     1
 44
1.0
  0
LINE
  5
2C3
100
AcDbEntity
  8
PV
390
0
  6
CONTINUOUS
 62
     7
100
AcDbLine
 10
-160.0
 20
-106.50015
 30
0.0
 11
-160.0
 21
-181.962
 31
0.0
  0
LINE
  5
2C4
100
AcDbEntity
  8
PV
390
0
  6
CONTINUOUS
 62
     7
100
AcDbLine
 10
-90.0
 20
-156.906114
 30
0.0
 11
-90.0
 21
-181.962
 31
0.0
  0
LINE
  5
2C5
100
AcDbEntity
  8
PV
390
0
  6
CONTINUOUS
 62
     7
100
AcDbLine
 10
-90.0
 20
-179.676
 30
0.0
 11
-160.0
 21
-179.676
 31
0.0
  0
LINE
  5
2C6
100
AcDbEntity
  8
PV
390
0
  6
CONTINUOUS
 62
     7
100
AcDbLine
 10
-160.0
 20
-179.676
 30
0.0
 11
-157.23
 21
-179.676
 31
0.0
  0
LINE
  5
2C7
100
AcDbEntity
  8
PV
390
0
  6
CONTINUOUS
 62
     7
100
AcDbLine
 10
-160.0
 20
-179.676
 30
0.0
 11
-157.23
 21
-178.933
 31
0.0
  0
LINE
  5
2C8
100
AcDbEntity
  8
PV
390
0
  6
CONTINUOUS
 62
     7
100
AcDbLine
 10
-157.23
 20
-180.418
 30
0.0
 11
-160.0
 21
-179.676
 31
0.0
  0
LINE
  5
2C9
100
AcDbEntity
  8
PV
390
0
  6
CONTINUOUS
 62
     7
100
AcDbLine
 10
-90.0
 20
-179.676
 30
0.0
 11
-92.77
 21
-179.676
 31
0.0
  0
LINE
  5
2CA
100
AcDbEntity
  8
PV
390
0
  6
CONTINUOUS
 62
     7
100
AcDbLine
 10
-90.0
 20
-179.676
 30
0.0
 11
-92.77
 21
-180.418
 31
0.0
  0
LINE
  5
2CB
100
AcDbEntity
  8
PV
390
0
  6
CONTINUOUS
 62
     7
100
AcDbLine
 10
-92.77
 20
-178.933
 30
0.0
 11
-90.0
 21
-179.676
 31
0.0
  0
POINT
  5
2CC
100
AcDbEntity
  8
PV
390
0
  6
CONTINUOUS
 62
     7
100
AcDbPoint
 10
-191.5
 20
-68.0
 30
0.0
  0
POINT
  5
2CD
100
AcDbEntity
  8
PV
390
0
  6
CONTINUOUS
 62
     7
100
AcDbPoint
 10
-161.793
 20
-68.0
 30
0.0
  0
POINT
  5
2CE
100
AcDbEntity
  8
PV
390
0
  6
CONTINUOUS
 62
     7
100
AcDbPoint
 10
-123.85
 20
-138.0
 30
0.0
  0
MTEXT
  5
2CF
100
AcDbEntity
  8
PV
390
0
  6
CONTINUOUS
 62
     7
100
AcDbMText
 10
-200.966666
 20
-103.583
 30
0.0
 40
8.4
 41
0.0
 71
     2
 72
     1
  1
\A1;70
 11
0.0
 21
1.0
 31
0.0
 73
     1
 44
1.0
  0
LINE
  5
2D0
100
AcDbEntity
  8
PV
390
0
  6
CONTINUOUS
 62
     7
100
AcDbLine
 10
-165.928117
 20
-68.0
 30
0.0
 11
-193.786
 21
-68.0
 31
0.0
  0
LINE
  5
2D1
100
AcDbEntity
  8
PV
390
0
  6
CONTINUOUS
 62
     7
100
AcDbLine
 10
-135.39
 20
-138.0
 30
0.0
 11
-193.786
 21
-138.0
 31
0.0
  0
LINE
  5
2D2
100
AcDbEntity
  8
PV
390
0
  6
CONTINUOUS
 62
     7
100
AcDbLine
 10
-191.5
 20
-138.0
 30
0.0
 11
-191.5
 21
-68.0
 31
0.0
  0
LINE
  5
2D3
100
AcDbEntity
  8
PV
390
0
  6
CONTINUOUS
 62
     7
100
AcDbLine
 10
-191.5
 20
-68.0
 30
0.0
 11
-191.5
 21
-70.77
 31
0.0
  0
LINE
  5
2D4
100
AcDbEntity
  8
PV
390
0
  6
CONTINUOUS
 62
     7
100
AcDbLine
 10
-191.5
 20
-68.0
 30
0.0
 11
-190.758
 21
-70.77
 31
0.0
  0
LINE
  5
2D5
100
AcDbEntity
  8
PV
390
0
  6
CONTINUOUS
 62
     7
100
AcDbLine
 10
-192.242
 20
-70.77
 30
0.0
 11
-191.5
 21
-68.0
 31
0.0
  0
LINE
  5
2D6
100
AcDbEntity
  8
PV
390
0
  6
CONTINUOUS
 62
     7
100
AcDbLine
 10
-191.5
 20
-138.0
 30
0.0
 11
-191.5
 21
-135.23
 31
0.0
  0
LINE
  5
2D7
100
AcDbEntity
  8
PV
390
0
  6
CONTINUOUS
 62
     7
100
AcDbLine
 10
-191.5
 20
-138.0
 30
0.0
 11
-192.242
 21
-135.23
 31
0.0
  0
LINE
  5
2D8
100
AcDbEntity
  8
PV
390
0
  6
CONTINUOUS
 62
     7
100
AcDbLine
 10
-190.758
 20
-135.23
 30
0.0
 11
-191.5
 21
-138.0
 31
0.0
  0
POINT
  5
2D9
100
AcDbEntity
  8
PV
390
0
  6
CONTINUOUS
 62
     7
100
AcDbPoint
 10
-9.729
 20
-138.0
 30
0.0
  0
POINT
  5
2DA
100
AcDbEntity
  8
PV
390
0
  6
CONTINUOUS
 62
     7
100
AcDbPoint
 10
-56.15
 20
-138.0
 30
0.0
  0
POINT
  5
2DB
100
AcDbEntity
  8
PV
390
0
  6
CONTINUOUS
 62
     7
100
AcDbPoint
 10
-46.0
 20
35.0
 30
0.0
  0
MTEXT
  5
2DC
100
AcDbEntity
  8
PV
390
0
  6
CONTINUOUS
 62
     7
100
AcDbMText
 10
-19.195666
 20
-49.623
 30
0.0
 40
8.4
 41
0.0
 71
     2
 72
     1
  1
\A1;173
 11
0.0
 21
1.0
 31
0.0
 73
     1
 44
1.0
  0
LINE
  5
2DD
100
AcDbEntity
  8
PV
390
0
  6
CONTINUOUS
 62
     7
100
AcDbLine
 10
-53.61
 20
-138.0
 30
0.0
 11
-7.443
 21
-138.0
 31
0.0
  0
LINE
  5
2DE
100
AcDbEntity
  8
PV
390
0
  6
CONTINUOUS
 62
     7
100
AcDbLine
 10
-43.46
 20
35.0
 30
0.0
 11
-7.443
 21
35.0
 31
0.0
  0
LINE
  5
2DF
100
AcDbEntity
  8
PV
390
0
  6
CONTINUOUS
 62
     7
100
AcDbLine
 10
-9.729
 20
35.0
 30
0.0
 11
-9.729
 21
-138.0
 31
0.0
  0
LINE
  5
2E0
100
AcDbEntity
  8
PV
390
0
  6
CONTINUOUS
 62
     7
100
AcDbLine
 10
-9.729
 20
-138.0
 30
0.0
 11
-9.729
 21
-135.23
 31
0.0
  0
LINE
  5
2E1
100
AcDbEntity
  8
PV
390
0
  6
CONTINUOUS
 62
     7
100
AcDbLine
 10
-9.729
 20
-138.0
 30
0.0
 11
-10.471
 21
-135.23
 31
0.0
  0
LINE
  5
2E2
100
AcDbEntity
  8
PV
390
0
  6
CONTINUOUS
 62
     7
100
AcDbLine
 10
-8.987
 20
-135.23
 30
0.0
 11
-9.729
 21
-138.0
 31
0.0
  0
LINE
  5
2E3
100
AcDbEntity
  8
PV
390
0
  6
CONTINUOUS
 62
     7
100
AcDbLine
 10
-9.729
 20
35.0
 30
0.0
 11
-9.729
 21
32.23
 31
0.0
  0
LINE
  5
2E4
100
AcDbEntity
  8
PV
390
0
  6
CONTINUOUS
 62
     7
100
AcDbLine
 10
-9.729
 20
35.0
 30
0.0
 11
-8.987
 21
32.23
 31
0.0
  0
LINE
  5
2E5
100
AcDbEntity
  8
PV
390
0
  6
CONTINUOUS
 62
     7
100
AcDbLine
 10
-10.471
 20
32.23
 30
0.0
 11
-9.729
 21
35.0
 31
0.0
  0
POINT
  5
2E6
100
AcDbEntity
  8
PV
390
0
  6
CONTINUOUS
 62
     7
100
AcDbPoint
 10
-22.24
 20
-138.0
 30
0.0
  0
POINT
  5
2E7
100
AcDbEntity
  8
PV
390
0
  6
CONTINUOUS
 62
     7
100
AcDbPoint
 10
-56.15
 20
-138.0
 30
0.0
  0
POINT
  5
2E8
100
AcDbEntity
  8
PV
390
0
  6
CONTINUOUS
 62
     7
100
AcDbPoint
 10
-46.0
 20
-24.5
 30
0.0
  0
MTEXT
  5
2E9
100
AcDbEntity
  8
PV
390
0
  6
CONTINUOUS
 62
     7
100
AcDbMText
 10
-31.706667
 20
-81.25
 30
0.0
 40
8.4
 41
0.0
 71
     2
 72
     1
  1
\A1;113.5
 11
0.0
 21
1.0
 31
0.0
 73
     1
 44
1.0
  0
LINE
  5
2EA
100
AcDbEntity
  8
PV
390
0
  6
CONTINUOUS
 62
     7
100
AcDbLine
 10
-22.24
 20
-24.5
 30
0.0
 11
-22.24
 21
-138.0
 31
0.0
  0
LINE
  5
2EB
100
AcDbEntity
  8
PV
390
0
  6
CONTINUOUS
 62
     7
100
AcDbLine
 10
-22.24
 20
-138.0
 30
0.0
 11
-22.24
 21
-135.23
 31
0.0
  0
LINE
  5
2EC
100
AcDbEntity
  8
PV
390
0
  6
CONTINUOUS
 62
     7
100
AcDbLine
 10
-22.24
 20
-138.0
 30
0.0
 11
-22.982
 21
-135.23
 31
0.0
  0
LINE
  5
2ED
100
AcDbEntity
  8
PV
390
0
  6
CONTINUOUS
 62
     7
100
AcDbLine
 10
-21.498
 20
-135.23
 30
0.0
 11
-22.24
 21
-138.0
 31
0.0
  0
LINE
  5
2EE
100
AcDbEntity
  8
PV
390
0
  6
CONTINUOUS
 62
     7
100
AcDbLine
 10
-22.24
 20
-24.5
 30
0.0
 11
-22.24
 21
-27.27
 31
0.0
  0
LINE
  5
2EF
100
AcDbEntity
  8
PV
390
0
  6
CONTINUOUS
 62
     7
100
AcDbLine
 10
-22.24
 20
-24.5
 30
0.0
 11
-21.498
 21
-27.27
 31
0.0
  0
LINE
  5
2F0
100
AcDbEntity
  8
PV
390
0
  6
CONTINUOUS
 62
     7
100
AcDbLine
 10
-22.982
 20
-27.27
 30
0.0
 11
-22.24
 21
-24.5
 31
0.0
  0
POINT
  5
2F1
100
AcDbEntity
  8
PV
390
0
  6
CONTINUOUS
 62
     7
100
AcDbPoint
 10
125.556
 20
-138.0
 30
0.0
  0
POINT
  5
2F2
100
AcDbEntity
  8
PV
390
0
  6
CONTINUOUS
 62
     7
100
AcDbPoint
 10
94.779
 20
-138.0
 30
0.0
  0
POINT
  5
2F3
100
AcDbEntity
  8
PV
390
0
  6
CONTINUOUS
 62
     7
100
AcDbPoint
 10
68.369
 20
-15.5
 30
0.0
  0
MTEXT
  5
2F4
100
AcDbEntity
  8
PV
390
0
  6
CONTINUOUS
 62
     7
100
AcDbMText
 10
116.089334
 20
-76.75
 30
0.0
 40
8.4
 41
0.0
 71
     2
 72
     1
  1
\A1;122.5
 11
0.0
 21
1.0
 31
0.0
 73
     1
 44
1.0
  0
LINE
  5
2F5
100
AcDbEntity
  8
PV
390
0
  6
CONTINUOUS
 62
     7
100
AcDbLine
 10
97.319
 20
-138.0
 30
0.0
 11
127.842
 21
-138.0
 31
0.0
  0
LINE
  5
2F6
100
AcDbEntity
  8
PV
390
0
  6
CONTINUOUS
 62
     7
100
AcDbLine
 10
70.909
 20
-15.5
 30
0.0
 11
127.842
 21
-15.5
 31
0.0
  0
LINE
  5
2F7
100
AcDbEntity
  8
PV
390
0
  6
CONTINUOUS
 62
     7
100
AcDbLine
 10
125.556
 20
-15.5
 30
0.0
 11
125.556
 21
-138.0
 31
0.0
  0
LINE
  5
2F8
100
AcDbEntity
  8
PV
390
0
  6
CONTINUOUS
 62
     7
100
AcDbLine
 10
125.556
 20
-138.0
 30
0.0
 11
125.556
 21
-135.23
 31
0.0
  0
LINE
  5
2F9
100
AcDbEntity
  8
PV
390
0
  6
CONTINUOUS
 62
     7
100
AcDbLine
 10
125.556
 20
-138.0
 30
0.0
 11
124.814
 21
-135.23
 31
0.0
  0
LINE
  5
2FA
100
AcDbEntity
  8
PV
390
0
  6
CONTINUOUS
 62
     7
100
AcDbLine
 10
126.298
 20
-135.23
 30
0.0
 11
125.556
 21
-138.0
 31
0.0
  0
LINE
  5
2FB
100
AcDbEntity
  8
PV
390
0
  6
CONTINUOUS
 62
     7
100
AcDbLine
 10
125.556
 20
-15.5
 30
0.0
 11
125.556
 21
-18.27
 31
0.0
  0
LINE
  5
2FC
100
AcDbEntity
  8
PV
390
0
  6
CONTINUOUS
 62
     7
100
AcDbLine
 10
125.556
 20
-15.5
 30
0.0
 11
126.298
 21
-18.27
 31
0.0
  0
LINE
  5
2FD
100
AcDbEntity
  8
PV
390
0
  6
CONTINUOUS
 62
     7
100
AcDbLine
 10
124.814
 20
-18.27
 30
0.0
 11
125.556
 21
-15.5
 31
0.0
  0
POINT
  5
2FE
100
AcDbEntity
  8
PV
390
0
  6
CONTINUOUS
 62
     7
100
AcDbPoint
 10
-46.0
 20
168.953
 30
0.0
  0
POINT
  5
2FF
100
AcDbEntity
  8
PV
390
0
  6
CONTINUOUS
 62
     7
100
AcDbPoint
 10
-46.0
 20
136.006
 30
0.0
  0
POINT
  5
300
100
AcDbEntity
  8
PV
390
0
  6
CONTINUOUS
 62
     7
100
AcDbPoint
 10
-160.0
 20
153.856
 30
0.0
  0
MTEXT
  5
301
100
AcDbEntity
  8
PV
390
0
  6
CONTINUOUS
 62
     7
100
AcDbMText
 10
-103.0
 20
178.419667
 30
0.0
 40
8.4
 41
0.0
 71
     2
 72
     1
  1
\A1;114
 73
     1
 44
1.0
  0
LINE
  5
302
100
AcDbEntity
  8
PV
390
0
  6
CONTINUOUS
 62
     7
100
AcDbLine
 10
-46.0
 20
138.546
 30
0.0
 11
-46.0
 21
171.239
 31
0.0
  0
LINE
  5
303
100
AcDbEntity
  8
PV
390
0
  6
CONTINUOUS
 62
     7
100
AcDbLine
 10
-160.0
 20
156.396
 30
0.0
 11
-160.0
 21
171.239
 31
0.0
  0
LINE
  5
304
100
AcDbEntity
  8
PV
390
0
  6
CONTINUOUS
 62
     7
100
AcDbLine
 10
-160.0
 20
168.953
 30
0.0
 11
-46.0
 21
168.953
 31
0.0
  0
LINE
  5
305
100
AcDbEntity
  8
PV
390
0
  6
CONTINUOUS
 62
     7
100
AcDbLine
 10
-46.0
 20
168.953
 30
0.0
 11
-48.77
 21
168.953
 31
0.0
  0
LINE
  5
306
100
AcDbEntity
  8
PV
390
0
  6
CONTINUOUS
 62
     7
100
AcDbLine
 10
-46.0
 20
168.953
 30
0.0
 11
-48.77
 21
168.211
 31
0.0
  0
LINE
  5
307
100
AcDbEntity
  8
PV
390
0
  6
CONTINUOUS
 62
     7
100
AcDbLine
 10
-48.77
 20
169.695
 30
0.0
 11
-46.0
 21
168.953
 31
0.0
  0
LINE
  5
308
100
AcDbEntity
  8
PV
390
0
  6
CONTINUOUS
 62
     7
100
AcDbLine
 10
-160.0
 20
168.953
 30
0.0
 11
-157.23
 21
168.953
 31
0.0
  0
LINE
  5
309
100
AcDbEntity
  8
PV
390
0
  6
CONTINUOUS
 62
     7
100
AcDbLine
 10
-160.0
 20
168.953
 30
0.0
 11
-157.23
 21
169.695
 31
0.0
  0
LINE
  5
30A
100
AcDbEntity
  8
PV
390
0
  6
CONTINUOUS
 62
     7
100
AcDbLine
 10
-157.23
 20
168.211
 30
0.0
 11
-160.0
 21
168.953
 31
0.0
  0
POINT
  5
30B
100
AcDbEntity
  8
PV
390
0
  6
CONTINUOUS
 62
     7
100
AcDbPoint
 10
-171.167
 20
-33.35
 30
0.0
  0
POINT
  5
30C
100
AcDbEntity
  8
PV
390
0
  6
CONTINUOUS
 62
     7
100
AcDbPoint
 10
-159.2
 20
-33.35
 30
0.0
  0
POINT
  5
30D
100
AcDbEntity
  8
PV
390
0
  6
CONTINUOUS
 62
     7
100
AcDbPoint
 10
-159.2
 20
-102.65
 30
0.0
  0
MTEXT
  5
30E
100
AcDbEntity
  8
PV
390
0
  6
CONTINUOUS
 62
     7
100
AcDbMText
 10
-180.633666
 20
-55.25
 30
0.0
 40
8.4
 41
0.0
 71
     2
 72
     1
  1
\A1;\U+220569.3
 11
0.0
 21
1.0
 31
0.0
 73
     1
 44
1.0
  0
LINE
  5
30F
100
AcDbEntity
  8
PV
390
0
  6
CONTINUOUS
 62
     7
100
AcDbLine
 10
-161.74
 20
-33.35
 30
0.0
 11
-173.453
 21
-33.35
 31
0.0
  0
LINE
  5
310
100
AcDbEntity
  8
PV
390
0
  6
CONTINUOUS
 62
     7
100
AcDbLine
 10
-161.74
 20
-102.65
 30
0.0
 11
-173.453
 21
-102.65
 31
0.0
  0
LINE
  5
311
100
AcDbEntity
  8
PV
390
0
  6
CONTINUOUS
 62
     7
100
AcDbLine
 10
-171.167
 20
-102.65
 30
0.0
 11
-171.167
 21
-33.35
 31
0.0
  0
LINE
  5
312
100
AcDbEntity
  8
PV
390
0
  6
CONTINUOUS
 62
     7
100
AcDbLine
 10
-171.167
 20
-33.35
 30
0.0
 11
-171.167
 21
-36.12
 31
0.0
  0
LINE
  5
313
100
AcDbEntity
  8
PV
390
0
  6
CONTINUOUS
 62
     7
100
AcDbLine
 10
-171.167
 20
-33.35
 30
0.0
 11
-170.424
 21
-36.12
 31
0.0
  0
LINE
  5
314
100
AcDbEntity
  8
PV
390
0
  6
CONTINUOUS
 62
     7
100
AcDbLine
 10
-171.909
 20
-36.12
 30
0.0
 11
-171.167
 21
-33.35
 31
0.0
  0
LINE
  5
315
100
AcDbEntity
  8
PV
390
0
  6
CONTINUOUS
 62
     7
100
AcDbLine
 10
-171.167
 20
-102.65
 30
0.0
 11
-171.167
 21
-99.88
 31
0.0
  0
LINE
  5
316
100
AcDbEntity
  8
PV
390
0
  6
CONTINUOUS
 62
     7
100
AcDbLine
 10
-171.167
 20
-102.65
 30
0.0
 11
-171.909
 21
-99.88
 31
0.0
  0
LINE
  5
317
100
AcDbEntity
  8
PV
390
0
  6
CONTINUOUS
 62
     7
100
AcDbLine
 10
-170.424
 20
-99.88
 30
0.0
 11
-171.167
 21
-102.65
 31
0.0
  0
POINT
  5
318
100
AcDbEntity
  8
PV
390
0
  6
CONTINUOUS
 62
     7
100
AcDbPoint
 10
-124.65
 20
-163.844
 30
0.0
  0
POINT
  5
319
100
AcDbEntity
  8
PV
390
0
  6
CONTINUOUS
 62
     7
100
AcDbPoint
 10
-124.65
 20
-137.2
 30
0.0
  0
POINT
  5
31A
100
AcDbEntity
  8
PV
390
0
  6
CONTINUOUS
 62
     7
100
AcDbPoint
 10
-55.35
 20
-137.2
 30
0.0
  0
MTEXT
  5
31B
100
AcDbEntity
  8
PV
390
0
  6
CONTINUOUS
 62
     7
100
AcDbMText
 10
-78.166
 20
-154.377334
 30
0.0
 40
8.4
 41
0.0
 71
     2
 72
     1
  1
\A1;\U+220569.3
 73
     1
 44
1.0
  0
LINE
  5
31C
100
AcDbEntity
  8
PV
390
0
  6
CONTINUOUS
 62
     7
100
AcDbLine
 10
-124.65
 20
-137.2
 30
0.0
 11
-124.65
 21
-166.13
 31
0.0
  0
LINE
  5
31D
100
AcDbEntity
  8
PV
390
0
  6
CONTINUOUS
 62
     7
100
AcDbLine
 10
-55.35
 20
-137.2
 30
0.0
 11
-55.35
 21
-166.13
 31
0.0
  0
LINE
  5
31E
100
AcDbEntity
  8
PV
390
0
  6
CONTINUOUS
 62
     7
100
AcDbLine
 10
-55.35
 20
-163.844
 30
0.0
 11
-124.65
 21
-163.844
 31
0.0
  0
LINE
  5
31F
100
AcDbEntity
  8
PV
390
0
  6
CONTINUOUS
 62
     7
100
AcDbLine
 10
-124.65
 20
-163.844
 30
0.0
 11
-121.88
 21
-163.844
 31
0.0
  0
LINE
  5
320
100
AcDbEntity
  8
PV
390
0
  6
CONTINUOUS
 62
     7
100
AcDbLine
 10
-124.65
 20
-163.844
 30
0.0
 11
-121.88
 21
-163.102
 31
0.0
  0
LINE
  5
321
100
AcDbEntity
  8
PV
390
0
  6
CONTINUOUS
 62
     7
100
AcDbLine
 10
-121.88
 20
-164.586
 30
0.0
 11
-124.65
 21
-163.844
 31
0.0
  0
LINE
  5
322
100
AcDbEntity
  8
PV
390
0
  6
CONTINUOUS
 62
     7
100
AcDbLine
 10
-55.35
 20
-163.844
 30
0.0
 11
-58.12
 21
-163.844
 31
0.0
  0
LINE
  5
323
100
AcDbEntity
  8
PV
390
0
  6
CONTINUOUS
 62
     7
100
AcDbLine
 10
-55.35
 20
-163.844
 30
0.0
 11
-58.12
 21
-164.586
 31
0.0
  0
LINE
  5
324
100
AcDbEntity
  8
PV
390
0
  6
CONTINUOUS
 62
     7
100
AcDbLine
 10
-58.12
 20
-163.102
 30
0.0
 11
-55.35
 21
-163.844
 31
0.0
  0
POINT
  5
325
100
AcDbEntity
  8
PV
390
0
  6
CONTINUOUS
 62
     7
100
AcDbPoint
 10
57.755
 20
-148.505
 30
0.0
  0
POINT
  5
326
100
AcDbEntity
  8
PV
390
0
  6
CONTINUOUS
 62
     7
100
AcDbPoint
 10
84.985
 20
-167.538
 30
0.0
  0
MTEXT
  5
327
100
AcDbEntity
  8
PV
390
0
  6
CONTINUOUS
 62
     7
100
AcDbMText
 10
115.312525
 20
-174.884801
 30
0.0
 40
8.4
 41
0.0
 71
     2
 72
     1
  1
\A1;PCD58.7
 11
0.819627
 21
-0.572897
 31
0.0
 73
     1
 44
1.0
  0
LINE
  5
328
100
AcDbEntity
  8
PV
390
0
  6
CONTINUOUS
 62
     7
100
AcDbLine
 10
84.985
 20
-167.538
 30
0.0
 11
128.517483
 21
-197.966374
 31
0.0
  0
LINE
  5
329
100
AcDbEntity
  8
PV
390
0
  6
CONTINUOUS
 62
     7
100
AcDbLine
 10
57.755
 20
-148.505
 30
0.0
 11
84.985
 21
-167.538
 31
0.0
  0
LINE
  5
32A
100
AcDbEntity
  8
PV
390
0
  6
CONTINUOUS
 62
     7
100
AcDbLine
 10
84.985
 20
-167.538
 30
0.0
 11
82.714
 21
-165.951
 31
0.0
  0
LINE
  5
32B
100
AcDbEntity
  8
PV
390
0
  6
CONTINUOUS
 62
     7
100
AcDbLine
 10
84.985
 20
-167.538
 30
0.0
 11
82.289
 21
-166.559
 31
0.0
  0
LINE
  5
32C
100
AcDbEntity
  8
PV
390
0
  6
CONTINUOUS
 62
     7
100
AcDbLine
 10
83.14
 20
-165.343
 30
0.0
 11
84.985
 21
-167.538
 31
0.0
  0
POINT
  5
32D
100
AcDbEntity
  8
PV
390
0
  6
CONTINUOUS
 62
     7
100
AcDbPoint
 10
-23.451
 20
79.506
 30
0.0
  0
POINT
  5
32E
100
AcDbEntity
  8
PV
390
0
  6
CONTINUOUS
 62
     7
100
AcDbPoint
 10
-55.043
 20
79.506
 30
0.0
  0
POINT
  5
32F
100
AcDbEntity
  8
PV
390
0
  6
CONTINUOUS
 62
     7
100
AcDbPoint
 10
-55.043
 20
160.506
 30
0.0
  0
MTEXT
  5
330
100
AcDbEntity
  8
PV
390
0
  6
CONTINUOUS
 62
     7
100
AcDbMText
 10
-32.917666
 20
120.006
 30
0.0
 40
8.4
 41
0.0
 71
     2
 72
     1
  1
\A1;□81
 11
0.0
 21
1.0
 31
0.0
 73
     1
 44
1.0
  0
LINE
  5
331
100
AcDbEntity
  8
PV
390
0
  6
CONTINUOUS
 62
     7
100
AcDbLine
 10
-52.503
 20
79.506
 30
0.0
 11
-21.165
 21
79.506
 31
0.0
  0
LINE
  5
332
100
AcDbEntity
  8
PV
390
0
  6
CONTINUOUS
 62
     7
100
AcDbLine
 10
-52.503
 20
160.506
 30
0.0
 11
-21.165
 21
160.506
 31
0.0
  0
LINE
  5
333
100
AcDbEntity
  8
PV
390
0
  6
CONTINUOUS
 62
     7
100
AcDbLine
 10
-23.451
 20
160.506
 30
0.0
 11
-23.451
 21
79.506
 31
0.0
  0
LINE
  5
334
100
AcDbEntity
  8
PV
390
0
  6
CONTINUOUS
 62
     7
100
AcDbLine
 10
-23.451
 20
79.506
 30
0.0
 11
-23.451
 21
82.276
 31
0.0
  0
LINE
  5
335
100
AcDbEntity
  8
PV
390
0
  6
CONTINUOUS
 62
     7
100
AcDbLine
 10
-23.451
 20
79.506
 30
0.0
 11
-24.193
 21
82.276
 31
0.0
  0
LINE
  5
336
100
AcDbEntity
  8
PV
390
0
  6
CONTINUOUS
 62
     7
100
AcDbLine
 10
-22.708
 20
82.276
 30
0.0
 11
-23.451
 21
79.506
 31
0.0
  0
LINE
  5
337
100
AcDbEntity
  8
PV
390
0
  6
CONTINUOUS
 62
     7
100
AcDbLine
 10
-23.451
 20
160.506
 30
0.0
 11
-23.451
 21
157.736
 31
0.0
  0
LINE
  5
338
100
AcDbEntity
  8
PV
390
0
  6
CONTINUOUS
 62
     7
100
AcDbLine
 10
-23.451
 20
160.506
 30
0.0
 11
-22.708
 21
157.736
 31
0.0
  0
LINE
  5
339
100
AcDbEntity
  8
PV
390
0
  6
CONTINUOUS
 62
     7
100
AcDbLine
 10
-24.193
 20
157.736
 30
0.0
 11
-23.451
 21
160.506
 31
0.0
  0
ENDSEC
  0
SECTION
  2
OBJECTS
  0
DICTIONARY
  5
19
100
AcDbDictionary
280
     0
281
     1
  3
ACAD_GROUP
350
1A
  3
ACAD_MLINESTYLE
350
1B
  3
ACAD_LAYOUT
350
1E
  3
ACAD_PLOTSETTINGS
350
22
  3
ACAD_PLOTSTYLENAME
350
1F
  0
DICTIONARY
  5
1A
102
{ACAD_REACTORS
330
19
102
}
100
AcDbDictionary
280
     0
281
     1
  0
DICTIONARY
  5
1B
102
{ACAD_REACTORS
330
19
102
}
100
AcDbDictionary
280
     0
281
     1
  3
Standard
350
1C
  0
MLINESTYLE
  5
1C
102
{ACAD_REACTORS
330
1B
102
}
100
AcDbMlineStyle
  2
Standard
 70
     0
  3

 62
     0
 51
90.0
 52
90.0
 71
     2
 49
0.5
 62
   256
  6
ByLayer
 49
-0.5
 62
   256
  6
ByLayer
  0
ACDBDICTIONARYWDFLT
  5
1F
102
{ACAD_REACTORS
330
19
102
}
100
AcDbDictionary
281
     1
  3
Normal
350
1D
100
AcDbDictionaryWithDefault
340
1D
  0
ACDBPLACEHOLDER
  5
1D
102
{ACAD_REACTORS
330
1F
102
}
  0
LAYOUT
  5
20
102
{ACAD_REACTORS
330
1E
102
}
100
AcDbPlotSettings
  1

  2

  4

  6

 40
0.0
 41
0.0
 42
0.0
 43
0.0
 44
0.0
 45
0.0
 46
0.0
 47
0.0
 48
0.0
 49
0.0
140
0.0
141
0.0
142
1.0
143
1.0
 70
  1024
 72
     0
 73
     0
 74
     0
  7

 75
     0
147
1.0
148
0.0
149
0.0
100
AcDbLayout
  1
Model
 70
     0
 71
     0
 10
0.0
 20
0.0
 11
0.0
 21
0.0
 12
0.0
 22
0.0
 32
0.0
 14
0.0
 24
0.0
 34
0.0
 15
0.0
 25
0.0
 35
0.0
146
0.0
 13
0.0
 23
0.0
 33
0.0
 16
0.0
 26
0.0
 36
0.0
 17
0.0
 27
0.0
 37
0.0
 76
     0
330
A
331
0
345
0
346
0
  0
LAYOUT
  5
21
102
{ACAD_REACTORS
330
1E
102
}
100
AcDbPlotSettings
  1

  2

  4

  6

 40
0.0
 41
0.0
 42
0.0
 43
0.0
 44
0.0
 45
0.0
 46
0.0
 47
0.0
 48
0.0
 49
0.0
140
0.0
141
0.0
142
1.0
143
1.0
 70
     0
 72
     0
 73
     0
 74
     0
  7

 75
     0
147
1.0
148
0.0
149
0.0
100
AcDbLayout
  1
Layout1
 70
     0
 71
     0
 10
0.0
 20
0.0
 11
0.0
 21
0.0
 12
0.0
 22
0.0
 32
0.0
 14
0.0
 24
0.0
 34
0.0
 15
0.0
 25
0.0
 35
0.0
146
0.0
 13
0.0
 23
0.0
 33
0.0
 16
0.0
 26
0.0
 36
0.0
 17
0.0
 27
0.0
 37
0.0
 76
     0
330
B
331
0
345
0
346
0
  0
DICTIONARY
  5
1E
102
{ACAD_REACTORS
330
19
102
}
100
AcDbDictionary
280
     0
281
     1
  3
Layout1
350
21
  3
Model
350
20
  0
DICTIONARY
  5
22
102
{ACAD_REACTORS
330
19
102
}
100
AcDbDictionary
280
     0
281
     1
  0
ENDSEC
  0
EOF
