  0
SECTION
  2
HEADER
  9
$ACADVER
  1
AC1015
  9
$ACADMAINTVER
 70
    10
  9
$DWGCODEPAGE
  3
ANSI_932
  9
$INSBASE
 10
0.0
 20
0.0
 30
0.0
  9
$EXTMIN
 10
-270.9577654816287
 20
-200.6359447622412
 30
-0.0015258207003583
  9
$EXTMAX
 10
113.1517222701686
 20
220.8129435040493
 30
0.0000000349246037
  9
$LIMMIN
 10
-270.946045
 20
-200.6229999999999
  9
$LIMMAX
 10
113.1399999999999
 20
223.583333
  9
$ORTHOMODE
 70
     0
  9
$REGENMODE
 70
     1
  9
$FILLMODE
 70
     1
  9
$QTEXTMODE
 70
     0
  9
$MIRRTEXT
 70
     1
  9
$LTSCALE
 40
0.3
  9
$ATTMODE
 70
     1
  9
$TEXTSIZE
 40
3.2
  9
$TRACEWID
 40
0.05
  9
$TEXTSTYLE
  7
MX_NOTE_STANDARD
  9
$CLAYER
  8
0
  9
$CELTYPE
  6
CONTINUOUS
  9
$CECOLOR
 62
   256
  9
$CELTSCALE
 40
1.0
  9
$DISPSILH
 70
     0
  9
$DIMSCALE
 40
1.0
  9
$DIMASZ
 40
2.5
  9
$DIMEXO
 40
2.54
  9
$DIMDLI
 40
3.75
  9
$DIMRND
 40
0.0
  9
$DIMDLE
 40
0.0
  9
$DIMEXE
 40
2.286
  9
$DIMTP
 40
0.0
  9
$DIMTM
 40
0.0
  9
$DIMTXT
 40
3.2
  9
$DIMCEN
 40
2.5
  9
$DIMTSZ
 40
0.0
  9
$DIMTOL
 70
     0
  9
$DIMLIM
 70
     0
  9
$DIMTIH
 70
     0
  9
$DIMTOH
 70
     0
  9
$DIMSE1
 70
     0
  9
$DIMSE2
 70
     0
  9
$DIMTAD
 70
     1
  9
$DIMZIN
 70
     8
  9
$DIMBLK
  1

  9
$DIMASO
 70
     1
  9
$DIMSHO
 70
     1
  9
$DIMPOST
  1

  9
$DIMAPOST
  1

  9
$DIMALT
 70
     0
  9
$DIMALTD
 70
     4
  9
$DIMALTF
 40
0.03937
  9
$DIMLFAC
 40
1.0
  9
$DIMTOFL
 70
     1
  9
$DIMTVP
 40
0.0
  9
$DIMTIX
 70
     0
  9
$DIMSOXD
 70
     0
  9
$DIMSAH
 70
     1
  9
$DIMBLK1
  1
OPEN30
  9
$DIMBLK2
  1
OPEN30
  9
$DIMSTYLE
  2
MXDIMSTYLE
  9
$DIMCLRD
 70
     0
  9
$DIMCLRE
 70
     0
  9
$DIMCLRT
 70
     0
  9
$DIMTFAC
 40
1.0
  9
$DIMGAP
 40
1.0
  9
$DIMJUST
 70
     0
  9
$DIMSD1
 70
     0
  9
$DIMSD2
 70
     0
  9
$DIMTOLJ
 70
     0
  9
$DIMTZIN
 70
     0
  9
$DIMALTZ
 70
     0
  9
$DIMALTTZ
 70
     0
  9
$DIMUPT
 70
     1
  9
$DIMDEC
 70
     2
  9
$DIMTDEC
 70
     2
  9
$DIMALTU
 70
     2
  9
$DIMALTTD
 70
     4
  9
$DIMTXSTY
  7
MX_NOTE_STANDARD
  9
$DIMAUNIT
 70
     0
  9
$DIMADEC
 70
     0
  9
$DIMALTRND
 40
0.0
  9
$DIMAZIN
 70
     0
  9
$DIMDSEP
 70
    46
  9
$DIMATFIT
 70
     3
  9
$DIMFRAC
 70
     0
  9
$DIMLDRBLK
  1
OPEN30
  9
$DIMLUNIT
 70
     2
  9
$DIMLWD
 70
    -2
  9
$DIMLWE
 70
    -2
  9
$DIMTMOVE
 70
     0
  9
$LUNITS
 70
     2
  9
$LUPREC
 70
     4
  9
$SKETCHINC
 40
0.1
  9
$FILLETRAD
 40
0.0
  9
$AUNITS
 70
     0
  9
$AUPREC
 70
     0
  9
$MENU
  1
acad
  9
$ELEVATION
 40
0.0
  9
$PELEVATION
 40
0.0
  9
$THICKNESS
 40
0.0
  9
$LIMCHECK
 70
     0
  9
$CHAMFERA
 40
0.0
  9
$CHAMFERB
 40
0.0
  9
$CHAMFERC
 40
0.0
  9
$CHAMFERD
 40
0.0
  9
$SKPOLY
 70
     0
  9
$TDCREATE
 40
2455289.437562465
  9
$TDUCREATE
 40
2455289.062562465
  9
$TDUPDATE
 40
2455289.447546550
  9
$TDUUPDATE
 40
2455289.072546551
  9
$TDINDWG
 40
0.0099848148
  9
$TDUSRTIMER
 40
0.0099848148
  9
$USRTIMER
 70
     1
  9
$ANGBASE
 50
0.0
  9
$ANGDIR
 70
     0
  9
$PDMODE
 70
     0
  9
$PDSIZE
 40
0.0
  9
$PLINEWID
 40
0.0
  9
$SPLFRAME
 70
     0
  9
$SPLINETYPE
 70
     6
  9
$SPLINESEGS
 70
     8
  9
$HANDSEED
  5
3E4
  9
$SURFTAB1
 70
     6
  9
$SURFTAB2
 70
     6
  9
$SURFTYPE
 70
     6
  9
$SURFU
 70
     6
  9
$SURFV
 70
     6
  9
$UCSBASE
  2

  9
$UCSNAME
  2

  9
$UCSORG
 10
0.0
 20
0.0
 30
0.0
  9
$UCSXDIR
 10
1.0
 20
0.0
 30
0.0
  9
$UCSYDIR
 10
0.0
 20
1.0
 30
0.0
  9
$UCSORTHOREF
  2

  9
$UCSORTHOVIEW
 70
     0
  9
$UCSORGTOP
 10
0.0
 20
0.0
 30
0.0
  9
$UCSORGBOTTOM
 10
0.0
 20
0.0
 30
0.0
  9
$UCSORGLEFT
 10
0.0
 20
0.0
 30
0.0
  9
$UCSORGRIGHT
 10
0.0
 20
0.0
 30
0.0
  9
$UCSORGFRONT
 10
0.0
 20
0.0
 30
0.0
  9
$UCSORGBACK
 10
0.0
 20
0.0
 30
0.0
  9
$PUCSBASE
  2

  9
$PUCSNAME
  2

  9
$PUCSORG
 10
0.0
 20
0.0
 30
0.0
  9
$PUCSXDIR
 10
1.0
 20
0.0
 30
0.0
  9
$PUCSYDIR
 10
0.0
 20
1.0
 30
0.0
  9
$PUCSORTHOREF
  2

  9
$PUCSORTHOVIEW
 70
     0
  9
$PUCSORGTOP
 10
0.0
 20
0.0
 30
0.0
  9
$PUCSORGBOTTOM
 10
0.0
 20
0.0
 30
0.0
  9
$PUCSORGLEFT
 10
0.0
 20
0.0
 30
0.0
  9
$PUCSORGRIGHT
 10
0.0
 20
0.0
 30
0.0
  9
$PUCSORGFRONT
 10
0.0
 20
0.0
 30
0.0
  9
$PUCSORGBACK
 10
0.0
 20
0.0
 30
0.0
  9
$USERI1
 70
     0
  9
$USERI2
 70
     0
  9
$USERI3
 70
     0
  9
$USERI4
 70
     0
  9
$USERI5
 70
     0
  9
$USERR1
 40
0.0
  9
$USERR2
 40
0.0
  9
$USERR3
 40
0.0
  9
$USERR4
 40
0.0
  9
$USERR5
 40
0.0
  9
$WORLDVIEW
 70
     1
  9
$SHADEDGE
 70
     3
  9
$SHADEDIF
 70
    70
  9
$TILEMODE
 70
     1
  9
$MAXACTVP
 70
    16
  9
$PINSBASE
 10
0.0
 20
0.0
 30
0.0
  9
$PLIMCHECK
 70
     0
  9
$PEXTMIN
 10
1.000000000000000E+20
 20
1.000000000000000E+20
 30
1.000000000000000E+20
  9
$PEXTMAX
 10
-1.000000000000000E+20
 20
-1.000000000000000E+20
 30
-1.000000000000000E+20
  9
$PLIMMIN
 10
0.0
 20
0.0
  9
$PLIMMAX
 10
12.0
 20
9.0
  9
$UNITMODE
 70
     0
  9
$VISRETAIN
 70
     0
  9
$PLINEGEN
 70
     1
  9
$PSLTSCALE
 70
     0
  9
$TREEDEPTH
 70
  3020
  9
$CMLSTYLE
  2
Standard
  9
$CMLJUST
 70
     0
  9
$CMLSCALE
 40
1.0
  9
$PROXYGRAPHICS
 70
     0
  9
$MEASUREMENT
 70
     1
  9
$CELWEIGHT
370
     0
  9
$ENDCAPS
280
     0
  9
$JOINSTYLE
280
     0
  9
$LWDISPLAY
290
     0
  9
$INSUNITS
 70
     0
  9
$HYPERLINKBASE
  1

  9
$STYLESHEET
  1

  9
$XEDIT
290
     1
  9
$CEPSNTYPE
380
     0
  9
$PSTYLEMODE
290
     1
  9
$FINGERPRINTGUID
  2

  9
$VERSIONGUID
  2
{7966B5BF-F095-414C-B78A-A2F0BB54166C}
  9
$EXTNAMES
290
     1
  9
$PSVPSCALE
 40
0.0
  9
$OLESTARTUP
290
     0
  0
ENDSEC
  0
SECTION
  2
CLASSES
  0
CLASS
  1
LWPOLYLINE
  2
AcDbPolyline
  3
AutoCAD 2000
 90
    32768
280
     0
281
     1
  0
CLASS
  1
IMAGE
  2
AcDbRasterImage
  3
ISM
 90
    32895
280
     0
281
     1
  0
CLASS
  1
OLE2FRAME
  2
AcDbOle2Frame
  3
AutoCAD 2000
 90
    32768
280
     0
281
     1
  0
CLASS
  1
HATCH
  2
AcDbHatch
  3
AutoCAD 2000
 90
    32768
280
     0
281
     1
  0
CLASS
  1
DICTIONARYVAR
  2
AcDbDictionaryVar
  3
AutoCAD 2000
 90
    32768
280
     0
281
     0
  0
CLASS
  1
RASTERVARIABLES
  2
AcDbRasterVariables
  3
ISM
 90
    32768
280
     0
281
     0
  0
CLASS
  1
IMAGEDEF
  2
AcDbRasterImageDef
  3
ISM
 90
    32768
280
     0
281
     0
  0
CLASS
  1
IMAGEDEF_REACTOR
  2
AcDbRasterImageDefReactor
  3
ISM
 90
    32769
280
     0
281
     0
  0
CLASS
  1
IDBUFFER
  2
AcDbIdBuffer
  3
AutoCAD 2000
 90
    32768
280
     0
281
     0
  0
CLASS
  1
SPATIAL_FILTER
  2
AcDbSpatialFilter
  3
AutoCAD 2000
 90
    32768
280
     0
281
     0
  0
CLASS
  1
XRECORD
  2
AcDbXrecord
  3
AutoCAD 2000
 90
    32768
280
     0
281
     0
  0
CLASS
  1
SORTENTSTABLE
  2
AcDbSortentsTable
  3
AutoCAD 2000
 90
    32768
280
     0
281
     0
  0
CLASS
  1
LAYER_INDEX
  2
AcDbLayerIndex
  3
AutoCAD 2000
 90
    32768
280
     0
281
     0
  0
CLASS
  1
SPATIAL_INDEX
  2
AcDbSpatialIndex
  3
AutoCAD 2000
 90
    32768
280
     0
281
     0
  0
CLASS
  1
OBJECT_PTR
  2
CAseDLPNTableRecord
  3
"ASE-LPNTableRecord"
 90
    32769
280
     0
281
     0
  0
CLASS
  1
LAYOUT
  2
AcDbLayout
  3
AutoCAD 2000
 90
        0
280
     0
281
     0
  0
CLASS
  1
PLOTSETTINGS
  2
AcDbPlotSettings
  3
AutoCAD 2000
 90
    32768
280
     0
281
     0
  0
CLASS
  1
ACDBDICTIONARYWDFLT
  2
AcDbDictionaryWithDefault
  3
AutoCAD 2000
 90
        0
280
     0
281
     0
  0
CLASS
  1
ACDBPLACEHOLDER
  2
AcDbPlaceHolder
  3
AutoCAD 2000
 90
        0
280
     0
281
     0
  0
ENDSEC
  0
SECTION
  2
TABLES
  0
TABLE
  2
VPORT
  5
7
330
0
100
AcDbSymbolTable
 70
     2
  0
VPORT
  5
3E3
330
7
100
AcDbSymbolTableRecord
100
AcDbViewportTableRecord
  2
*Active
 70
     0
 10
0.0
 20
0.0
 11
1.0
 21
1.0
 12
-12.46636943582973
 22
-46.92553921347331
 13
0.0
 23
0.0
 14
1.0
 24
1.0
 15
0.0
 25
0.0
 16
0.0
 26
0.0
 36
1.0
 17
0.0
 27
0.0
 37
0.0
 40
555.1825005772567
 41
1.535714285714285
 42
50.0
 43
0.0
 44
0.0
 50
0.0
 51
0.0
 71
     0
 72
   100
 73
     1
 74
     1
 75
     0
 76
     0
 77
     0
 78
     0
281
     0
 65
     0
110
0.0
120
0.0
130
0.0
111
1.0
121
0.0
131
0.0
112
0.0
122
1.0
132
0.0
 79
     0
146
0.0
  0
ENDTAB
  0
TABLE
  2
LTYPE
  5
4
330
0
100
AcDbSymbolTable
 70
     4
  0
LTYPE
  5
11
330
4
100
AcDbSymbolTableRecord
100
AcDbLinetypeTableRecord
  2
BYBLOCK
 70
     0
  3

 72
    65
 73
     0
 40
0.0
  0
LTYPE
  5
12
330
4
100
AcDbSymbolTableRecord
100
AcDbLinetypeTableRecord
  2
BYLAYER
 70
     0
  3

 72
    65
 73
     0
 40
0.0
  0
LTYPE
  5
13
330
4
100
AcDbSymbolTableRecord
100
AcDbLinetypeTableRecord
  2
CONTINUOUS
 70
     0
  3
Solid line
 72
    65
 73
     0
 40
0.0
  0
LTYPE
  5
3C
330
4
100
AcDbSymbolTableRecord
100
AcDbLinetypeTableRecord
  2
CENTER
 70
     0
  3
Center ____ _ ____ _ ____ _ ____ _ ____ _ ____
 72
    65
 73
     4
 40
50.8
 49
31.75
 74
     0
 49
-6.349999999999999
 74
     0
 49
6.349999999999999
 74
     0
 49
-6.349999999999999
 74
     0
  0
LTYPE
  5
336
330
4
100
AcDbSymbolTableRecord
100
AcDbLinetypeTableRecord
  2
PHANTOM
 70
     0
  3
Phantom ______  __  __  ______  __  __  ______
 72
    65
 73
     6
 40
63.5
 49
31.75
 74
     0
 49
-6.349999999999999
 74
     0
 49
6.349999999999999
 74
     0
 49
-6.349999999999999
 74
     0
 49
6.349999999999999
 74
     0
 49
-6.349999999999999
 74
     0
  0
LTYPE
  5
38E
330
4
100
AcDbSymbolTableRecord
100
AcDbLinetypeTableRecord
  2
DASHED
 70
     0
  3
Dashed __ __ __ __ __ __ __ __ __ __ __ __ __ _
 72
    65
 73
     2
 40
19.05
 49
12.7
 74
     0
 49
-6.349999999999999
 74
     0
  0
ENDTAB
  0
TABLE
  2
LAYER
  5
2
330
0
100
AcDbSymbolTable
 70
     5
  0
LAYER
  5
14
330
2
100
AcDbSymbolTableRecord
100
AcDbLayerTableRecord
  2
0
 70
     0
 62
     7
  6
CONTINUOUS
370
    -3
390
1D
  0
LAYER
  5
23
330
2
100
AcDbSymbolTableRecord
100
AcDbLayerTableRecord
  2
AV
 70
     0
 62
     7
  6
CONTINUOUS
370
    -3
390
1D
  0
LAYER
  5
24
330
2
100
AcDbSymbolTableRecord
100
AcDbLayerTableRecord
  2
DEFPOINTS
 70
     0
 62
     7
  6
CONTINUOUS
290
     0
370
    -3
390
1D
  0
LAYER
  5
25
330
2
100
AcDbSymbolTableRecord
100
AcDbLayerTableRecord
  2
PV
 70
     0
 62
     7
  6
CONTINUOUS
370
    -3
390
1D
  0
LAYER
  5
26
330
2
100
AcDbSymbolTableRecord
100
AcDbLayerTableRecord
  2
WV
 70
     0
 62
     7
  6
CONTINUOUS
370
    -3
390
1D
  0
ENDTAB
  0
TABLE
  2
STYLE
  5
3
330
0
100
AcDbSymbolTable
 70
     2
  0
STYLE
  5
17
330
3
100
AcDbSymbolTableRecord
100
AcDbTextStyleTableRecord
  2
MX_NOTE_STANDARD
 70
     0
 40
0.0
 41
1.0
 50
0.0
 71
     0
 42
3.2
  3
txt.shx
  4
extfont.shx
  0
STYLE
  5
3DF
330
3
100
AcDbSymbolTableRecord
100
AcDbTextStyleTableRecord
  2
Standard
 70
     0
 40
0.0
 41
1.0
 50
0.0
 71
     0
 42
0.2
  3

  4

  0
ENDTAB
  0
TABLE
  2
VIEW
  5
5
330
0
100
AcDbSymbolTable
 70
     0
  0
ENDTAB
  0
TABLE
  2
UCS
  5
6
330
0
100
AcDbSymbolTable
 70
     0
  0
ENDTAB
  0
TABLE
  2
APPID
  5
8
330
0
100
AcDbSymbolTable
 70
     1
  0
APPID
  5
16
330
8
100
AcDbSymbolTableRecord
100
AcDbRegAppTableRecord
  2
ACAD
 70
     0
  0
ENDTAB
  0
TABLE
  2
DIMSTYLE
  5
9
330
0
100
AcDbSymbolTable
 70
     1
100
AcDbDimStyleTable
 71
     0
  0
DIMSTYLE
105
18
102
{ACAD_REACTORS
330
3B
102
}
330
9
100
AcDbSymbolTableRecord
100
AcDbDimStyleTableRecord
  2
MXDIMSTYLE
 70
     0
 41
2.5
 42
2.54
 43
3.75
 44
2.286
 73
     0
 74
     0
 77
     1
 78
     8
140
3.2
141
2.5
143
0.03937
147
1.0
171
     4
172
     1
173
     1
271
     2
272
     2
274
     4
283
     0
288
     1
340
17
341
27
343
27
344
27
  0
ENDTAB
  0
TABLE
  2
BLOCK_RECORD
  5
1
330
0
100
AcDbSymbolTable
 70
     3
  0
BLOCK_RECORD
  5
A
330
1
100
AcDbSymbolTableRecord
100
AcDbBlockTableRecord
  2
*MODEL_SPACE
340
20
  0
BLOCK_RECORD
  5
B
330
1
100
AcDbSymbolTableRecord
100
AcDbBlockTableRecord
  2
*PAPER_SPACE
340
21
  0
BLOCK_RECORD
  5
27
330
1
100
AcDbSymbolTableRecord
100
AcDbBlockTableRecord
  2
_OPEN30
340
0
102
{BLKREFS
331
32
102
}
  0
BLOCK_RECORD
  5
2D
330
1
100
AcDbSymbolTableRecord
100
AcDbBlockTableRecord
  2
*D1
340
0
  0
BLOCK_RECORD
  5
33
330
1
100
AcDbSymbolTableRecord
100
AcDbBlockTableRecord
  2
_NONE
340
0
  0
ENDTAB
  0
ENDSEC
  0
SECTION
  2
BLOCKS
  0
BLOCK
  5
D
330
A
100
AcDbEntity
  8
0
100
AcDbBlockBegin
  2
*MODEL_SPACE
 70
     0
 10
0.0
 20
0.0
 30
0.0
  3
*MODEL_SPACE
  1

  0
ENDBLK
  5
E
330
A
100
AcDbEntity
  8
0
100
AcDbBlockEnd
  0
BLOCK
  5
F
330
B
100
AcDbEntity
 67
     1
  8
0
100
AcDbBlockBegin
  2
*PAPER_SPACE
 70
     0
 10
0.0
 20
0.0
 30
0.0
  3
*PAPER_SPACE
  1

  0
ENDBLK
  5
10
330
B
100
AcDbEntity
 67
     1
  8
0
100
AcDbBlockEnd
  0
BLOCK
  5
28
330
27
100
AcDbEntity
  8
0
  6
ByBlock
 62
     0
370
    -2
100
AcDbBlockBegin
  2
_OPEN30
 70
     2
 10
0.0
 20
0.0
 30
0.0
  3
_OPEN30
  1

  0
LINE
  5
29
330
27
100
AcDbEntity
  8
0
  6
ByBlock
 62
     0
370
    -2
100
AcDbLine
 10
-1.0
 20
0.267949
 30
0.0
 11
0.0
 21
0.0
 31
0.0
  0
LINE
  5
2A
330
27
100
AcDbEntity
  8
0
  6
ByBlock
 62
     0
370
    -2
100
AcDbLine
 10
0.0
 20
0.0
 30
0.0
 11
-1.0
 21
-0.267949
 31
0.0
  0
LINE
  5
2B
330
27
100
AcDbEntity
  8
0
  6
ByBlock
 62
     0
370
    -2
100
AcDbLine
 10
0.0
 20
0.0
 30
0.0
 11
-1.0
 21
0.0
 31
0.0
  0
ENDBLK
  5
2C
330
27
100
AcDbEntity
  8
0
  6
ByBlock
 62
     0
370
    -2
100
AcDbBlockEnd
  0
BLOCK
  5
2E
330
2D
100
AcDbEntity
  8
0
  6
ByBlock
 62
     0
370
    -2
100
AcDbBlockBegin
  2
*D1
 70
     1
 10
0.0
 20
0.0
 30
0.0
  3
*D1
  1

  0
LINE
  5
2F
330
2D
100
AcDbEntity
  8
0
  6
Continuous
 62
     7
100
AcDbLine
 10
-159.2218179999999
 20
179.887721
 30
0.0
 11
-177.791906
 21
191.7706969999999
 31
0.0
  0
LINE
  5
30
330
2D
100
AcDbEntity
  8
0
  6
Continuous
 62
     7
100
AcDbLine
 10
-177.791906
 20
191.7706969999999
 30
0.0
 11
-270.946045
 21
191.7706969999999
 31
0.0
  0
LINE
  5
31
330
2D
100
AcDbEntity
  8
0
  6
Continuous
 62
     7
100
AcDbLine
 10
-159.2218179999999
 20
179.887721
 30
0.0
 11
-164.570487
 21
183.3103279999999
 31
0.0
  0
INSERT
  5
32
330
2D
100
AcDbEntity
  8
0
  6
Continuous
 62
     7
100
AcDbBlockReference
  2
_OPEN30
 10
-159.2218179999999
 20
179.887721
 30
0.0
 41
2.77
 42
2.77
 43
2.77
 50
327.3848729999999
  0
MTEXT
  5
37
330
2D
100
AcDbEntity
  8
0
  6
Continuous
 62
     7
100
AcDbMText
 10
-222.506044
 20
196.970697
 30
0.0
 40
8.4
 41
0.0
 71
     5
 72
     1
  1
\A1;8-8.5キリ（等配）
 73
     1
 44
0.9
  0
POINT
  5
38
330
2D
100
AcDbEntity
  8
DEFPOINTS
  6
Continuous
 62
     0
100
AcDbPoint
 10
-159.2218179999999
 20
179.887721
 30
0.0
  0
POINT
  5
39
330
2D
100
AcDbEntity
  8
DEFPOINTS
  6
Continuous
 62
     0
100
AcDbPoint
 10
-152.062182
 20
175.306279
 30
0.0
  0
ENDBLK
  5
3A
330
2D
100
AcDbEntity
  8
0
  6
ByBlock
 62
     0
370
    -2
100
AcDbBlockEnd
  0
BLOCK
  5
34
330
33
100
AcDbEntity
  8
0
  6
ByBlock
 62
     0
370
    -2
100
AcDbBlockBegin
  2
_NONE
 70
     2
 10
0.0
 20
0.0
 30
0.0
  3
_NONE
  1

  0
CIRCLE
  5
35
330
33
100
AcDbEntity
  8
0
  6
ByBlock
 62
     0
370
    -2
100
AcDbCircle
 10
0.0
 20
0.0
 30
0.0
 40
0.25
  0
ENDBLK
  5
36
330
33
100
AcDbEntity
  8
0
  6
ByBlock
 62
     0
370
    -2
100
AcDbBlockEnd
  0
ENDSEC
  0
SECTION
  2
ENTITIES
  0
DIMENSION
  5
3B
330
A
100
AcDbEntity
  8
0
  6
Continuous
 62
     7
100
AcDbDimension
  2
*D1
 10
-152.062182
 20
175.306279
 30
0.0
 11
-222.506044
 21
191.7706969999999
 31
0.0
 70
   131
  1
8-<>
 71
     5
 41
0.9
 42
8.5
  3
MXDIMSTYLE
100
AcDbDiametricDimension
 15
-159.2218179999999
 25
179.887721
 35
0.0
 40
0.0
1001
ACAD
1000
DSTYLE
1002
{
1070
     6
1000
_NONE
1070
    41
1040
2.77
1070
    73
1070
     1
1070
    74
1070
     1
1070
   140
1040
8.4
1070
   141
1040
0.0
1070
   172
1070
     0
1070
   271
1070
     1
1070
   284
1070
     8
1070
   343
1005
33
1002
}
  0
LINE
  5
3D
330
A
100
AcDbEntity
  8
PV
  6
CENTER
 62
     7
100
AcDbLine
 10
-134.6289999999999
 20
135.006
 30
0.0
 11
-191.714
 21
135.006
 31
0.0
  0
LINE
  5
3E
330
A
100
AcDbEntity
  8
PV
  6
CENTER
 62
     7
100
AcDbLine
 10
-152.553
 20
170.1399999999999
 30
0.0
 11
-159.2079999999999
 21
186.2069999999999
 31
0.0
  0
LINE
  5
3F
330
A
100
AcDbEntity
  8
PV
  6
CENTER
 62
     7
100
AcDbLine
 10
-138.0
 20
191.3129999999999
 30
0.0
 11
-138.0
 21
79.587
 31
0.0
  0
LINE
  5
40
330
A
100
AcDbEntity
  8
PV
  6
CENTER
 62
     7
100
AcDbLine
 10
-152.553
 20
99.87299999999999
 30
0.0
 11
-159.2079999999999
 21
83.80500000000001
 31
0.0
  0
LINE
  5
41
330
A
100
AcDbEntity
  8
PV
  6
CENTER
 62
     7
100
AcDbLine
 10
-173.1329999999999
 20
120.4539999999999
 30
0.0
 11
-189.2009999999999
 21
113.7979999999999
 31
0.0
  0
LINE
  5
42
330
A
100
AcDbEntity
  8
PV
  6
CENTER
 62
     7
100
AcDbLine
 10
-173.1329999999999
 20
149.5589999999999
 30
0.0
 11
-189.2009999999999
 21
156.214
 31
0.0
  0
ARC
  5
43
330
A
100
AcDbEntity
  8
PV
  6
CENTER
 62
     7
100
AcDbCircle
 10
-138.0
 20
135.006
 30
0.0
 40
46.1
100
AcDbArc
 50
89.99999499999999
 51
270.0
  0
CIRCLE
  5
44
330
A
100
AcDbEntity
  8
PV
  6
Continuous
 62
     7
100
AcDbCircle
 10
-155.6419999999999
 20
177.597
 30
0.0
 40
4.25
  0
CIRCLE
  5
45
330
A
100
AcDbEntity
  8
PV
  6
Continuous
 62
     7
100
AcDbCircle
 10
-155.6419999999999
 20
92.416
 30
0.0
 40
4.25
  0
CIRCLE
  5
46
330
A
100
AcDbEntity
  8
PV
  6
Continuous
 62
     7
100
AcDbCircle
 10
-180.5909999999999
 20
117.365
 30
0.0
 40
4.25
  0
CIRCLE
  5
47
330
A
100
AcDbEntity
  8
PV
  6
Continuous
 62
     7
100
AcDbCircle
 10
-180.5909999999999
 20
152.648
 30
0.0
 40
4.25
  0
LINE
  5
48
330
A
100
AcDbEntity
  8
PV
  6
Continuous
 62
     7
100
AcDbLine
 10
-164.1929999999999
 20
101.35
 30
0.0
 11
-167.0979999999999
 21
99.25
 31
0.0
  0
LINE
  5
49
330
A
100
AcDbEntity
  8
PV
  6
Continuous
 62
     7
100
AcDbLine
 10
-167.0979999999999
 20
99.25
 30
0.0
 11
-165.632
 21
102.5209999999999
 31
0.0
  0
LINE
  5
4A
330
A
100
AcDbEntity
  8
PV
  6
Continuous
 62
     7
100
AcDbLine
 10
-167.0979999999999
 20
99.25
 30
0.0
 11
-164.912
 21
101.936
 31
0.0
  0
LINE
  5
4B
330
A
100
AcDbEntity
  8
PV
  6
Continuous
 62
     7
100
AcDbLine
 10
-136.267
 20
137.1359999999999
 30
0.0
 11
-167.0979999999999
 21
99.25
 31
0.0
  0
LINE
  5
4C
330
A
100
AcDbEntity
  8
PV
  6
Continuous
 62
     7
100
AcDbLine
 10
-167.0979999999999
 20
99.25
 30
0.0
 11
-204.1857559999999
 21
53.675042
 31
0.0
  0
MTEXT
  5
4D
330
A
100
AcDbEntity
  8
PV
  6
Continuous
 62
     7
100
AcDbMText
 10
-196.0212459999999
 20
85.057328
 30
0.0
 40
8.4
 41
0.0
 71
     2
 72
     1
  1
\A1;PCD 92.2
 11
0.631190122929338
 21
0.7756281510598022
 31
0.0
 73
     1
 44
1.0
  0
POINT
  5
4E
330
A
100
AcDbEntity
  8
PV
  6
Continuous
 62
     7
100
AcDbPoint
 10
-167.0979999999999
 20
99.25
 30
0.0
  0
POINT
  5
4F
330
A
100
AcDbEntity
  8
PV
  6
Continuous
 62
     7
100
AcDbPoint
 10
-136.267
 20
137.1359999999999
 30
0.0
  0
LINE
  5
50
330
A
100
AcDbEntity
  8
PV
  6
Continuous
 62
     7
100
AcDbLine
 10
56.288
 20
-179.8659999999999
 30
0.0
 11
59.75
 21
-180.794
 31
0.0
  0
LINE
  5
51
330
A
100
AcDbEntity
  8
PV
  6
Continuous
 62
     7
100
AcDbLine
 10
59.75
 20
-180.794
 30
0.0
 11
56.288
 21
-181.7209999999999
 31
0.0
  0
LINE
  5
52
330
A
100
AcDbEntity
  8
PV
  6
Continuous
 62
     7
100
AcDbLine
 10
59.75
 20
-180.794
 30
0.0
 11
56.288
 21
-180.794
 31
0.0
  0
LINE
  5
53
330
A
100
AcDbEntity
  8
PV
  6
Continuous
 62
     7
100
AcDbLine
 10
-50.287
 20
-181.7209999999999
 30
0.0
 11
-53.75
 21
-180.794
 31
0.0
  0
LINE
  5
54
330
A
100
AcDbEntity
  8
PV
  6
Continuous
 62
     7
100
AcDbLine
 10
-53.75
 20
-180.794
 30
0.0
 11
-50.287
 21
-179.8659999999999
 31
0.0
  0
LINE
  5
55
330
A
100
AcDbEntity
  8
PV
  6
Continuous
 62
     7
100
AcDbLine
 10
-53.75
 20
-180.794
 30
0.0
 11
-50.287
 21
-180.794
 31
0.0
  0
LINE
  5
56
330
A
100
AcDbEntity
  8
PV
  6
Continuous
 62
     7
100
AcDbLine
 10
59.75
 20
-180.794
 30
0.0
 11
-53.75
 21
-180.794
 31
0.0
  0
LINE
  5
57
330
A
100
AcDbEntity
  8
PV
  6
Continuous
 62
     7
100
AcDbLine
 10
59.75
 20
-168.9794027558532
 30
0.0
 11
59.75
 21
-183.6509999999999
 31
0.0
  0
LINE
  5
58
330
A
100
AcDbEntity
  8
PV
  6
Continuous
 62
     7
100
AcDbLine
 10
-53.75
 20
-168.9794027558532
 30
0.0
 11
-53.75
 21
-183.6509999999999
 31
0.0
  0
MTEXT
  5
59
330
A
100
AcDbEntity
  8
PV
  6
Continuous
 62
     7
100
AcDbMText
 10
25.703
 20
-170.0106669999999
 30
0.0
 40
8.4
 41
0.0
 71
     2
 72
     1
  1
\A1;\U+2205113.5
 73
     1
 44
1.0
  0
POINT
  5
5A
330
A
100
AcDbEntity
  8
PV
  6
Continuous
 62
     7
100
AcDbPoint
 10
59.75
 20
-165.7
 30
0.0
  0
POINT
  5
5B
330
A
100
AcDbEntity
  8
PV
  6
Continuous
 62
     7
100
AcDbPoint
 10
-53.75
 20
-165.7
 30
0.0
  0
POINT
  5
5C
330
A
100
AcDbEntity
  8
PV
  6
Continuous
 62
     7
100
AcDbPoint
 10
-53.75
 20
-180.794
 30
0.0
  0
LINE
  5
5D
330
A
100
AcDbEntity
  8
PV
  6
Continuous
 62
     7
100
AcDbLine
 10
-78.53799999999999
 20
209.072
 30
0.0
 11
-82.0
 21
210.0
 31
0.0
  0
LINE
  5
5E
330
A
100
AcDbEntity
  8
PV
  6
Continuous
 62
     7
100
AcDbLine
 10
-82.0
 20
210.0
 30
0.0
 11
-78.53799999999999
 21
210.928
 31
0.0
  0
LINE
  5
5F
330
A
100
AcDbEntity
  8
PV
  6
Continuous
 62
     7
100
AcDbLine
 10
-82.0
 20
210.0
 30
0.0
 11
-78.53799999999999
 21
210.0
 31
0.0
  0
LINE
  5
60
330
A
100
AcDbEntity
  8
PV
  6
Continuous
 62
     7
100
AcDbLine
 10
45.538
 20
210.928
 30
0.0
 11
49.0
 21
210.0
 31
0.0
  0
LINE
  5
61
330
A
100
AcDbEntity
  8
PV
  6
Continuous
 62
     7
100
AcDbLine
 10
49.0
 20
210.0
 30
0.0
 11
45.538
 21
209.072
 31
0.0
  0
LINE
  5
62
330
A
100
AcDbEntity
  8
PV
  6
Continuous
 62
     7
100
AcDbLine
 10
49.0
 20
210.0
 30
0.0
 11
45.538
 21
210.0
 31
0.0
  0
LINE
  5
63
330
A
100
AcDbEntity
  8
PV
  6
Continuous
 62
     7
100
AcDbLine
 10
-82.0
 20
210.0
 30
0.0
 11
49.0
 21
210.0
 31
0.0
  0
LINE
  5
64
330
A
100
AcDbEntity
  8
PV
  6
Continuous
 62
     7
100
AcDbLine
 10
-82.0
 20
194.1309999999999
 30
0.0
 11
-82.0
 21
212.8569999999999
 31
0.0
  0
LINE
  5
65
330
A
100
AcDbEntity
  8
PV
  6
Continuous
 62
     7
100
AcDbLine
 10
49.0
 20
178.244
 30
0.0
 11
49.0
 21
212.8569999999999
 31
0.0
  0
MTEXT
  5
66
330
A
100
AcDbEntity
  8
PV
  6
Continuous
 62
     7
100
AcDbMText
 10
-16.5
 20
220.783333
 30
0.0
 40
8.4
 41
0.0
 71
     2
 72
     1
  1
\A1;131
 73
     1
 44
1.0
  0
POINT
  5
67
330
A
100
AcDbEntity
  8
PV
  6
Continuous
 62
     7
100
AcDbPoint
 10
-82.0
 20
190.9559999999999
 30
0.0
  0
POINT
  5
68
330
A
100
AcDbEntity
  8
PV
  6
Continuous
 62
     7
100
AcDbPoint
 10
49.0
 20
175.069
 30
0.0
  0
POINT
  5
69
330
A
100
AcDbEntity
  8
PV
  6
Continuous
 62
     7
100
AcDbPoint
 10
49.0
 20
210.0
 30
0.0
  0
LINE
  5
6A
330
A
100
AcDbEntity
  8
PV
  6
Continuous
 62
     7
100
AcDbLine
 10
-96.96799999999999
 20
-134.787
 30
0.0
 11
-97.896
 21
-138.25
 31
0.0
  0
LINE
  5
6B
330
A
100
AcDbEntity
  8
PV
  6
Continuous
 62
     7
100
AcDbLine
 10
-97.896
 20
-138.25
 30
0.0
 11
-98.824
 21
-134.787
 31
0.0
  0
LINE
  5
6C
330
A
100
AcDbEntity
  8
PV
  6
Continuous
 62
     7
100
AcDbLine
 10
-97.896
 20
-138.25
 30
0.0
 11
-97.896
 21
-134.787
 31
0.0
  0
LINE
  5
6D
330
A
100
AcDbEntity
  8
PV
  6
Continuous
 62
     7
100
AcDbLine
 10
-98.824
 20
-28.213
 30
0.0
 11
-97.896
 21
-24.75
 31
0.0
  0
LINE
  5
6E
330
A
100
AcDbEntity
  8
PV
  6
Continuous
 62
     7
100
AcDbLine
 10
-97.896
 20
-24.75
 30
0.0
 11
-96.96799999999999
 21
-28.213
 31
0.0
  0
LINE
  5
6F
330
A
100
AcDbEntity
  8
PV
  6
Continuous
 62
     7
100
AcDbLine
 10
-97.896
 20
-24.75
 30
0.0
 11
-97.896
 21
-28.213
 31
0.0
  0
LINE
  5
70
330
A
100
AcDbEntity
  8
PV
  6
Continuous
 62
     7
100
AcDbLine
 10
-97.896
 20
-138.25
 30
0.0
 11
-97.896
 21
-24.75
 31
0.0
  0
LINE
  5
71
330
A
100
AcDbEntity
  8
PV
  6
Continuous
 62
     7
100
AcDbLine
 10
-84.375
 20
-138.25
 30
0.0
 11
-100.7539999999999
 21
-138.25
 31
0.0
  0
LINE
  5
72
330
A
100
AcDbEntity
  8
PV
  6
Continuous
 62
     7
100
AcDbLine
 10
-84.375
 20
-24.75
 30
0.0
 11
-100.7539999999999
 21
-24.75
 31
0.0
  0
MTEXT
  5
73
330
A
100
AcDbEntity
  8
PV
  6
Continuous
 62
     7
100
AcDbMText
 10
-108.679333
 20
-53.875
 30
0.0
 40
8.4
 41
0.0
 71
     2
 72
     1
  1
\A1;\U+2205113.5
 11
0.0
 21
1.0
 31
0.0
 73
     1
 44
1.0
  0
POINT
  5
74
330
A
100
AcDbEntity
  8
PV
  6
Continuous
 62
     7
100
AcDbPoint
 10
-81.2
 20
-138.25
 30
0.0
  0
POINT
  5
75
330
A
100
AcDbEntity
  8
PV
  6
Continuous
 62
     7
100
AcDbPoint
 10
-81.2
 20
-24.75
 30
0.0
  0
POINT
  5
76
330
A
100
AcDbEntity
  8
PV
  6
Continuous
 62
     7
100
AcDbPoint
 10
-97.896
 20
-24.75
 30
0.0
  0
LINE
  5
77
330
A
100
AcDbEntity
  8
PV
  6
Continuous
 62
     7
100
AcDbLine
 10
-38.037
 20
-101.1139999999999
 30
0.0
 11
-41.5
 21
-100.186
 31
0.0
  0
LINE
  5
78
330
A
100
AcDbEntity
  8
PV
  6
Continuous
 62
     7
100
AcDbLine
 10
-41.5
 20
-100.186
 30
0.0
 11
-38.037
 21
-99.258
 31
0.0
  0
LINE
  5
79
330
A
100
AcDbEntity
  8
PV
  6
Continuous
 62
     7
100
AcDbLine
 10
-41.5
 20
-100.186
 30
0.0
 11
-38.037
 21
-100.186
 31
0.0
  0
LINE
  5
7A
330
A
100
AcDbEntity
  8
PV
  6
Continuous
 62
     7
100
AcDbLine
 10
44.038
 20
-99.258
 30
0.0
 11
47.5
 21
-100.186
 31
0.0
  0
LINE
  5
7B
330
A
100
AcDbEntity
  8
PV
  6
Continuous
 62
     7
100
AcDbLine
 10
47.5
 20
-100.186
 30
0.0
 11
44.038
 21
-101.1139999999999
 31
0.0
  0
LINE
  5
7C
330
A
100
AcDbEntity
  8
PV
  6
Continuous
 62
     7
100
AcDbLine
 10
47.5
 20
-100.186
 30
0.0
 11
44.038
 21
-100.186
 31
0.0
  0
LINE
  5
7D
330
A
100
AcDbEntity
  8
PV
  6
Continuous
 62
     7
100
AcDbLine
 10
-41.5
 20
-100.186
 30
0.0
 11
47.5
 21
-100.186
 31
0.0
  0
LINE
  5
7E
330
A
100
AcDbEntity
  8
PV
  6
Continuous
 62
     7
100
AcDbLine
 10
-41.5
 20
-111.8249999999999
 30
0.0
 11
-41.5
 21
-97.329
 31
0.0
  0
MTEXT
  5
7F
330
A
100
AcDbEntity
  8
PV
  6
Continuous
 62
     7
100
AcDbMText
 10
17.577
 20
-89.40266599999999
 30
0.0
 40
8.4
 41
0.0
 71
     2
 72
     1
  1
\T0.912;\W1.064;\A1;\U+220589
 73
     1
 44
1.0
  0
POINT
  5
80
330
A
100
AcDbEntity
  8
PV
  6
Continuous
 62
     7
100
AcDbPoint
 10
-41.5
 20
-115.0
 30
0.0
  0
POINT
  5
81
330
A
100
AcDbEntity
  8
PV
  6
Continuous
 62
     7
100
AcDbPoint
 10
47.5
 20
-115.0
 30
0.0
  0
POINT
  5
82
330
A
100
AcDbEntity
  8
PV
  6
Continuous
 62
     7
100
AcDbPoint
 10
47.5
 20
-100.186
 30
0.0
  0
LINE
  5
83
330
A
100
AcDbEntity
  8
PV
  6
Continuous
 62
     7
100
AcDbLine
 10
-0.463
 20
-196.8379999999999
 30
0.0
 11
3.0
 21
-197.7649999999999
 31
0.0
  0
LINE
  5
84
330
A
100
AcDbEntity
  8
PV
  6
Continuous
 62
     7
100
AcDbLine
 10
3.0
 20
-197.7649999999999
 30
0.0
 11
-0.463
 21
-198.6929999999999
 31
0.0
  0
LINE
  5
85
330
A
100
AcDbEntity
  8
PV
  6
Continuous
 62
     7
100
AcDbLine
 10
3.0
 20
-197.7649999999999
 30
0.0
 11
-0.463
 21
-197.7649999999999
 31
0.0
  0
LINE
  5
86
330
A
100
AcDbEntity
  8
PV
  6
Continuous
 62
     7
100
AcDbLine
 10
-78.53799999999999
 20
-198.6929999999999
 30
0.0
 11
-82.0
 21
-197.7649999999999
 31
0.0
  0
LINE
  5
87
330
A
100
AcDbEntity
  8
PV
  6
Continuous
 62
     7
100
AcDbLine
 10
-82.0
 20
-197.7649999999999
 30
0.0
 11
-78.53799999999999
 21
-196.8379999999999
 31
0.0
  0
LINE
  5
88
330
A
100
AcDbEntity
  8
PV
  6
Continuous
 62
     7
100
AcDbLine
 10
-82.0
 20
-197.7649999999999
 30
0.0
 11
-78.53799999999999
 21
-197.7649999999999
 31
0.0
  0
LINE
  5
89
330
A
100
AcDbEntity
  8
PV
  6
Continuous
 62
     7
100
AcDbLine
 10
3.0
 20
-197.7649999999999
 30
0.0
 11
-82.0
 21
-197.7649999999999
 31
0.0
  0
LINE
  5
8A
330
A
100
AcDbEntity
  8
PV
  6
Continuous
 62
     7
100
AcDbLine
 10
3.0
 20
-182.865987
 30
0.0
 11
3.0
 21
-200.6229999999999
 31
0.0
  0
LINE
  5
8B
330
A
100
AcDbEntity
  8
PV
  6
Continuous
 62
     7
100
AcDbLine
 10
-82.0
 20
-140.581602
 30
0.0
 11
-82.0
 21
-200.6229999999999
 31
0.0
  0
MTEXT
  5
8C
330
A
100
AcDbEntity
  8
PV
  6
Continuous
 62
     7
100
AcDbMText
 10
-39.5
 20
-186.9816669999999
 30
0.0
 40
8.4
 41
0.0
 71
     2
 72
     1
  1
\W0.952;\A1;85
 73
     1
 44
1.0
  0
POINT
  5
8D
330
A
100
AcDbEntity
  8
PV
  6
Continuous
 62
     7
100
AcDbPoint
 10
3.0
 20
-180.555
 30
0.0
  0
POINT
  5
8E
330
A
100
AcDbEntity
  8
PV
  6
Continuous
 62
     7
100
AcDbPoint
 10
-82.0
 20
-137.4499999999999
 30
0.0
  0
POINT
  5
8F
330
A
100
AcDbEntity
  8
PV
  6
Continuous
 62
     7
100
AcDbPoint
 10
-82.0
 20
-197.7649999999999
 30
0.0
  0
LINE
  5
90
330
A
100
AcDbEntity
  8
PV
  6
Continuous
 62
     7
100
AcDbLine
 10
-110.2119999999999
 20
-163.037
 30
0.0
 11
-111.1399999999999
 21
-166.5
 31
0.0
  0
LINE
  5
91
330
A
100
AcDbEntity
  8
PV
  6
Continuous
 62
     7
100
AcDbLine
 10
-111.1399999999999
 20
-166.5
 30
0.0
 11
-112.067
 21
-163.037
 31
0.0
  0
LINE
  5
92
330
A
100
AcDbEntity
  8
PV
  6
Continuous
 62
     7
100
AcDbLine
 10
-111.1399999999999
 20
-166.5
 30
0.0
 11
-111.1399999999999
 21
-163.037
 31
0.0
  0
LINE
  5
93
330
A
100
AcDbEntity
  8
PV
  6
Continuous
 62
     7
100
AcDbLine
 10
-112.067
 20
-84.96299999999999
 30
0.0
 11
-111.1399999999999
 21
-81.5
 31
0.0
  0
LINE
  5
94
330
A
100
AcDbEntity
  8
PV
  6
Continuous
 62
     7
100
AcDbLine
 10
-111.1399999999999
 20
-81.5
 30
0.0
 11
-110.2119999999999
 21
-84.96299999999999
 31
0.0
  0
LINE
  5
95
330
A
100
AcDbEntity
  8
PV
  6
Continuous
 62
     7
100
AcDbLine
 10
-111.1399999999999
 20
-81.5
 30
0.0
 11
-111.1399999999999
 21
-84.96299999999999
 31
0.0
  0
LINE
  5
96
330
A
100
AcDbEntity
  8
PV
  6
Continuous
 62
     7
100
AcDbLine
 10
-111.1399999999999
 20
-166.5
 30
0.0
 11
-111.1399999999999
 21
-81.5
 31
0.0
  0
LINE
  5
97
330
A
100
AcDbEntity
  8
PV
  6
Continuous
 62
     7
100
AcDbLine
 10
-56.92499999999999
 20
-166.5
 30
0.0
 11
-113.997
 21
-166.5
 31
0.0
  0
LINE
  5
98
330
A
100
AcDbEntity
  8
PV
  6
Continuous
 62
     7
100
AcDbLine
 10
-100.906
 20
-81.5
 30
0.0
 11
-113.997
 21
-81.5
 31
0.0
  0
MTEXT
  5
99
330
A
100
AcDbEntity
  8
PV
  6
Continuous
 62
     7
100
AcDbMText
 10
-121.923333
 20
-124.0
 30
0.0
 40
8.4
 41
0.0
 71
     2
 72
     1
  1
\W0.952;\A1;85
 11
0.0
 21
1.0
 31
0.0
 73
     1
 44
1.0
  0
POINT
  5
9A
330
A
100
AcDbEntity
  8
PV
  6
Continuous
 62
     7
100
AcDbPoint
 10
-53.75
 20
-166.5
 30
0.0
  0
POINT
  5
9B
330
A
100
AcDbEntity
  8
PV
  6
Continuous
 62
     7
100
AcDbPoint
 10
-97.73100000000001
 20
-81.5
 30
0.0
  0
POINT
  5
9C
330
A
100
AcDbEntity
  8
PV
  6
Continuous
 62
     7
100
AcDbPoint
 10
-111.1399999999999
 20
-81.5
 30
0.0
  0
LINE
  5
9D
330
A
100
AcDbEntity
  8
PV
  6
Continuous
 62
     7
100
AcDbLine
 10
90.35999999999999
 20
-17.463
 30
0.0
 11
91.288
 21
-14.0
 31
0.0
  0
LINE
  5
9E
330
A
100
AcDbEntity
  8
PV
  6
Continuous
 62
     7
100
AcDbLine
 10
91.288
 20
-14.0
 30
0.0
 11
92.216
 21
-17.463
 31
0.0
  0
LINE
  5
9F
330
A
100
AcDbEntity
  8
PV
  6
Continuous
 62
     7
100
AcDbLine
 10
91.288
 20
-14.0
 30
0.0
 11
91.288
 21
-17.463
 31
0.0
  0
LINE
  5
A0
330
A
100
AcDbEntity
  8
PV
  6
Continuous
 62
     7
100
AcDbLine
 10
92.216
 20
-163.037
 30
0.0
 11
91.288
 21
-166.5
 31
0.0
  0
LINE
  5
A1
330
A
100
AcDbEntity
  8
PV
  6
Continuous
 62
     7
100
AcDbLine
 10
91.288
 20
-166.5
 30
0.0
 11
90.35999999999999
 21
-163.037
 31
0.0
  0
LINE
  5
A2
330
A
100
AcDbEntity
  8
PV
  6
Continuous
 62
     7
100
AcDbLine
 10
91.288
 20
-166.5
 30
0.0
 11
91.288
 21
-163.037
 31
0.0
  0
LINE
  5
A3
330
A
100
AcDbEntity
  8
PV
  6
Continuous
 62
     7
100
AcDbLine
 10
91.288
 20
-14.0
 30
0.0
 11
91.288
 21
-166.5
 31
0.0
  0
LINE
  5
A4
330
A
100
AcDbEntity
  8
PV
  6
Continuous
 62
     7
100
AcDbLine
 10
51.17499999999999
 20
-14.0
 30
0.0
 11
94.146
 21
-14.0
 31
0.0
  0
LINE
  5
A5
330
A
100
AcDbEntity
  8
PV
  6
Continuous
 62
     7
100
AcDbLine
 10
62.125
 20
-166.5
 30
0.0
 11
94.146
 21
-166.5
 31
0.0
  0
MTEXT
  5
A6
330
A
100
AcDbEntity
  8
PV
  6
Continuous
 62
     7
100
AcDbMText
 10
80.50466699999999
 20
-90.25
 30
0.0
 40
8.4
 41
0.0
 71
     2
 72
     1
  1
\A1;152.5
 11
0.0
 21
1.0
 31
0.0
 73
     1
 44
1.0
  0
POINT
  5
A7
330
A
100
AcDbEntity
  8
PV
  6
Continuous
 62
     7
100
AcDbPoint
 10
48.0
 20
-14.0
 30
0.0
  0
POINT
  5
A8
330
A
100
AcDbEntity
  8
PV
  6
Continuous
 62
     7
100
AcDbPoint
 10
58.95
 20
-166.5
 30
0.0
  0
POINT
  5
A9
330
A
100
AcDbEntity
  8
PV
  6
Continuous
 62
     7
100
AcDbPoint
 10
91.288
 20
-166.5
 30
0.0
  0
LINE
  5
AA
330
A
100
AcDbEntity
  8
PV
  6
Continuous
 62
     7
100
AcDbLine
 10
90.35999999999999
 20
21.53799999999999
 30
0.0
 11
91.288
 21
25.0
 31
0.0
  0
LINE
  5
AB
330
A
100
AcDbEntity
  8
PV
  6
Continuous
 62
     7
100
AcDbLine
 10
91.288
 20
25.0
 30
0.0
 11
92.216
 21
21.53799999999999
 31
0.0
  0
LINE
  5
AC
330
A
100
AcDbEntity
  8
PV
  6
Continuous
 62
     7
100
AcDbLine
 10
91.288
 20
25.0
 30
0.0
 11
91.288
 21
21.53799999999999
 31
0.0
  0
LINE
  5
AD
330
A
100
AcDbEntity
  8
PV
  6
Continuous
 62
     7
100
AcDbLine
 10
92.216
 20
-10.538
 30
0.0
 11
91.288
 21
-14.0
 31
0.0
  0
LINE
  5
AE
330
A
100
AcDbEntity
  8
PV
  6
Continuous
 62
     7
100
AcDbLine
 10
91.288
 20
-14.0
 30
0.0
 11
90.35999999999999
 21
-10.538
 31
0.0
  0
LINE
  5
AF
330
A
100
AcDbEntity
  8
PV
  6
Continuous
 62
     7
100
AcDbLine
 10
91.288
 20
-14.0
 30
0.0
 11
91.288
 21
-10.538
 31
0.0
  0
LINE
  5
B0
330
A
100
AcDbEntity
  8
PV
  6
Continuous
 62
     7
100
AcDbLine
 10
91.288
 20
25.0
 30
0.0
 11
91.288
 21
-14.0
 31
0.0
  0
MTEXT
  5
B1
330
A
100
AcDbEntity
  8
PV
  6
Continuous
 62
     7
100
AcDbMText
 10
83.871333
 20
5.5
 30
0.0
 40
6.5
 41
0.0
 71
     2
 72
     1
  1
\W0.963;\A1;39～59
 11
0.0
 21
1.0
 31
0.0
 73
     1
 44
1.0
  0
POINT
  5
B2
330
A
100
AcDbEntity
  8
PV
  6
Continuous
 62
     7
100
AcDbPoint
 10
113.1099999999999
 20
25.0
 30
0.0
  0
POINT
  5
B3
330
A
100
AcDbEntity
  8
PV
  6
Continuous
 62
     7
100
AcDbPoint
 10
80.86
 20
-14.0
 30
0.0
  0
POINT
  5
B4
330
A
100
AcDbEntity
  8
PV
  6
Continuous
 62
     7
100
AcDbPoint
 10
91.288
 20
-14.0
 30
0.0
  0
LINE
  5
B5
330
A
100
AcDbEntity
  8
PV
  6
Continuous
 62
     7
100
AcDbLine
 10
63.71500000000001
 20
-7.072
 30
0.0
 11
60.253
 21
-8.0
 31
0.0
  0
LINE
  5
B6
330
A
100
AcDbEntity
  8
PV
  6
Continuous
 62
     7
100
AcDbLine
 10
60.253
 20
-8.0
 30
0.0
 11
62.787
 21
-5.464999999999999
 31
0.0
  0
LINE
  5
B7
330
A
100
AcDbEntity
  8
PV
  6
Continuous
 62
     7
100
AcDbLine
 10
60.253
 20
-8.0
 30
0.0
 11
63.251
 21
-6.269
 31
0.0
  0
LINE
  5
B8
330
A
100
AcDbEntity
  8
PV
  6
Continuous
 62
     7
100
AcDbLine
 10
59.325
 20
-12.46299999999999
 30
0.0
 11
60.253
 21
-9.0
 31
0.0
  0
LINE
  5
B9
330
A
100
AcDbEntity
  8
PV
  6
Continuous
 62
     7
100
AcDbLine
 10
60.253
 20
-9.0
 30
0.0
 11
61.18
 21
-12.46299999999999
 31
0.0
  0
LINE
  5
BA
330
A
100
AcDbEntity
  8
PV
  6
Continuous
 62
     7
100
AcDbLine
 10
60.253
 20
-9.0
 30
0.0
 11
60.253
 21
-12.46299999999999
 31
0.0
  0
LINE
  5
BB
330
A
100
AcDbEntity
  8
PV
  6
Continuous
 62
     7
100
AcDbLine
 10
60.253
 20
-1.0
 30
0.0
 11
60.253
 21
-9.0
 31
0.0
  0
LINE
  5
BC
330
A
100
AcDbEntity
  8
PV
  6
Continuous
 62
     7
100
AcDbLine
 10
34.17499999999999
 20
-9.0
 30
0.0
 11
64.825
 21
-9.0
 31
0.0
  0
LINE
  5
BD
330
A
100
AcDbEntity
  8
PV
  6
Continuous
 62
     7
100
AcDbLine
 10
60.253
 20
-8.0
 30
0.0
 11
74.39
 21
0.162
 31
0.0
  0
LINE
  5
BE
330
A
100
AcDbEntity
  8
PV
  6
Continuous
 62
     7
100
AcDbLine
 10
74.39
 20
0.162
 30
0.0
 11
74.39
 21
24.19961999999999
 31
0.0
  0
LINE
  5
BF
330
A
100
AcDbEntity
  8
PV
  6
Continuous
 62
     7
100
AcDbLine
 10
60.253
 20
-9.0
 30
0.0
 11
60.253
 21
-16.93799999999999
 31
0.0
  0
MTEXT
  5
C0
330
A
100
AcDbEntity
  8
PV
  6
Continuous
 62
     7
100
AcDbMText
 10
67.131563
 20
12.416262
 30
0.0
 40
6.0
 41
0.0
 71
     2
 72
     1
  1
\T0.907;\W1.065;\A1;8～28
 11
-0.000001
 21
0.9999999999994999
 31
0.0
 73
     1
 44
1.0
  0
POINT
  5
C1
330
A
100
AcDbEntity
  8
PV
  6
Continuous
 62
     7
100
AcDbPoint
 10
33.0
 20
-1.0
 30
0.0
  0
POINT
  5
C2
330
A
100
AcDbEntity
  8
PV
  6
Continuous
 62
     7
100
AcDbPoint
 10
31.0
 20
-9.0
 30
0.0
  0
POINT
  5
C3
330
A
100
AcDbEntity
  8
PV
  6
Continuous
 62
     7
100
AcDbPoint
 10
60.253
 20
-9.0
 30
0.0
  0
POINT
  5
C4
330
A
100
AcDbEntity
  8
PV
  6
Continuous
 62
     7
100
AcDbPoint
 10
-1.0
 20
-9.0
 30
0.0
  0
POINT
  5
C5
330
A
100
AcDbEntity
  8
PV
  6
Continuous
 62
     7
100
AcDbPoint
 10
7.0
 20
-9.0
 30
0.0
  0
LINE
  5
C6
330
A
100
AcDbEntity
  8
PV
  6
Continuous
 62
     7
100
AcDbLine
 10
-23.538
 20
50.28100000000001
 30
0.0
 11
-27.0
 21
51.20899999999999
 31
0.0
  0
LINE
  5
C7
330
A
100
AcDbEntity
  8
PV
  6
Continuous
 62
     7
100
AcDbLine
 10
-27.0
 20
51.20899999999999
 30
0.0
 11
-23.538
 21
52.137
 31
0.0
  0
LINE
  5
C8
330
A
100
AcDbEntity
  8
PV
  6
Continuous
 62
     7
100
AcDbLine
 10
-27.0
 20
51.20899999999999
 30
0.0
 11
-23.538
 21
51.20899999999999
 31
0.0
  0
LINE
  5
C9
330
A
100
AcDbEntity
  8
PV
  6
Continuous
 62
     7
100
AcDbLine
 10
29.538
 20
52.137
 30
0.0
 11
33.0
 21
51.20899999999999
 31
0.0
  0
LINE
  5
CA
330
A
100
AcDbEntity
  8
PV
  6
Continuous
 62
     7
100
AcDbLine
 10
33.0
 20
51.20899999999999
 30
0.0
 11
29.538
 21
50.28100000000001
 31
0.0
  0
LINE
  5
CB
330
A
100
AcDbEntity
  8
PV
  6
Continuous
 62
     7
100
AcDbLine
 10
33.0
 20
51.20899999999999
 30
0.0
 11
29.538
 21
51.20899999999999
 31
0.0
  0
LINE
  5
CC
330
A
100
AcDbEntity
  8
PV
  6
Continuous
 62
     7
100
AcDbLine
 10
-27.0
 20
51.20899999999999
 30
0.0
 11
33.0
 21
51.20899999999999
 31
0.0
  0
LINE
  5
CD
330
A
100
AcDbEntity
  8
PV
  6
Continuous
 62
     7
100
AcDbLine
 10
-27.0
 20
2.174999999999999
 30
0.0
 11
-27.0
 21
53.49499999999999
 31
0.0
  0
LINE
  5
CE
330
A
100
AcDbEntity
  8
PV
  6
Continuous
 62
     7
100
AcDbLine
 10
33.0
 20
2.174999999999999
 30
0.0
 11
33.0
 21
53.49499999999999
 31
0.0
  0
MTEXT
  5
CF
330
A
100
AcDbEntity
  8
PV
  6
Continuous
 62
     7
100
AcDbMText
 10
3.282999999999999
 20
64.992334
 30
0.0
 40
8.4
 41
0.0
 71
     2
 72
     1
  1
\T1.016;\W1.008;\A1;\U+220560
 73
     1
 44
1.0
  0
POINT
  5
D0
330
A
100
AcDbEntity
  8
PV
  6
Continuous
 62
     7
100
AcDbPoint
 10
-27.0
 20
-1.0
 30
0.0
  0
POINT
  5
D1
330
A
100
AcDbEntity
  8
PV
  6
Continuous
 62
     7
100
AcDbPoint
 10
33.0
 20
-1.0
 30
0.0
  0
POINT
  5
D2
330
A
100
AcDbEntity
  8
PV
  6
Continuous
 62
     7
100
AcDbPoint
 10
33.0
 20
51.20899999999999
 30
0.0
  0
LINE
  5
D3
330
A
100
AcDbEntity
  8
PV
  6
Continuous
 62
     7
100
AcDbLine
 10
59.325
 20
21.53799999999999
 30
0.0
 11
60.253
 21
25.0
 31
0.0
  0
LINE
  5
D4
330
A
100
AcDbEntity
  8
PV
  6
Continuous
 62
     7
100
AcDbLine
 10
60.253
 20
25.0
 30
0.0
 11
61.18
 21
21.53799999999999
 31
0.0
  0
LINE
  5
D5
330
A
100
AcDbEntity
  8
PV
  6
Continuous
 62
     7
100
AcDbLine
 10
60.253
 20
25.0
 30
0.0
 11
60.253
 21
21.53799999999999
 31
0.0
  0
LINE
  5
D6
330
A
100
AcDbEntity
  8
PV
  6
Continuous
 62
     7
100
AcDbLine
 10
61.18
 20
2.463
 30
0.0
 11
60.253
 21
-1.0
 31
0.0
  0
LINE
  5
D7
330
A
100
AcDbEntity
  8
PV
  6
Continuous
 62
     7
100
AcDbLine
 10
60.253
 20
-1.0
 30
0.0
 11
59.325
 21
2.463
 31
0.0
  0
LINE
  5
D8
330
A
100
AcDbEntity
  8
PV
  6
Continuous
 62
     7
100
AcDbLine
 10
60.253
 20
-1.0
 30
0.0
 11
60.253
 21
2.463
 31
0.0
  0
LINE
  5
D9
330
A
100
AcDbEntity
  8
PV
  6
Continuous
 62
     7
100
AcDbLine
 10
60.253
 20
25.0
 30
0.0
 11
60.253
 21
-1.0
 31
0.0
  0
LINE
  5
DA
330
A
100
AcDbEntity
  8
PV
  6
Continuous
 62
     7
100
AcDbLine
 10
36.17499999999999
 20
-1.0
 30
0.0
 11
64.825
 21
-1.0
 31
0.0
  0
MTEXT
  5
DB
330
A
100
AcDbEntity
  8
PV
  6
Continuous
 62
     7
100
AcDbMText
 10
49.469667
 20
12.0
 30
0.0
 40
8.4
 41
0.0
 71
     2
 72
     1
  1
\W0.952;\A1;26
 11
0.0
 21
1.0
 31
0.0
 73
     1
 44
1.0
  0
POINT
  5
DC
330
A
100
AcDbEntity
  8
PV
  6
Continuous
 62
     7
100
AcDbPoint
 10
28.5
 20
25.0
 30
0.0
  0
POINT
  5
DD
330
A
100
AcDbEntity
  8
PV
  6
Continuous
 62
     7
100
AcDbPoint
 10
33.0
 20
-1.0
 30
0.0
  0
POINT
  5
DE
330
A
100
AcDbEntity
  8
PV
  6
Continuous
 62
     7
100
AcDbPoint
 10
60.253
 20
-1.0
 30
0.0
  0
LINE
  5
DF
330
A
100
AcDbEntity
  8
PV
  6
Continuous
 62
     7
100
AcDbLine
 10
29.07199999999999
 20
5.617
 30
0.0
 11
29.096
 21
5.645999999999999
 31
0.0
  0
LINE
  5
E0
330
A
100
AcDbEntity
  8
PV
  6
Continuous
 62
     7
100
AcDbLine
 10
29.096
 20
5.645999999999999
 30
0.0
 11
29.12
 21
5.676
 31
0.0
  0
LINE
  5
E1
330
A
100
AcDbEntity
  8
PV
  6
Continuous
 62
     7
100
AcDbLine
 10
29.12
 20
5.676
 30
0.0
 11
29.144
 21
5.707
 31
0.0
  0
LINE
  5
E2
330
A
100
AcDbEntity
  8
PV
  6
Continuous
 62
     7
100
AcDbLine
 10
29.144
 20
5.707
 30
0.0
 11
29.167
 21
5.737
 31
0.0
  0
LINE
  5
E3
330
A
100
AcDbEntity
  8
PV
  6
Continuous
 62
     7
100
AcDbLine
 10
29.167
 20
5.737
 30
0.0
 11
29.19
 21
5.767999999999999
 31
0.0
  0
LINE
  5
E4
330
A
100
AcDbEntity
  8
PV
  6
Continuous
 62
     7
100
AcDbLine
 10
29.19
 20
5.767999999999999
 30
0.0
 11
29.212
 21
5.799999999999999
 31
0.0
  0
LINE
  5
E5
330
A
100
AcDbEntity
  8
PV
  6
Continuous
 62
     7
100
AcDbLine
 10
29.212
 20
5.799999999999999
 30
0.0
 11
29.234
 21
5.831
 31
0.0
  0
LINE
  5
E6
330
A
100
AcDbEntity
  8
PV
  6
Continuous
 62
     7
100
AcDbLine
 10
29.234
 20
5.831
 30
0.0
 11
29.256
 21
5.862999999999999
 31
0.0
  0
LINE
  5
E7
330
A
100
AcDbEntity
  8
PV
  6
Continuous
 62
     7
100
AcDbLine
 10
29.256
 20
5.862999999999999
 30
0.0
 11
29.27699999999999
 21
5.894999999999999
 31
0.0
  0
LINE
  5
E8
330
A
100
AcDbEntity
  8
PV
  6
Continuous
 62
     7
100
AcDbLine
 10
29.27699999999999
 20
5.894999999999999
 30
0.0
 11
29.298
 21
5.927999999999999
 31
0.0
  0
LINE
  5
E9
330
A
100
AcDbEntity
  8
PV
  6
Continuous
 62
     7
100
AcDbLine
 10
29.298
 20
5.927999999999999
 30
0.0
 11
29.319
 21
5.959999999999999
 31
0.0
  0
LINE
  5
EA
330
A
100
AcDbEntity
  8
PV
  6
Continuous
 62
     7
100
AcDbLine
 10
29.319
 20
5.959999999999999
 30
0.0
 11
29.339
 21
5.992999999999999
 31
0.0
  0
LINE
  5
EB
330
A
100
AcDbEntity
  8
PV
  6
Continuous
 62
     7
100
AcDbLine
 10
29.339
 20
5.992999999999999
 30
0.0
 11
29.358
 21
6.025999999999999
 31
0.0
  0
LINE
  5
EC
330
A
100
AcDbEntity
  8
PV
  6
Continuous
 62
     7
100
AcDbLine
 10
29.358
 20
6.025999999999999
 30
0.0
 11
29.378
 21
6.059
 31
0.0
  0
LINE
  5
ED
330
A
100
AcDbEntity
  8
PV
  6
Continuous
 62
     7
100
AcDbLine
 10
29.378
 20
6.059
 30
0.0
 11
29.397
 21
6.092999999999999
 31
0.0
  0
LINE
  5
EE
330
A
100
AcDbEntity
  8
PV
  6
Continuous
 62
     7
100
AcDbLine
 10
29.397
 20
6.092999999999999
 30
0.0
 11
29.416
 21
6.126
 31
0.0
  0
LINE
  5
EF
330
A
100
AcDbEntity
  8
PV
  6
Continuous
 62
     7
100
AcDbLine
 10
29.416
 20
6.126
 30
0.0
 11
29.434
 21
6.16
 31
0.0
  0
LINE
  5
F0
330
A
100
AcDbEntity
  8
PV
  6
Continuous
 62
     7
100
AcDbLine
 10
29.434
 20
6.16
 30
0.0
 11
29.453
 21
6.193999999999999
 31
0.0
  0
LINE
  5
F1
330
A
100
AcDbEntity
  8
PV
  6
Continuous
 62
     7
100
AcDbLine
 10
29.453
 20
6.193999999999999
 30
0.0
 11
29.47
 21
6.227999999999999
 31
0.0
  0
LINE
  5
F2
330
A
100
AcDbEntity
  8
PV
  6
Continuous
 62
     7
100
AcDbLine
 10
29.47
 20
6.227999999999999
 30
0.0
 11
29.488
 21
6.262999999999999
 31
0.0
  0
LINE
  5
F3
330
A
100
AcDbEntity
  8
PV
  6
Continuous
 62
     7
100
AcDbLine
 10
29.488
 20
6.262999999999999
 30
0.0
 11
29.50499999999999
 21
6.297
 31
0.0
  0
LINE
  5
F4
330
A
100
AcDbEntity
  8
PV
  6
Continuous
 62
     7
100
AcDbLine
 10
29.50499999999999
 20
6.297
 30
0.0
 11
29.52199999999999
 21
6.332
 31
0.0
  0
LINE
  5
F5
330
A
100
AcDbEntity
  8
PV
  6
Continuous
 62
     7
100
AcDbLine
 10
29.52199999999999
 20
6.332
 30
0.0
 11
29.539
 21
6.366
 31
0.0
  0
LINE
  5
F6
330
A
100
AcDbEntity
  8
PV
  6
Continuous
 62
     7
100
AcDbLine
 10
29.539
 20
6.366
 30
0.0
 11
29.556
 21
6.400999999999999
 31
0.0
  0
LINE
  5
F7
330
A
100
AcDbEntity
  8
PV
  6
Continuous
 62
     7
100
AcDbLine
 10
29.556
 20
6.400999999999999
 30
0.0
 11
29.572
 21
6.435999999999999
 31
0.0
  0
LINE
  5
F8
330
A
100
AcDbEntity
  8
PV
  6
Continuous
 62
     7
100
AcDbLine
 10
29.572
 20
6.435999999999999
 30
0.0
 11
29.588
 21
6.471
 31
0.0
  0
LINE
  5
F9
330
A
100
AcDbEntity
  8
PV
  6
Continuous
 62
     7
100
AcDbLine
 10
29.588
 20
6.471
 30
0.0
 11
29.60399999999999
 21
6.506
 31
0.0
  0
LINE
  5
FA
330
A
100
AcDbEntity
  8
PV
  6
Continuous
 62
     7
100
AcDbLine
 10
29.60399999999999
 20
6.506
 30
0.0
 11
29.61899999999999
 21
6.541
 31
0.0
  0
LINE
  5
FB
330
A
100
AcDbEntity
  8
PV
  6
Continuous
 62
     7
100
AcDbLine
 10
29.61899999999999
 20
6.541
 30
0.0
 11
29.634
 21
6.577
 31
0.0
  0
LINE
  5
FC
330
A
100
AcDbEntity
  8
PV
  6
Continuous
 62
     7
100
AcDbLine
 10
29.634
 20
6.577
 30
0.0
 11
29.649
 21
6.612
 31
0.0
  0
LINE
  5
FD
330
A
100
AcDbEntity
  8
PV
  6
Continuous
 62
     7
100
AcDbLine
 10
29.649
 20
6.612
 30
0.0
 11
29.664
 21
6.647999999999999
 31
0.0
  0
LINE
  5
FE
330
A
100
AcDbEntity
  8
PV
  6
Continuous
 62
     7
100
AcDbLine
 10
29.664
 20
6.647999999999999
 30
0.0
 11
29.679
 21
6.682999999999999
 31
0.0
  0
LINE
  5
FF
330
A
100
AcDbEntity
  8
PV
  6
Continuous
 62
     7
100
AcDbLine
 10
29.679
 20
6.682999999999999
 30
0.0
 11
29.693
 21
6.718999999999999
 31
0.0
  0
LINE
  5
100
330
A
100
AcDbEntity
  8
PV
  6
Continuous
 62
     7
100
AcDbLine
 10
29.693
 20
6.718999999999999
 30
0.0
 11
29.70699999999999
 21
6.754999999999999
 31
0.0
  0
LINE
  5
101
330
A
100
AcDbEntity
  8
PV
  6
Continuous
 62
     7
100
AcDbLine
 10
29.70699999999999
 20
6.754999999999999
 30
0.0
 11
29.721
 21
6.791
 31
0.0
  0
LINE
  5
102
330
A
100
AcDbEntity
  8
PV
  6
Continuous
 62
     7
100
AcDbLine
 10
29.721
 20
6.791
 30
0.0
 11
29.734
 21
6.827
 31
0.0
  0
LINE
  5
103
330
A
100
AcDbEntity
  8
PV
  6
Continuous
 62
     7
100
AcDbLine
 10
29.734
 20
6.827
 30
0.0
 11
29.748
 21
6.862999999999999
 31
0.0
  0
LINE
  5
104
330
A
100
AcDbEntity
  8
PV
  6
Continuous
 62
     7
100
AcDbLine
 10
29.748
 20
6.862999999999999
 30
0.0
 11
29.761
 21
6.899
 31
0.0
  0
LINE
  5
105
330
A
100
AcDbEntity
  8
PV
  6
Continuous
 62
     7
100
AcDbLine
 10
29.761
 20
6.899
 30
0.0
 11
29.774
 21
6.934999999999999
 31
0.0
  0
LINE
  5
106
330
A
100
AcDbEntity
  8
PV
  6
Continuous
 62
     7
100
AcDbLine
 10
29.774
 20
6.934999999999999
 30
0.0
 11
29.78699999999999
 21
6.972
 31
0.0
  0
LINE
  5
107
330
A
100
AcDbEntity
  8
PV
  6
Continuous
 62
     7
100
AcDbLine
 10
29.78699999999999
 20
6.972
 30
0.0
 11
29.799
 21
7.007999999999999
 31
0.0
  0
LINE
  5
108
330
A
100
AcDbEntity
  8
PV
  6
Continuous
 62
     7
100
AcDbLine
 10
29.799
 20
7.007999999999999
 30
0.0
 11
29.81099999999999
 21
7.044999999999999
 31
0.0
  0
LINE
  5
109
330
A
100
AcDbEntity
  8
PV
  6
Continuous
 62
     7
100
AcDbLine
 10
29.81099999999999
 20
7.044999999999999
 30
0.0
 11
29.823
 21
7.081
 31
0.0
  0
LINE
  5
10A
330
A
100
AcDbEntity
  8
PV
  6
Continuous
 62
     7
100
AcDbLine
 10
29.823
 20
7.081
 30
0.0
 11
29.835
 21
7.117999999999999
 31
0.0
  0
LINE
  5
10B
330
A
100
AcDbEntity
  8
PV
  6
Continuous
 62
     7
100
AcDbLine
 10
29.835
 20
7.117999999999999
 30
0.0
 11
29.847
 21
7.153999999999999
 31
0.0
  0
LINE
  5
10C
330
A
100
AcDbEntity
  8
PV
  6
Continuous
 62
     7
100
AcDbLine
 10
29.847
 20
7.153999999999999
 30
0.0
 11
29.859
 21
7.190999999999999
 31
0.0
  0
LINE
  5
10D
330
A
100
AcDbEntity
  8
PV
  6
Continuous
 62
     7
100
AcDbLine
 10
29.859
 20
7.190999999999999
 30
0.0
 11
29.87
 21
7.227999999999999
 31
0.0
  0
LINE
  5
10E
330
A
100
AcDbEntity
  8
PV
  6
Continuous
 62
     7
100
AcDbLine
 10
29.87
 20
7.227999999999999
 30
0.0
 11
29.881
 21
7.264999999999999
 31
0.0
  0
LINE
  5
10F
330
A
100
AcDbEntity
  8
PV
  6
Continuous
 62
     7
100
AcDbLine
 10
29.881
 20
7.264999999999999
 30
0.0
 11
29.892
 21
7.302
 31
0.0
  0
LINE
  5
110
330
A
100
AcDbEntity
  8
PV
  6
Continuous
 62
     7
100
AcDbLine
 10
29.892
 20
7.302
 30
0.0
 11
29.903
 21
7.337999999999999
 31
0.0
  0
LINE
  5
111
330
A
100
AcDbEntity
  8
PV
  6
Continuous
 62
     7
100
AcDbLine
 10
29.903
 20
7.337999999999999
 30
0.0
 11
29.913
 21
7.375
 31
0.0
  0
LINE
  5
112
330
A
100
AcDbEntity
  8
PV
  6
Continuous
 62
     7
100
AcDbLine
 10
29.913
 20
7.375
 30
0.0
 11
29.92399999999999
 21
7.412999999999999
 31
0.0
  0
LINE
  5
113
330
A
100
AcDbEntity
  8
PV
  6
Continuous
 62
     7
100
AcDbLine
 10
29.92399999999999
 20
7.412999999999999
 30
0.0
 11
29.934
 21
7.45
 31
0.0
  0
LINE
  5
114
330
A
100
AcDbEntity
  8
PV
  6
Continuous
 62
     7
100
AcDbLine
 10
29.934
 20
7.45
 30
0.0
 11
29.944
 21
7.487
 31
0.0
  0
LINE
  5
115
330
A
100
AcDbEntity
  8
PV
  6
Continuous
 62
     7
100
AcDbLine
 10
29.944
 20
7.487
 30
0.0
 11
29.954
 21
7.524
 31
0.0
  0
LINE
  5
116
330
A
100
AcDbEntity
  8
PV
  6
Continuous
 62
     7
100
AcDbLine
 10
29.954
 20
7.524
 30
0.0
 11
29.963
 21
7.560999999999999
 31
0.0
  0
LINE
  5
117
330
A
100
AcDbEntity
  8
PV
  6
Continuous
 62
     7
100
AcDbLine
 10
29.963
 20
7.560999999999999
 30
0.0
 11
29.973
 21
7.599
 31
0.0
  0
LINE
  5
118
330
A
100
AcDbEntity
  8
PV
  6
Continuous
 62
     7
100
AcDbLine
 10
29.973
 20
7.599
 30
0.0
 11
29.982
 21
7.636
 31
0.0
  0
LINE
  5
119
330
A
100
AcDbEntity
  8
PV
  6
Continuous
 62
     7
100
AcDbLine
 10
29.982
 20
7.636
 30
0.0
 11
29.991
 21
7.672999999999999
 31
0.0
  0
LINE
  5
11A
330
A
100
AcDbEntity
  8
PV
  6
Continuous
 62
     7
100
AcDbLine
 10
29.991
 20
7.672999999999999
 30
0.0
 11
30.0
 21
7.711
 31
0.0
  0
LINE
  5
11B
330
A
100
AcDbEntity
  8
PV
  6
Continuous
 62
     7
100
AcDbLine
 10
30.0
 20
7.711
 30
0.0
 11
30.009
 21
7.747999999999999
 31
0.0
  0
LINE
  5
11C
330
A
100
AcDbEntity
  8
PV
  6
Continuous
 62
     7
100
AcDbLine
 10
30.009
 20
7.747999999999999
 30
0.0
 11
30.017
 21
7.786
 31
0.0
  0
LINE
  5
11D
330
A
100
AcDbEntity
  8
PV
  6
Continuous
 62
     7
100
AcDbLine
 10
30.017
 20
7.786
 30
0.0
 11
30.026
 21
7.822999999999999
 31
0.0
  0
LINE
  5
11E
330
A
100
AcDbEntity
  8
PV
  6
Continuous
 62
     7
100
AcDbLine
 10
30.026
 20
7.822999999999999
 30
0.0
 11
30.034
 21
7.861
 31
0.0
  0
LINE
  5
11F
330
A
100
AcDbEntity
  8
PV
  6
Continuous
 62
     7
100
AcDbLine
 10
30.034
 20
7.861
 30
0.0
 11
30.04199999999999
 21
7.897999999999999
 31
0.0
  0
LINE
  5
120
330
A
100
AcDbEntity
  8
PV
  6
Continuous
 62
     7
100
AcDbLine
 10
30.04199999999999
 20
7.897999999999999
 30
0.0
 11
30.05
 21
7.935999999999999
 31
0.0
  0
LINE
  5
121
330
A
100
AcDbEntity
  8
PV
  6
Continuous
 62
     7
100
AcDbLine
 10
30.05
 20
7.935999999999999
 30
0.0
 11
30.058
 21
7.974
 31
0.0
  0
LINE
  5
122
330
A
100
AcDbEntity
  8
PV
  6
Continuous
 62
     7
100
AcDbLine
 10
30.058
 20
7.974
 30
0.0
 11
30.066
 21
8.012
 31
0.0
  0
LINE
  5
123
330
A
100
AcDbEntity
  8
PV
  6
Continuous
 62
     7
100
AcDbLine
 10
30.066
 20
8.012
 30
0.0
 11
30.073
 21
8.048999999999999
 31
0.0
  0
LINE
  5
124
330
A
100
AcDbEntity
  8
PV
  6
Continuous
 62
     7
100
AcDbLine
 10
30.073
 20
8.048999999999999
 30
0.0
 11
30.08
 21
8.086999999999999
 31
0.0
  0
LINE
  5
125
330
A
100
AcDbEntity
  8
PV
  6
Continuous
 62
     7
100
AcDbLine
 10
30.08
 20
8.086999999999999
 30
0.0
 11
30.087
 21
8.125
 31
0.0
  0
LINE
  5
126
330
A
100
AcDbEntity
  8
PV
  6
Continuous
 62
     7
100
AcDbLine
 10
30.087
 20
8.125
 30
0.0
 11
30.094
 21
8.163
 31
0.0
  0
LINE
  5
127
330
A
100
AcDbEntity
  8
PV
  6
Continuous
 62
     7
100
AcDbLine
 10
30.094
 20
8.163
 30
0.0
 11
30.10099999999999
 21
8.201
 31
0.0
  0
LINE
  5
128
330
A
100
AcDbEntity
  8
PV
  6
Continuous
 62
     7
100
AcDbLine
 10
30.10099999999999
 20
8.201
 30
0.0
 11
30.108
 21
8.237999999999999
 31
0.0
  0
LINE
  5
129
330
A
100
AcDbEntity
  8
PV
  6
Continuous
 62
     7
100
AcDbLine
 10
30.108
 20
8.237999999999999
 30
0.0
 11
30.114
 21
8.275999999999999
 31
0.0
  0
LINE
  5
12A
330
A
100
AcDbEntity
  8
PV
  6
Continuous
 62
     7
100
AcDbLine
 10
30.114
 20
8.275999999999999
 30
0.0
 11
30.121
 21
8.314
 31
0.0
  0
LINE
  5
12B
330
A
100
AcDbEntity
  8
PV
  6
Continuous
 62
     7
100
AcDbLine
 10
30.121
 20
8.314
 30
0.0
 11
30.127
 21
8.352
 31
0.0
  0
LINE
  5
12C
330
A
100
AcDbEntity
  8
PV
  6
Continuous
 62
     7
100
AcDbLine
 10
30.127
 20
8.352
 30
0.0
 11
30.133
 21
8.39
 31
0.0
  0
LINE
  5
12D
330
A
100
AcDbEntity
  8
PV
  6
Continuous
 62
     7
100
AcDbLine
 10
30.133
 20
8.39
 30
0.0
 11
30.139
 21
8.427999999999999
 31
0.0
  0
LINE
  5
12E
330
A
100
AcDbEntity
  8
PV
  6
Continuous
 62
     7
100
AcDbLine
 10
30.139
 20
8.427999999999999
 30
0.0
 11
30.14499999999999
 21
8.466000000000001
 31
0.0
  0
LINE
  5
12F
330
A
100
AcDbEntity
  8
PV
  6
Continuous
 62
     7
100
AcDbLine
 10
30.14499999999999
 20
8.466000000000001
 30
0.0
 11
30.15
 21
8.503999999999999
 31
0.0
  0
LINE
  5
130
330
A
100
AcDbEntity
  8
PV
  6
Continuous
 62
     7
100
AcDbLine
 10
30.15
 20
8.503999999999999
 30
0.0
 11
30.156
 21
8.542999999999999
 31
0.0
  0
LINE
  5
131
330
A
100
AcDbEntity
  8
PV
  6
Continuous
 62
     7
100
AcDbLine
 10
30.156
 20
8.542999999999999
 30
0.0
 11
30.16099999999999
 21
8.580999999999999
 31
0.0
  0
LINE
  5
132
330
A
100
AcDbEntity
  8
PV
  6
Continuous
 62
     7
100
AcDbLine
 10
30.16099999999999
 20
8.580999999999999
 30
0.0
 11
30.166
 21
8.618999999999999
 31
0.0
  0
LINE
  5
133
330
A
100
AcDbEntity
  8
PV
  6
Continuous
 62
     7
100
AcDbLine
 10
30.166
 20
8.618999999999999
 30
0.0
 11
30.171
 21
8.657
 31
0.0
  0
LINE
  5
134
330
A
100
AcDbEntity
  8
PV
  6
Continuous
 62
     7
100
AcDbLine
 10
30.171
 20
8.657
 30
0.0
 11
30.17599999999999
 21
8.695
 31
0.0
  0
LINE
  5
135
330
A
100
AcDbEntity
  8
PV
  6
Continuous
 62
     7
100
AcDbLine
 10
30.17599999999999
 20
8.695
 30
0.0
 11
30.18
 21
8.732999999999998
 31
0.0
  0
LINE
  5
136
330
A
100
AcDbEntity
  8
PV
  6
Continuous
 62
     7
100
AcDbLine
 10
30.18
 20
8.732999999999998
 30
0.0
 11
30.18499999999999
 21
8.772
 31
0.0
  0
LINE
  5
137
330
A
100
AcDbEntity
  8
PV
  6
Continuous
 62
     7
100
AcDbLine
 10
30.18499999999999
 20
8.772
 30
0.0
 11
30.189
 21
8.81
 31
0.0
  0
LINE
  5
138
330
A
100
AcDbEntity
  8
PV
  6
Continuous
 62
     7
100
AcDbLine
 10
30.189
 20
8.81
 30
0.0
 11
30.194
 21
8.847999999999998
 31
0.0
  0
LINE
  5
139
330
A
100
AcDbEntity
  8
PV
  6
Continuous
 62
     7
100
AcDbLine
 10
30.194
 20
8.847999999999998
 30
0.0
 11
30.198
 21
8.886000000000001
 31
0.0
  0
LINE
  5
13A
330
A
100
AcDbEntity
  8
PV
  6
Continuous
 62
     7
100
AcDbLine
 10
30.198
 20
8.886000000000001
 30
0.0
 11
30.20199999999999
 21
8.925
 31
0.0
  0
LINE
  5
13B
330
A
100
AcDbEntity
  8
PV
  6
Continuous
 62
     7
100
AcDbLine
 10
30.20199999999999
 20
8.925
 30
0.0
 11
30.20599999999999
 21
8.962999999999999
 31
0.0
  0
LINE
  5
13C
330
A
100
AcDbEntity
  8
PV
  6
Continuous
 62
     7
100
AcDbLine
 10
30.20599999999999
 20
8.962999999999999
 30
0.0
 11
30.209
 21
9.000999999999999
 31
0.0
  0
LINE
  5
13D
330
A
100
AcDbEntity
  8
PV
  6
Continuous
 62
     7
100
AcDbLine
 10
30.209
 20
9.000999999999999
 30
0.0
 11
30.213
 21
9.038999999999999
 31
0.0
  0
LINE
  5
13E
330
A
100
AcDbEntity
  8
PV
  6
Continuous
 62
     7
100
AcDbLine
 10
30.213
 20
9.038999999999999
 30
0.0
 11
30.21599999999999
 21
9.077999999999999
 31
0.0
  0
LINE
  5
13F
330
A
100
AcDbEntity
  8
PV
  6
Continuous
 62
     7
100
AcDbLine
 10
30.21599999999999
 20
9.077999999999999
 30
0.0
 11
30.219
 21
9.115999999999999
 31
0.0
  0
LINE
  5
140
330
A
100
AcDbEntity
  8
PV
  6
Continuous
 62
     7
100
AcDbLine
 10
30.219
 20
9.115999999999999
 30
0.0
 11
30.223
 21
9.153999999999999
 31
0.0
  0
LINE
  5
141
330
A
100
AcDbEntity
  8
PV
  6
Continuous
 62
     7
100
AcDbLine
 10
30.223
 20
9.153999999999999
 30
0.0
 11
30.226
 21
9.192999999999999
 31
0.0
  0
LINE
  5
142
330
A
100
AcDbEntity
  8
PV
  6
Continuous
 62
     7
100
AcDbLine
 10
30.226
 20
9.192999999999999
 30
0.0
 11
30.228
 21
9.230999999999999
 31
0.0
  0
LINE
  5
143
330
A
100
AcDbEntity
  8
PV
  6
Continuous
 62
     7
100
AcDbLine
 10
30.228
 20
9.230999999999999
 30
0.0
 11
30.23099999999999
 21
9.269999999999999
 31
0.0
  0
LINE
  5
144
330
A
100
AcDbEntity
  8
PV
  6
Continuous
 62
     7
100
AcDbLine
 10
30.23099999999999
 20
9.269999999999999
 30
0.0
 11
30.234
 21
9.307999999999999
 31
0.0
  0
LINE
  5
145
330
A
100
AcDbEntity
  8
PV
  6
Continuous
 62
     7
100
AcDbLine
 10
30.234
 20
9.307999999999999
 30
0.0
 11
30.236
 21
9.346
 31
0.0
  0
LINE
  5
146
330
A
100
AcDbEntity
  8
PV
  6
Continuous
 62
     7
100
AcDbLine
 10
30.236
 20
9.346
 30
0.0
 11
30.238
 21
9.384999999999999
 31
0.0
  0
LINE
  5
147
330
A
100
AcDbEntity
  8
PV
  6
Continuous
 62
     7
100
AcDbLine
 10
30.238
 20
9.384999999999999
 30
0.0
 11
30.24
 21
9.423
 31
0.0
  0
LINE
  5
148
330
A
100
AcDbEntity
  8
PV
  6
Continuous
 62
     7
100
AcDbLine
 10
30.24
 20
9.423
 30
0.0
 11
30.24199999999999
 21
9.461999999999999
 31
0.0
  0
LINE
  5
149
330
A
100
AcDbEntity
  8
PV
  6
Continuous
 62
     7
100
AcDbLine
 10
30.24199999999999
 20
9.461999999999999
 30
0.0
 11
30.24399999999999
 21
9.5
 31
0.0
  0
LINE
  5
14A
330
A
100
AcDbEntity
  8
PV
  6
Continuous
 62
     7
100
AcDbLine
 10
30.24399999999999
 20
9.5
 30
0.0
 11
30.24599999999999
 21
9.538999999999999
 31
0.0
  0
LINE
  5
14B
330
A
100
AcDbEntity
  8
PV
  6
Continuous
 62
     7
100
AcDbLine
 10
30.24599999999999
 20
9.538999999999999
 30
0.0
 11
30.248
 21
9.576999999999999
 31
0.0
  0
LINE
  5
14C
330
A
100
AcDbEntity
  8
PV
  6
Continuous
 62
     7
100
AcDbLine
 10
30.248
 20
9.576999999999999
 30
0.0
 11
30.249
 21
9.615
 31
0.0
  0
LINE
  5
14D
330
A
100
AcDbEntity
  8
PV
  6
Continuous
 62
     7
100
AcDbLine
 10
30.249
 20
9.615
 30
0.0
 11
30.25
 21
9.653999999999999
 31
0.0
  0
LINE
  5
14E
330
A
100
AcDbEntity
  8
PV
  6
Continuous
 62
     7
100
AcDbLine
 10
30.25
 20
9.653999999999999
 30
0.0
 11
30.251
 21
9.692
 31
0.0
  0
LINE
  5
14F
330
A
100
AcDbEntity
  8
PV
  6
Continuous
 62
     7
100
AcDbLine
 10
30.251
 20
9.692
 30
0.0
 11
30.253
 21
9.730999999999999
 31
0.0
  0
LINE
  5
150
330
A
100
AcDbEntity
  8
PV
  6
Continuous
 62
     7
100
AcDbLine
 10
30.253
 20
9.730999999999999
 30
0.0
 11
30.253
 21
9.769
 31
0.0
  0
LINE
  5
151
330
A
100
AcDbEntity
  8
PV
  6
Continuous
 62
     7
100
AcDbLine
 10
30.253
 20
9.769
 30
0.0
 11
30.254
 21
9.807999999999999
 31
0.0
  0
LINE
  5
152
330
A
100
AcDbEntity
  8
PV
  6
Continuous
 62
     7
100
AcDbLine
 10
30.254
 20
9.807999999999999
 30
0.0
 11
30.255
 21
9.846
 31
0.0
  0
LINE
  5
153
330
A
100
AcDbEntity
  8
PV
  6
Continuous
 62
     7
100
AcDbLine
 10
30.255
 20
9.846
 30
0.0
 11
30.255
 21
9.884999999999999
 31
0.0
  0
LINE
  5
154
330
A
100
AcDbEntity
  8
PV
  6
Continuous
 62
     7
100
AcDbLine
 10
30.255
 20
9.884999999999999
 30
0.0
 11
30.256
 21
9.923
 31
0.0
  0
LINE
  5
155
330
A
100
AcDbEntity
  8
PV
  6
Continuous
 62
     7
100
AcDbLine
 10
30.256
 20
9.923
 30
0.0
 11
30.256
 21
9.961999999999999
 31
0.0
  0
LINE
  5
156
330
A
100
AcDbEntity
  8
PV
  6
Continuous
 62
     7
100
AcDbLine
 10
30.256
 20
9.961999999999999
 30
0.0
 11
30.256
 21
10.0
 31
0.0
  0
LINE
  5
157
330
A
100
AcDbEntity
  8
PV
  6
Continuous
 62
     7
100
AcDbLine
 10
-24.256
 20
10.0
 30
0.0
 11
-24.256
 21
9.961999999999999
 31
0.0
  0
LINE
  5
158
330
A
100
AcDbEntity
  8
PV
  6
Continuous
 62
     7
100
AcDbLine
 10
-24.256
 20
9.961999999999999
 30
0.0
 11
-24.256
 21
9.923
 31
0.0
  0
LINE
  5
159
330
A
100
AcDbEntity
  8
PV
  6
Continuous
 62
     7
100
AcDbLine
 10
-24.256
 20
9.923
 30
0.0
 11
-24.25499999999999
 21
9.884999999999999
 31
0.0
  0
LINE
  5
15A
330
A
100
AcDbEntity
  8
PV
  6
Continuous
 62
     7
100
AcDbLine
 10
-24.25499999999999
 20
9.884999999999999
 30
0.0
 11
-24.25499999999999
 21
9.846
 31
0.0
  0
LINE
  5
15B
330
A
100
AcDbEntity
  8
PV
  6
Continuous
 62
     7
100
AcDbLine
 10
-24.25499999999999
 20
9.846
 30
0.0
 11
-24.254
 21
9.807999999999999
 31
0.0
  0
LINE
  5
15C
330
A
100
AcDbEntity
  8
PV
  6
Continuous
 62
     7
100
AcDbLine
 10
-24.254
 20
9.807999999999999
 30
0.0
 11
-24.253
 21
9.769
 31
0.0
  0
LINE
  5
15D
330
A
100
AcDbEntity
  8
PV
  6
Continuous
 62
     7
100
AcDbLine
 10
-24.253
 20
9.769
 30
0.0
 11
-24.252
 21
9.730999999999999
 31
0.0
  0
LINE
  5
15E
330
A
100
AcDbEntity
  8
PV
  6
Continuous
 62
     7
100
AcDbLine
 10
-24.252
 20
9.730999999999999
 30
0.0
 11
-24.251
 21
9.692
 31
0.0
  0
LINE
  5
15F
330
A
100
AcDbEntity
  8
PV
  6
Continuous
 62
     7
100
AcDbLine
 10
-24.251
 20
9.692
 30
0.0
 11
-24.25
 21
9.653999999999999
 31
0.0
  0
LINE
  5
160
330
A
100
AcDbEntity
  8
PV
  6
Continuous
 62
     7
100
AcDbLine
 10
-24.25
 20
9.653999999999999
 30
0.0
 11
-24.249
 21
9.615
 31
0.0
  0
LINE
  5
161
330
A
100
AcDbEntity
  8
PV
  6
Continuous
 62
     7
100
AcDbLine
 10
-24.249
 20
9.615
 30
0.0
 11
-24.248
 21
9.576999999999999
 31
0.0
  0
LINE
  5
162
330
A
100
AcDbEntity
  8
PV
  6
Continuous
 62
     7
100
AcDbLine
 10
-24.248
 20
9.576999999999999
 30
0.0
 11
-24.24599999999999
 21
9.538999999999999
 31
0.0
  0
LINE
  5
163
330
A
100
AcDbEntity
  8
PV
  6
Continuous
 62
     7
100
AcDbLine
 10
-24.24599999999999
 20
9.538999999999999
 30
0.0
 11
-24.244
 21
9.5
 31
0.0
  0
LINE
  5
164
330
A
100
AcDbEntity
  8
PV
  6
Continuous
 62
     7
100
AcDbLine
 10
-24.244
 20
9.5
 30
0.0
 11
-24.24199999999999
 21
9.461999999999999
 31
0.0
  0
LINE
  5
165
330
A
100
AcDbEntity
  8
PV
  6
Continuous
 62
     7
100
AcDbLine
 10
-24.24199999999999
 20
9.461999999999999
 30
0.0
 11
-24.23999999999999
 21
9.423
 31
0.0
  0
LINE
  5
166
330
A
100
AcDbEntity
  8
PV
  6
Continuous
 62
     7
100
AcDbLine
 10
-24.23999999999999
 20
9.423
 30
0.0
 11
-24.238
 21
9.384999999999999
 31
0.0
  0
LINE
  5
167
330
A
100
AcDbEntity
  8
PV
  6
Continuous
 62
     7
100
AcDbLine
 10
-24.238
 20
9.384999999999999
 30
0.0
 11
-24.236
 21
9.346
 31
0.0
  0
LINE
  5
168
330
A
100
AcDbEntity
  8
PV
  6
Continuous
 62
     7
100
AcDbLine
 10
-24.236
 20
9.346
 30
0.0
 11
-24.234
 21
9.307999999999999
 31
0.0
  0
LINE
  5
169
330
A
100
AcDbEntity
  8
PV
  6
Continuous
 62
     7
100
AcDbLine
 10
-24.234
 20
9.307999999999999
 30
0.0
 11
-24.23099999999999
 21
9.269999999999999
 31
0.0
  0
LINE
  5
16A
330
A
100
AcDbEntity
  8
PV
  6
Continuous
 62
     7
100
AcDbLine
 10
-24.23099999999999
 20
9.269999999999999
 30
0.0
 11
-24.228
 21
9.230999999999999
 31
0.0
  0
LINE
  5
16B
330
A
100
AcDbEntity
  8
PV
  6
Continuous
 62
     7
100
AcDbLine
 10
-24.228
 20
9.230999999999999
 30
0.0
 11
-24.226
 21
9.192999999999999
 31
0.0
  0
LINE
  5
16C
330
A
100
AcDbEntity
  8
PV
  6
Continuous
 62
     7
100
AcDbLine
 10
-24.226
 20
9.192999999999999
 30
0.0
 11
-24.223
 21
9.153999999999999
 31
0.0
  0
LINE
  5
16D
330
A
100
AcDbEntity
  8
PV
  6
Continuous
 62
     7
100
AcDbLine
 10
-24.223
 20
9.153999999999999
 30
0.0
 11
-24.219
 21
9.115999999999999
 31
0.0
  0
LINE
  5
16E
330
A
100
AcDbEntity
  8
PV
  6
Continuous
 62
     7
100
AcDbLine
 10
-24.219
 20
9.115999999999999
 30
0.0
 11
-24.21599999999999
 21
9.077999999999999
 31
0.0
  0
LINE
  5
16F
330
A
100
AcDbEntity
  8
PV
  6
Continuous
 62
     7
100
AcDbLine
 10
-24.21599999999999
 20
9.077999999999999
 30
0.0
 11
-24.213
 21
9.038999999999999
 31
0.0
  0
LINE
  5
170
330
A
100
AcDbEntity
  8
PV
  6
Continuous
 62
     7
100
AcDbLine
 10
-24.213
 20
9.038999999999999
 30
0.0
 11
-24.209
 21
9.000999999999999
 31
0.0
  0
LINE
  5
171
330
A
100
AcDbEntity
  8
PV
  6
Continuous
 62
     7
100
AcDbLine
 10
-24.209
 20
9.000999999999999
 30
0.0
 11
-24.206
 21
8.962999999999999
 31
0.0
  0
LINE
  5
172
330
A
100
AcDbEntity
  8
PV
  6
Continuous
 62
     7
100
AcDbLine
 10
-24.206
 20
8.962999999999999
 30
0.0
 11
-24.20199999999999
 21
8.925
 31
0.0
  0
LINE
  5
173
330
A
100
AcDbEntity
  8
PV
  6
Continuous
 62
     7
100
AcDbLine
 10
-24.20199999999999
 20
8.925
 30
0.0
 11
-24.198
 21
8.886000000000001
 31
0.0
  0
LINE
  5
174
330
A
100
AcDbEntity
  8
PV
  6
Continuous
 62
     7
100
AcDbLine
 10
-24.198
 20
8.886000000000001
 30
0.0
 11
-24.194
 21
8.847999999999998
 31
0.0
  0
LINE
  5
175
330
A
100
AcDbEntity
  8
PV
  6
Continuous
 62
     7
100
AcDbLine
 10
-24.194
 20
8.847999999999998
 30
0.0
 11
-24.189
 21
8.81
 31
0.0
  0
LINE
  5
176
330
A
100
AcDbEntity
  8
PV
  6
Continuous
 62
     7
100
AcDbLine
 10
-24.189
 20
8.81
 30
0.0
 11
-24.18499999999999
 21
8.772
 31
0.0
  0
LINE
  5
177
330
A
100
AcDbEntity
  8
PV
  6
Continuous
 62
     7
100
AcDbLine
 10
-24.18499999999999
 20
8.772
 30
0.0
 11
-24.18
 21
8.732999999999998
 31
0.0
  0
LINE
  5
178
330
A
100
AcDbEntity
  8
PV
  6
Continuous
 62
     7
100
AcDbLine
 10
-24.18
 20
8.732999999999998
 30
0.0
 11
-24.176
 21
8.695
 31
0.0
  0
LINE
  5
179
330
A
100
AcDbEntity
  8
PV
  6
Continuous
 62
     7
100
AcDbLine
 10
-24.176
 20
8.695
 30
0.0
 11
-24.171
 21
8.657
 31
0.0
  0
LINE
  5
17A
330
A
100
AcDbEntity
  8
PV
  6
Continuous
 62
     7
100
AcDbLine
 10
-24.171
 20
8.657
 30
0.0
 11
-24.166
 21
8.618999999999999
 31
0.0
  0
LINE
  5
17B
330
A
100
AcDbEntity
  8
PV
  6
Continuous
 62
     7
100
AcDbLine
 10
-24.166
 20
8.618999999999999
 30
0.0
 11
-24.161
 21
8.580999999999999
 31
0.0
  0
LINE
  5
17C
330
A
100
AcDbEntity
  8
PV
  6
Continuous
 62
     7
100
AcDbLine
 10
-24.161
 20
8.580999999999999
 30
0.0
 11
-24.15599999999999
 21
8.542999999999999
 31
0.0
  0
LINE
  5
17D
330
A
100
AcDbEntity
  8
PV
  6
Continuous
 62
     7
100
AcDbLine
 10
-24.15599999999999
 20
8.542999999999999
 30
0.0
 11
-24.15
 21
8.503999999999999
 31
0.0
  0
LINE
  5
17E
330
A
100
AcDbEntity
  8
PV
  6
Continuous
 62
     7
100
AcDbLine
 10
-24.15
 20
8.503999999999999
 30
0.0
 11
-24.144
 21
8.466000000000001
 31
0.0
  0
LINE
  5
17F
330
A
100
AcDbEntity
  8
PV
  6
Continuous
 62
     7
100
AcDbLine
 10
-24.144
 20
8.466000000000001
 30
0.0
 11
-24.13899999999999
 21
8.427999999999999
 31
0.0
  0
LINE
  5
180
330
A
100
AcDbEntity
  8
PV
  6
Continuous
 62
     7
100
AcDbLine
 10
-24.13899999999999
 20
8.427999999999999
 30
0.0
 11
-24.133
 21
8.39
 31
0.0
  0
LINE
  5
181
330
A
100
AcDbEntity
  8
PV
  6
Continuous
 62
     7
100
AcDbLine
 10
-24.133
 20
8.39
 30
0.0
 11
-24.127
 21
8.352
 31
0.0
  0
LINE
  5
182
330
A
100
AcDbEntity
  8
PV
  6
Continuous
 62
     7
100
AcDbLine
 10
-24.127
 20
8.352
 30
0.0
 11
-24.121
 21
8.314
 31
0.0
  0
LINE
  5
183
330
A
100
AcDbEntity
  8
PV
  6
Continuous
 62
     7
100
AcDbLine
 10
-24.121
 20
8.314
 30
0.0
 11
-24.114
 21
8.275999999999999
 31
0.0
  0
LINE
  5
184
330
A
100
AcDbEntity
  8
PV
  6
Continuous
 62
     7
100
AcDbLine
 10
-24.114
 20
8.275999999999999
 30
0.0
 11
-24.108
 21
8.237999999999999
 31
0.0
  0
LINE
  5
185
330
A
100
AcDbEntity
  8
PV
  6
Continuous
 62
     7
100
AcDbLine
 10
-24.108
 20
8.237999999999999
 30
0.0
 11
-24.10099999999999
 21
8.201
 31
0.0
  0
LINE
  5
186
330
A
100
AcDbEntity
  8
PV
  6
Continuous
 62
     7
100
AcDbLine
 10
-24.10099999999999
 20
8.201
 30
0.0
 11
-24.094
 21
8.163
 31
0.0
  0
LINE
  5
187
330
A
100
AcDbEntity
  8
PV
  6
Continuous
 62
     7
100
AcDbLine
 10
-24.094
 20
8.163
 30
0.0
 11
-24.087
 21
8.125
 31
0.0
  0
LINE
  5
188
330
A
100
AcDbEntity
  8
PV
  6
Continuous
 62
     7
100
AcDbLine
 10
-24.087
 20
8.125
 30
0.0
 11
-24.07999999999999
 21
8.086999999999999
 31
0.0
  0
LINE
  5
189
330
A
100
AcDbEntity
  8
PV
  6
Continuous
 62
     7
100
AcDbLine
 10
-24.07999999999999
 20
8.086999999999999
 30
0.0
 11
-24.073
 21
8.048999999999999
 31
0.0
  0
LINE
  5
18A
330
A
100
AcDbEntity
  8
PV
  6
Continuous
 62
     7
100
AcDbLine
 10
-24.073
 20
8.048999999999999
 30
0.0
 11
-24.065
 21
8.012
 31
0.0
  0
LINE
  5
18B
330
A
100
AcDbEntity
  8
PV
  6
Continuous
 62
     7
100
AcDbLine
 10
-24.065
 20
8.012
 30
0.0
 11
-24.058
 21
7.974
 31
0.0
  0
LINE
  5
18C
330
A
100
AcDbEntity
  8
PV
  6
Continuous
 62
     7
100
AcDbLine
 10
-24.058
 20
7.974
 30
0.0
 11
-24.05
 21
7.935999999999999
 31
0.0
  0
LINE
  5
18D
330
A
100
AcDbEntity
  8
PV
  6
Continuous
 62
     7
100
AcDbLine
 10
-24.05
 20
7.935999999999999
 30
0.0
 11
-24.04199999999999
 21
7.897999999999999
 31
0.0
  0
LINE
  5
18E
330
A
100
AcDbEntity
  8
PV
  6
Continuous
 62
     7
100
AcDbLine
 10
-24.04199999999999
 20
7.897999999999999
 30
0.0
 11
-24.034
 21
7.861
 31
0.0
  0
LINE
  5
18F
330
A
100
AcDbEntity
  8
PV
  6
Continuous
 62
     7
100
AcDbLine
 10
-24.034
 20
7.861
 30
0.0
 11
-24.026
 21
7.822999999999999
 31
0.0
  0
LINE
  5
190
330
A
100
AcDbEntity
  8
PV
  6
Continuous
 62
     7
100
AcDbLine
 10
-24.026
 20
7.822999999999999
 30
0.0
 11
-24.01699999999999
 21
7.786
 31
0.0
  0
LINE
  5
191
330
A
100
AcDbEntity
  8
PV
  6
Continuous
 62
     7
100
AcDbLine
 10
-24.01699999999999
 20
7.786
 30
0.0
 11
-24.009
 21
7.747999999999999
 31
0.0
  0
LINE
  5
192
330
A
100
AcDbEntity
  8
PV
  6
Continuous
 62
     7
100
AcDbLine
 10
-24.009
 20
7.747999999999999
 30
0.0
 11
-24.0
 21
7.711
 31
0.0
  0
LINE
  5
193
330
A
100
AcDbEntity
  8
PV
  6
Continuous
 62
     7
100
AcDbLine
 10
-24.0
 20
7.711
 30
0.0
 11
-23.991
 21
7.672999999999999
 31
0.0
  0
LINE
  5
194
330
A
100
AcDbEntity
  8
PV
  6
Continuous
 62
     7
100
AcDbLine
 10
-23.991
 20
7.672999999999999
 30
0.0
 11
-23.982
 21
7.636
 31
0.0
  0
LINE
  5
195
330
A
100
AcDbEntity
  8
PV
  6
Continuous
 62
     7
100
AcDbLine
 10
-23.982
 20
7.636
 30
0.0
 11
-23.973
 21
7.599
 31
0.0
  0
LINE
  5
196
330
A
100
AcDbEntity
  8
PV
  6
Continuous
 62
     7
100
AcDbLine
 10
-23.973
 20
7.599
 30
0.0
 11
-23.963
 21
7.560999999999999
 31
0.0
  0
LINE
  5
197
330
A
100
AcDbEntity
  8
PV
  6
Continuous
 62
     7
100
AcDbLine
 10
-23.963
 20
7.560999999999999
 30
0.0
 11
-23.95399999999999
 21
7.524
 31
0.0
  0
LINE
  5
198
330
A
100
AcDbEntity
  8
PV
  6
Continuous
 62
     7
100
AcDbLine
 10
-23.95399999999999
 20
7.524
 30
0.0
 11
-23.944
 21
7.487
 31
0.0
  0
LINE
  5
199
330
A
100
AcDbEntity
  8
PV
  6
Continuous
 62
     7
100
AcDbLine
 10
-23.944
 20
7.487
 30
0.0
 11
-23.934
 21
7.45
 31
0.0
  0
LINE
  5
19A
330
A
100
AcDbEntity
  8
PV
  6
Continuous
 62
     7
100
AcDbLine
 10
-23.934
 20
7.45
 30
0.0
 11
-23.92399999999999
 21
7.412999999999999
 31
0.0
  0
LINE
  5
19B
330
A
100
AcDbEntity
  8
PV
  6
Continuous
 62
     7
100
AcDbLine
 10
-23.92399999999999
 20
7.412999999999999
 30
0.0
 11
-23.913
 21
7.375
 31
0.0
  0
LINE
  5
19C
330
A
100
AcDbEntity
  8
PV
  6
Continuous
 62
     7
100
AcDbLine
 10
-23.913
 20
7.375
 30
0.0
 11
-23.903
 21
7.337999999999999
 31
0.0
  0
LINE
  5
19D
330
A
100
AcDbEntity
  8
PV
  6
Continuous
 62
     7
100
AcDbLine
 10
-23.903
 20
7.337999999999999
 30
0.0
 11
-23.892
 21
7.302
 31
0.0
  0
LINE
  5
19E
330
A
100
AcDbEntity
  8
PV
  6
Continuous
 62
     7
100
AcDbLine
 10
-23.892
 20
7.302
 30
0.0
 11
-23.881
 21
7.264999999999999
 31
0.0
  0
LINE
  5
19F
330
A
100
AcDbEntity
  8
PV
  6
Continuous
 62
     7
100
AcDbLine
 10
-23.881
 20
7.264999999999999
 30
0.0
 11
-23.87
 21
7.227999999999999
 31
0.0
  0
LINE
  5
1A0
330
A
100
AcDbEntity
  8
PV
  6
Continuous
 62
     7
100
AcDbLine
 10
-23.87
 20
7.227999999999999
 30
0.0
 11
-23.859
 21
7.190999999999999
 31
0.0
  0
LINE
  5
1A1
330
A
100
AcDbEntity
  8
PV
  6
Continuous
 62
     7
100
AcDbLine
 10
-23.859
 20
7.190999999999999
 30
0.0
 11
-23.847
 21
7.153999999999999
 31
0.0
  0
LINE
  5
1A2
330
A
100
AcDbEntity
  8
PV
  6
Continuous
 62
     7
100
AcDbLine
 10
-23.847
 20
7.153999999999999
 30
0.0
 11
-23.835
 21
7.117999999999999
 31
0.0
  0
LINE
  5
1A3
330
A
100
AcDbEntity
  8
PV
  6
Continuous
 62
     7
100
AcDbLine
 10
-23.835
 20
7.117999999999999
 30
0.0
 11
-23.823
 21
7.081
 31
0.0
  0
LINE
  5
1A4
330
A
100
AcDbEntity
  8
PV
  6
Continuous
 62
     7
100
AcDbLine
 10
-23.823
 20
7.081
 30
0.0
 11
-23.81099999999999
 21
7.044999999999999
 31
0.0
  0
LINE
  5
1A5
330
A
100
AcDbEntity
  8
PV
  6
Continuous
 62
     7
100
AcDbLine
 10
-23.81099999999999
 20
7.044999999999999
 30
0.0
 11
-23.799
 21
7.007999999999999
 31
0.0
  0
LINE
  5
1A6
330
A
100
AcDbEntity
  8
PV
  6
Continuous
 62
     7
100
AcDbLine
 10
-23.799
 20
7.007999999999999
 30
0.0
 11
-23.78699999999999
 21
6.972
 31
0.0
  0
LINE
  5
1A7
330
A
100
AcDbEntity
  8
PV
  6
Continuous
 62
     7
100
AcDbLine
 10
-23.78699999999999
 20
6.972
 30
0.0
 11
-23.774
 21
6.934999999999999
 31
0.0
  0
LINE
  5
1A8
330
A
100
AcDbEntity
  8
PV
  6
Continuous
 62
     7
100
AcDbLine
 10
-23.774
 20
6.934999999999999
 30
0.0
 11
-23.761
 21
6.899
 31
0.0
  0
LINE
  5
1A9
330
A
100
AcDbEntity
  8
PV
  6
Continuous
 62
     7
100
AcDbLine
 10
-23.761
 20
6.899
 30
0.0
 11
-23.748
 21
6.862999999999999
 31
0.0
  0
LINE
  5
1AA
330
A
100
AcDbEntity
  8
PV
  6
Continuous
 62
     7
100
AcDbLine
 10
-23.748
 20
6.862999999999999
 30
0.0
 11
-23.734
 21
6.827
 31
0.0
  0
LINE
  5
1AB
330
A
100
AcDbEntity
  8
PV
  6
Continuous
 62
     7
100
AcDbLine
 10
-23.734
 20
6.827
 30
0.0
 11
-23.721
 21
6.791
 31
0.0
  0
LINE
  5
1AC
330
A
100
AcDbEntity
  8
PV
  6
Continuous
 62
     7
100
AcDbLine
 10
-23.721
 20
6.791
 30
0.0
 11
-23.70699999999999
 21
6.754999999999999
 31
0.0
  0
LINE
  5
1AD
330
A
100
AcDbEntity
  8
PV
  6
Continuous
 62
     7
100
AcDbLine
 10
-23.70699999999999
 20
6.754999999999999
 30
0.0
 11
-23.693
 21
6.718999999999999
 31
0.0
  0
LINE
  5
1AE
330
A
100
AcDbEntity
  8
PV
  6
Continuous
 62
     7
100
AcDbLine
 10
-23.693
 20
6.718999999999999
 30
0.0
 11
-23.679
 21
6.682999999999999
 31
0.0
  0
LINE
  5
1AF
330
A
100
AcDbEntity
  8
PV
  6
Continuous
 62
     7
100
AcDbLine
 10
-23.679
 20
6.682999999999999
 30
0.0
 11
-23.664
 21
6.647999999999999
 31
0.0
  0
LINE
  5
1B0
330
A
100
AcDbEntity
  8
PV
  6
Continuous
 62
     7
100
AcDbLine
 10
-23.664
 20
6.647999999999999
 30
0.0
 11
-23.649
 21
6.612
 31
0.0
  0
LINE
  5
1B1
330
A
100
AcDbEntity
  8
PV
  6
Continuous
 62
     7
100
AcDbLine
 10
-23.649
 20
6.612
 30
0.0
 11
-23.63399999999999
 21
6.577
 31
0.0
  0
LINE
  5
1B2
330
A
100
AcDbEntity
  8
PV
  6
Continuous
 62
     7
100
AcDbLine
 10
-23.63399999999999
 20
6.577
 30
0.0
 11
-23.61899999999999
 21
6.541
 31
0.0
  0
LINE
  5
1B3
330
A
100
AcDbEntity
  8
PV
  6
Continuous
 62
     7
100
AcDbLine
 10
-23.61899999999999
 20
6.541
 30
0.0
 11
-23.60399999999999
 21
6.506
 31
0.0
  0
LINE
  5
1B4
330
A
100
AcDbEntity
  8
PV
  6
Continuous
 62
     7
100
AcDbLine
 10
-23.60399999999999
 20
6.506
 30
0.0
 11
-23.588
 21
6.471
 31
0.0
  0
LINE
  5
1B5
330
A
100
AcDbEntity
  8
PV
  6
Continuous
 62
     7
100
AcDbLine
 10
-23.588
 20
6.471
 30
0.0
 11
-23.572
 21
6.435999999999999
 31
0.0
  0
LINE
  5
1B6
330
A
100
AcDbEntity
  8
PV
  6
Continuous
 62
     7
100
AcDbLine
 10
-23.572
 20
6.435999999999999
 30
0.0
 11
-23.55599999999999
 21
6.400999999999999
 31
0.0
  0
LINE
  5
1B7
330
A
100
AcDbEntity
  8
PV
  6
Continuous
 62
     7
100
AcDbLine
 10
-23.55599999999999
 20
6.400999999999999
 30
0.0
 11
-23.539
 21
6.366
 31
0.0
  0
LINE
  5
1B8
330
A
100
AcDbEntity
  8
PV
  6
Continuous
 62
     7
100
AcDbLine
 10
-23.539
 20
6.366
 30
0.0
 11
-23.52199999999999
 21
6.332
 31
0.0
  0
LINE
  5
1B9
330
A
100
AcDbEntity
  8
PV
  6
Continuous
 62
     7
100
AcDbLine
 10
-23.52199999999999
 20
6.332
 30
0.0
 11
-23.50499999999999
 21
6.297
 31
0.0
  0
LINE
  5
1BA
330
A
100
AcDbEntity
  8
PV
  6
Continuous
 62
     7
100
AcDbLine
 10
-23.50499999999999
 20
6.297
 30
0.0
 11
-23.488
 21
6.262999999999999
 31
0.0
  0
LINE
  5
1BB
330
A
100
AcDbEntity
  8
PV
  6
Continuous
 62
     7
100
AcDbLine
 10
-23.488
 20
6.262999999999999
 30
0.0
 11
-23.46999999999999
 21
6.227999999999999
 31
0.0
  0
LINE
  5
1BC
330
A
100
AcDbEntity
  8
PV
  6
Continuous
 62
     7
100
AcDbLine
 10
-23.46999999999999
 20
6.227999999999999
 30
0.0
 11
-23.453
 21
6.193999999999999
 31
0.0
  0
LINE
  5
1BD
330
A
100
AcDbEntity
  8
PV
  6
Continuous
 62
     7
100
AcDbLine
 10
-23.453
 20
6.193999999999999
 30
0.0
 11
-23.434
 21
6.16
 31
0.0
  0
LINE
  5
1BE
330
A
100
AcDbEntity
  8
PV
  6
Continuous
 62
     7
100
AcDbLine
 10
-23.434
 20
6.16
 30
0.0
 11
-23.416
 21
6.126
 31
0.0
  0
LINE
  5
1BF
330
A
100
AcDbEntity
  8
PV
  6
Continuous
 62
     7
100
AcDbLine
 10
-23.416
 20
6.126
 30
0.0
 11
-23.397
 21
6.092999999999999
 31
0.0
  0
LINE
  5
1C0
330
A
100
AcDbEntity
  8
PV
  6
Continuous
 62
     7
100
AcDbLine
 10
-23.397
 20
6.092999999999999
 30
0.0
 11
-23.378
 21
6.059
 31
0.0
  0
LINE
  5
1C1
330
A
100
AcDbEntity
  8
PV
  6
Continuous
 62
     7
100
AcDbLine
 10
-23.378
 20
6.059
 30
0.0
 11
-23.358
 21
6.025999999999999
 31
0.0
  0
LINE
  5
1C2
330
A
100
AcDbEntity
  8
PV
  6
Continuous
 62
     7
100
AcDbLine
 10
-23.358
 20
6.025999999999999
 30
0.0
 11
-23.339
 21
5.992999999999999
 31
0.0
  0
LINE
  5
1C3
330
A
100
AcDbEntity
  8
PV
  6
Continuous
 62
     7
100
AcDbLine
 10
-23.339
 20
5.992999999999999
 30
0.0
 11
-23.318
 21
5.959999999999999
 31
0.0
  0
LINE
  5
1C4
330
A
100
AcDbEntity
  8
PV
  6
Continuous
 62
     7
100
AcDbLine
 10
-23.318
 20
5.959999999999999
 30
0.0
 11
-23.298
 21
5.927999999999999
 31
0.0
  0
LINE
  5
1C5
330
A
100
AcDbEntity
  8
PV
  6
Continuous
 62
     7
100
AcDbLine
 10
-23.298
 20
5.927999999999999
 30
0.0
 11
-23.27699999999999
 21
5.894999999999999
 31
0.0
  0
LINE
  5
1C6
330
A
100
AcDbEntity
  8
PV
  6
Continuous
 62
     7
100
AcDbLine
 10
-23.27699999999999
 20
5.894999999999999
 30
0.0
 11
-23.256
 21
5.862999999999999
 31
0.0
  0
LINE
  5
1C7
330
A
100
AcDbEntity
  8
PV
  6
Continuous
 62
     7
100
AcDbLine
 10
-23.256
 20
5.862999999999999
 30
0.0
 11
-23.234
 21
5.831
 31
0.0
  0
LINE
  5
1C8
330
A
100
AcDbEntity
  8
PV
  6
Continuous
 62
     7
100
AcDbLine
 10
-23.234
 20
5.831
 30
0.0
 11
-23.212
 21
5.799999999999999
 31
0.0
  0
LINE
  5
1C9
330
A
100
AcDbEntity
  8
PV
  6
Continuous
 62
     7
100
AcDbLine
 10
-23.212
 20
5.799999999999999
 30
0.0
 11
-23.19
 21
5.767999999999999
 31
0.0
  0
LINE
  5
1CA
330
A
100
AcDbEntity
  8
PV
  6
Continuous
 62
     7
100
AcDbLine
 10
-23.19
 20
5.767999999999999
 30
0.0
 11
-23.16699999999999
 21
5.737
 31
0.0
  0
LINE
  5
1CB
330
A
100
AcDbEntity
  8
PV
  6
Continuous
 62
     7
100
AcDbLine
 10
-23.16699999999999
 20
5.737
 30
0.0
 11
-23.144
 21
5.707
 31
0.0
  0
LINE
  5
1CC
330
A
100
AcDbEntity
  8
PV
  6
Continuous
 62
     7
100
AcDbLine
 10
-23.144
 20
5.707
 30
0.0
 11
-23.12
 21
5.676
 31
0.0
  0
LINE
  5
1CD
330
A
100
AcDbEntity
  8
PV
  6
Continuous
 62
     7
100
AcDbLine
 10
-23.12
 20
5.676
 30
0.0
 11
-23.096
 21
5.645999999999999
 31
0.0
  0
LINE
  5
1CE
330
A
100
AcDbEntity
  8
PV
  6
Continuous
 62
     7
100
AcDbLine
 10
-23.096
 20
5.645999999999999
 30
0.0
 11
-23.07199999999999
 21
5.617
 31
0.0
  0
LINE
  5
1CF
330
A
100
AcDbEntity
  8
PV
  6
Continuous
 62
     7
100
AcDbLine
 10
109.927
 20
21.53799999999999
 30
0.0
 11
110.854
 21
25.0
 31
0.0
  0
LINE
  5
1D0
330
A
100
AcDbEntity
  8
PV
  6
Continuous
 62
     7
100
AcDbLine
 10
110.854
 20
25.0
 30
0.0
 11
111.782
 21
21.53799999999999
 31
0.0
  0
LINE
  5
1D1
330
A
100
AcDbEntity
  8
PV
  6
Continuous
 62
     7
100
AcDbLine
 10
110.854
 20
25.0
 30
0.0
 11
110.854
 21
21.53799999999999
 31
0.0
  0
LINE
  5
1D2
330
A
100
AcDbEntity
  8
PV
  6
Continuous
 62
     7
100
AcDbLine
 10
111.782
 20
-163.037
 30
0.0
 11
110.854
 21
-166.5
 31
0.0
  0
LINE
  5
1D3
330
A
100
AcDbEntity
  8
PV
  6
Continuous
 62
     7
100
AcDbLine
 10
110.854
 20
-166.5
 30
0.0
 11
109.927
 21
-163.037
 31
0.0
  0
LINE
  5
1D4
330
A
100
AcDbEntity
  8
PV
  6
Continuous
 62
     7
100
AcDbLine
 10
110.854
 20
-166.5
 30
0.0
 11
110.854
 21
-163.037
 31
0.0
  0
LINE
  5
1D5
330
A
100
AcDbEntity
  8
PV
  6
Continuous
 62
     7
100
AcDbLine
 10
110.854
 20
25.0
 30
0.0
 11
110.854
 21
-166.5
 31
0.0
  0
LINE
  5
1D6
330
A
100
AcDbEntity
  8
PV
  6
Continuous
 62
     7
100
AcDbLine
 10
34.264405
 20
25.0
 30
0.0
 11
113.1399999999999
 21
25.0
 31
0.0
  0
LINE
  5
1D7
330
A
100
AcDbEntity
  8
PV
  6
Continuous
 62
     7
100
AcDbLine
 10
69.125
 20
-166.5
 30
0.0
 11
113.1399999999999
 21
-166.5
 31
0.0
  0
MTEXT
  5
1D8
330
A
100
AcDbEntity
  8
PV
  6
Continuous
 62
     7
100
AcDbMText
 10
100.070666
 20
-70.75
 30
0.0
 40
8.4
 41
0.0
 71
     2
 72
     1
  1
\A1;191.5～211.5
 11
0.0
 21
1.0
 31
0.0
 73
     1
 44
1.0
  0
POINT
  5
1D9
330
A
100
AcDbEntity
  8
PV
  6
Continuous
 62
     7
100
AcDbPoint
 10
28.5
 20
25.0
 30
0.0
  0
POINT
  5
1DA
330
A
100
AcDbEntity
  8
PV
  6
Continuous
 62
     7
100
AcDbPoint
 10
58.95
 20
-166.5
 30
0.0
  0
POINT
  5
1DB
330
A
100
AcDbEntity
  8
PV
  6
Continuous
 62
     7
100
AcDbPoint
 10
110.854
 20
-166.5
 30
0.0
  0
LINE
  5
1DC
330
A
100
AcDbEntity
  8
PV
  6
Continuous
 62
     7
100
AcDbLine
 10
90.35999999999999
 20
177.544
 30
0.0
 11
91.288
 21
181.0059999999999
 31
0.0
  0
LINE
  5
1DD
330
A
100
AcDbEntity
  8
PV
  6
Continuous
 62
     7
100
AcDbLine
 10
91.288
 20
181.0059999999999
 30
0.0
 11
92.216
 21
177.544
 31
0.0
  0
LINE
  5
1DE
330
A
100
AcDbEntity
  8
PV
  6
Continuous
 62
     7
100
AcDbLine
 10
91.288
 20
181.0059999999999
 30
0.0
 11
91.288
 21
177.544
 31
0.0
  0
LINE
  5
1DF
330
A
100
AcDbEntity
  8
PV
  6
Continuous
 62
     7
100
AcDbLine
 10
92.216
 20
92.469
 30
0.0
 11
91.288
 21
89.006
 31
0.0
  0
LINE
  5
1E0
330
A
100
AcDbEntity
  8
PV
  6
Continuous
 62
     7
100
AcDbLine
 10
91.288
 20
89.006
 30
0.0
 11
90.35999999999999
 21
92.469
 31
0.0
  0
LINE
  5
1E1
330
A
100
AcDbEntity
  8
PV
  6
Continuous
 62
     7
100
AcDbLine
 10
91.288
 20
89.006
 30
0.0
 11
91.288
 21
92.469
 31
0.0
  0
LINE
  5
1E2
330
A
100
AcDbEntity
  8
PV
  6
Continuous
 62
     7
100
AcDbLine
 10
91.288
 20
181.0059999999999
 30
0.0
 11
91.288
 21
89.006
 31
0.0
  0
LINE
  5
1E3
330
A
100
AcDbEntity
  8
PV
  6
Continuous
 62
     7
100
AcDbLine
 10
42.175
 20
181.0059999999999
 30
0.0
 11
94.146
 21
181.0059999999999
 31
0.0
  0
LINE
  5
1E4
330
A
100
AcDbEntity
  8
PV
  6
Continuous
 62
     7
100
AcDbLine
 10
42.175
 20
89.006
 30
0.0
 11
94.146
 21
89.006
 31
0.0
  0
MTEXT
  5
1E5
330
A
100
AcDbEntity
  8
PV
  6
Continuous
 62
     7
100
AcDbMText
 10
81.50466599999999
 20
135.006
 30
0.0
 40
8.4
 41
0.0
 71
     2
 72
     1
  1
\T0.878;\W1.104;\A1;□92
 11
0.0
 21
1.0
 31
0.0
 73
     1
 44
1.0
  0
POINT
  5
1E6
330
A
100
AcDbEntity
  8
PV
  6
Continuous
 62
     7
100
AcDbPoint
 10
39.0
 20
181.0059999999999
 30
0.0
  0
POINT
  5
1E7
330
A
100
AcDbEntity
  8
PV
  6
Continuous
 62
     7
100
AcDbPoint
 10
39.0
 20
89.006
 30
0.0
  0
POINT
  5
1E8
330
A
100
AcDbEntity
  8
PV
  6
Continuous
 62
     7
100
AcDbPoint
 10
91.288
 20
89.006
 30
0.0
  0
CIRCLE
  5
1E9
330
A
100
AcDbEntity
  8
PV
  6
Continuous
 62
     7
100
AcDbCircle
 10
-32.5
 20
170.5059999999999
 30
0.0
 40
5.633999999999999
  0
CIRCLE
  5
1EA
330
A
100
AcDbEntity
  8
PV
  6
Continuous
 62
     7
100
AcDbCircle
 10
-32.5
 20
170.5059999999999
 30
0.0
 40
6.5
  0
LINE
  5
1EB
330
A
100
AcDbEntity
  8
PV
  6
Continuous
 62
     7
100
AcDbLine
 10
-35.5
 20
168.7739999999999
 30
0.0
 11
-32.5
 21
167.042
 31
0.0
  0
LINE
  5
1EC
330
A
100
AcDbEntity
  8
PV
  6
Continuous
 62
     7
100
AcDbLine
 10
-32.5
 20
173.9709999999999
 30
0.0
 11
-29.5
 21
172.238
 31
0.0
  0
LINE
  5
1ED
330
A
100
AcDbEntity
  8
PV
  6
Continuous
 62
     7
100
AcDbLine
 10
-35.5
 20
172.238
 30
0.0
 11
-35.5
 21
168.7739999999999
 31
0.0
  0
LINE
  5
1EE
330
A
100
AcDbEntity
  8
PV
  6
Continuous
 62
     7
100
AcDbLine
 10
-29.5
 20
172.238
 30
0.0
 11
-29.5
 21
168.7739999999999
 31
0.0
  0
LINE
  5
1EF
330
A
100
AcDbEntity
  8
PV
  6
Continuous
 62
     7
100
AcDbLine
 10
-35.5
 20
172.238
 30
0.0
 11
-32.5
 21
173.9709999999999
 31
0.0
  0
LINE
  5
1F0
330
A
100
AcDbEntity
  8
PV
  6
Continuous
 62
     7
100
AcDbLine
 10
-32.5
 20
167.042
 30
0.0
 11
-29.5
 21
168.7739999999999
 31
0.0
  0
CIRCLE
  5
1F1
330
A
100
AcDbEntity
  8
PV
  6
Continuous
 62
     7
100
AcDbCircle
 10
38.5
 20
170.5059999999999
 30
0.0
 40
5.633999999999999
  0
CIRCLE
  5
1F2
330
A
100
AcDbEntity
  8
PV
  6
Continuous
 62
     7
100
AcDbCircle
 10
38.5
 20
170.5059999999999
 30
0.0
 40
6.5
  0
LINE
  5
1F3
330
A
100
AcDbEntity
  8
PV
  6
Continuous
 62
     7
100
AcDbLine
 10
35.5
 20
168.7739999999999
 30
0.0
 11
38.5
 21
167.042
 31
0.0
  0
LINE
  5
1F4
330
A
100
AcDbEntity
  8
PV
  6
Continuous
 62
     7
100
AcDbLine
 10
38.5
 20
173.9709999999999
 30
0.0
 11
41.5
 21
172.238
 31
0.0
  0
LINE
  5
1F5
330
A
100
AcDbEntity
  8
PV
  6
Continuous
 62
     7
100
AcDbLine
 10
35.5
 20
172.238
 30
0.0
 11
35.5
 21
168.7739999999999
 31
0.0
  0
LINE
  5
1F6
330
A
100
AcDbEntity
  8
PV
  6
Continuous
 62
     7
100
AcDbLine
 10
41.5
 20
172.238
 30
0.0
 11
41.5
 21
168.7739999999999
 31
0.0
  0
LINE
  5
1F7
330
A
100
AcDbEntity
  8
PV
  6
Continuous
 62
     7
100
AcDbLine
 10
35.5
 20
172.238
 30
0.0
 11
38.5
 21
173.9709999999999
 31
0.0
  0
LINE
  5
1F8
330
A
100
AcDbEntity
  8
PV
  6
Continuous
 62
     7
100
AcDbLine
 10
38.5
 20
167.042
 30
0.0
 11
41.5
 21
168.7739999999999
 31
0.0
  0
CIRCLE
  5
1F9
330
A
100
AcDbEntity
  8
PV
  6
Continuous
 62
     7
100
AcDbCircle
 10
38.5
 20
99.50600000000001
 30
0.0
 40
5.633999999999999
  0
CIRCLE
  5
1FA
330
A
100
AcDbEntity
  8
PV
  6
Continuous
 62
     7
100
AcDbCircle
 10
38.5
 20
99.50600000000001
 30
0.0
 40
6.5
  0
LINE
  5
1FB
330
A
100
AcDbEntity
  8
PV
  6
Continuous
 62
     7
100
AcDbLine
 10
35.5
 20
97.774
 30
0.0
 11
38.5
 21
96.042
 31
0.0
  0
LINE
  5
1FC
330
A
100
AcDbEntity
  8
PV
  6
Continuous
 62
     7
100
AcDbLine
 10
38.5
 20
102.97
 30
0.0
 11
41.5
 21
101.238
 31
0.0
  0
LINE
  5
1FD
330
A
100
AcDbEntity
  8
PV
  6
Continuous
 62
     7
100
AcDbLine
 10
35.5
 20
101.238
 30
0.0
 11
35.5
 21
97.774
 31
0.0
  0
LINE
  5
1FE
330
A
100
AcDbEntity
  8
PV
  6
Continuous
 62
     7
100
AcDbLine
 10
41.5
 20
101.238
 30
0.0
 11
41.5
 21
97.774
 31
0.0
  0
LINE
  5
1FF
330
A
100
AcDbEntity
  8
PV
  6
Continuous
 62
     7
100
AcDbLine
 10
35.5
 20
101.238
 30
0.0
 11
38.5
 21
102.971
 31
0.0
  0
LINE
  5
200
330
A
100
AcDbEntity
  8
PV
  6
Continuous
 62
     7
100
AcDbLine
 10
38.5
 20
96.042
 30
0.0
 11
41.5
 21
97.774
 31
0.0
  0
CIRCLE
  5
201
330
A
100
AcDbEntity
  8
PV
  6
Continuous
 62
     7
100
AcDbCircle
 10
-32.5
 20
99.50600000000001
 30
0.0
 40
5.633999999999999
  0
CIRCLE
  5
202
330
A
100
AcDbEntity
  8
PV
  6
Continuous
 62
     7
100
AcDbCircle
 10
-32.5
 20
99.50600000000001
 30
0.0
 40
6.5
  0
LINE
  5
203
330
A
100
AcDbEntity
  8
PV
  6
Continuous
 62
     7
100
AcDbLine
 10
-35.5
 20
97.774
 30
0.0
 11
-32.5
 21
96.042
 31
0.0
  0
LINE
  5
204
330
A
100
AcDbEntity
  8
PV
  6
Continuous
 62
     7
100
AcDbLine
 10
-32.5
 20
102.97
 30
0.0
 11
-29.5
 21
101.238
 31
0.0
  0
LINE
  5
205
330
A
100
AcDbEntity
  8
PV
  6
Continuous
 62
     7
100
AcDbLine
 10
-35.5
 20
101.238
 30
0.0
 11
-35.5
 21
97.774
 31
0.0
  0
LINE
  5
206
330
A
100
AcDbEntity
  8
PV
  6
Continuous
 62
     7
100
AcDbLine
 10
-29.5
 20
101.238
 30
0.0
 11
-29.5
 21
97.774
 31
0.0
  0
LINE
  5
207
330
A
100
AcDbEntity
  8
PV
  6
Continuous
 62
     7
100
AcDbLine
 10
-35.5
 20
101.238
 30
0.0
 11
-32.5
 21
102.971
 31
0.0
  0
LINE
  5
208
330
A
100
AcDbEntity
  8
PV
  6
Continuous
 62
     7
100
AcDbLine
 10
-32.5
 20
96.042
 30
0.0
 11
-29.5
 21
97.774
 31
0.0
  0
SOLID
  5
209
330
A
100
AcDbEntity
  8
PV
  6
Continuous
 62
     7
100
AcDbTrace
 10
-10.131
 20
148.351
 30
0.0
 11
-9.682999999999999
 21
148.351
 31
0.0
 12
-10.131
 22
150.59
 32
0.0
 13
-9.682999999999999
 23
150.59
 33
0.0
  0
SOLID
  5
20A
330
A
100
AcDbEntity
  8
PV
  6
Continuous
 62
     7
100
AcDbTrace
 10
-13.601
 20
148.351
 30
0.0
 11
-13.15299999999999
 21
148.351
 31
0.0
 12
-13.601
 22
150.59
 32
0.0
 13
-13.15299999999999
 23
150.59
 33
0.0
  0
SOLID
  5
20B
330
A
100
AcDbEntity
  8
PV
  6
Continuous
 62
     7
100
AcDbTrace
 10
0.3
 20
153.8159999999999
 30
0.0
 11
1.85
 21
153.8159999999999
 31
0.0
 12
0.3
 22
157.366
 32
0.0
 13
1.85
 23
157.366
 33
0.0
  0
MTEXT
  5
20C
330
A
100
AcDbEntity
  8
PV
  6
Continuous
 62
     7
100
AcDbMText
 10
10.032124
 20
114.2728129999999
 30
0.0
 40
1.5
 41
0.0
 71
     2
 72
     1
  1
\W1.048;\A1;N
 11
0.9304177033247322
 21
0.3665008831366308
 31
0.0
 73
     1
 44
1.0
  0
MTEXT
  5
20D
330
A
100
AcDbEntity
  8
PV
  6
Continuous
 62
     7
100
AcDbMText
 10
0.370844
 20
113.312688
 30
0.0
 40
1.5
 41
0.0
 71
     2
 72
     1
  1
\W0.905;\A1;E
 11
0.9969173391662902
 21
-0.0784590266929423
 31
0.0
 73
     1
 44
1.0
  0
MTEXT
  5
20E
330
A
100
AcDbEntity
  8
PV
  6
Continuous
 62
     7
100
AcDbMText
 10
-1.058213999999999
 20
113.4877139999999
 30
0.0
 40
1.5
 41
0.0
 71
     2
 72
     1
  1
\W0.952;\A1;S
 11
0.9862855482320082
 21
-0.1650479243998155
 31
0.0
 73
     1
 44
1.0
  0
MTEXT
  5
20F
330
A
100
AcDbEntity
  8
PV
  6
Continuous
 62
     7
100
AcDbMText
 10
-2.466215
 20
113.787111
 30
0.0
 40
1.5
 41
0.0
 71
     2
 72
     1
  1
\W1.048;\A1;O
 11
0.9681476639056603
 21
-0.2503799130801275
 31
0.0
 73
     1
 44
1.0
  0
MTEXT
  5
210
330
A
100
AcDbEntity
  8
PV
  6
Continuous
 62
     7
100
AcDbMText
 10
-3.842644999999999
 20
114.207981
 30
0.0
 40
1.5
 41
0.0
 71
     2
 72
     1
  1
\W0.810;\A1;L
 11
0.9426413920776289
 21
-0.3338071388421012
 31
0.0
 73
     1
 44
1.0
  0
MTEXT
  5
211
330
A
100
AcDbEntity
  8
PV
  6
Continuous
 62
     7
100
AcDbMText
 10
-5.17698
 20
114.747471
 30
0.0
 40
1.5
 41
0.0
 71
     2
 72
     1
  1
\A1;C
 11
0.909961315861277
 21
-0.4146931439462357
 31
0.0
 73
     1
 44
1.0
  0
MTEXT
  5
212
330
A
100
AcDbEntity
  8
PV
  6
Continuous
 62
     7
100
AcDbMText
 10
8.670989
 20
113.804115
 30
0.0
 40
1.5
 41
0.0
 71
     2
 72
     1
  1
\W0.905;\A1;E
 11
0.9588198501244839
 21
0.2840149556049157
 31
0.0
 73
     1
 44
1.0
  0
MTEXT
  5
213
330
A
100
AcDbEntity
  8
PV
  6
Continuous
 62
     7
100
AcDbMText
 10
7.274474
 20
113.4559439999999
 30
0.0
 40
1.5
 41
0.0
 71
     2
 72
     1
  1
\A1;P
 11
0.9799247035488139
 21
0.1993679396863229
 31
0.0
 73
     1
 44
1.0
  0
MTEXT
  5
214
330
A
100
AcDbEntity
  8
PV
  6
Continuous
 62
     7
100
AcDbMText
 10
5.852098
 20
113.2311789999999
 30
0.0
 40
1.5
 41
0.0
 71
     2
 72
     1
  1
\W1.048;\A1;O
 11
0.9935718815697162
 21
0.113202986506601
 31
0.0
 73
     1
 44
1.0
  0
MTEXT
  5
215
330
A
100
AcDbEntity
  8
PV
  6
Continuous
 62
     7
100
AcDbMText
 10
2.939999999999999
 20
122.731
 30
0.0
 40
2.0
 41
0.0
 71
     2
 72
     1
  1
\W0.930;\A1;METAL BELLOWS
 73
     1
 44
1.0
  0
MTEXT
  5
216
330
A
100
AcDbEntity
  8
PV
  6
Continuous
 62
     7
100
AcDbMText
 10
3.003
 20
127.793
 30
0.0
 40
2.0
 41
0.0
 71
     2
 72
     1
  1
\W0.925;\A1;HIGH VACUUM VALVES
 73
     1
 44
1.0
  0
LWPOLYLINE
  5
217
330
A
100
AcDbEntity
  8
PV
  6
Continuous
 62
     7
100
AcDbPolyline
 90
       94
 70
     0
 43
0.0
 10
25.36699999999999
 20
140.206
 10
25.36599999999999
 20
140.21
 10
25.35099999999999
 20
140.256
 10
25.335
 20
140.3
 10
25.316
 20
140.3439999999999
 10
25.296
 20
140.3869999999999
 10
25.274
 20
140.429
 10
25.25
 20
140.47
 10
25.225
 20
140.51
 10
25.198
 20
140.549
 10
25.169
 20
140.586
 10
25.139
 20
140.6229999999999
 10
25.10699999999999
 20
140.657
 10
25.074
 20
140.69
 10
25.039
 20
140.722
 10
25.004
 20
140.752
 10
24.967
 20
140.7799999999999
 10
24.929
 20
140.807
 10
24.89
 20
140.8319999999999
 10
24.849
 20
140.8549999999999
 10
24.808
 20
140.876
 10
24.76599999999999
 20
140.896
 10
24.724
 20
140.9129999999999
 10
24.67999999999999
 20
140.929
 10
24.636
 20
140.942
 10
24.592
 20
140.9529999999999
 10
24.54699999999999
 20
140.9629999999999
 10
24.502
 20
140.9699999999999
 10
24.456
 20
140.975
 10
24.41
 20
140.9779999999999
 10
24.365
 20
140.9789999999999
 10
24.319
 20
140.9779999999999
 10
24.273
 20
140.975
 10
24.228
 20
140.9699999999999
 10
24.182
 20
140.9629999999999
 10
24.13699999999999
 20
140.9529999999999
 10
24.093
 20
140.942
 10
24.049
 20
140.929
 10
24.005
 20
140.9129999999999
 10
23.963
 20
140.896
 10
23.921
 20
140.876
 10
23.87999999999999
 20
140.8549999999999
 10
23.83999999999999
 20
140.8319999999999
 10
23.8
 20
140.807
 10
23.76199999999999
 20
140.7799999999999
 10
23.725
 20
140.752
 10
23.69
 20
140.722
 10
23.655
 20
140.69
 10
23.622
 20
140.657
 10
23.58999999999999
 20
140.6229999999999
 10
23.55999999999999
 20
140.586
 10
23.53199999999999
 20
140.549
 10
23.504
 20
140.51
 10
23.479
 20
140.47
 10
23.45499999999999
 20
140.429
 10
23.433
 20
140.3869999999999
 10
23.41299999999999
 20
140.3439999999999
 10
23.394
 20
140.3
 10
23.378
 20
140.256
 10
23.363
 20
140.21
 10
23.35
 20
140.1639999999999
 10
23.339
 20
140.1179999999999
 10
23.33099999999999
 20
140.07
 10
23.324
 20
140.023
 10
23.319
 20
139.975
 10
23.31599999999999
 20
139.927
 10
23.315
 20
139.8789999999999
 10
23.31599999999999
 20
139.831
 10
23.319
 20
139.7839999999999
 10
23.324
 20
139.7359999999999
 10
23.33099999999999
 20
139.6879999999999
 10
23.339
 20
139.6409999999999
 10
23.35
 20
139.595
 10
23.363
 20
139.549
 10
23.378
 20
139.503
 10
23.394
 20
139.4579999999999
 10
23.41299999999999
 20
139.4149999999999
 10
23.433
 20
139.371
 10
23.45499999999999
 20
139.329
 10
23.479
 20
139.2879999999999
 10
23.504
 20
139.2479999999999
 10
23.53199999999999
 20
139.21
 10
23.55999999999999
 20
139.172
 10
23.58999999999999
 20
139.1359999999999
 10
23.622
 20
139.102
 10
23.655
 20
139.0679999999999
 10
23.69
 20
139.037
 10
23.725
 20
139.007
 10
23.76199999999999
 20
138.9779999999999
 10
23.8
 20
138.952
 10
23.83999999999999
 20
138.927
 10
23.87999999999999
 20
138.904
 10
23.921
 20
138.882
 10
23.949
 20
138.8689999999999
  0
LWPOLYLINE
  5
218
330
A
100
AcDbEntity
  8
PV
  6
Continuous
 62
     7
100
AcDbPolyline
 90
       94
 70
     0
 43
0.0
 10
22.962
 20
137.856
 10
22.963
 20
137.851
 10
22.978
 20
137.806
 10
22.99399999999999
 20
137.761
 10
23.013
 20
137.717
 10
23.033
 20
137.674
 10
23.05499999999999
 20
137.6319999999999
 10
23.079
 20
137.591
 10
23.104
 20
137.551
 10
23.13199999999999
 20
137.513
 10
23.16
 20
137.4749999999999
 10
23.19
 20
137.439
 10
23.222
 20
137.4039999999999
 10
23.25499999999999
 20
137.371
 10
23.29
 20
137.3399999999999
 10
23.325
 20
137.3099999999999
 10
23.36199999999999
 20
137.281
 10
23.39999999999999
 20
137.2549999999999
 10
23.44
 20
137.2299999999999
 10
23.48
 20
137.2069999999999
 10
23.521
 20
137.185
 10
23.563
 20
137.166
 10
23.605
 20
137.149
 10
23.649
 20
137.1329999999999
 10
23.693
 20
137.1199999999999
 10
23.73699999999999
 20
137.108
 10
23.78199999999999
 20
137.0989999999999
 10
23.82699999999999
 20
137.092
 10
23.873
 20
137.086
 10
23.919
 20
137.0829999999999
 10
23.965
 20
137.0819999999999
 10
24.01
 20
137.0829999999999
 10
24.05599999999999
 20
137.086
 10
24.10199999999999
 20
137.092
 10
24.14699999999999
 20
137.0989999999999
 10
24.192
 20
137.108
 10
24.236
 20
137.1199999999999
 10
24.28
 20
137.1329999999999
 10
24.324
 20
137.149
 10
24.366
 20
137.166
 10
24.408
 20
137.185
 10
24.449
 20
137.2069999999999
 10
24.48999999999999
 20
137.2299999999999
 10
24.529
 20
137.2549999999999
 10
24.56699999999999
 20
137.281
 10
24.60399999999999
 20
137.3099999999999
 10
24.639
 20
137.3399999999999
 10
24.674
 20
137.371
 10
24.70699999999999
 20
137.4039999999999
 10
24.739
 20
137.439
 10
24.769
 20
137.4749999999999
 10
24.798
 20
137.513
 10
24.82499999999999
 20
137.551
 10
24.85
 20
137.591
 10
24.874
 20
137.6319999999999
 10
24.896
 20
137.674
 10
24.916
 20
137.717
 10
24.935
 20
137.761
 10
24.951
 20
137.806
 10
24.96599999999999
 20
137.851
 10
24.979
 20
137.898
 10
24.99
 20
137.9439999999999
 10
24.999
 20
137.991
 10
25.006
 20
138.039
 10
25.011
 20
138.086
 10
25.014
 20
138.1339999999999
 10
25.015
 20
138.182
 10
25.014
 20
138.2299999999999
 10
25.011
 20
138.2779999999999
 10
25.006
 20
138.3259999999999
 10
24.999
 20
138.3729999999999
 10
24.99
 20
138.4199999999999
 10
24.979
 20
138.467
 10
24.96599999999999
 20
138.5129999999999
 10
24.951
 20
138.558
 10
24.935
 20
138.6029999999999
 10
24.916
 20
138.647
 10
24.896
 20
138.69
 10
24.874
 20
138.732
 10
24.85
 20
138.7729999999999
 10
24.82499999999999
 20
138.8129999999999
 10
24.798
 20
138.8519999999999
 10
24.769
 20
138.889
 10
24.739
 20
138.925
 10
24.70699999999999
 20
138.96
 10
24.674
 20
138.9929999999999
 10
24.639
 20
139.0249999999999
 10
24.60399999999999
 20
139.055
 10
24.56699999999999
 20
139.083
 10
24.529
 20
139.11
 10
24.48999999999999
 20
139.1349999999999
 10
24.449
 20
139.1579999999999
 10
24.408
 20
139.179
 10
24.38
 20
139.192
  0
LWPOLYLINE
  5
219
330
A
100
AcDbEntity
  8
PV
  6
Continuous
 62
     7
100
AcDbPolyline
 90
       26
 70
     0
 43
0.0
 10
-7.317999999999999
 20
139.6949999999999
 10
-7.318999999999999
 20
139.6979999999999
 10
-7.342999999999999
 20
139.7739999999999
 10
-7.37
 20
139.849
 10
-7.400999999999999
 20
139.9219999999999
 10
-7.434
 20
139.9939999999999
 10
-7.469999999999999
 20
140.0629999999999
 10
-7.508999999999999
 20
140.131
 10
-7.549999999999999
 20
140.196
 10
-7.593999999999999
 20
140.2599999999999
 10
-7.639999999999999
 20
140.32
 10
-7.689
 20
140.3789999999999
 10
-7.738999999999999
 20
140.4349999999999
 10
-7.792999999999999
 20
140.488
 10
-7.847999999999999
 20
140.5379999999999
 10
-7.905
 20
140.585
 10
-7.963999999999999
 20
140.629
 10
-8.025
 20
140.6709999999999
 10
-8.087999999999999
 20
140.7089999999999
 10
-8.152000000000001
 20
140.744
 10
-8.217
 20
140.775
 10
-8.283999999999998
 20
140.8029999999999
 10
-8.352
 20
140.8279999999999
 10
-8.420999999999999
 20
140.849
 10
-8.49
 20
140.867
 10
-8.560999999999999
 20
140.882
  0
LWPOLYLINE
  5
21A
330
A
100
AcDbEntity
  8
PV
  6
Continuous
 62
     7
100
AcDbPolyline
 90
      113
 70
     0
 43
0.0
 10
-8.560999999999999
 20
140.882
 10
-8.631999999999999
 20
140.8919999999999
 10
-8.704
 20
140.899
 10
-8.775999999999999
 20
140.903
 10
-8.847999999999998
 20
140.903
 10
-8.919999999999999
 20
140.899
 10
-8.993
 20
140.8919999999999
 10
-9.064999999999999
 20
140.881
 10
-9.137
 20
140.867
 10
-9.208
 20
140.849
 10
-9.278999999999999
 20
140.8269999999999
 10
-9.347999999999998
 20
140.802
 10
-9.417999999999999
 20
140.7739999999999
 10
-9.486
 20
140.742
 10
-9.552999999999999
 20
140.707
 10
-9.618
 20
140.6689999999999
 10
-9.682999999999999
 20
140.6279999999999
 10
-9.744999999999999
 20
140.5839999999999
 10
-9.807
 20
140.5359999999999
 10
-9.865999999999999
 20
140.486
 10
-9.923
 20
140.4329999999999
 10
-9.978999999999999
 20
140.377
 10
-10.033
 20
140.3179999999999
 10
-10.08399999999999
 20
140.257
 10
-10.13299999999999
 20
140.1939999999999
 10
-10.18
 20
140.1289999999999
 10
-10.22399999999999
 20
140.061
 10
-10.26599999999999
 20
139.991
 10
-10.30499999999999
 20
139.9199999999999
 10
-10.341
 20
139.846
 10
-10.375
 20
139.771
 10
-10.40599999999999
 20
139.6949999999999
 10
-10.434
 20
139.617
 10
-10.459
 20
139.5389999999999
 10
-10.481
 20
139.4589999999999
 10
-10.5
 20
139.3779999999999
 10
-10.51599999999999
 20
139.297
 10
-10.529
 20
139.2149999999999
 10
-10.538
 20
139.1329999999999
 10
-10.54499999999999
 20
139.05
 10
-10.54799999999999
 20
138.968
 10
-10.549
 20
138.8849999999999
 10
-10.54599999999999
 20
138.803
 10
-10.54
 20
138.721
 10
-10.53099999999999
 20
138.6399999999999
 10
-10.51799999999999
 20
138.559
 10
-10.503
 20
138.4789999999999
 10
-10.484
 20
138.401
 10
-10.463
 20
138.3229999999999
 10
-10.439
 20
138.247
 10
-10.41099999999999
 20
138.172
 10
-10.38099999999999
 20
138.0989999999999
 10
-10.34799999999999
 20
138.027
 10
-10.312
 20
137.958
 10
-10.273
 20
137.8899999999999
 10
-10.232
 20
137.8239999999999
 10
-10.18799999999999
 20
137.761
 10
-10.142
 20
137.7
 10
-10.093
 20
137.6419999999999
 10
-10.04199999999999
 20
137.586
 10
-9.988999999999998
 20
137.5329999999999
 10
-9.933999999999999
 20
137.4829999999999
 10
-9.877
 20
137.436
 10
-9.817
 20
137.3909999999999
 10
-9.756999999999999
 20
137.3499999999999
 10
-9.693999999999999
 20
137.312
 10
-9.63
 20
137.277
 10
-9.564999999999999
 20
137.246
 10
-9.497999999999999
 20
137.217
 10
-9.429999999999999
 20
137.1929999999999
 10
-9.361
 20
137.1709999999999
 10
-9.291
 20
137.1539999999999
 10
-9.221
 20
137.139
 10
-9.15
 20
137.1289999999999
 10
-9.077999999999999
 20
137.121
 10
-9.006
 20
137.118
 10
-8.933999999999999
 20
137.118
 10
-8.861
 20
137.122
 10
-8.788999999999999
 20
137.1289999999999
 10
-8.717
 20
137.1399999999999
 10
-8.644999999999999
 20
137.1539999999999
 10
-8.573999999999999
 20
137.172
 10
-8.503
 20
137.1929999999999
 10
-8.432999999999999
 20
137.2179999999999
 10
-8.363999999999998
 20
137.247
 10
-8.295999999999999
 20
137.2779999999999
 10
-8.228999999999999
 20
137.3129999999999
 10
-8.163
 20
137.352
 10
-8.099
 20
137.393
 10
-8.035999999999999
 20
137.437
 10
-7.974999999999999
 20
137.485
 10
-7.916
 20
137.535
 10
-7.857999999999999
 20
137.5879999999999
 10
-7.802999999999999
 20
137.644
 10
-7.748999999999999
 20
137.7019999999999
 10
-7.697999999999999
 20
137.763
 10
-7.649
 20
137.827
 10
-7.602
 20
137.8919999999999
 10
-7.557999999999999
 20
137.96
 10
-7.516
 20
138.03
 10
-7.477
 20
138.101
 10
-7.44
 20
138.174
 10
-7.407
 20
138.2489999999999
 10
-7.376
 20
138.3259999999999
 10
-7.347999999999999
 20
138.4029999999999
 10
-7.322999999999999
 20
138.4819999999999
 10
-7.301
 20
138.562
 10
-7.282
 20
138.643
 10
-7.266
 20
138.724
 10
-7.252999999999999
 20
138.806
 10
-7.242999999999999
 20
138.888
 10
-7.237
 20
138.971
 10
-7.235
 20
139.0099999999999
  0
ARC
  5
21B
330
A
100
AcDbEntity
  8
PV
  6
Continuous
 62
     7
100
AcDbCircle
 10
4.375
 20
129.562
 30
0.0
 40
17.25
100
AcDbArc
 50
298.4734849999999
 51
311.660234
  0
ARC
  5
21C
330
A
100
AcDbEntity
  8
PV
  6
Continuous
 62
     7
100
AcDbCircle
 10
1.381999999999999
 20
129.799
 30
0.0
 40
17.25
100
AcDbArc
 50
228.339771
 51
242.636245
  0
ARC
  5
21D
330
A
100
AcDbEntity
  8
PV
  6
Continuous
 62
   255
100
AcDbCircle
 10
18.63799999999999
 20
149.4709999999999
 30
0.0
 40
1.118999999999999
100
AcDbArc
 50
359.999996
 51
90.00003000000001
  0
ARC
  5
21E
330
A
100
AcDbEntity
  8
PV
  6
Continuous
 62
   255
100
AcDbCircle
 10
18.63799999999999
 20
149.4709999999999
 30
0.0
 40
0.6720000000000001
100
AcDbArc
 50
359.999996
 51
90.00003000000001
  0
ARC
  5
21F
330
A
100
AcDbEntity
  8
PV
  6
Continuous
 62
   255
100
AcDbCircle
 10
10.578
 20
149.4709999999999
 30
0.0
 40
1.118999999999999
100
AcDbArc
 50
359.999996
 51
89.999975
  0
ARC
  5
220
330
A
100
AcDbEntity
  8
PV
  6
Continuous
 62
   255
100
AcDbCircle
 10
10.578
 20
149.4709999999999
 30
0.0
 40
0.6720000000000001
100
AcDbArc
 50
359.999996
 51
89.999975
  0
ARC
  5
221
330
A
100
AcDbEntity
  8
PV
  6
Continuous
 62
   255
100
AcDbCircle
 10
10.354
 20
149.4709999999999
 30
0.0
 40
0.6720000000000001
100
AcDbArc
 50
179.999978
 51
270.000001
  0
ARC
  5
222
330
A
100
AcDbEntity
  8
PV
  6
Continuous
 62
   255
100
AcDbCircle
 10
10.354
 20
149.4709999999999
 30
0.0
 40
1.118999999999999
100
AcDbArc
 50
179.999978
 51
270.000001
  0
ARC
  5
223
330
A
100
AcDbEntity
  8
PV
  6
Continuous
 62
   255
100
AcDbCircle
 10
-2.631
 20
149.4709999999999
 30
0.0
 40
1.118999999999999
100
AcDbArc
 50
179.999978
 51
270.000001
  0
ARC
  5
224
330
A
100
AcDbEntity
  8
PV
  6
Continuous
 62
   255
100
AcDbCircle
 10
-2.631
 20
149.4709999999999
 30
0.0
 40
0.6720000000000001
100
AcDbArc
 50
179.999978
 51
270.000001
  0
ARC
  5
225
330
A
100
AcDbEntity
  8
PV
  6
Continuous
 62
   255
100
AcDbCircle
 10
-2.407
 20
149.4709999999999
 30
0.0
 40
0.6720000000000001
100
AcDbArc
 50
359.999996
 51
89.999975
  0
ARC
  5
226
330
A
100
AcDbEntity
  8
PV
  6
Continuous
 62
   255
100
AcDbCircle
 10
-2.407
 20
149.4709999999999
 30
0.0
 40
1.118999999999999
100
AcDbArc
 50
359.999996
 51
89.999975
  0
ARC
  5
227
330
A
100
AcDbEntity
  8
PV
  6
Continuous
 62
   255
100
AcDbCircle
 10
-11.139
 20
149.918
 30
0.0
 40
0.6720000000000001
100
AcDbArc
 50
359.999996
 51
89.999975
  0
ARC
  5
228
330
A
100
AcDbEntity
  8
PV
  6
Continuous
 62
   255
100
AcDbCircle
 10
-11.139
 20
149.918
 30
0.0
 40
0.224
100
AcDbArc
 50
359.999996
 51
89.999975
  0
ARC
  5
229
330
A
100
AcDbEntity
  8
PV
  6
Continuous
 62
   255
100
AcDbCircle
 10
8.003
 20
149.4709999999999
 30
0.0
 40
0.6720000000000001
100
AcDbArc
 50
89.999975
 51
270.000001
  0
ARC
  5
22A
330
A
100
AcDbEntity
  8
PV
  6
Continuous
 62
   255
100
AcDbCircle
 10
8.003
 20
149.4709999999999
 30
0.0
 40
1.118999999999999
100
AcDbArc
 50
89.999975
 51
270.000001
  0
ARC
  5
22B
330
A
100
AcDbEntity
  8
PV
  6
Continuous
 62
   255
100
AcDbCircle
 10
18.63799999999999
 20
149.4709999999999
 30
0.0
 40
0.6720000000000001
100
AcDbArc
 50
270.0000109999999
 51
359.999996
  0
ARC
  5
22C
330
A
100
AcDbEntity
  8
PV
  6
Continuous
 62
   255
100
AcDbCircle
 10
18.63799999999999
 20
149.4709999999999
 30
0.0
 40
1.118999999999999
100
AcDbArc
 50
270.0000109999999
 51
359.999996
  0
ARC
  5
22D
330
A
100
AcDbEntity
  8
PV
  6
Continuous
 62
   255
100
AcDbCircle
 10
14.048
 20
149.247
 30
0.0
 40
0.448
100
AcDbArc
 50
179.999978
 51
270.000001
  0
ARC
  5
22E
330
A
100
AcDbEntity
  8
PV
  6
Continuous
 62
   255
100
AcDbCircle
 10
14.048
 20
149.247
 30
0.0
 40
0.8959999999999999
100
AcDbArc
 50
179.999978
 51
270.000001
  0
CIRCLE
  5
22F
330
A
100
AcDbEntity
  8
PV
  6
Continuous
 62
   255
100
AcDbCircle
 10
11.92099999999999
 20
148.631
 30
0.0
 40
0.28
  0
ARC
  5
230
330
A
100
AcDbEntity
  8
PV
  6
Continuous
 62
   255
100
AcDbCircle
 10
12.638
 20
148.631
 30
0.0
 40
0.28
100
AcDbArc
 50
319.9999189999999
 51
241.536827
  0
ARC
  5
231
330
A
100
AcDbEntity
  8
PV
  6
Continuous
 62
   255
100
AcDbCircle
 10
-2.407
 20
149.4709999999999
 30
0.0
 40
0.6720000000000001
100
AcDbArc
 50
270.0000109999999
 51
359.999996
  0
ARC
  5
232
330
A
100
AcDbEntity
  8
PV
  6
Continuous
 62
   255
100
AcDbCircle
 10
-2.631
 20
149.4709999999999
 30
0.0
 40
0.6720000000000001
100
AcDbArc
 50
89.999975
 51
179.99995
  0
ARC
  5
233
330
A
100
AcDbEntity
  8
PV
  6
Continuous
 62
   255
100
AcDbCircle
 10
-2.407
 20
149.4709999999999
 30
0.0
 40
1.118999999999999
100
AcDbArc
 50
270.0000109999999
 51
359.999996
  0
ARC
  5
234
330
A
100
AcDbEntity
  8
PV
  6
Continuous
 62
   255
100
AcDbCircle
 10
-2.631
 20
149.4709999999999
 30
0.0
 40
1.118999999999999
100
AcDbArc
 50
89.999975
 51
179.99995
  0
ARC
  5
235
330
A
100
AcDbEntity
  8
PV
  6
Continuous
 62
   255
100
AcDbCircle
 10
4.868999999999999
 20
149.5829999999999
 30
0.0
 40
0.5600000000000001
100
AcDbArc
 50
359.999996
 51
89.999975
  0
ARC
  5
236
330
A
100
AcDbEntity
  8
PV
  6
Continuous
 62
   255
100
AcDbCircle
 10
4.644999999999999
 20
149.5829999999999
 30
0.0
 40
0.5600000000000001
100
AcDbArc
 50
89.999975
 51
179.99995
  0
ARC
  5
237
330
A
100
AcDbEntity
  8
PV
  6
Continuous
 62
   255
100
AcDbCircle
 10
4.868999999999999
 20
149.5829999999999
 30
0.0
 40
1.007
100
AcDbArc
 50
359.999996
 51
89.999975
  0
ARC
  5
238
330
A
100
AcDbEntity
  8
PV
  6
Continuous
 62
   255
100
AcDbCircle
 10
4.644999999999999
 20
149.5829999999999
 30
0.0
 40
1.007
100
AcDbArc
 50
89.999975
 51
179.99995
  0
ARC
  5
239
330
A
100
AcDbEntity
  8
PV
  6
Continuous
 62
   255
100
AcDbCircle
 10
-8.339999999999999
 20
149.4709999999999
 30
0.0
 40
0.6720000000000001
100
AcDbArc
 50
199.471211
 51
270.0000109999999
  0
ARC
  5
23A
330
A
100
AcDbEntity
  8
PV
  6
Continuous
 62
   255
100
AcDbCircle
 10
-8.339999999999999
 20
149.4709999999999
 30
0.0
 40
0.6720000000000001
100
AcDbArc
 50
89.999975
 51
160.528775
  0
ARC
  5
23B
330
A
100
AcDbEntity
  8
PV
  6
Continuous
 62
   255
100
AcDbCircle
 10
-8.339999999999999
 20
149.4709999999999
 30
0.0
 40
1.118999999999999
100
AcDbArc
 50
89.999975
 51
270.000001
  0
ARC
  5
23C
330
A
100
AcDbEntity
  8
PV
  6
Continuous
 62
   255
100
AcDbCircle
 10
10.578
 20
149.4709999999999
 30
0.0
 40
0.6720000000000001
100
AcDbArc
 50
270.0000109999999
 51
359.999996
  0
ARC
  5
23D
330
A
100
AcDbEntity
  8
PV
  6
Continuous
 62
   255
100
AcDbCircle
 10
10.354
 20
149.4709999999999
 30
0.0
 40
0.6720000000000001
100
AcDbArc
 50
89.999975
 51
179.99995
  0
ARC
  5
23E
330
A
100
AcDbEntity
  8
PV
  6
Continuous
 62
   255
100
AcDbCircle
 10
10.578
 20
149.4709999999999
 30
0.0
 40
1.118999999999999
100
AcDbArc
 50
270.0000109999999
 51
359.999996
  0
ARC
  5
23F
330
A
100
AcDbEntity
  8
PV
  6
Continuous
 62
   255
100
AcDbCircle
 10
10.354
 20
149.4709999999999
 30
0.0
 40
1.118999999999999
100
AcDbArc
 50
89.999975
 51
179.99995
  0
ARC
  5
240
330
A
100
AcDbEntity
  8
PV
  6
Continuous
 62
   255
100
AcDbCircle
 10
2.294
 20
149.4709999999999
 30
0.0
 40
0.6720000000000001
100
AcDbArc
 50
199.471211
 51
270.0000109999999
  0
ARC
  5
241
330
A
100
AcDbEntity
  8
PV
  6
Continuous
 62
   255
100
AcDbCircle
 10
2.294
 20
149.4709999999999
 30
0.0
 40
0.6720000000000001
100
AcDbArc
 50
89.999975
 51
160.528775
  0
ARC
  5
242
330
A
100
AcDbEntity
  8
PV
  6
Continuous
 62
   255
100
AcDbCircle
 10
2.294
 20
149.4709999999999
 30
0.0
 40
1.118999999999999
100
AcDbArc
 50
89.999975
 51
270.000001
  0
ARC
  5
243
330
A
100
AcDbEntity
  8
PV
  6
Continuous
 62
   255
100
AcDbCircle
 10
-11.139
 20
149.918
 30
0.0
 40
0.224
100
AcDbArc
 50
270.0000109999999
 51
359.999996
  0
ARC
  5
244
330
A
100
AcDbEntity
  8
PV
  6
Continuous
 62
   255
100
AcDbCircle
 10
-11.139
 20
149.918
 30
0.0
 40
0.6720000000000001
100
AcDbArc
 50
273.7218359999999
 51
359.999996
  0
ARC
  5
245
330
A
100
AcDbEntity
  8
PV
  6
Continuous
 62
     7
100
AcDbCircle
 10
8.400999999999999
 20
155.591
 30
0.0
 40
1.0
100
AcDbArc
 50
269.9999969999999
 51
90.00000300000001
  0
ARC
  5
246
330
A
100
AcDbEntity
  8
PV
  6
Continuous
 62
     7
100
AcDbCircle
 10
8.400999999999999
 20
155.591
 30
0.0
 40
1.0
100
AcDbArc
 50
90.00000300000001
 51
270.000001
  0
ARC
  5
247
330
A
100
AcDbEntity
  8
PV
  6
Continuous
 62
     7
100
AcDbCircle
 10
6.876
 20
155.591
 30
0.0
 40
1.774999999999999
100
AcDbArc
 50
34.225552
 51
325.774451
  0
ARC
  5
248
330
A
100
AcDbEntity
  8
PV
  6
Continuous
 62
     7
100
AcDbCircle
 10
3.625
 20
155.591
 30
0.0
 40
0.975
100
AcDbArc
 50
269.9999969999999
 51
90.00000300000001
  0
ARC
  5
249
330
A
100
AcDbEntity
  8
PV
  6
Continuous
 62
     7
100
AcDbCircle
 10
3.625
 20
155.591
 30
0.0
 40
0.975
100
AcDbArc
 50
90.00000300000001
 51
270.000001
  0
ARC
  5
24A
330
A
100
AcDbEntity
  8
PV
  6
Continuous
 62
     7
100
AcDbCircle
 10
3.625
 20
155.591
 30
0.0
 40
1.774999999999999
100
AcDbArc
 50
90.00000300000001
 51
270.000001
  0
ARC
  5
24B
330
A
100
AcDbEntity
  8
PV
  6
Continuous
 62
     7
100
AcDbCircle
 10
-1.334
 20
156.416
 30
0.0
 40
0.95
100
AcDbArc
 50
179.9999949999999
 51
0.0
  0
ARC
  5
24C
330
A
100
AcDbEntity
  8
PV
  6
Continuous
 62
     7
100
AcDbCircle
 10
-1.334
 20
156.416
 30
0.0
 40
0.95
100
AcDbArc
 50
0.0
 51
180.000005
  0
CIRCLE
  5
24D
330
A
100
AcDbEntity
  8
PV
  6
Continuous
 62
     7
100
AcDbCircle
 10
3.0
 20
135.006
 30
0.0
 40
25.0
  0
LINE
  5
24E
330
A
100
AcDbEntity
  8
PV
  6
Continuous
 62
     7
100
AcDbLine
 10
-7.974
 20
115.789
 30
0.0
 11
-10.08399999999999
 21
116.911
 31
0.0
  0
LINE
  5
24F
330
A
100
AcDbEntity
  8
PV
  6
Continuous
 62
     7
100
AcDbLine
 10
-8.607000000000001
 20
115.032
 30
0.0
 11
-10.08399999999999
 21
116.911
 31
0.0
  0
LINE
  5
250
330
A
100
AcDbEntity
  8
PV
  6
Continuous
 62
     7
100
AcDbLine
 10
14.364
 20
114.796
 30
0.0
 11
15.841
 21
116.6749999999999
 31
0.0
  0
LINE
  5
251
330
A
100
AcDbEntity
  8
PV
  6
Continuous
 62
     7
100
AcDbLine
 10
13.73099999999999
 20
115.5529999999999
 30
0.0
 11
15.841
 21
116.6749999999999
 31
0.0
  0
LINE
  5
252
330
A
100
AcDbEntity
  8
PV
  6
Continuous
 62
   255
100
AcDbLine
 10
-2.631
 20
150.1419999999999
 30
0.0
 11
-2.407
 21
150.1419999999999
 31
0.0
  0
LINE
  5
253
330
A
100
AcDbEntity
  8
PV
  6
Continuous
 62
   255
100
AcDbLine
 10
17.854
 20
149.4709999999999
 30
0.0
 11
17.854
 21
148.799
 31
0.0
  0
LINE
  5
254
330
A
100
AcDbEntity
  8
PV
  6
Continuous
 62
   255
100
AcDbLine
 10
17.40599999999999
 20
149.4709999999999
 30
0.0
 11
17.40599999999999
 21
148.351
 31
0.0
  0
LINE
  5
255
330
A
100
AcDbEntity
  8
PV
  6
Continuous
 62
   255
100
AcDbLine
 10
-12.258
 20
149.918
 30
0.0
 11
-12.258
 21
149.6939999999999
 31
0.0
  0
LINE
  5
256
330
A
100
AcDbEntity
  8
PV
  6
Continuous
 62
   255
100
AcDbLine
 10
-12.70599999999999
 20
149.918
 30
0.0
 11
-12.70599999999999
 21
148.351
 31
0.0
  0
LINE
  5
257
330
A
100
AcDbEntity
  8
PV
  6
Continuous
 62
   255
100
AcDbLine
 10
17.854
 20
150.1419999999999
 30
0.0
 11
17.854
 21
149.4709999999999
 31
0.0
  0
LINE
  5
258
330
A
100
AcDbEntity
  8
PV
  6
Continuous
 62
   255
100
AcDbLine
 10
17.854
 20
148.799
 30
0.0
 11
18.63799999999999
 21
148.799
 31
0.0
  0
LINE
  5
259
330
A
100
AcDbEntity
  8
PV
  6
Continuous
 62
   255
100
AcDbLine
 10
17.40599999999999
 20
150.59
 30
0.0
 11
17.40599999999999
 21
149.4709999999999
 31
0.0
  0
LINE
  5
25A
330
A
100
AcDbEntity
  8
PV
  6
Continuous
 62
   255
100
AcDbLine
 10
15.839
 20
148.351
 30
0.0
 11
16.287
 21
148.351
 31
0.0
  0
LINE
  5
25B
330
A
100
AcDbEntity
  8
PV
  6
Continuous
 62
   255
100
AcDbLine
 10
16.287
 20
150.1419999999999
 30
0.0
 11
17.182
 21
150.1419999999999
 31
0.0
  0
LINE
  5
25C
330
A
100
AcDbEntity
  8
PV
  6
Continuous
 62
   255
100
AcDbLine
 10
17.40599999999999
 20
150.59
 30
0.0
 11
18.63799999999999
 21
150.59
 31
0.0
  0
LINE
  5
25D
330
A
100
AcDbEntity
  8
PV
  6
Continuous
 62
   255
100
AcDbLine
 10
17.854
 20
150.1419999999999
 30
0.0
 11
18.63799999999999
 21
150.1419999999999
 31
0.0
  0
LINE
  5
25E
330
A
100
AcDbEntity
  8
PV
  6
Continuous
 62
   255
100
AcDbLine
 10
15.839
 20
150.1419999999999
 30
0.0
 11
15.839
 21
148.351
 31
0.0
  0
LINE
  5
25F
330
A
100
AcDbEntity
  8
PV
  6
Continuous
 62
   255
100
AcDbLine
 10
16.287
 20
150.1419999999999
 30
0.0
 11
16.287
 21
148.351
 31
0.0
  0
LINE
  5
260
330
A
100
AcDbEntity
  8
PV
  6
Continuous
 62
   255
100
AcDbLine
 10
14.944
 20
150.1419999999999
 30
0.0
 11
15.839
 21
150.1419999999999
 31
0.0
  0
LINE
  5
261
330
A
100
AcDbEntity
  8
PV
  6
Continuous
 62
   255
100
AcDbLine
 10
17.182
 20
150.59
 30
0.0
 11
17.182
 21
150.1419999999999
 31
0.0
  0
LINE
  5
262
330
A
100
AcDbEntity
  8
PV
  6
Continuous
 62
   255
100
AcDbLine
 10
14.944
 20
150.59
 30
0.0
 11
14.944
 21
150.1419999999999
 31
0.0
  0
LINE
  5
263
330
A
100
AcDbEntity
  8
PV
  6
Continuous
 62
   255
100
AcDbLine
 10
14.944
 20
150.59
 30
0.0
 11
17.182
 21
150.59
 31
0.0
  0
LINE
  5
264
330
A
100
AcDbEntity
  8
PV
  6
Continuous
 62
   255
100
AcDbLine
 10
13.15299999999999
 20
150.59
 30
0.0
 11
13.6
 21
150.59
 31
0.0
  0
LINE
  5
265
330
A
100
AcDbEntity
  8
PV
  6
Continuous
 62
   255
100
AcDbLine
 10
17.40599999999999
 20
148.351
 30
0.0
 11
18.63799999999999
 21
148.351
 31
0.0
  0
LINE
  5
266
330
A
100
AcDbEntity
  8
PV
  6
Continuous
 62
   255
100
AcDbLine
 10
14.048
 20
148.799
 30
0.0
 11
15.167
 21
148.799
 31
0.0
  0
LINE
  5
267
330
A
100
AcDbEntity
  8
PV
  6
Continuous
 62
   255
100
AcDbLine
 10
13.6
 20
150.59
 30
0.0
 11
13.6
 21
149.247
 31
0.0
  0
LINE
  5
268
330
A
100
AcDbEntity
  8
PV
  6
Continuous
 62
   255
100
AcDbLine
 10
15.167
 20
148.799
 30
0.0
 11
15.167
 21
148.351
 31
0.0
  0
LINE
  5
269
330
A
100
AcDbEntity
  8
PV
  6
Continuous
 62
   255
100
AcDbLine
 10
13.15299999999999
 20
150.59
 30
0.0
 11
13.15299999999999
 21
149.247
 31
0.0
  0
LINE
  5
26A
330
A
100
AcDbEntity
  8
PV
  6
Continuous
 62
   255
100
AcDbLine
 10
12.315
 20
148.1589999999999
 30
0.0
 11
12.48599999999999
 21
148.0149999999999
 31
0.0
  0
LINE
  5
26B
330
A
100
AcDbEntity
  8
PV
  6
Continuous
 62
   255
100
AcDbLine
 10
12.315
 20
148.1589999999999
 30
0.0
 11
12.504
 21
148.3849999999999
 31
0.0
  0
LINE
  5
26C
330
A
100
AcDbEntity
  8
PV
  6
Continuous
 62
   255
100
AcDbLine
 10
12.48599999999999
 20
148.0149999999999
 30
0.0
 11
12.852
 21
148.451
 31
0.0
  0
LINE
  5
26D
330
A
100
AcDbEntity
  8
PV
  6
Continuous
 62
   255
100
AcDbLine
 10
-2.631
 20
148.799
 30
0.0
 11
-2.407
 21
148.799
 31
0.0
  0
LINE
  5
26E
330
A
100
AcDbEntity
  8
PV
  6
Continuous
 62
   255
100
AcDbLine
 10
-2.631
 20
150.59
 30
0.0
 11
-2.407
 21
150.59
 31
0.0
  0
LINE
  5
26F
330
A
100
AcDbEntity
  8
PV
  6
Continuous
 62
   255
100
AcDbLine
 10
-2.631
 20
148.351
 30
0.0
 11
-2.407
 21
148.351
 31
0.0
  0
LINE
  5
270
330
A
100
AcDbEntity
  8
PV
  6
Continuous
 62
   255
100
AcDbLine
 10
5.428999999999999
 20
148.351
 30
0.0
 11
5.876
 21
148.351
 31
0.0
  0
LINE
  5
271
330
A
100
AcDbEntity
  8
PV
  6
Continuous
 62
   255
100
AcDbLine
 10
5.428999999999999
 20
149.5829999999999
 30
0.0
 11
5.428999999999999
 21
148.351
 31
0.0
  0
LINE
  5
272
330
A
100
AcDbEntity
  8
PV
  6
Continuous
 62
   255
100
AcDbLine
 10
4.084999999999999
 20
149.5829999999999
 30
0.0
 11
4.084999999999999
 21
148.351
 31
0.0
  0
LINE
  5
273
330
A
100
AcDbEntity
  8
PV
  6
Continuous
 62
   255
100
AcDbLine
 10
4.644999999999999
 20
150.1419999999999
 30
0.0
 11
4.868999999999999
 21
150.1419999999999
 31
0.0
  0
LINE
  5
274
330
A
100
AcDbEntity
  8
PV
  6
Continuous
 62
   255
100
AcDbLine
 10
5.876
 20
149.5829999999999
 30
0.0
 11
5.876
 21
148.351
 31
0.0
  0
LINE
  5
275
330
A
100
AcDbEntity
  8
PV
  6
Continuous
 62
   255
100
AcDbLine
 10
3.637999999999999
 20
149.5829999999999
 30
0.0
 11
3.637999999999999
 21
148.351
 31
0.0
  0
LINE
  5
276
330
A
100
AcDbEntity
  8
PV
  6
Continuous
 62
   255
100
AcDbLine
 10
4.644999999999999
 20
150.59
 30
0.0
 11
4.868999999999999
 21
150.59
 31
0.0
  0
LINE
  5
277
330
A
100
AcDbEntity
  8
PV
  6
Continuous
 62
   255
100
AcDbLine
 10
3.64
 20
148.351
 30
0.0
 11
4.084999999999999
 21
148.351
 31
0.0
  0
LINE
  5
278
330
A
100
AcDbEntity
  8
PV
  6
Continuous
 62
   255
100
AcDbLine
 10
14.048
 20
148.351
 30
0.0
 11
15.167
 21
148.351
 31
0.0
  0
LINE
  5
279
330
A
100
AcDbEntity
  8
PV
  6
Continuous
 62
   255
100
AcDbLine
 10
9.122999999999999
 20
150.1419999999999
 30
0.0
 11
9.122999999999999
 21
150.59
 31
0.0
  0
LINE
  5
27A
330
A
100
AcDbEntity
  8
PV
  6
Continuous
 62
   255
100
AcDbLine
 10
8.003
 20
150.1419999999999
 30
0.0
 11
9.122999999999999
 21
150.1419999999999
 31
0.0
  0
LINE
  5
27B
330
A
100
AcDbEntity
  8
PV
  6
Continuous
 62
   255
100
AcDbLine
 10
8.003
 20
148.799
 30
0.0
 11
9.122999999999999
 21
148.799
 31
0.0
  0
LINE
  5
27C
330
A
100
AcDbEntity
  8
PV
  6
Continuous
 62
   255
100
AcDbLine
 10
8.003
 20
150.59
 30
0.0
 11
9.122999999999999
 21
150.59
 31
0.0
  0
LINE
  5
27D
330
A
100
AcDbEntity
  8
PV
  6
Continuous
 62
   255
100
AcDbLine
 10
8.003
 20
148.351
 30
0.0
 11
9.122999999999999
 21
148.351
 31
0.0
  0
LINE
  5
27E
330
A
100
AcDbEntity
  8
PV
  6
Continuous
 62
   255
100
AcDbLine
 10
-7.332999999999999
 20
148.799
 30
0.0
 11
-7.332999999999999
 21
148.351
 31
0.0
  0
LINE
  5
27F
330
A
100
AcDbEntity
  8
PV
  6
Continuous
 62
   255
100
AcDbLine
 10
-7.332999999999999
 20
149.6939999999999
 30
0.0
 11
-7.332999999999999
 21
149.247
 31
0.0
  0
LINE
  5
280
330
A
100
AcDbEntity
  8
PV
  6
Continuous
 62
   255
100
AcDbLine
 10
-8.339999999999999
 20
148.799
 30
0.0
 11
-7.332999999999999
 21
148.799
 31
0.0
  0
LINE
  5
281
330
A
100
AcDbEntity
  8
PV
  6
Continuous
 62
   255
100
AcDbLine
 10
-8.972999999999998
 20
149.6939999999999
 30
0.0
 11
-7.332999999999999
 21
149.6939999999999
 31
0.0
  0
LINE
  5
282
330
A
100
AcDbEntity
  8
PV
  6
Continuous
 62
   255
100
AcDbLine
 10
-8.972999999999998
 20
149.247
 30
0.0
 11
-7.332999999999999
 21
149.247
 31
0.0
  0
LINE
  5
283
330
A
100
AcDbEntity
  8
PV
  6
Continuous
 62
   255
100
AcDbLine
 10
-8.339999999999999
 20
148.351
 30
0.0
 11
-7.332999999999999
 21
148.351
 31
0.0
  0
LINE
  5
284
330
A
100
AcDbEntity
  8
PV
  6
Continuous
 62
   255
100
AcDbLine
 10
-8.339999999999999
 20
150.59
 30
0.0
 11
-7.332999999999999
 21
150.59
 31
0.0
  0
LINE
  5
285
330
A
100
AcDbEntity
  8
PV
  6
Continuous
 62
   255
100
AcDbLine
 10
-7.332999999999999
 20
150.59
 30
0.0
 11
-7.332999999999999
 21
150.1419999999999
 31
0.0
  0
LINE
  5
286
330
A
100
AcDbEntity
  8
PV
  6
Continuous
 62
   255
100
AcDbLine
 10
-4.156
 20
148.351
 30
0.0
 11
-3.638999999999999
 21
148.351
 31
0.0
  0
LINE
  5
287
330
A
100
AcDbEntity
  8
PV
  6
Continuous
 62
   255
100
AcDbLine
 10
-4.418999999999999
 20
150.59
 30
0.0
 11
-3.638999999999999
 21
150.59
 31
0.0
  0
LINE
  5
288
330
A
100
AcDbEntity
  8
PV
  6
Continuous
 62
   255
100
AcDbLine
 10
-5.541
 20
149.257
 30
0.0
 11
-5.541
 21
148.351
 31
0.0
  0
LINE
  5
289
330
A
100
AcDbEntity
  8
PV
  6
Continuous
 62
   255
100
AcDbLine
 10
-4.926999999999999
 20
149.6879999999999
 30
0.0
 11
-5.541
 21
149.257
 31
0.0
  0
LINE
  5
28A
330
A
100
AcDbEntity
  8
PV
  6
Continuous
 62
   255
100
AcDbLine
 10
-4.156
 20
148.351
 30
0.0
 11
-4.926999999999999
 21
149.6879999999999
 31
0.0
  0
LINE
  5
28B
330
A
100
AcDbEntity
  8
PV
  6
Continuous
 62
   255
100
AcDbLine
 10
-4.418999999999999
 20
150.59
 30
0.0
 11
-5.541
 21
149.804
 31
0.0
  0
LINE
  5
28C
330
A
100
AcDbEntity
  8
PV
  6
Continuous
 62
   255
100
AcDbLine
 10
-3.637999999999999
 20
150.59
 30
0.0
 11
-4.559
 21
149.9449999999999
 31
0.0
  0
LINE
  5
28D
330
A
100
AcDbEntity
  8
PV
  6
Continuous
 62
   255
100
AcDbLine
 10
-3.638999999999999
 20
148.351
 30
0.0
 11
-4.559
 21
149.9449999999999
 31
0.0
  0
LINE
  5
28E
330
A
100
AcDbEntity
  8
PV
  6
Continuous
 62
   255
100
AcDbLine
 10
-5.541
 20
150.59
 30
0.0
 11
-5.541
 21
149.804
 31
0.0
  0
LINE
  5
28F
330
A
100
AcDbEntity
  8
PV
  6
Continuous
 62
   255
100
AcDbLine
 10
-5.988999999999999
 20
150.59
 30
0.0
 11
-5.988999999999999
 21
148.351
 31
0.0
  0
LINE
  5
290
330
A
100
AcDbEntity
  8
PV
  6
Continuous
 62
   255
100
AcDbLine
 10
-5.988999999999999
 20
148.351
 30
0.0
 11
-5.541
 21
148.351
 31
0.0
  0
LINE
  5
291
330
A
100
AcDbEntity
  8
PV
  6
Continuous
 62
   255
100
AcDbLine
 10
-5.988999999999999
 20
150.59
 30
0.0
 11
-5.541
 21
150.59
 31
0.0
  0
LINE
  5
292
330
A
100
AcDbEntity
  8
PV
  6
Continuous
 62
   255
100
AcDbLine
 10
10.354
 20
150.1419999999999
 30
0.0
 11
10.578
 21
150.1419999999999
 31
0.0
  0
LINE
  5
293
330
A
100
AcDbEntity
  8
PV
  6
Continuous
 62
   255
100
AcDbLine
 10
10.354
 20
148.799
 30
0.0
 11
10.578
 21
148.799
 31
0.0
  0
LINE
  5
294
330
A
100
AcDbEntity
  8
PV
  6
Continuous
 62
   255
100
AcDbLine
 10
9.122999999999999
 20
148.3539999999999
 30
0.0
 11
9.122999999999999
 21
148.799
 31
0.0
  0
LINE
  5
295
330
A
100
AcDbEntity
  8
PV
  6
Continuous
 62
   255
100
AcDbLine
 10
10.354
 20
150.59
 30
0.0
 11
10.578
 21
150.59
 31
0.0
  0
LINE
  5
296
330
A
100
AcDbEntity
  8
PV
  6
Continuous
 62
   255
100
AcDbLine
 10
10.354
 20
148.351
 30
0.0
 11
10.578
 21
148.351
 31
0.0
  0
LINE
  5
297
330
A
100
AcDbEntity
  8
PV
  6
Continuous
 62
   255
100
AcDbLine
 10
0.7700000000000001
 20
148.351
 30
0.0
 11
1.286999999999999
 21
148.351
 31
0.0
  0
LINE
  5
298
330
A
100
AcDbEntity
  8
PV
  6
Continuous
 62
   255
100
AcDbLine
 10
0.5060000000000001
 20
150.59
 30
0.0
 11
1.286999999999999
 21
150.59
 31
0.0
  0
LINE
  5
299
330
A
100
AcDbEntity
  8
PV
  6
Continuous
 62
   255
100
AcDbLine
 10
-0.6160000000000001
 20
149.257
 30
0.0
 11
-0.6160000000000001
 21
148.351
 31
0.0
  0
LINE
  5
29A
330
A
100
AcDbEntity
  8
PV
  6
Continuous
 62
   255
100
AcDbLine
 10
-0.002
 20
149.6879999999999
 30
0.0
 11
-0.6160000000000001
 21
149.257
 31
0.0
  0
LINE
  5
29B
330
A
100
AcDbEntity
  8
PV
  6
Continuous
 62
   255
100
AcDbLine
 10
0.7700000000000001
 20
148.351
 30
0.0
 11
-0.002
 21
149.6879999999999
 31
0.0
  0
LINE
  5
29C
330
A
100
AcDbEntity
  8
PV
  6
Continuous
 62
   255
100
AcDbLine
 10
0.5060000000000001
 20
150.59
 30
0.0
 11
-0.6160000000000001
 21
149.804
 31
0.0
  0
LINE
  5
29D
330
A
100
AcDbEntity
  8
PV
  6
Continuous
 62
   255
100
AcDbLine
 10
1.286999999999999
 20
150.59
 30
0.0
 11
0.366
 21
149.9449999999999
 31
0.0
  0
LINE
  5
29E
330
A
100
AcDbEntity
  8
PV
  6
Continuous
 62
   255
100
AcDbLine
 10
1.286999999999999
 20
148.351
 30
0.0
 11
0.366
 21
149.9449999999999
 31
0.0
  0
LINE
  5
29F
330
A
100
AcDbEntity
  8
PV
  6
Continuous
 62
   255
100
AcDbLine
 10
-11.01299999999999
 20
148.351
 30
0.0
 11
-11.64099999999999
 21
149.247
 31
0.0
  0
LINE
  5
2A0
330
A
100
AcDbEntity
  8
PV
  6
Continuous
 62
   255
100
AcDbLine
 10
-10.467
 20
148.351
 30
0.0
 11
-11.095
 21
149.248
 31
0.0
  0
LINE
  5
2A1
330
A
100
AcDbEntity
  8
PV
  6
Continuous
 62
   255
100
AcDbLine
 10
-0.6160000000000001
 20
150.59
 30
0.0
 11
-0.6160000000000001
 21
149.804
 31
0.0
  0
LINE
  5
2A2
330
A
100
AcDbEntity
  8
PV
  6
Continuous
 62
   255
100
AcDbLine
 10
-1.064
 20
150.59
 30
0.0
 11
-1.064
 21
148.351
 31
0.0
  0
LINE
  5
2A3
330
A
100
AcDbEntity
  8
PV
  6
Continuous
 62
   255
100
AcDbLine
 10
3.302
 20
148.799
 30
0.0
 11
3.302
 21
148.351
 31
0.0
  0
LINE
  5
2A4
330
A
100
AcDbEntity
  8
PV
  6
Continuous
 62
   255
100
AcDbLine
 10
3.302
 20
149.6939999999999
 30
0.0
 11
3.302
 21
149.247
 31
0.0
  0
LINE
  5
2A5
330
A
100
AcDbEntity
  8
PV
  6
Continuous
 62
   255
100
AcDbLine
 10
2.294
 20
150.1419999999999
 30
0.0
 11
3.302
 21
150.1419999999999
 31
0.0
  0
LINE
  5
2A6
330
A
100
AcDbEntity
  8
PV
  6
Continuous
 62
   255
100
AcDbLine
 10
2.294
 20
148.799
 30
0.0
 11
3.302
 21
148.799
 31
0.0
  0
LINE
  5
2A7
330
A
100
AcDbEntity
  8
PV
  6
Continuous
 62
   255
100
AcDbLine
 10
1.661
 20
149.6939999999999
 30
0.0
 11
3.302
 21
149.6939999999999
 31
0.0
  0
LINE
  5
2A8
330
A
100
AcDbEntity
  8
PV
  6
Continuous
 62
   255
100
AcDbLine
 10
1.661
 20
149.247
 30
0.0
 11
3.302
 21
149.247
 31
0.0
  0
LINE
  5
2A9
330
A
100
AcDbEntity
  8
PV
  6
Continuous
 62
   255
100
AcDbLine
 10
-1.064
 20
148.351
 30
0.0
 11
-0.6160000000000001
 21
148.351
 31
0.0
  0
LINE
  5
2AA
330
A
100
AcDbEntity
  8
PV
  6
Continuous
 62
   255
100
AcDbLine
 10
-1.064
 20
150.59
 30
0.0
 11
-0.6160000000000001
 21
150.59
 31
0.0
  0
LINE
  5
2AB
330
A
100
AcDbEntity
  8
PV
  6
Continuous
 62
   255
100
AcDbLine
 10
2.294
 20
148.351
 30
0.0
 11
3.302
 21
148.351
 31
0.0
  0
LINE
  5
2AC
330
A
100
AcDbEntity
  8
PV
  6
Continuous
 62
   255
100
AcDbLine
 10
2.294
 20
150.59
 30
0.0
 11
3.302
 21
150.59
 31
0.0
  0
LINE
  5
2AD
330
A
100
AcDbEntity
  8
PV
  6
Continuous
 62
   255
100
AcDbLine
 10
-9.682999999999999
 20
150.59
 30
0.0
 11
-9.682999999999999
 21
148.351
 31
0.0
  0
LINE
  5
2AE
330
A
100
AcDbEntity
  8
PV
  6
Continuous
 62
   255
100
AcDbLine
 10
-10.131
 20
150.59
 30
0.0
 11
-10.131
 21
148.351
 31
0.0
  0
LINE
  5
2AF
330
A
100
AcDbEntity
  8
PV
  6
Continuous
 62
   255
100
AcDbLine
 10
-10.131
 20
148.351
 30
0.0
 11
-9.682999999999999
 21
148.351
 31
0.0
  0
LINE
  5
2B0
330
A
100
AcDbEntity
  8
PV
  6
Continuous
 62
   255
100
AcDbLine
 10
-10.131
 20
150.59
 30
0.0
 11
-9.682999999999999
 21
150.59
 31
0.0
  0
LINE
  5
2B1
330
A
100
AcDbEntity
  8
PV
  6
Continuous
 62
   255
100
AcDbLine
 10
-11.01299999999999
 20
148.351
 30
0.0
 11
-10.467
 21
148.351
 31
0.0
  0
LINE
  5
2B2
330
A
100
AcDbEntity
  8
PV
  6
Continuous
 62
   255
100
AcDbLine
 10
-12.258
 20
149.247
 30
0.0
 11
-12.258
 21
148.351
 31
0.0
  0
LINE
  5
2B3
330
A
100
AcDbEntity
  8
PV
  6
Continuous
 62
   255
100
AcDbLine
 10
-12.70599999999999
 20
150.59
 30
0.0
 11
-11.139
 21
150.59
 31
0.0
  0
LINE
  5
2B4
330
A
100
AcDbEntity
  8
PV
  6
Continuous
 62
   255
100
AcDbLine
 10
-12.70599999999999
 20
148.351
 30
0.0
 11
-12.258
 21
148.351
 31
0.0
  0
LINE
  5
2B5
330
A
100
AcDbEntity
  8
PV
  6
Continuous
 62
   255
100
AcDbLine
 10
-11.139
 20
149.6939999999999
 30
0.0
 11
-12.258
 21
149.6939999999999
 31
0.0
  0
LINE
  5
2B6
330
A
100
AcDbEntity
  8
PV
  6
Continuous
 62
   255
100
AcDbLine
 10
-11.139
 20
150.1419999999999
 30
0.0
 11
-12.258
 21
150.1419999999999
 31
0.0
  0
LINE
  5
2B7
330
A
100
AcDbEntity
  8
PV
  6
Continuous
 62
   255
100
AcDbLine
 10
-12.258
 20
149.247
 30
0.0
 11
-11.64099999999999
 21
149.247
 31
0.0
  0
LINE
  5
2B8
330
A
100
AcDbEntity
  8
PV
  6
Continuous
 62
   255
100
AcDbLine
 10
3.302
 20
150.59
 30
0.0
 11
3.302
 21
150.1419999999999
 31
0.0
  0
LINE
  5
2B9
330
A
100
AcDbEntity
  8
PV
  6
Continuous
 62
   255
100
AcDbLine
 10
-12.258
 20
150.1419999999999
 30
0.0
 11
-12.258
 21
149.918
 31
0.0
  0
LINE
  5
2BA
330
A
100
AcDbEntity
  8
PV
  6
Continuous
 62
   255
100
AcDbLine
 10
-12.70599999999999
 20
150.59
 30
0.0
 11
-12.70599999999999
 21
149.918
 31
0.0
  0
LINE
  5
2BB
330
A
100
AcDbEntity
  8
PV
  6
Continuous
 62
   255
100
AcDbLine
 10
-13.15299999999999
 20
150.59
 30
0.0
 11
-13.15299999999999
 21
148.351
 31
0.0
  0
LINE
  5
2BC
330
A
100
AcDbEntity
  8
PV
  6
Continuous
 62
   255
100
AcDbLine
 10
-13.601
 20
150.59
 30
0.0
 11
-13.601
 21
148.351
 31
0.0
  0
LINE
  5
2BD
330
A
100
AcDbEntity
  8
PV
  6
Continuous
 62
   255
100
AcDbLine
 10
-13.601
 20
148.351
 30
0.0
 11
-13.15299999999999
 21
148.351
 31
0.0
  0
LINE
  5
2BE
330
A
100
AcDbEntity
  8
PV
  6
Continuous
 62
   255
100
AcDbLine
 10
-13.601
 20
150.59
 30
0.0
 11
-13.15299999999999
 21
150.59
 31
0.0
  0
LINE
  5
2BF
330
A
100
AcDbEntity
  8
PV
  6
Continuous
 62
   255
100
AcDbLine
 10
-8.339999999999999
 20
150.1419999999999
 30
0.0
 11
-7.332999999999999
 21
150.1419999999999
 31
0.0
  0
LINE
  5
2C0
330
A
100
AcDbEntity
  8
PV
  6
Continuous
 62
     7
100
AcDbLine
 10
3.625
 20
156.566
 30
0.0
 11
3.625
 21
154.616
 31
0.0
  0
LINE
  5
2C1
330
A
100
AcDbEntity
  8
PV
  6
Continuous
 62
     7
100
AcDbLine
 10
3.625
 20
154.616
 30
0.0
 11
3.625
 21
153.8159999999999
 31
0.0
  0
LINE
  5
2C2
330
A
100
AcDbEntity
  8
PV
  6
Continuous
 62
     7
100
AcDbLine
 10
8.400999999999999
 20
156.591
 30
0.0
 11
8.400999999999999
 21
154.591
 31
0.0
  0
LINE
  5
2C3
330
A
100
AcDbEntity
  8
PV
  6
Continuous
 62
     7
100
AcDbLine
 10
3.625
 20
157.366
 30
0.0
 11
3.625
 21
156.566
 31
0.0
  0
LINE
  5
2C4
330
A
100
AcDbEntity
  8
PV
  6
Continuous
 62
     7
100
AcDbLine
 10
0.3
 20
153.8159999999999
 30
0.0
 11
1.85
 21
153.8159999999999
 31
0.0
  0
LINE
  5
2C5
330
A
100
AcDbEntity
  8
PV
  6
Continuous
 62
     7
100
AcDbLine
 10
0.3
 20
157.366
 30
0.0
 11
1.85
 21
157.366
 31
0.0
  0
LINE
  5
2C6
330
A
100
AcDbEntity
  8
PV
  6
Continuous
 62
     7
100
AcDbLine
 10
0.3
 20
157.366
 30
0.0
 11
0.3
 21
153.8159999999999
 31
0.0
  0
LINE
  5
2C7
330
A
100
AcDbEntity
  8
PV
  6
Continuous
 62
     7
100
AcDbLine
 10
-2.284
 20
153.8159999999999
 30
0.0
 11
-0.384
 21
153.8159999999999
 31
0.0
  0
LINE
  5
2C8
330
A
100
AcDbEntity
  8
PV
  6
Continuous
 62
     7
100
AcDbLine
 10
-0.384
 20
156.416
 30
0.0
 11
-0.384
 21
153.8159999999999
 31
0.0
  0
LINE
  5
2C9
330
A
100
AcDbEntity
  8
PV
  6
Continuous
 62
     7
100
AcDbLine
 10
-2.284
 20
156.416
 30
0.0
 11
-2.284
 21
153.8159999999999
 31
0.0
  0
LINE
  5
2CA
330
A
100
AcDbEntity
  8
PV
  6
Continuous
 62
     7
100
AcDbLine
 10
-2.284
 20
156.416
 30
0.0
 11
-0.384
 21
156.416
 31
0.0
  0
LINE
  5
2CB
330
A
100
AcDbEntity
  8
PV
  6
Continuous
 62
     7
100
AcDbLine
 10
1.85
 20
157.366
 30
0.0
 11
1.85
 21
153.8159999999999
 31
0.0
  0
LINE
  5
2CC
330
A
100
AcDbEntity
  8
PV
  6
Continuous
 62
   255
100
AcDbLine
 10
-5.907999999999999
 20
149.8099999999999
 30
0.0
 11
-5.61
 21
149.8099999999999
 31
0.0
  0
LINE
  5
2CD
330
A
100
AcDbEntity
  8
PV
  6
Continuous
 62
     7
100
AcDbLine
 10
24.651
 20
147.506
 30
0.0
 11
-18.65099999999999
 21
147.506
 31
0.0
  0
LINE
  5
2CE
330
A
100
AcDbEntity
  8
PV
  6
Continuous
 62
     7
100
AcDbLine
 10
23.98699999999999
 20
139.249
 30
0.0
 11
24.38
 21
139.1929999999999
 31
0.0
  0
LINE
  5
2CF
330
A
100
AcDbEntity
  8
PV
  6
Continuous
 62
     7
100
AcDbLine
 10
23.949
 20
138.8689999999999
 30
0.0
 11
24.349
 21
138.809
 31
0.0
  0
LINE
  5
2D0
330
A
100
AcDbEntity
  8
PV
  6
Continuous
 62
     7
100
AcDbLine
 10
25.36699999999999
 20
140.2069999999999
 30
0.0
 11
25.051
 21
140.0249999999999
 31
0.0
  0
LINE
  5
2D1
330
A
100
AcDbEntity
  8
PV
  6
Continuous
 62
     7
100
AcDbLine
 10
22.962
 20
137.8549999999999
 30
0.0
 11
23.278
 21
138.037
 31
0.0
  0
LINE
  5
2D2
330
A
100
AcDbEntity
  8
PV
  6
Continuous
 62
     7
100
AcDbLine
 10
6.379999999999999
 20
140.91
 30
0.0
 11
6.791
 21
140.91
 31
0.0
  0
LINE
  5
2D3
330
A
100
AcDbEntity
  8
PV
  6
Continuous
 62
     7
100
AcDbLine
 10
4.253999999999999
 20
140.91
 30
0.0
 11
4.924999999999999
 21
137.11
 31
0.0
  0
LINE
  5
2D4
330
A
100
AcDbEntity
  8
PV
  6
Continuous
 62
     7
100
AcDbLine
 10
4.65
 20
140.91
 30
0.0
 11
5.214999999999999
 21
137.708
 31
0.0
  0
LINE
  5
2D5
330
A
100
AcDbEntity
  8
PV
  6
Continuous
 62
     7
100
AcDbLine
 10
5.214999999999999
 20
137.708
 30
0.0
 11
6.379999999999999
 21
140.91
 31
0.0
  0
LINE
  5
2D6
330
A
100
AcDbEntity
  8
PV
  6
Continuous
 62
     7
100
AcDbLine
 10
5.407999999999999
 20
137.11
 30
0.0
 11
6.791
 21
140.91
 31
0.0
  0
LINE
  5
2D7
330
A
100
AcDbEntity
  8
PV
  6
Continuous
 62
     7
100
AcDbLine
 10
4.253999999999999
 20
140.91
 30
0.0
 11
4.65
 21
140.91
 31
0.0
  0
LINE
  5
2D8
330
A
100
AcDbEntity
  8
PV
  6
Continuous
 62
     7
100
AcDbLine
 10
4.924999999999999
 20
137.11
 30
0.0
 11
5.407999999999999
 21
137.11
 31
0.0
  0
LINE
  5
2D9
330
A
100
AcDbEntity
  8
PV
  6
Continuous
 62
     7
100
AcDbLine
 10
17.62999999999999
 20
140.91
 30
0.0
 11
18.041
 21
140.91
 31
0.0
  0
LINE
  5
2DA
330
A
100
AcDbEntity
  8
PV
  6
Continuous
 62
     7
100
AcDbLine
 10
15.504
 20
140.91
 30
0.0
 11
16.175
 21
137.11
 31
0.0
  0
LINE
  5
2DB
330
A
100
AcDbEntity
  8
PV
  6
Continuous
 62
     7
100
AcDbLine
 10
15.9
 20
140.91
 30
0.0
 11
16.465
 21
137.708
 31
0.0
  0
LINE
  5
2DC
330
A
100
AcDbEntity
  8
PV
  6
Continuous
 62
     7
100
AcDbLine
 10
16.465
 20
137.708
 30
0.0
 11
17.62999999999999
 21
140.91
 31
0.0
  0
LINE
  5
2DD
330
A
100
AcDbEntity
  8
PV
  6
Continuous
 62
     7
100
AcDbLine
 10
16.658
 20
137.11
 30
0.0
 11
18.041
 21
140.91
 31
0.0
  0
LINE
  5
2DE
330
A
100
AcDbEntity
  8
PV
  6
Continuous
 62
     7
100
AcDbLine
 10
15.504
 20
140.91
 30
0.0
 11
15.9
 21
140.91
 31
0.0
  0
LINE
  5
2DF
330
A
100
AcDbEntity
  8
PV
  6
Continuous
 62
     7
100
AcDbLine
 10
16.175
 20
137.11
 30
0.0
 11
16.658
 21
137.11
 31
0.0
  0
LINE
  5
2E0
330
A
100
AcDbEntity
  8
PV
  6
Continuous
 62
     7
100
AcDbLine
 10
20.077
 20
139.1979999999999
 30
0.0
 11
20.30599999999999
 21
140.492
 31
0.0
  0
LINE
  5
2E1
330
A
100
AcDbEntity
  8
PV
  6
Continuous
 62
     7
100
AcDbLine
 10
21.693
 20
140.492
 30
0.0
 11
21.766
 21
140.91
 31
0.0
  0
LINE
  5
2E2
330
A
100
AcDbEntity
  8
PV
  6
Continuous
 62
     7
100
AcDbLine
 10
21.39499999999999
 20
138.8049999999999
 30
0.0
 11
21.464
 21
139.1979999999999
 31
0.0
  0
LINE
  5
2E3
330
A
100
AcDbEntity
  8
PV
  6
Continuous
 62
     7
100
AcDbLine
 10
19.778
 20
137.497
 30
0.0
 11
20.00799999999999
 21
138.8049999999999
 31
0.0
  0
LINE
  5
2E4
330
A
100
AcDbEntity
  8
PV
  6
Continuous
 62
     7
100
AcDbLine
 10
19.778
 20
137.497
 30
0.0
 11
21.16499999999999
 21
137.497
 31
0.0
  0
LINE
  5
2E5
330
A
100
AcDbEntity
  8
PV
  6
Continuous
 62
     7
100
AcDbLine
 10
20.30599999999999
 20
140.492
 30
0.0
 11
21.693
 21
140.492
 31
0.0
  0
LINE
  5
2E6
330
A
100
AcDbEntity
  8
PV
  6
Continuous
 62
     7
100
AcDbLine
 10
20.077
 20
139.1979999999999
 30
0.0
 11
21.464
 21
139.1979999999999
 31
0.0
  0
LINE
  5
2E7
330
A
100
AcDbEntity
  8
PV
  6
Continuous
 62
     7
100
AcDbLine
 10
20.00799999999999
 20
138.8049999999999
 30
0.0
 11
21.39499999999999
 21
138.8049999999999
 31
0.0
  0
LINE
  5
2E8
330
A
100
AcDbEntity
  8
PV
  6
Continuous
 62
     7
100
AcDbLine
 10
21.09599999999999
 20
137.11
 30
0.0
 11
21.16499999999999
 21
137.497
 31
0.0
  0
LINE
  5
2E9
330
A
100
AcDbEntity
  8
PV
  6
Continuous
 62
     7
100
AcDbLine
 10
19.319
 20
137.11
 30
0.0
 11
19.989
 21
140.91
 31
0.0
  0
LINE
  5
2EA
330
A
100
AcDbEntity
  8
PV
  6
Continuous
 62
     7
100
AcDbLine
 10
12.44299999999999
 20
137.5149999999999
 30
0.0
 11
14.106
 21
137.5149999999999
 31
0.0
  0
LINE
  5
2EB
330
A
100
AcDbEntity
  8
PV
  6
Continuous
 62
     7
100
AcDbLine
 10
12.44299999999999
 20
137.5149999999999
 30
0.0
 11
13.041
 21
140.91
 31
0.0
  0
LINE
  5
2EC
330
A
100
AcDbEntity
  8
PV
  6
Continuous
 62
     7
100
AcDbLine
 10
11.975
 20
137.11
 30
0.0
 11
12.64499999999999
 21
140.91
 31
0.0
  0
LINE
  5
2ED
330
A
100
AcDbEntity
  8
PV
  6
Continuous
 62
     7
100
AcDbLine
 10
14.034
 20
137.11
 30
0.0
 11
14.106
 21
137.5149999999999
 31
0.0
  0
LINE
  5
2EE
330
A
100
AcDbEntity
  8
PV
  6
Continuous
 62
     7
100
AcDbLine
 10
19.319
 20
137.11
 30
0.0
 11
21.09599999999999
 21
137.11
 31
0.0
  0
LINE
  5
2EF
330
A
100
AcDbEntity
  8
PV
  6
Continuous
 62
     7
100
AcDbLine
 10
19.989
 20
140.91
 30
0.0
 11
21.766
 21
140.91
 31
0.0
  0
LINE
  5
2F0
330
A
100
AcDbEntity
  8
PV
  6
Continuous
 62
     7
100
AcDbLine
 10
12.64599999999999
 20
140.91
 30
0.0
 11
13.041
 21
140.91
 31
0.0
  0
LINE
  5
2F1
330
A
100
AcDbEntity
  8
PV
  6
Continuous
 62
     7
100
AcDbLine
 10
11.975
 20
137.11
 30
0.0
 11
14.034
 21
137.11
 31
0.0
  0
LINE
  5
2F2
330
A
100
AcDbEntity
  8
PV
  6
Continuous
 62
     7
100
AcDbLine
 10
9.904999999999999
 20
137.917
 30
0.0
 11
10.12099999999999
 21
137.11
 31
0.0
  0
LINE
  5
2F3
330
A
100
AcDbEntity
  8
PV
  6
Continuous
 62
     7
100
AcDbLine
 10
8.541
 20
138.312
 30
0.0
 11
9.265
 21
140.303
 31
0.0
  0
LINE
  5
2F4
330
A
100
AcDbEntity
  8
PV
  6
Continuous
 62
     7
100
AcDbLine
 10
8.541
 20
138.312
 30
0.0
 11
9.798999999999999
 21
138.312
 31
0.0
  0
LINE
  5
2F5
330
A
100
AcDbEntity
  8
PV
  6
Continuous
 62
     7
100
AcDbLine
 10
8.397
 20
137.917
 30
0.0
 11
9.904999999999999
 21
137.917
 31
0.0
  0
LINE
  5
2F6
330
A
100
AcDbEntity
  8
PV
  6
Continuous
 62
     7
100
AcDbLine
 10
10.12099999999999
 20
137.11
 30
0.0
 11
10.514
 21
137.11
 31
0.0
  0
LINE
  5
2F7
330
A
100
AcDbEntity
  8
PV
  6
Continuous
 62
     7
100
AcDbLine
 10
9.265
 20
140.303
 30
0.0
 11
9.798999999999999
 21
138.312
 31
0.0
  0
LINE
  5
2F8
330
A
100
AcDbEntity
  8
PV
  6
Continuous
 62
     7
100
AcDbLine
 10
9.496
 20
140.91
 30
0.0
 11
10.514
 21
137.11
 31
0.0
  0
LINE
  5
2F9
330
A
100
AcDbEntity
  8
PV
  6
Continuous
 62
     7
100
AcDbLine
 10
8.102999999999999
 20
137.11
 30
0.0
 11
8.397
 21
137.917
 31
0.0
  0
LINE
  5
2FA
330
A
100
AcDbEntity
  8
PV
  6
Continuous
 62
     7
100
AcDbLine
 10
7.698999999999999
 20
137.11
 30
0.0
 11
9.082
 21
140.91
 31
0.0
  0
LINE
  5
2FB
330
A
100
AcDbEntity
  8
PV
  6
Continuous
 62
     7
100
AcDbLine
 10
9.082
 20
140.91
 30
0.0
 11
9.496
 21
140.91
 31
0.0
  0
LINE
  5
2FC
330
A
100
AcDbEntity
  8
PV
  6
Continuous
 62
     7
100
AcDbLine
 10
7.698999999999999
 20
137.11
 30
0.0
 11
8.102999999999999
 21
137.11
 31
0.0
  0
LINE
  5
2FD
330
A
100
AcDbEntity
  8
PV
  6
Continuous
 62
     7
100
AcDbLine
 10
-1.222999999999999
 20
139.1979999999999
 30
0.0
 11
-0.9940000000000001
 21
140.492
 31
0.0
  0
LINE
  5
2FE
330
A
100
AcDbEntity
  8
PV
  6
Continuous
 62
     7
100
AcDbLine
 10
0.393
 20
140.492
 30
0.0
 11
0.4660000000000001
 21
140.91
 31
0.0
  0
LINE
  5
2FF
330
A
100
AcDbEntity
  8
PV
  6
Continuous
 62
     7
100
AcDbLine
 10
0.095
 20
138.8049999999999
 30
0.0
 11
0.164
 21
139.1979999999999
 31
0.0
  0
LINE
  5
300
330
A
100
AcDbEntity
  8
PV
  6
Continuous
 62
     7
100
AcDbLine
 10
-1.521999999999999
 20
137.497
 30
0.0
 11
-1.291999999999999
 21
138.8049999999999
 31
0.0
  0
LINE
  5
301
330
A
100
AcDbEntity
  8
PV
  6
Continuous
 62
     7
100
AcDbLine
 10
-1.521999999999999
 20
137.497
 30
0.0
 11
-0.135
 21
137.497
 31
0.0
  0
LINE
  5
302
330
A
100
AcDbEntity
  8
PV
  6
Continuous
 62
     7
100
AcDbLine
 10
-0.9940000000000001
 20
140.492
 30
0.0
 11
0.393
 21
140.492
 31
0.0
  0
LINE
  5
303
330
A
100
AcDbEntity
  8
PV
  6
Continuous
 62
     7
100
AcDbLine
 10
-1.222999999999999
 20
139.1979999999999
 30
0.0
 11
0.164
 21
139.1979999999999
 31
0.0
  0
LINE
  5
304
330
A
100
AcDbEntity
  8
PV
  6
Continuous
 62
     7
100
AcDbLine
 10
-1.291999999999999
 20
138.8049999999999
 30
0.0
 11
0.095
 21
138.8049999999999
 31
0.0
  0
LINE
  5
305
330
A
100
AcDbEntity
  8
PV
  6
Continuous
 62
     7
100
AcDbLine
 10
-0.204
 20
137.11
 30
0.0
 11
-0.135
 21
137.497
 31
0.0
  0
LINE
  5
306
330
A
100
AcDbEntity
  8
PV
  6
Continuous
 62
     7
100
AcDbLine
 10
-1.980999999999999
 20
137.11
 30
0.0
 11
-1.310999999999999
 21
140.91
 31
0.0
  0
LINE
  5
307
330
A
100
AcDbEntity
  8
PV
  6
Continuous
 62
     7
100
AcDbLine
 10
-1.980999999999999
 20
137.11
 30
0.0
 11
-0.204
 21
137.11
 31
0.0
  0
LINE
  5
308
330
A
100
AcDbEntity
  8
PV
  6
Continuous
 62
     7
100
AcDbLine
 10
-1.310999999999999
 20
140.91
 30
0.0
 11
0.4660000000000001
 21
140.91
 31
0.0
  0
LINE
  5
309
330
A
100
AcDbEntity
  8
PV
  6
Continuous
 62
     7
100
AcDbLine
 10
-5.357
 20
137.5149999999999
 30
0.0
 11
-3.693999999999999
 21
137.5149999999999
 31
0.0
  0
LINE
  5
30A
330
A
100
AcDbEntity
  8
PV
  6
Continuous
 62
     7
100
AcDbLine
 10
-5.357
 20
137.5149999999999
 30
0.0
 11
-4.758999999999999
 21
140.91
 31
0.0
  0
LINE
  5
30B
330
A
100
AcDbEntity
  8
PV
  6
Continuous
 62
     7
100
AcDbLine
 10
-5.825
 20
137.11
 30
0.0
 11
-5.153999999999999
 21
140.91
 31
0.0
  0
LINE
  5
30C
330
A
100
AcDbEntity
  8
PV
  6
Continuous
 62
     7
100
AcDbLine
 10
-3.766
 20
137.11
 30
0.0
 11
-3.693999999999999
 21
137.5149999999999
 31
0.0
  0
LINE
  5
30D
330
A
100
AcDbEntity
  8
PV
  6
Continuous
 62
     7
100
AcDbLine
 10
-5.153999999999999
 20
140.91
 30
0.0
 11
-4.758999999999999
 21
140.91
 31
0.0
  0
LINE
  5
30E
330
A
100
AcDbEntity
  8
PV
  6
Continuous
 62
     7
100
AcDbLine
 10
-5.825
 20
137.11
 30
0.0
 11
-3.766
 21
137.11
 31
0.0
  0
LINE
  5
30F
330
A
100
AcDbEntity
  8
PV
  6
Continuous
 62
     7
100
AcDbLine
 10
-17.395
 20
137.917
 30
0.0
 11
-17.179
 21
137.11
 31
0.0
  0
LINE
  5
310
330
A
100
AcDbEntity
  8
PV
  6
Continuous
 62
     7
100
AcDbLine
 10
-18.759
 20
138.312
 30
0.0
 11
-18.035
 21
140.303
 31
0.0
  0
LINE
  5
311
330
A
100
AcDbEntity
  8
PV
  6
Continuous
 62
     7
100
AcDbLine
 10
-18.759
 20
138.312
 30
0.0
 11
-17.50099999999999
 21
138.312
 31
0.0
  0
LINE
  5
312
330
A
100
AcDbEntity
  8
PV
  6
Continuous
 62
     7
100
AcDbLine
 10
-18.90299999999999
 20
137.917
 30
0.0
 11
-17.395
 21
137.917
 31
0.0
  0
LINE
  5
313
330
A
100
AcDbEntity
  8
PV
  6
Continuous
 62
     7
100
AcDbLine
 10
-17.179
 20
137.11
 30
0.0
 11
-16.78599999999999
 21
137.11
 31
0.0
  0
LINE
  5
314
330
A
100
AcDbEntity
  8
PV
  6
Continuous
 62
     7
100
AcDbLine
 10
-18.035
 20
140.303
 30
0.0
 11
-17.50099999999999
 21
138.312
 31
0.0
  0
LINE
  5
315
330
A
100
AcDbEntity
  8
PV
  6
Continuous
 62
     7
100
AcDbLine
 10
-17.804
 20
140.91
 30
0.0
 11
-16.78599999999999
 21
137.11
 31
0.0
  0
LINE
  5
316
330
A
100
AcDbEntity
  8
PV
  6
Continuous
 62
     7
100
AcDbLine
 10
-19.19699999999999
 20
137.11
 30
0.0
 11
-18.90299999999999
 21
137.917
 31
0.0
  0
LINE
  5
317
330
A
100
AcDbEntity
  8
PV
  6
Continuous
 62
     7
100
AcDbLine
 10
-19.60099999999999
 20
137.11
 30
0.0
 11
-18.21799999999999
 21
140.91
 31
0.0
  0
LINE
  5
318
330
A
100
AcDbEntity
  8
PV
  6
Continuous
 62
     7
100
AcDbLine
 10
-18.21799999999999
 20
140.91
 30
0.0
 11
-17.804
 21
140.91
 31
0.0
  0
LINE
  5
319
330
A
100
AcDbEntity
  8
PV
  6
Continuous
 62
     7
100
AcDbLine
 10
-19.60099999999999
 20
137.11
 30
0.0
 11
-19.19699999999999
 21
137.11
 31
0.0
  0
LINE
  5
31A
330
A
100
AcDbEntity
  8
PV
  6
Continuous
 62
     7
100
AcDbLine
 10
-8.452999999999999
 20
138.63
 30
0.0
 11
-7.696
 21
138.63
 31
0.0
  0
LINE
  5
31B
330
A
100
AcDbEntity
  8
PV
  6
Continuous
 62
     7
100
AcDbLine
 10
-8.452999999999999
 20
138.63
 30
0.0
 11
-8.386000000000001
 21
139.0099999999999
 31
0.0
  0
LINE
  5
31C
330
A
100
AcDbEntity
  8
PV
  6
Continuous
 62
     7
100
AcDbLine
 10
-7.693999999999999
 20
139.557
 30
0.0
 11
-7.317999999999999
 21
139.6949999999999
 31
0.0
  0
LINE
  5
31D
330
A
100
AcDbEntity
  8
PV
  6
Continuous
 62
     7
100
AcDbLine
 10
-8.386000000000001
 20
139.0099999999999
 30
0.0
 11
-7.235
 21
139.0099999999999
 31
0.0
  0
LINE
  5
31E
330
A
100
AcDbEntity
  8
PV
  6
Continuous
 62
     7
100
AcDbLine
 10
-12.204
 20
140.91
 30
0.0
 11
-11.81599999999999
 21
140.91
 31
0.0
  0
LINE
  5
31F
330
A
100
AcDbEntity
  8
PV
  6
Continuous
 62
     7
100
AcDbLine
 10
-12.883
 20
137.11
 30
0.0
 11
-12.48599999999999
 21
137.11
 31
0.0
  0
LINE
  5
320
330
A
100
AcDbEntity
  8
PV
  6
Continuous
 62
     7
100
AcDbLine
 10
-14.062
 20
140.91
 30
0.0
 11
-12.749
 21
137.817
 31
0.0
  0
LINE
  5
321
330
A
100
AcDbEntity
  8
PV
  6
Continuous
 62
     7
100
AcDbLine
 10
-14.146
 20
140.084
 30
0.0
 11
-12.883
 21
137.11
 31
0.0
  0
LINE
  5
322
330
A
100
AcDbEntity
  8
PV
  6
Continuous
 62
     7
100
AcDbLine
 10
-15.07
 20
137.11
 30
0.0
 11
-14.4
 21
140.91
 31
0.0
  0
LINE
  5
323
330
A
100
AcDbEntity
  8
PV
  6
Continuous
 62
     7
100
AcDbLine
 10
-14.67
 20
137.11
 30
0.0
 11
-14.146
 21
140.084
 31
0.0
  0
LINE
  5
324
330
A
100
AcDbEntity
  8
PV
  6
Continuous
 62
     7
100
AcDbLine
 10
-12.749
 20
137.817
 30
0.0
 11
-12.204
 21
140.91
 31
0.0
  0
LINE
  5
325
330
A
100
AcDbEntity
  8
PV
  6
Continuous
 62
     7
100
AcDbLine
 10
-12.48599999999999
 20
137.11
 30
0.0
 11
-11.81599999999999
 21
140.91
 31
0.0
  0
LINE
  5
326
330
A
100
AcDbEntity
  8
PV
  6
Continuous
 62
     7
100
AcDbLine
 10
-14.4
 20
140.91
 30
0.0
 11
-14.062
 21
140.91
 31
0.0
  0
LINE
  5
327
330
A
100
AcDbEntity
  8
PV
  6
Continuous
 62
     7
100
AcDbLine
 10
-15.071
 20
137.11
 30
0.0
 11
-14.67
 21
137.11
 31
0.0
  0
MTEXT
  5
328
330
A
100
AcDbEntity
  8
PV
  6
Continuous
 62
     7
100
AcDbMText
 10
-77.48499999999999
 20
80.23950000000001
 30
0.0
 40
0.625
 41
0.0
 71
     2
 72
     1
  1
\A1;CF114
 73
     1
 44
1.0
  0
LWPOLYLINE
  5
329
330
A
100
AcDbEntity
  8
PV
  6
Continuous
 62
     7
100
AcDbPolyline
 90
       73
 70
     0
 43
0.0
 10
25.456
 20
10.0
 10
25.459
 20
9.737999999999999
 10
25.46699999999999
 20
9.477
 10
25.482
 20
9.217
 10
25.501
 20
8.958
 10
25.52699999999999
 20
8.701
 10
25.558
 20
8.447
 10
25.59499999999999
 20
8.195999999999999
 10
25.63699999999999
 20
7.947999999999999
 10
25.684
 20
7.703999999999999
 10
25.737
 20
7.463999999999999
 10
25.795
 20
7.23
 10
25.858
 20
7.0
 10
25.926
 20
6.775999999999999
 10
25.998
 20
6.559
 10
26.076
 20
6.347
 10
26.158
 20
6.142999999999999
 10
26.244
 20
5.946
 10
26.335
 20
5.757
 10
26.429
 20
5.576
 10
26.528
 20
5.403999999999999
 10
26.63
 20
5.24
 10
26.735
 20
5.084999999999999
 10
26.844
 20
4.94
 10
26.956
 20
4.803999999999999
 10
27.071
 20
4.677999999999999
 10
27.188
 20
4.562
 10
27.308
 20
4.456999999999999
 10
27.43
 20
4.362
 10
27.554
 20
4.278
 10
27.679
 20
4.203999999999999
 10
27.80699999999999
 20
4.141999999999999
 10
27.93499999999999
 20
4.091
 10
28.064
 20
4.051
 10
28.194
 20
4.022999999999999
 10
28.32499999999999
 20
4.006
 10
28.456
 20
4.0
 10
28.587
 20
4.006
 10
28.717
 20
4.022999999999999
 10
28.847
 20
4.051
 10
28.977
 20
4.091
 10
29.105
 20
4.141999999999999
 10
29.23199999999999
 20
4.203999999999999
 10
29.358
 20
4.278
 10
29.48199999999999
 20
4.362
 10
29.60399999999999
 20
4.456999999999999
 10
29.724
 20
4.562
 10
29.84099999999999
 20
4.677999999999999
 10
29.95599999999999
 20
4.803999999999999
 10
30.068
 20
4.94
 10
30.177
 20
5.084999999999999
 10
30.282
 20
5.24
 10
30.384
 20
5.403999999999999
 10
30.483
 20
5.576
 10
30.577
 20
5.757
 10
30.668
 20
5.946
 10
30.754
 20
6.142999999999999
 10
30.836
 20
6.347
 10
30.913
 20
6.559
 10
30.986
 20
6.775999999999999
 10
31.054
 20
7.0
 10
31.11699999999999
 20
7.23
 10
31.175
 20
7.463999999999999
 10
31.228
 20
7.703999999999999
 10
31.27499999999999
 20
7.947999999999999
 10
31.31699999999999
 20
8.195999999999999
 10
31.354
 20
8.447
 10
31.385
 20
8.701
 10
31.41
 20
8.958
 10
31.43
 20
9.217
 10
31.444
 20
9.477
 10
31.453
 20
9.737999999999999
 10
31.45599999999999
 20
10.0
  0
LWPOLYLINE
  5
32A
330
A
100
AcDbEntity
  8
PV
  6
Continuous
 62
     7
100
AcDbPolyline
 90
       73
 70
     0
 43
0.0
 10
-25.456
 20
10.0
 10
-25.453
 20
9.737999999999999
 10
-25.444
 20
9.477
 10
-25.43
 20
9.217
 10
-25.41
 20
8.958
 10
-25.385
 20
8.701
 10
-25.354
 20
8.447
 10
-25.31699999999999
 20
8.195999999999999
 10
-25.27499999999999
 20
7.947999999999999
 10
-25.22699999999999
 20
7.703999999999999
 10
-25.175
 20
7.463999999999999
 10
-25.11699999999999
 20
7.23
 10
-25.054
 20
7.0
 10
-24.986
 20
6.775999999999999
 10
-24.913
 20
6.559
 10
-24.836
 20
6.347
 10
-24.754
 20
6.142999999999999
 10
-24.668
 20
5.946
 10
-24.57699999999999
 20
5.757
 10
-24.483
 20
5.576
 10
-24.384
 20
5.403999999999999
 10
-24.28199999999999
 20
5.24
 10
-24.17699999999999
 20
5.084999999999999
 10
-24.068
 20
4.94
 10
-23.95599999999999
 20
4.803999999999999
 10
-23.84099999999999
 20
4.677999999999999
 10
-23.724
 20
4.562
 10
-23.60399999999999
 20
4.456999999999999
 10
-23.48199999999999
 20
4.362
 10
-23.358
 20
4.278
 10
-23.23199999999999
 20
4.203999999999999
 10
-23.105
 20
4.141999999999999
 10
-22.97699999999999
 20
4.091
 10
-22.84699999999999
 20
4.051
 10
-22.717
 20
4.022999999999999
 10
-22.587
 20
4.006
 10
-22.456
 20
4.0
 10
-22.32499999999999
 20
4.006
 10
-22.194
 20
4.022999999999999
 10
-22.06399999999999
 20
4.051
 10
-21.93499999999999
 20
4.091
 10
-21.80699999999999
 20
4.141999999999999
 10
-21.679
 20
4.203999999999999
 10
-21.554
 20
4.278
 10
-21.43
 20
4.362
 10
-21.308
 20
4.456999999999999
 10
-21.188
 20
4.562
 10
-21.07099999999999
 20
4.677999999999999
 10
-20.956
 20
4.803999999999999
 10
-20.844
 20
4.94
 10
-20.735
 20
5.084999999999999
 10
-20.63
 20
5.24
 10
-20.52699999999999
 20
5.403999999999999
 10
-20.429
 20
5.576
 10
-20.335
 20
5.757
 10
-20.24399999999999
 20
5.946
 10
-20.158
 20
6.142999999999999
 10
-20.076
 20
6.347
 10
-19.998
 20
6.559
 10
-19.92599999999999
 20
6.775999999999999
 10
-19.858
 20
7.0
 10
-19.795
 20
7.23
 10
-19.737
 20
7.463999999999999
 10
-19.684
 20
7.703999999999999
 10
-19.637
 20
7.947999999999999
 10
-19.595
 20
8.195999999999999
 10
-19.55799999999999
 20
8.447
 10
-19.527
 20
8.701
 10
-19.50099999999999
 20
8.958
 10
-19.48199999999999
 20
9.217
 10
-19.46699999999999
 20
9.477
 10
-19.45899999999999
 20
9.737999999999999
 10
-19.45599999999999
 20
10.0
  0
ARC
  5
32B
330
A
100
AcDbEntity
  8
PV
  6
Continuous
 62
     7
100
AcDbCircle
 10
3.0
 20
135.006
 30
0.0
 40
56.75
100
AcDbArc
 50
234.15192
 51
305.8480809999999
  0
ARC
  5
32C
330
A
100
AcDbEntity
  8
PV
  6
Continuous
 62
     7
100
AcDbCircle
 10
3.0
 20
135.006
 30
0.0
 40
56.75
100
AcDbArc
 50
212.2110849999999
 51
215.848093
  0
ARC
  5
32D
330
A
100
AcDbEntity
  8
PV
  6
Continuous
 62
     7
100
AcDbCircle
 10
3.0
 20
135.006
 30
0.0
 40
56.75
100
AcDbArc
 50
54.15192499999999
 51
125.84808
  0
ARC
  5
32E
330
A
100
AcDbEntity
  8
PV
  6
Continuous
 62
     7
100
AcDbCircle
 10
3.0
 20
135.006
 30
0.0
 40
56.75
100
AcDbArc
 50
144.151907
 51
147.788956
  0
ARC
  5
32F
330
A
100
AcDbEntity
  8
PV
  6
Continuous
 62
     7
100
AcDbCircle
 10
3.0
 20
135.006
 30
0.0
 40
56.75
100
AcDbArc
 50
324.151926
 51
35.84807399999999
  0
ARC
  5
330
330
A
100
AcDbEntity
  8
PV
  6
Continuous
 62
     7
100
AcDbCircle
 10
-24.078
 20
22.0
 30
0.0
 40
2.0
100
AcDbArc
 50
90.00000300000001
 51
177.7093919999999
  0
ARC
  5
331
330
A
100
AcDbEntity
  8
PV
  6
Continuous
 62
     7
100
AcDbCircle
 10
-22.5
 20
24.0
 30
0.0
 40
1.0
100
AcDbArc
 50
90.00000300000001
 51
180.000005
  0
ARC
  5
332
330
A
100
AcDbEntity
  8
PV
  6
Continuous
 62
     7
100
AcDbCircle
 10
28.5
 20
24.0
 30
0.0
 40
1.0
100
AcDbArc
 50
0.0
 51
90.00000300000001
  0
ARC
  5
333
330
A
100
AcDbEntity
  8
PV
  6
Continuous
 62
     7
100
AcDbCircle
 10
30.078
 20
22.0
 30
0.0
 40
2.0
100
AcDbArc
 50
2.29061
 51
90.00000300000001
  0
ARC
  5
334
330
A
100
AcDbEntity
  8
PV
  6
Continuous
 62
     7
100
AcDbCircle
 10
36.0
 20
-9.0
 30
0.0
 40
5.0
100
AcDbArc
 50
179.9999909999999
 51
270.000001
  0
ARC
  5
335
330
A
100
AcDbEntity
  8
PV
  6
Continuous
 62
     7
100
AcDbCircle
 10
-30.0
 20
-9.0
 30
0.0
 40
5.0
100
AcDbArc
 50
269.9999969999999
 51
0.0
  0
ARC
  5
337
330
A
100
AcDbEntity
  8
PV
  6
PHANTOM
 62
     7
100
AcDbCircle
 10
28.5
 20
44.0
 30
0.0
 40
1.0
100
AcDbArc
 50
0.0
 51
90.00000300000001
  0
ARC
  5
338
330
A
100
AcDbEntity
  8
PV
  6
PHANTOM
 62
     7
100
AcDbCircle
 10
-22.5
 20
44.0
 30
0.0
 40
1.0
100
AcDbArc
 50
90.00000300000001
 51
180.000005
  0
ARC
  5
339
330
A
100
AcDbEntity
  8
PV
  6
Continuous
 62
     7
100
AcDbCircle
 10
3.0
 20
10.0
 30
0.0
 40
6.0
100
AcDbArc
 50
269.9999969999999
 51
0.0
  0
ARC
  5
33A
330
A
100
AcDbEntity
  8
PV
  6
Continuous
 62
     7
100
AcDbCircle
 10
3.0
 20
10.0
 30
0.0
 40
6.0
100
AcDbArc
 50
179.9999909999999
 51
270.000001
  0
ARC
  5
33B
330
A
100
AcDbEntity
  8
PV
  6
PHANTOM
 62
     7
100
AcDbCircle
 10
30.078
 20
42.0
 30
0.0
 40
2.0
100
AcDbArc
 50
2.29061
 51
90.00000300000001
  0
ARC
  5
33C
330
A
100
AcDbEntity
  8
PV
  6
PHANTOM
 62
     7
100
AcDbCircle
 10
-24.078
 20
42.0
 30
0.0
 40
2.0
100
AcDbArc
 50
90.00000300000001
 51
177.7093919999999
  0
ARC
  5
33D
330
A
100
AcDbEntity
  8
PV
  6
Continuous
 62
     7
100
AcDbCircle
 10
-74.205
 20
-81.5
 30
0.0
 40
44.55
100
AcDbArc
 50
317.2335219999999
 51
42.766482
  0
ARC
  5
33E
330
A
100
AcDbEntity
  8
PV
  6
Continuous
 62
     7
100
AcDbCircle
 10
3.0
 20
135.006
 30
0.0
 40
61.0
100
AcDbArc
 50
131.053339
 51
138.946661
  0
ARC
  5
33F
330
A
100
AcDbEntity
  8
PV
  6
Continuous
 62
     7
100
AcDbCircle
 10
3.0
 20
135.006
 30
0.0
 40
61.0
100
AcDbArc
 50
311.053352
 51
318.946649
  0
ARC
  5
340
330
A
100
AcDbEntity
  8
PV
  6
Continuous
 62
     7
100
AcDbCircle
 10
3.0
 20
135.006
 30
0.0
 40
61.0
100
AcDbArc
 50
221.053339
 51
228.946647
  0
ARC
  5
341
330
A
100
AcDbEntity
  8
PV
  6
Continuous
 62
     7
100
AcDbCircle
 10
3.0
 20
135.006
 30
0.0
 40
61.0
100
AcDbArc
 50
41.053351
 51
48.946659
  0
CIRCLE
  5
342
330
A
100
AcDbEntity
  8
PV
  6
Continuous
 62
     7
100
AcDbCircle
 10
38.5
 20
99.50600000000001
 30
0.0
 40
7.5
  0
CIRCLE
  5
343
330
A
100
AcDbEntity
  8
PV
  6
Continuous
 62
     7
100
AcDbCircle
 10
38.5
 20
170.5059999999999
 30
0.0
 40
7.5
  0
CIRCLE
  5
344
330
A
100
AcDbEntity
  8
PV
  6
Continuous
 62
     7
100
AcDbCircle
 10
-32.5
 20
170.5059999999999
 30
0.0
 40
7.5
  0
CIRCLE
  5
345
330
A
100
AcDbEntity
  8
PV
  6
Continuous
 62
     7
100
AcDbCircle
 10
-32.5
 20
99.50600000000001
 30
0.0
 40
7.5
  0
ARC
  5
346
330
A
100
AcDbEntity
  8
PV
  6
Continuous
 62
   255
100
AcDbCircle
 10
3.0
 20
135.006
 30
0.0
 40
29.0
100
AcDbArc
 50
161.90891
 51
198.091086
  0
ARC
  5
347
330
A
100
AcDbEntity
  8
PV
  6
Continuous
 62
   255
100
AcDbCircle
 10
-24.432
 20
125.52
 30
0.0
 40
0.5
100
AcDbArc
 50
30.000001
 51
120.0000029999999
  0
ARC
  5
348
330
A
100
AcDbEntity
  8
PV
  6
Continuous
 62
   255
100
AcDbCircle
 10
-24.432
 20
144.493
 30
0.0
 40
0.5
100
AcDbArc
 50
239.999997
 51
329.9999989999999
  0
ARC
  5
349
330
A
100
AcDbEntity
  8
PV
  6
Continuous
 62
   255
100
AcDbCircle
 10
-18.932
 20
154.02
 30
0.0
 40
0.5
100
AcDbArc
 50
329.9999989999999
 51
60.000002
  0
ARC
  5
34A
330
A
100
AcDbEntity
  8
PV
  6
Continuous
 62
   255
100
AcDbCircle
 10
3.0
 20
135.006
 30
0.0
 40
29.0
100
AcDbArc
 50
101.908915
 51
138.091084
  0
ARC
  5
34B
330
A
100
AcDbEntity
  8
PV
  6
Continuous
 62
   255
100
AcDbCircle
 10
-2.5
 20
163.506
 30
0.0
 40
0.5
100
AcDbArc
 50
179.9999909999999
 51
270.000001
  0
ARC
  5
34C
330
A
100
AcDbEntity
  8
PV
  6
Continuous
 62
   255
100
AcDbCircle
 10
8.5
 20
163.506
 30
0.0
 40
0.5
100
AcDbArc
 50
269.9999969999999
 51
0.0
  0
ARC
  5
34D
330
A
100
AcDbEntity
  8
PV
  6
Continuous
 62
   255
100
AcDbCircle
 10
3.0
 20
135.006
 30
0.0
 40
29.0
100
AcDbArc
 50
41.908914
 51
78.091083
  0
ARC
  5
34E
330
A
100
AcDbEntity
  8
PV
  6
Continuous
 62
   255
100
AcDbCircle
 10
24.93199999999999
 20
154.02
 30
0.0
 40
0.5
100
AcDbArc
 50
120.0000029999999
 51
209.999999
  0
ARC
  5
34F
330
A
100
AcDbEntity
  8
PV
  6
Continuous
 62
   255
100
AcDbCircle
 10
30.432
 20
144.493
 30
0.0
 40
0.5
100
AcDbArc
 50
210.0000029999999
 51
299.999998
  0
ARC
  5
350
330
A
100
AcDbEntity
  8
PV
  6
Continuous
 62
   255
100
AcDbCircle
 10
3.0
 20
135.006
 30
0.0
 40
29.0
100
AcDbArc
 50
341.908914
 51
18.09108599999999
  0
ARC
  5
351
330
A
100
AcDbEntity
  8
PV
  6
Continuous
 62
   255
100
AcDbCircle
 10
30.432
 20
125.52
 30
0.0
 40
0.5
100
AcDbArc
 50
60.000002
 51
149.999997
  0
ARC
  5
352
330
A
100
AcDbEntity
  8
PV
  6
Continuous
 62
   255
100
AcDbCircle
 10
24.93199999999999
 20
115.9929999999999
 30
0.0
 40
0.5
100
AcDbArc
 50
149.999997
 51
240.0000069999999
  0
CIRCLE
  5
353
330
A
100
AcDbEntity
  8
PV
  6
Continuous
 62
   255
100
AcDbCircle
 10
3.0
 20
135.006
 30
0.0
 40
30.0
  0
ARC
  5
354
330
A
100
AcDbEntity
  8
PV
  6
Continuous
 62
   255
100
AcDbCircle
 10
3.0
 20
135.006
 30
0.0
 40
29.0
100
AcDbArc
 50
221.908916
 51
258.059454
  0
ARC
  5
355
330
A
100
AcDbEntity
  8
PV
  6
Continuous
 62
   255
100
AcDbCircle
 10
8.5
 20
106.506
 30
0.0
 40
0.5
100
AcDbArc
 50
0.0
 51
90.00000300000001
  0
ARC
  5
356
330
A
100
AcDbEntity
  8
PV
  6
Continuous
 62
   255
100
AcDbCircle
 10
-2.5
 20
106.506
 30
0.0
 40
0.5
100
AcDbArc
 50
90.00000300000001
 51
180.000005
  0
CIRCLE
  5
357
330
A
100
AcDbEntity
  8
PV
  6
Continuous
 62
   255
100
AcDbCircle
 10
3.0
 20
135.006
 30
0.0
 40
26.5
  0
ARC
  5
358
330
A
100
AcDbEntity
  8
PV
  6
Continuous
 62
   255
100
AcDbCircle
 10
3.0
 20
135.006
 30
0.0
 40
29.0
100
AcDbArc
 50
281.9405409999999
 51
318.0910859999999
  0
ARC
  5
359
330
A
100
AcDbEntity
  8
PV
  6
Continuous
 62
   255
100
AcDbCircle
 10
-18.932
 20
115.9929999999999
 30
0.0
 40
0.5
100
AcDbArc
 50
299.999998
 51
30.000001
  0
LINE
  5
35A
330
A
100
AcDbEntity
  8
PV
  6
Continuous
 62
     7
100
AcDbLine
 10
-62.9
 20
190.9559999999999
 30
0.0
 11
-62.9
 21
79.05599999999999
 31
0.0
  0
LINE
  5
35B
330
A
100
AcDbEntity
  8
PV
  6
Continuous
 62
     7
100
AcDbLine
 10
-62.9
 20
-25.55
 30
0.0
 11
-62.9
 21
-137.4499999999999
 31
0.0
  0
LINE
  5
35C
330
A
100
AcDbEntity
  8
PV
  6
CENTER
 62
     7
100
AcDbLine
 10
-59.0
 20
-127.6
 30
0.0
 11
-87.92200000000001
 21
-127.6
 31
0.0
  0
LINE
  5
35D
330
A
100
AcDbEntity
  8
PV
  6
CENTER
 62
     7
100
AcDbLine
 10
-62.0
 20
-35.4
 30
0.0
 11
-84.58299999999999
 21
-35.4
 31
0.0
  0
LINE
  5
35E
330
A
100
AcDbEntity
  8
PV
  6
Continuous
 62
     7
100
AcDbLine
 10
59.75
 20
-165.7
 30
0.0
 11
-53.75
 21
-165.7
 31
0.0
  0
LINE
  5
35F
330
A
100
AcDbEntity
  8
PV
  6
Continuous
 62
     7
100
AcDbLine
 10
59.75
 20
-149.8
 30
0.0
 11
-53.75
 21
-149.8
 31
0.0
  0
LINE
  5
360
330
A
100
AcDbEntity
  8
PV
  6
Continuous
 62
     7
100
AcDbLine
 10
-53.75
 20
-149.8
 30
0.0
 11
-52.95
 21
-149.0
 31
0.0
  0
LINE
  5
361
330
A
100
AcDbEntity
  8
PV
  6
Continuous
 62
     7
100
AcDbLine
 10
58.95
 20
-149.0
 30
0.0
 11
59.75
 21
-149.8
 31
0.0
  0
LINE
  5
362
330
A
100
AcDbEntity
  8
PV
  6
Continuous
 62
     7
100
AcDbLine
 10
58.95
 20
-166.5
 30
0.0
 11
59.75
 21
-165.7
 31
0.0
  0
LINE
  5
363
330
A
100
AcDbEntity
  8
PV
  6
Continuous
 62
     7
100
AcDbLine
 10
-53.75
 20
-165.7
 30
0.0
 11
-52.95
 21
-166.5
 31
0.0
  0
LINE
  5
364
330
A
100
AcDbEntity
  8
PV
  6
Continuous
 62
     7
100
AcDbLine
 10
-53.75
 20
-165.7
 30
0.0
 11
-53.75
 21
-149.8
 31
0.0
  0
LINE
  5
365
330
A
100
AcDbEntity
  8
PV
  6
Continuous
 62
     7
100
AcDbLine
 10
59.75
 20
-165.7
 30
0.0
 11
59.75
 21
-149.8
 31
0.0
  0
LINE
  5
366
330
A
100
AcDbEntity
  8
PV
  6
Continuous
 62
     7
100
AcDbLine
 10
3.0
 20
-166.5
 30
0.0
 11
58.95
 21
-166.5
 31
0.0
  0
LINE
  5
367
330
A
100
AcDbEntity
  8
PV
  6
Continuous
 62
     7
100
AcDbLine
 10
-52.95
 20
-166.5
 30
0.0
 11
-47.09999999999999
 21
-166.5
 31
0.0
  0
LINE
  5
368
330
A
100
AcDbEntity
  8
PV
  6
CENTER
 62
     7
100
AcDbLine
 10
49.1
 20
-143.5
 30
0.0
 11
49.1
 21
-172.423
 31
0.0
  0
LINE
  5
369
330
A
100
AcDbEntity
  8
PV
  6
Continuous
 62
     7
100
AcDbLine
 10
-52.95
 20
-149.0
 30
0.0
 11
58.95
 21
-149.0
 31
0.0
  0
LINE
  5
36A
330
A
100
AcDbEntity
  8
PV
  6
CENTER
 62
     7
100
AcDbLine
 10
-43.1
 20
-146.5
 30
0.0
 11
-43.1
 21
-173.043
 31
0.0
  0
LINE
  5
36B
330
A
100
AcDbEntity
  8
PV
  6
Continuous
 62
     7
100
AcDbLine
 10
-47.086
 20
-166.5
 30
0.0
 11
3.0
 21
-166.5
 31
0.0
  0
LINE
  5
36C
330
A
100
AcDbEntity
  8
PV
  6
Continuous
 62
     7
100
AcDbLine
 10
-27.25
 20
-149.0
 30
0.0
 11
-27.25
 21
-124.0
 31
0.0
  0
LINE
  5
36D
330
A
100
AcDbEntity
  8
PV
  6
Continuous
 62
     7
100
AcDbLine
 10
33.25
 20
-148.9869999999999
 30
0.0
 11
33.25
 21
-124.0
 31
0.0
  0
LINE
  5
36E
330
A
100
AcDbEntity
  8
PV
  6
Continuous
 62
     7
100
AcDbLine
 10
47.5
 20
-115.0
 30
0.0
 11
-41.5
 21
-115.0
 31
0.0
  0
LINE
  5
36F
330
A
100
AcDbEntity
  8
PV
  6
Continuous
 62
     7
100
AcDbLine
 10
-32.5
 20
-124.0
 30
0.0
 11
-41.5
 21
-115.0
 31
0.0
  0
LINE
  5
370
330
A
100
AcDbEntity
  8
PV
  6
Continuous
 62
     7
100
AcDbLine
 10
47.5
 20
-115.0
 30
0.0
 11
38.5
 21
-124.0
 31
0.0
  0
LINE
  5
371
330
A
100
AcDbEntity
  8
PV
  6
CENTER
 62
     7
100
AcDbLine
 10
37.0
 20
-10.02199999999999
 30
0.0
 11
37.0
 21
-48.756
 31
0.0
  0
LINE
  5
372
330
A
100
AcDbEntity
  8
PV
  6
CENTER
 62
     7
100
AcDbLine
 10
-31.0
 20
-10.30499999999999
 30
0.0
 11
-31.0
 21
-48.191
 31
0.0
  0
LINE
  5
373
330
A
100
AcDbEntity
  8
PV
  6
Continuous
 62
     7
100
AcDbLine
 10
-36.0
 20
-14.0
 30
0.0
 11
-36.0
 21
-32.0
 31
0.0
  0
LINE
  5
374
330
A
100
AcDbEntity
  8
PV
  6
Continuous
 62
     7
100
AcDbLine
 10
42.0
 20
-14.0
 30
0.0
 11
42.0
 21
-32.0
 31
0.0
  0
LINE
  5
375
330
A
100
AcDbEntity
  8
PV
  6
Continuous
 62
     7
100
AcDbLine
 10
48.0
 20
-14.0
 30
0.0
 11
48.0
 21
-32.0
 31
0.0
  0
LINE
  5
376
330
A
100
AcDbEntity
  8
PV
  6
Continuous
 62
     7
100
AcDbLine
 10
-42.0
 20
-14.0
 30
0.0
 11
-42.0
 21
-32.0
 31
0.0
  0
LINE
  5
377
330
A
100
AcDbEntity
  8
PV
  6
Continuous
 62
     7
100
AcDbLine
 10
-36.0
 20
-32.156
 30
0.0
 11
-36.0
 21
-45.0
 31
0.0
  0
LINE
  5
378
330
A
100
AcDbEntity
  8
PV
  6
Continuous
 62
     7
100
AcDbLine
 10
42.0
 20
-32.156
 30
0.0
 11
42.0
 21
-45.0
 31
0.0
  0
LINE
  5
379
330
A
100
AcDbEntity
  8
PV
  6
Continuous
 62
     7
100
AcDbLine
 10
-42.0
 20
-32.156
 30
0.0
 11
-42.0
 21
-45.0
 31
0.0
  0
LINE
  5
37A
330
A
100
AcDbEntity
  8
PV
  6
Continuous
 62
     7
100
AcDbLine
 10
48.0
 20
-32.156
 30
0.0
 11
48.0
 21
-45.0
 31
0.0
  0
LINE
  5
37B
330
A
100
AcDbEntity
  8
PV
  6
Continuous
 62
     7
100
AcDbLine
 10
-41.5
 20
-45.0
 30
0.0
 11
-41.5
 21
-51.25
 31
0.0
  0
LINE
  5
37C
330
A
100
AcDbEntity
  8
PV
  6
Continuous
 62
     7
100
AcDbLine
 10
-41.5
 20
-111.7499999999999
 30
0.0
 11
-41.5
 21
-115.0
 31
0.0
  0
LINE
  5
37D
330
A
100
AcDbEntity
  8
PV
  6
Continuous
 62
     7
100
AcDbLine
 10
47.5
 20
-45.0
 30
0.0
 11
47.5
 21
-115.0
 31
0.0
  0
LINE
  5
37E
330
A
100
AcDbEntity
  8
PV
  6
Continuous
 62
     7
100
AcDbLine
 10
-22.5
 20
25.0
 30
0.0
 11
28.5
 21
25.0
 31
0.0
  0
LINE
  5
37F
330
A
100
AcDbEntity
  8
PV
  6
Continuous
 62
     7
100
AcDbLine
 10
-24.078
 20
24.0
 30
0.0
 11
30.078
 21
24.0
 31
0.0
  0
LINE
  5
380
330
A
100
AcDbEntity
  8
PV
  6
Continuous
 62
     7
100
AcDbLine
 10
32.07699999999999
 20
22.07999999999999
 30
0.0
 11
33.0
 21
-1.0
 31
0.0
  0
LINE
  5
381
330
A
100
AcDbEntity
  8
PV
  6
Continuous
 62
     7
100
AcDbLine
 10
-27.0
 20
-1.0
 30
0.0
 11
33.0
 21
-1.0
 31
0.0
  0
LINE
  5
382
330
A
100
AcDbEntity
  8
PV
  6
Continuous
 62
     7
100
AcDbLine
 10
-27.0
 20
-1.0
 30
0.0
 11
-26.07699999999999
 21
22.07999999999999
 31
0.0
  0
LINE
  5
383
330
A
100
AcDbEntity
  8
PV
  6
Continuous
 62
     7
100
AcDbLine
 10
31.0
 20
-9.0
 30
0.0
 11
-25.0
 21
-9.0
 31
0.0
  0
LINE
  5
384
330
A
100
AcDbEntity
  8
PV
  6
Continuous
 62
     7
100
AcDbLine
 10
7.0
 20
-1.0
 30
0.0
 11
7.0
 21
-9.0
 31
0.0
  0
LINE
  5
385
330
A
100
AcDbEntity
  8
PV
  6
Continuous
 62
     7
100
AcDbLine
 10
-1.0
 20
-1.0
 30
0.0
 11
-1.0
 21
-9.0
 31
0.0
  0
LINE
  5
386
330
A
100
AcDbEntity
  8
PV
  6
Continuous
 62
     7
100
AcDbLine
 10
29.07199999999999
 20
5.617
 30
0.0
 11
27.827
 21
4.133
 31
0.0
  0
LINE
  5
387
330
A
100
AcDbEntity
  8
PV
  6
Continuous
 62
     7
100
AcDbLine
 10
30.256
 20
24.0
 30
0.0
 11
30.256
 21
10.0
 31
0.0
  0
LINE
  5
388
330
A
100
AcDbEntity
  8
PV
  6
Continuous
 62
     7
100
AcDbLine
 10
31.45599999999999
 20
23.45
 30
0.0
 11
31.45599999999999
 21
10.0
 31
0.0
  0
LINE
  5
389
330
A
100
AcDbEntity
  8
PV
  6
Continuous
 62
     7
100
AcDbLine
 10
25.456
 20
24.0
 30
0.0
 11
25.456
 21
10.0
 31
0.0
  0
LINE
  5
38A
330
A
100
AcDbEntity
  8
PV
  6
Continuous
 62
     7
100
AcDbLine
 10
-23.07199999999999
 20
5.617
 30
0.0
 11
-21.827
 21
4.133
 31
0.0
  0
LINE
  5
38B
330
A
100
AcDbEntity
  8
PV
  6
Continuous
 62
     7
100
AcDbLine
 10
-24.256
 20
24.0
 30
0.0
 11
-24.256
 21
10.0
 31
0.0
  0
LINE
  5
38C
330
A
100
AcDbEntity
  8
PV
  6
Continuous
 62
     7
100
AcDbLine
 10
-25.456
 20
23.45
 30
0.0
 11
-25.456
 21
10.0
 31
0.0
  0
LINE
  5
38D
330
A
100
AcDbEntity
  8
PV
  6
Continuous
 62
     7
100
AcDbLine
 10
-19.45599999999999
 20
24.0
 30
0.0
 11
-19.45599999999999
 21
10.0
 31
0.0
  0
LINE
  5
38F
330
A
100
AcDbEntity
  8
PV
  6
DASHED
 62
     7
100
AcDbLine
 10
-22.0
 20
24.7
 30
0.0
 11
28.0
 21
24.7
 31
0.0
  0
LINE
  5
390
330
A
100
AcDbEntity
  8
PV
  6
PHANTOM
 62
     7
100
AcDbLine
 10
-22.5
 20
45.0
 30
0.0
 11
28.5
 21
45.0
 31
0.0
  0
LINE
  5
391
330
A
100
AcDbEntity
  8
PV
  6
DASHED
 62
     7
100
AcDbLine
 10
-22.0
 20
25.0
 30
0.0
 11
-22.0
 21
24.7
 31
0.0
  0
LINE
  5
392
330
A
100
AcDbEntity
  8
PV
  6
DASHED
 62
     7
100
AcDbLine
 10
28.0
 20
25.0
 30
0.0
 11
28.0
 21
24.7
 31
0.0
  0
LINE
  5
393
330
A
100
AcDbEntity
  8
PV
  6
Continuous
 62
     7
100
AcDbLine
 10
-22.5
 20
25.0
 30
0.0
 11
28.5
 21
25.0
 31
0.0
  0
LINE
  5
394
330
A
100
AcDbEntity
  8
PV
  6
Continuous
 62
     7
100
AcDbLine
 10
9.0
 20
24.0
 30
0.0
 11
9.0
 21
10.0
 31
0.0
  0
LINE
  5
395
330
A
100
AcDbEntity
  8
PV
  6
Continuous
 62
     7
100
AcDbLine
 10
-3.0
 20
24.0
 30
0.0
 11
-3.0
 21
10.0
 31
0.0
  0
LINE
  5
396
330
A
100
AcDbEntity
  8
PV
  6
PHANTOM
 62
     7
100
AcDbLine
 10
32.07699999999999
 20
42.08
 30
0.0
 11
33.0
 21
19.0
 31
0.0
  0
LINE
  5
397
330
A
100
AcDbEntity
  8
PV
  6
PHANTOM
 62
     7
100
AcDbLine
 10
-27.0
 20
19.0
 30
0.0
 11
-26.07699999999999
 21
42.08
 31
0.0
  0
LINE
  5
398
330
A
100
AcDbEntity
  8
PV
  6
PHANTOM
 62
     7
100
AcDbLine
 10
-24.078
 20
44.0
 30
0.0
 11
30.078
 21
44.0
 31
0.0
  0
LINE
  5
399
330
A
100
AcDbEntity
  8
PV
  6
PHANTOM
 62
     7
100
AcDbLine
 10
-27.0
 20
19.0
 30
0.0
 11
33.0
 21
19.0
 31
0.0
  0
LINE
  5
39A
330
A
100
AcDbEntity
  8
PV
  6
Continuous
 62
     7
100
AcDbLine
 10
48.0
 20
-14.0
 30
0.0
 11
-42.0
 21
-14.0
 31
0.0
  0
LINE
  5
39B
330
A
100
AcDbEntity
  8
PV
  6
Continuous
 62
     7
100
AcDbLine
 10
48.0
 20
-32.0
 30
0.0
 11
-42.0
 21
-32.0
 31
0.0
  0
LINE
  5
39C
330
A
100
AcDbEntity
  8
PV
  6
Continuous
 62
     7
100
AcDbLine
 10
-42.0
 20
-45.0
 30
0.0
 11
48.0
 21
-45.0
 31
0.0
  0
LINE
  5
39D
330
A
100
AcDbEntity
  8
PV
  6
Continuous
 62
     7
100
AcDbLine
 10
38.5
 20
-124.0
 30
0.0
 11
-32.5
 21
-124.0
 31
0.0
  0
LINE
  5
39E
330
A
100
AcDbEntity
  8
PV
  6
CENTER
 62
     7
100
AcDbLine
 10
3.0
 20
52.497
 30
0.0
 11
3.0
 21
-173.574
 31
0.0
  0
LINE
  5
39F
330
A
100
AcDbEntity
  8
PV
  6
CENTER
 62
     7
100
AcDbLine
 10
-97.73100000000001
 20
-81.5
 30
0.0
 11
-18.53699999999999
 21
-81.5
 31
0.0
  0
LINE
  5
3A0
330
A
100
AcDbEntity
  8
PV
  6
Continuous
 62
     7
100
AcDbLine
 10
-62.9
 20
-111.7499999999999
 30
0.0
 11
-41.558
 21
-111.7499999999999
 31
0.0
  0
LINE
  5
3A1
330
A
100
AcDbEntity
  8
PV
  6
Continuous
 62
     7
100
AcDbLine
 10
-62.9
 20
-51.25
 30
0.0
 11
-41.553
 21
-51.25
 31
0.0
  0
LINE
  5
3A2
330
A
100
AcDbEntity
  8
PV
  6
Continuous
 62
     7
100
AcDbLine
 10
-81.2
 20
-138.25
 30
0.0
 11
-81.2
 21
-24.75
 31
0.0
  0
LINE
  5
3A3
330
A
100
AcDbEntity
  8
PV
  6
Continuous
 62
     7
100
AcDbLine
 10
-63.7
 20
-138.25
 30
0.0
 11
-63.7
 21
-24.75
 31
0.0
  0
LINE
  5
3A4
330
A
100
AcDbEntity
  8
PV
  6
Continuous
 62
     7
100
AcDbLine
 10
-62.9
 20
-137.4499999999999
 30
0.0
 11
-63.7
 21
-138.25
 31
0.0
  0
LINE
  5
3A5
330
A
100
AcDbEntity
  8
PV
  6
Continuous
 62
     7
100
AcDbLine
 10
-82.0
 20
-137.4499999999999
 30
0.0
 11
-81.2
 21
-138.25
 31
0.0
  0
LINE
  5
3A6
330
A
100
AcDbEntity
  8
PV
  6
Continuous
 62
     7
100
AcDbLine
 10
-81.2
 20
-138.25
 30
0.0
 11
-63.7
 21
-138.25
 31
0.0
  0
LINE
  5
3A7
330
A
100
AcDbEntity
  8
PV
  6
Continuous
 62
     7
100
AcDbLine
 10
-82.0
 20
-81.5
 30
0.0
 11
-82.0
 21
-137.4499999999999
 31
0.0
  0
LINE
  5
3A8
330
A
100
AcDbEntity
  8
PV
  6
Continuous
 62
     7
100
AcDbLine
 10
-63.7
 20
-24.75
 30
0.0
 11
-62.9
 21
-25.55
 31
0.0
  0
LINE
  5
3A9
330
A
100
AcDbEntity
  8
PV
  6
Continuous
 62
     7
100
AcDbLine
 10
-81.2
 20
-24.75
 30
0.0
 11
-82.0
 21
-25.55
 31
0.0
  0
LINE
  5
3AA
330
A
100
AcDbEntity
  8
PV
  6
Continuous
 62
     7
100
AcDbLine
 10
-81.2
 20
-24.75
 30
0.0
 11
-63.7
 21
-24.75
 31
0.0
  0
LINE
  5
3AB
330
A
100
AcDbEntity
  8
PV
  6
Continuous
 62
     7
100
AcDbLine
 10
-82.0
 20
-25.55
 30
0.0
 11
-82.0
 21
-31.4
 31
0.0
  0
LINE
  5
3AC
330
A
100
AcDbEntity
  8
PV
  6
Continuous
 62
     7
100
AcDbLine
 10
-82.0
 20
-31.414
 30
0.0
 11
-82.0
 21
-81.5
 31
0.0
  0
LINE
  5
3AD
330
A
100
AcDbEntity
  8
PV
  6
CENTER
 62
     7
100
AcDbLine
 10
-59.0
 20
90.40600000000001
 30
0.0
 11
-87.92200000000001
 21
90.40600000000001
 31
0.0
  0
LINE
  5
3AE
330
A
100
AcDbEntity
  8
PV
  6
CENTER
 62
     7
100
AcDbLine
 10
-62.0
 20
182.606
 30
0.0
 11
-84.58299999999999
 21
182.606
 31
0.0
  0
LINE
  5
3AF
330
A
100
AcDbEntity
  8
PV
  6
Continuous
 62
     7
100
AcDbLine
 10
-63.7
 20
191.7559999999999
 30
0.0
 11
-63.7
 21
135.006
 31
0.0
  0
LINE
  5
3B0
330
A
100
AcDbEntity
  8
PV
  6
Continuous
 62
     7
100
AcDbLine
 10
-62.9
 20
190.9559999999999
 30
0.0
 11
-63.7
 21
191.7559999999999
 31
0.0
  0
LINE
  5
3B1
330
A
100
AcDbEntity
  8
PV
  6
Continuous
 62
     7
100
AcDbLine
 10
-82.0
 20
190.9559999999999
 30
0.0
 11
-81.2
 21
191.7559999999999
 31
0.0
  0
LINE
  5
3B2
330
A
100
AcDbEntity
  8
PV
  6
Continuous
 62
     7
100
AcDbLine
 10
-81.2
 20
191.7559999999999
 30
0.0
 11
-63.7
 21
191.7559999999999
 31
0.0
  0
LINE
  5
3B3
330
A
100
AcDbEntity
  8
PV
  6
Continuous
 62
     7
100
AcDbLine
 10
-81.2
 20
78.256
 30
0.0
 11
-81.2
 21
191.7559999999999
 31
0.0
  0
LINE
  5
3B4
330
A
100
AcDbEntity
  8
PV
  6
Continuous
 62
     7
100
AcDbLine
 10
-63.7
 20
78.256
 30
0.0
 11
-63.7
 21
135.006
 31
0.0
  0
LINE
  5
3B5
330
A
100
AcDbEntity
  8
PV
  6
Continuous
 62
     7
100
AcDbLine
 10
-62.9
 20
79.05599999999999
 30
0.0
 11
-63.7
 21
78.256
 31
0.0
  0
LINE
  5
3B6
330
A
100
AcDbEntity
  8
PV
  6
Continuous
 62
     7
100
AcDbLine
 10
-82.0
 20
79.05599999999999
 30
0.0
 11
-81.2
 21
78.256
 31
0.0
  0
LINE
  5
3B7
330
A
100
AcDbEntity
  8
PV
  6
Continuous
 62
     7
100
AcDbLine
 10
-81.2
 20
78.256
 30
0.0
 11
-63.7
 21
78.256
 31
0.0
  0
LINE
  5
3B8
330
A
100
AcDbEntity
  8
PV
  6
Continuous
 62
     7
100
AcDbLine
 10
-82.0
 20
190.9559999999999
 30
0.0
 11
-82.0
 21
79.05599999999999
 31
0.0
  0
LINE
  5
3B9
330
A
100
AcDbEntity
  8
PV
  6
Continuous
 62
     7
100
AcDbLine
 10
-62.9
 20
165.2559999999999
 30
0.0
 11
-43.0
 21
165.2559999999999
 31
0.0
  0
LINE
  5
3BA
330
A
100
AcDbEntity
  8
PV
  6
Continuous
 62
     7
100
AcDbLine
 10
-62.9
 20
104.756
 30
0.0
 11
-43.0
 21
104.756
 31
0.0
  0
LINE
  5
3BB
330
A
100
AcDbEntity
  8
PV
  6
Continuous
 62
     7
100
AcDbLine
 10
43.06199999999999
 20
89.006
 30
0.0
 11
-37.06199999999999
 21
89.006
 31
0.0
  0
LINE
  5
3BC
330
A
100
AcDbEntity
  8
PV
  6
Continuous
 62
     7
100
AcDbLine
 10
43.06199999999999
 20
181.0059999999999
 30
0.0
 11
-37.06199999999999
 21
181.0059999999999
 31
0.0
  0
LINE
  5
3BD
330
A
100
AcDbEntity
  8
PV
  6
Continuous
 62
     7
100
AcDbLine
 10
49.0
 20
175.069
 30
0.0
 11
49.0
 21
94.944
 31
0.0
  0
LINE
  5
3BE
330
A
100
AcDbEntity
  8
PV
  6
Continuous
 62
     7
100
AcDbLine
 10
-43.0
 20
175.069
 30
0.0
 11
-43.0
 21
94.944
 31
0.0
  0
LINE
  5
3BF
330
A
100
AcDbEntity
  8
PV
  6
CENTER
 62
     7
100
AcDbLine
 10
38.5
 20
111.006
 30
0.0
 11
38.5
 21
88.00600000000001
 31
0.0
  0
LINE
  5
3C0
330
A
100
AcDbEntity
  8
PV
  6
CENTER
 62
     7
100
AcDbLine
 10
27.0
 20
99.50600000000001
 30
0.0
 11
50.0
 21
99.50600000000001
 31
0.0
  0
LINE
  5
3C1
330
A
100
AcDbEntity
  8
PV
  6
CENTER
 62
     7
100
AcDbLine
 10
38.5
 20
159.006
 30
0.0
 11
38.5
 21
182.0059999999999
 31
0.0
  0
LINE
  5
3C2
330
A
100
AcDbEntity
  8
PV
  6
CENTER
 62
     7
100
AcDbLine
 10
27.0
 20
170.5059999999999
 30
0.0
 11
50.0
 21
170.5059999999999
 31
0.0
  0
LINE
  5
3C3
330
A
100
AcDbEntity
  8
PV
  6
CENTER
 62
     7
100
AcDbLine
 10
-32.5
 20
159.006
 30
0.0
 11
-32.5
 21
182.0059999999999
 31
0.0
  0
LINE
  5
3C4
330
A
100
AcDbEntity
  8
PV
  6
CENTER
 62
     7
100
AcDbLine
 10
-21.0
 20
170.5059999999999
 30
0.0
 11
-44.0
 21
170.5059999999999
 31
0.0
  0
LINE
  5
3C5
330
A
100
AcDbEntity
  8
PV
  6
CENTER
 62
     7
100
AcDbLine
 10
-32.5
 20
111.006
 30
0.0
 11
-32.5
 21
88.00600000000001
 31
0.0
  0
LINE
  5
3C6
330
A
100
AcDbEntity
  8
PV
  6
CENTER
 62
     7
100
AcDbLine
 10
-21.0
 20
99.50600000000001
 30
0.0
 11
-44.0
 21
99.50600000000001
 31
0.0
  0
LINE
  5
3C7
330
A
100
AcDbEntity
  8
PV
  6
Continuous
 62
   255
100
AcDbLine
 10
-23.999
 20
125.77
 30
0.0
 11
-18.499
 21
116.243
 31
0.0
  0
LINE
  5
3C8
330
A
100
AcDbEntity
  8
PV
  6
Continuous
 62
   255
100
AcDbLine
 10
-18.682
 20
115.5599999999999
 30
0.0
 11
-19.45599999999999
 21
115.1129999999999
 31
0.0
  0
LINE
  5
3C9
330
A
100
AcDbEntity
  8
PV
  6
Continuous
 62
   255
100
AcDbLine
 10
-24.68199999999999
 20
144.06
 30
0.0
 11
-25.456
 21
144.507
 31
0.0
  0
LINE
  5
3CA
330
A
100
AcDbEntity
  8
PV
  6
Continuous
 62
   255
100
AcDbLine
 10
-24.68199999999999
 20
125.9529999999999
 30
0.0
 11
-25.456
 21
125.506
 31
0.0
  0
LINE
  5
3CB
330
A
100
AcDbEntity
  8
PV
  6
Continuous
 62
   255
100
AcDbLine
 10
-18.499
 20
153.77
 30
0.0
 11
-23.999
 21
144.2429999999999
 31
0.0
  0
LINE
  5
3CC
330
A
100
AcDbEntity
  8
PV
  6
Continuous
 62
   255
100
AcDbLine
 10
-18.682
 20
154.4529999999999
 30
0.0
 11
-19.45599999999999
 21
154.899
 31
0.0
  0
LINE
  5
3CD
330
A
100
AcDbEntity
  8
PV
  6
Continuous
 62
   255
100
AcDbLine
 10
-3.0
 20
163.506
 30
0.0
 11
-3.0
 21
164.4
 31
0.0
  0
LINE
  5
3CE
330
A
100
AcDbEntity
  8
PV
  6
Continuous
 62
   255
100
AcDbLine
 10
9.0
 20
163.506
 30
0.0
 11
9.0
 21
164.4
 31
0.0
  0
LINE
  5
3CF
330
A
100
AcDbEntity
  8
PV
  6
Continuous
 62
   255
100
AcDbLine
 10
8.5
 20
163.006
 30
0.0
 11
-2.5
 21
163.006
 31
0.0
  0
LINE
  5
3D0
330
A
100
AcDbEntity
  8
PV
  6
Continuous
 62
   255
100
AcDbLine
 10
24.68199999999999
 20
154.4529999999999
 30
0.0
 11
25.456
 21
154.9
 31
0.0
  0
LINE
  5
3D1
330
A
100
AcDbEntity
  8
PV
  6
Continuous
 62
   255
100
AcDbLine
 10
29.999
 20
144.2429999999999
 30
0.0
 11
24.499
 21
153.77
 31
0.0
  0
LINE
  5
3D2
330
A
100
AcDbEntity
  8
PV
  6
Continuous
 62
   255
100
AcDbLine
 10
30.682
 20
144.06
 30
0.0
 11
31.45599999999999
 21
144.507
 31
0.0
  0
LINE
  5
3D3
330
A
100
AcDbEntity
  8
PV
  6
Continuous
 62
   255
100
AcDbLine
 10
30.682
 20
125.9529999999999
 30
0.0
 11
31.45599999999999
 21
125.506
 31
0.0
  0
LINE
  5
3D4
330
A
100
AcDbEntity
  8
PV
  6
Continuous
 62
   255
100
AcDbLine
 10
24.499
 20
116.243
 30
0.0
 11
29.999
 21
125.77
 31
0.0
  0
LINE
  5
3D5
330
A
100
AcDbEntity
  8
PV
  6
Continuous
 62
   255
100
AcDbLine
 10
24.68199999999999
 20
115.5599999999999
 30
0.0
 11
25.456
 21
115.1129999999999
 31
0.0
  0
LINE
  5
3D6
330
A
100
AcDbEntity
  8
PV
  6
Continuous
 62
   255
100
AcDbLine
 10
9.0
 20
106.506
 30
0.0
 11
9.0
 21
105.613
 31
0.0
  0
LINE
  5
3D7
330
A
100
AcDbEntity
  8
PV
  6
Continuous
 62
   255
100
AcDbLine
 10
-2.5
 20
107.006
 30
0.0
 11
8.5
 21
107.006
 31
0.0
  0
LINE
  5
3D8
330
A
100
AcDbEntity
  8
PV
  6
Continuous
 62
   255
100
AcDbLine
 10
-3.0
 20
106.506
 30
0.0
 11
-3.0
 21
105.613
 31
0.0
  0
LINE
  5
3D9
330
A
100
AcDbEntity
  8
PV
  6
CENTER
 62
     7
100
AcDbLine
 10
63.2
 20
135.006
 30
0.0
 11
-96.88400000000001
 21
135.006
 31
0.0
  0
LINE
  5
3DA
330
A
100
AcDbEntity
  8
PV
  6
CENTER
 62
     7
100
AcDbLine
 10
3.0
 20
191.1159999999999
 30
0.0
 11
3.0
 21
80.74899999999999
 31
0.0
  0
POINT
  5
3DB
330
A
100
AcDbEntity
  8
PV
  6
Continuous
 62
     7
100
AcDbPoint
 10
-27.25
 20
-124.0
 30
0.0
  0
POINT
  5
3DC
330
A
100
AcDbEntity
  8
PV
  6
Continuous
 62
     7
100
AcDbPoint
 10
-41.5
 20
-111.7499999999999
 30
0.0
  0
ENDSEC
  0
SECTION
  2
OBJECTS
  0
DICTIONARY
  5
19
330
0
100
AcDbDictionary
281
     1
  3
ACAD_GROUP
350
1A
  3
ACAD_LAYOUT
350
1E
  3
ACAD_MLINESTYLE
350
1B
  3
ACAD_PLOTSETTINGS
350
22
  3
ACAD_PLOTSTYLENAME
350
1F
  0
DICTIONARY
  5
1A
102
{ACAD_REACTORS
330
19
102
}
330
19
100
AcDbDictionary
281
     1
  0
DICTIONARY
  5
1E
102
{ACAD_REACTORS
330
19
102
}
330
19
100
AcDbDictionary
281
     1
  3
Layout1
350
21
  3
Model
350
20
  0
DICTIONARY
  5
1B
102
{ACAD_REACTORS
330
19
102
}
330
19
100
AcDbDictionary
281
     1
  3
Standard
350
1C
  0
DICTIONARY
  5
22
102
{ACAD_REACTORS
330
19
102
}
330
19
100
AcDbDictionary
281
     1
  0
ACDBDICTIONARYWDFLT
  5
1F
102
{ACAD_REACTORS
330
19
102
}
330
19
100
AcDbDictionary
281
     1
  3
Normal
350
1D
100
AcDbDictionaryWithDefault
340
1D
  0
LAYOUT
  5
21
102
{ACAD_REACTORS
330
1E
102
}
330
1E
100
AcDbPlotSettings
  1

  2

  4

  6

 40
0.0
 41
0.0
 42
0.0
 43
0.0
 44
0.0
 45
0.0
 46
0.0
 47
0.0
 48
0.0
 49
0.0
140
0.0
141
0.0
142
1.0
143
1.0
 70
     0
 72
     0
 73
     0
 74
     0
  7

 75
     0
147
1.0
148
0.0
149
0.0
100
AcDbLayout
  1
Layout1
 70
     0
 71
     1
 10
0.0
 20
0.0
 11
12.0
 21
9.0
 12
0.0
 22
0.0
 32
0.0
 14
1.000000000000000E+20
 24
1.000000000000000E+20
 34
1.000000000000000E+20
 15
-1.000000000000000E+20
 25
-1.000000000000000E+20
 35
-1.000000000000000E+20
146
0.0
 13
0.0
 23
0.0
 33
0.0
 16
1.0
 26
0.0
 36
0.0
 17
0.0
 27
1.0
 37
0.0
 76
     0
330
B
  0
LAYOUT
  5
20
102
{ACAD_REACTORS
330
1E
102
}
330
1E
100
AcDbPlotSettings
  1

  2
Adobe PDF
  4
A4
  6

 40
3.174999952316284
 41
3.174999952316284
 42
3.175003051757812
 43
3.17498779296875
 44
209.9098358154297
 45
297.0318298339843
 46
0.0
 47
53.18999999999999
 48
0.0
 49
0.0
140
0.0
141
0.0
142
1.0
143
2.08393928773327
 70
 11284
 72
     1
 73
     1
 74
     2
  7

 75
     0
147
0.4798604287016988
148
270.946045
149
200.6229999999999
100
AcDbLayout
  1
Model
 70
     0
 71
     0
 10
0.0
 20
0.0
 11
0.0
 21
0.0
 12
0.0
 22
0.0
 32
0.0
 14
0.0
 24
0.0
 34
0.0
 15
0.0
 25
0.0
 35
0.0
146
0.0
 13
0.0
 23
0.0
 33
0.0
 16
0.0
 26
0.0
 36
0.0
 17
0.0
 27
0.0
 37
0.0
 76
     0
330
A
  0
MLINESTYLE
  5
1C
102
{ACAD_REACTORS
330
1B
102
}
330
1B
100
AcDbMlineStyle
  2
STANDARD
 70
     0
  3

 62
     0
 51
90.0
 52
90.0
 71
     2
 49
0.5
 62
   256
  6
BYLAYER
 49
-0.5
 62
   256
  6
BYLAYER
  0
ACDBPLACEHOLDER
  5
1D
102
{ACAD_REACTORS
330
1F
102
}
330
1F
  0
ENDSEC
  0
EOF
