  0
SECTION
  2
HEADER
  9
$ACADVER
  1
AC1015
  9
$ACADMAINTVER
 70
    10
  9
$DWGCODEPAGE
  3
ANSI_932
  9
$INSBASE
 10
0.0
 20
0.0
 30
0.0
  9
$EXTMIN
 10
-235.8009121453269
 20
-237.7102571303465
 30
-0.0015258207003583
  9
$EXTMAX
 10
173.9390019934346
 20
228.8005499700459
 30
0.0000000349246037
  9
$LIMMIN
 10
-238.583333
 20
-238.448987
  9
$LIMMAX
 10
177.73783
 20
231.583333
  9
$ORTHOMODE
 70
     0
  9
$REGENMODE
 70
     1
  9
$FILLMODE
 70
     1
  9
$QTEXTMODE
 70
     0
  9
$MIRRTEXT
 70
     1
  9
$LTSCALE
 40
0.3
  9
$ATTMODE
 70
     1
  9
$TEXTSIZE
 40
3.2
  9
$TRACEWID
 40
0.05
  9
$TEXTSTYLE
  7
MX_NOTE_STANDARD
  9
$CLAYER
  8
0
  9
$CELTYPE
  6
CONTINUOUS
  9
$CECOLOR
 62
   256
  9
$CELTSCALE
 40
1.0
  9
$DISPSILH
 70
     0
  9
$DIMSCALE
 40
1.0
  9
$DIMASZ
 40
2.5
  9
$DIMEXO
 40
2.54
  9
$DIMDLI
 40
3.75
  9
$DIMRND
 40
0.0
  9
$DIMDLE
 40
0.0
  9
$DIMEXE
 40
2.286
  9
$DIMTP
 40
0.0
  9
$DIMTM
 40
0.0
  9
$DIMTXT
 40
3.2
  9
$DIMCEN
 40
2.5
  9
$DIMTSZ
 40
0.0
  9
$DIMTOL
 70
     0
  9
$DIMLIM
 70
     0
  9
$DIMTIH
 70
     0
  9
$DIMTOH
 70
     0
  9
$DIMSE1
 70
     0
  9
$DIMSE2
 70
     0
  9
$DIMTAD
 70
     1
  9
$DIMZIN
 70
     8
  9
$DIMBLK
  1

  9
$DIMASO
 70
     1
  9
$DIMSHO
 70
     1
  9
$DIMPOST
  1

  9
$DIMAPOST
  1

  9
$DIMALT
 70
     0
  9
$DIMALTD
 70
     4
  9
$DIMALTF
 40
0.03937
  9
$DIMLFAC
 40
1.0
  9
$DIMTOFL
 70
     1
  9
$DIMTVP
 40
0.0
  9
$DIMTIX
 70
     0
  9
$DIMSOXD
 70
     0
  9
$DIMSAH
 70
     1
  9
$DIMBLK1
  1
OPEN30
  9
$DIMBLK2
  1
OPEN30
  9
$DIMSTYLE
  2
MXDIMSTYLE
  9
$DIMCLRD
 70
     0
  9
$DIMCLRE
 70
     0
  9
$DIMCLRT
 70
     0
  9
$DIMTFAC
 40
1.0
  9
$DIMGAP
 40
1.0
  9
$DIMJUST
 70
     0
  9
$DIMSD1
 70
     0
  9
$DIMSD2
 70
     0
  9
$DIMTOLJ
 70
     0
  9
$DIMTZIN
 70
     0
  9
$DIMALTZ
 70
     0
  9
$DIMALTTZ
 70
     0
  9
$DIMUPT
 70
     1
  9
$DIMDEC
 70
     2
  9
$DIMTDEC
 70
     2
  9
$DIMALTU
 70
     2
  9
$DIMALTTD
 70
     4
  9
$DIMTXSTY
  7
MX_NOTE_STANDARD
  9
$DIMAUNIT
 70
     0
  9
$DIMADEC
 70
     0
  9
$DIMALTRND
 40
0.0
  9
$DIMAZIN
 70
     0
  9
$DIMDSEP
 70
    46
  9
$DIMATFIT
 70
     3
  9
$DIMFRAC
 70
     0
  9
$DIMLDRBLK
  1
OPEN30
  9
$DIMLUNIT
 70
     2
  9
$DIMLWD
 70
    -2
  9
$DIMLWE
 70
    -2
  9
$DIMTMOVE
 70
     0
  9
$LUNITS
 70
     2
  9
$LUPREC
 70
     4
  9
$SKETCHINC
 40
0.1
  9
$FILLETRAD
 40
0.0
  9
$AUNITS
 70
     0
  9
$AUPREC
 70
     0
  9
$MENU
  1
acad
  9
$ELEVATION
 40
0.0
  9
$PELEVATION
 40
0.0
  9
$THICKNESS
 40
0.0
  9
$LIMCHECK
 70
     0
  9
$CHAMFERA
 40
0.0
  9
$CHAMFERB
 40
0.0
  9
$CHAMFERC
 40
0.0
  9
$CHAMFERD
 40
0.0
  9
$SKPOLY
 70
     0
  9
$TDCREATE
 40
2455289.433044502
  9
$TDUCREATE
 40
2455289.058044502
  9
$TDUPDATE
 40
2455289.437396979
  9
$TDUUPDATE
 40
2455289.062396979
  9
$TDINDWG
 40
0.0020611574
  9
$TDUSRTIMER
 40
0.0020608102
  9
$USRTIMER
 70
     1
  9
$ANGBASE
 50
0.0
  9
$ANGDIR
 70
     0
  9
$PDMODE
 70
     0
  9
$PDSIZE
 40
0.0
  9
$PLINEWID
 40
0.0
  9
$SPLFRAME
 70
     0
  9
$SPLINETYPE
 70
     6
  9
$SPLINESEGS
 70
     8
  9
$HANDSEED
  5
2E7
  9
$SURFTAB1
 70
     6
  9
$SURFTAB2
 70
     6
  9
$SURFTYPE
 70
     6
  9
$SURFU
 70
     6
  9
$SURFV
 70
     6
  9
$UCSBASE
  2

  9
$UCSNAME
  2

  9
$UCSORG
 10
0.0
 20
0.0
 30
0.0
  9
$UCSXDIR
 10
1.0
 20
0.0
 30
0.0
  9
$UCSYDIR
 10
0.0
 20
1.0
 30
0.0
  9
$UCSORTHOREF
  2

  9
$UCSORTHOVIEW
 70
     0
  9
$UCSORGTOP
 10
0.0
 20
0.0
 30
0.0
  9
$UCSORGBOTTOM
 10
0.0
 20
0.0
 30
0.0
  9
$UCSORGLEFT
 10
0.0
 20
0.0
 30
0.0
  9
$UCSORGRIGHT
 10
0.0
 20
0.0
 30
0.0
  9
$UCSORGFRONT
 10
0.0
 20
0.0
 30
0.0
  9
$UCSORGBACK
 10
0.0
 20
0.0
 30
0.0
  9
$PUCSBASE
  2

  9
$PUCSNAME
  2

  9
$PUCSORG
 10
0.0
 20
0.0
 30
0.0
  9
$PUCSXDIR
 10
1.0
 20
0.0
 30
0.0
  9
$PUCSYDIR
 10
0.0
 20
1.0
 30
0.0
  9
$PUCSORTHOREF
  2

  9
$PUCSORTHOVIEW
 70
     0
  9
$PUCSORGTOP
 10
0.0
 20
0.0
 30
0.0
  9
$PUCSORGBOTTOM
 10
0.0
 20
0.0
 30
0.0
  9
$PUCSORGLEFT
 10
0.0
 20
0.0
 30
0.0
  9
$PUCSORGRIGHT
 10
0.0
 20
0.0
 30
0.0
  9
$PUCSORGFRONT
 10
0.0
 20
0.0
 30
0.0
  9
$PUCSORGBACK
 10
0.0
 20
0.0
 30
0.0
  9
$USERI1
 70
     0
  9
$USERI2
 70
     0
  9
$USERI3
 70
     0
  9
$USERI4
 70
     0
  9
$USERI5
 70
     0
  9
$USERR1
 40
0.0
  9
$USERR2
 40
0.0
  9
$USERR3
 40
0.0
  9
$USERR4
 40
0.0
  9
$USERR5
 40
0.0
  9
$WORLDVIEW
 70
     1
  9
$SHADEDGE
 70
     3
  9
$SHADEDIF
 70
    70
  9
$TILEMODE
 70
     1
  9
$MAXACTVP
 70
    16
  9
$PINSBASE
 10
0.0
 20
0.0
 30
0.0
  9
$PLIMCHECK
 70
     0
  9
$PEXTMIN
 10
1.000000000000000E+20
 20
1.000000000000000E+20
 30
1.000000000000000E+20
  9
$PEXTMAX
 10
-1.000000000000000E+20
 20
-1.000000000000000E+20
 30
-1.000000000000000E+20
  9
$PLIMMIN
 10
0.0
 20
0.0
  9
$PLIMMAX
 10
12.0
 20
9.0
  9
$UNITMODE
 70
     0
  9
$VISRETAIN
 70
     0
  9
$PLINEGEN
 70
     1
  9
$PSLTSCALE
 70
     0
  9
$TREEDEPTH
 70
  3020
  9
$CMLSTYLE
  2
Standard
  9
$CMLJUST
 70
     0
  9
$CMLSCALE
 40
1.0
  9
$PROXYGRAPHICS
 70
     0
  9
$MEASUREMENT
 70
     1
  9
$CELWEIGHT
370
     0
  9
$ENDCAPS
280
     0
  9
$JOINSTYLE
280
     0
  9
$LWDISPLAY
290
     0
  9
$INSUNITS
 70
     0
  9
$HYPERLINKBASE
  1

  9
$STYLESHEET
  1

  9
$XEDIT
290
     1
  9
$CEPSNTYPE
380
     0
  9
$PSTYLEMODE
290
     1
  9
$FINGERPRINTGUID
  2

  9
$VERSIONGUID
  2
{46AFAF01-3B57-4371-958A-A8CADBF9A4B2}
  9
$EXTNAMES
290
     1
  9
$PSVPSCALE
 40
0.0
  9
$OLESTARTUP
290
     0
  0
ENDSEC
  0
SECTION
  2
CLASSES
  0
CLASS
  1
LWPOLYLINE
  2
AcDbPolyline
  3
AutoCAD 2000
 90
    32768
280
     0
281
     1
  0
CLASS
  1
IMAGE
  2
AcDbRasterImage
  3
ISM
 90
    32895
280
     0
281
     1
  0
CLASS
  1
OLE2FRAME
  2
AcDbOle2Frame
  3
AutoCAD 2000
 90
    32768
280
     0
281
     1
  0
CLASS
  1
HATCH
  2
AcDbHatch
  3
AutoCAD 2000
 90
    32768
280
     0
281
     1
  0
CLASS
  1
DICTIONARYVAR
  2
AcDbDictionaryVar
  3
AutoCAD 2000
 90
    32768
280
     0
281
     0
  0
CLASS
  1
RASTERVARIABLES
  2
AcDbRasterVariables
  3
ISM
 90
    32768
280
     0
281
     0
  0
CLASS
  1
IMAGEDEF
  2
AcDbRasterImageDef
  3
ISM
 90
    32768
280
     0
281
     0
  0
CLASS
  1
IMAGEDEF_REACTOR
  2
AcDbRasterImageDefReactor
  3
ISM
 90
    32769
280
     0
281
     0
  0
CLASS
  1
IDBUFFER
  2
AcDbIdBuffer
  3
AutoCAD 2000
 90
    32768
280
     0
281
     0
  0
CLASS
  1
SPATIAL_FILTER
  2
AcDbSpatialFilter
  3
AutoCAD 2000
 90
    32768
280
     0
281
     0
  0
CLASS
  1
XRECORD
  2
AcDbXrecord
  3
AutoCAD 2000
 90
    32768
280
     0
281
     0
  0
CLASS
  1
SORTENTSTABLE
  2
AcDbSortentsTable
  3
AutoCAD 2000
 90
    32768
280
     0
281
     0
  0
CLASS
  1
LAYER_INDEX
  2
AcDbLayerIndex
  3
AutoCAD 2000
 90
    32768
280
     0
281
     0
  0
CLASS
  1
SPATIAL_INDEX
  2
AcDbSpatialIndex
  3
AutoCAD 2000
 90
    32768
280
     0
281
     0
  0
CLASS
  1
OBJECT_PTR
  2
CAseDLPNTableRecord
  3
"ASE-LPNTableRecord"
 90
    32769
280
     0
281
     0
  0
CLASS
  1
LAYOUT
  2
AcDbLayout
  3
AutoCAD 2000
 90
        0
280
     0
281
     0
  0
CLASS
  1
PLOTSETTINGS
  2
AcDbPlotSettings
  3
AutoCAD 2000
 90
    32768
280
     0
281
     0
  0
CLASS
  1
ACDBDICTIONARYWDFLT
  2
AcDbDictionaryWithDefault
  3
AutoCAD 2000
 90
        0
280
     0
281
     0
  0
CLASS
  1
ACDBPLACEHOLDER
  2
AcDbPlaceHolder
  3
AutoCAD 2000
 90
        0
280
     0
281
     0
  0
ENDSEC
  0
SECTION
  2
TABLES
  0
TABLE
  2
VPORT
  5
7
330
0
100
AcDbSymbolTable
 70
     2
  0
VPORT
  5
2E6
330
7
100
AcDbSymbolTableRecord
100
AcDbViewportTableRecord
  2
*Active
 70
     0
 10
0.0
 20
0.0
 11
1.0
 21
1.0
 12
36.07916179604945
 22
-49.27122383572885
 13
0.0
 23
0.0
 14
1.0
 24
1.0
 15
0.0
 25
0.0
 16
0.0
 26
0.0
 36
1.0
 17
0.0
 27
0.0
 37
0.0
 40
469.8733901227499
 41
1.535714285714285
 42
50.0
 43
0.0
 44
0.0
 50
0.0
 51
0.0
 71
     0
 72
   100
 73
     1
 74
     1
 75
     0
 76
     0
 77
     0
 78
     0
281
     0
 65
     0
110
0.0
120
0.0
130
0.0
111
1.0
121
0.0
131
0.0
112
0.0
122
1.0
132
0.0
 79
     0
146
0.0
  0
ENDTAB
  0
TABLE
  2
LTYPE
  5
4
330
0
100
AcDbSymbolTable
 70
     2
  0
LTYPE
  5
11
330
4
100
AcDbSymbolTableRecord
100
AcDbLinetypeTableRecord
  2
BYBLOCK
 70
     0
  3

 72
    65
 73
     0
 40
0.0
  0
LTYPE
  5
12
330
4
100
AcDbSymbolTableRecord
100
AcDbLinetypeTableRecord
  2
BYLAYER
 70
     0
  3

 72
    65
 73
     0
 40
0.0
  0
LTYPE
  5
13
330
4
100
AcDbSymbolTableRecord
100
AcDbLinetypeTableRecord
  2
CONTINUOUS
 70
     0
  3
Solid line
 72
    65
 73
     0
 40
0.0
  0
LTYPE
  5
21D
330
4
100
AcDbSymbolTableRecord
100
AcDbLinetypeTableRecord
  2
CENTER
 70
     0
  3
Center ____ _ ____ _ ____ _ ____ _ ____ _ ____
 72
    65
 73
     4
 40
50.8
 49
31.75
 74
     0
 49
-6.349999999999998
 74
     0
 49
6.349999999999998
 74
     0
 49
-6.349999999999998
 74
     0
  0
ENDTAB
  0
TABLE
  2
LAYER
  5
2
330
0
100
AcDbSymbolTable
 70
     5
  0
LAYER
  5
14
330
2
100
AcDbSymbolTableRecord
100
AcDbLayerTableRecord
  2
0
 70
     0
 62
     7
  6
CONTINUOUS
370
    -3
390
1D
  0
LAYER
  5
23
330
2
100
AcDbSymbolTableRecord
100
AcDbLayerTableRecord
  2
AV
 70
     0
 62
     7
  6
CONTINUOUS
370
    -3
390
1D
  0
LAYER
  5
24
330
2
100
AcDbSymbolTableRecord
100
AcDbLayerTableRecord
  2
DEFPOINTS
 70
     0
 62
     7
  6
CONTINUOUS
290
     0
370
    -3
390
1D
  0
LAYER
  5
25
330
2
100
AcDbSymbolTableRecord
100
AcDbLayerTableRecord
  2
PV
 70
     0
 62
     7
  6
CONTINUOUS
370
    -3
390
1D
  0
LAYER
  5
26
330
2
100
AcDbSymbolTableRecord
100
AcDbLayerTableRecord
  2
WV
 70
     0
 62
     7
  6
CONTINUOUS
370
    -3
390
1D
  0
ENDTAB
  0
TABLE
  2
STYLE
  5
3
330
0
100
AcDbSymbolTable
 70
     2
  0
STYLE
  5
17
330
3
100
AcDbSymbolTableRecord
100
AcDbTextStyleTableRecord
  2
MX_NOTE_STANDARD
 70
     0
 40
0.0
 41
1.0
 50
0.0
 71
     0
 42
3.2
  3
txt.shx
  4
extfont.shx
  0
STYLE
  5
2DC
330
3
100
AcDbSymbolTableRecord
100
AcDbTextStyleTableRecord
  2
Standard
 70
     0
 40
0.0
 41
1.0
 50
0.0
 71
     0
 42
0.2
  3

  4

  0
ENDTAB
  0
TABLE
  2
VIEW
  5
5
330
0
100
AcDbSymbolTable
 70
     0
  0
ENDTAB
  0
TABLE
  2
UCS
  5
6
330
0
100
AcDbSymbolTable
 70
     0
  0
ENDTAB
  0
TABLE
  2
APPID
  5
8
330
0
100
AcDbSymbolTable
 70
     1
  0
APPID
  5
16
330
8
100
AcDbSymbolTableRecord
100
AcDbRegAppTableRecord
  2
ACAD
 70
     0
  0
ENDTAB
  0
TABLE
  2
DIMSTYLE
  5
9
330
0
100
AcDbSymbolTable
 70
     1
100
AcDbDimStyleTable
 71
     0
  0
DIMSTYLE
105
18
102
{ACAD_REACTORS
330
46
102
}
330
9
100
AcDbSymbolTableRecord
100
AcDbDimStyleTableRecord
  2
MXDIMSTYLE
 70
     0
 41
2.5
 42
2.54
 43
3.75
 44
2.286
 73
     0
 74
     0
 77
     1
 78
     8
140
3.2
141
2.5
143
0.03937
147
1.0
171
     4
172
     1
173
     1
271
     2
272
     2
274
     4
283
     0
288
     1
340
17
341
27
343
27
344
27
  0
ENDTAB
  0
TABLE
  2
BLOCK_RECORD
  5
1
330
0
100
AcDbSymbolTable
 70
     3
  0
BLOCK_RECORD
  5
A
330
1
100
AcDbSymbolTableRecord
100
AcDbBlockTableRecord
  2
*MODEL_SPACE
340
20
  0
BLOCK_RECORD
  5
B
330
1
100
AcDbSymbolTableRecord
100
AcDbBlockTableRecord
  2
*PAPER_SPACE
340
21
  0
BLOCK_RECORD
  5
27
330
1
100
AcDbSymbolTableRecord
100
AcDbBlockTableRecord
  2
_OPEN30
340
0
102
{BLKREFS
331
3D
102
}
  0
BLOCK_RECORD
  5
38
330
1
100
AcDbSymbolTableRecord
100
AcDbBlockTableRecord
  2
*D1
340
0
  0
BLOCK_RECORD
  5
3E
330
1
100
AcDbSymbolTableRecord
100
AcDbBlockTableRecord
  2
_NONE
340
0
  0
ENDTAB
  0
ENDSEC
  0
SECTION
  2
BLOCKS
  0
BLOCK
  5
D
330
A
100
AcDbEntity
  8
0
100
AcDbBlockBegin
  2
*MODEL_SPACE
 70
     0
 10
0.0
 20
0.0
 30
0.0
  3
*MODEL_SPACE
  1

  0
ENDBLK
  5
E
330
A
100
AcDbEntity
  8
0
100
AcDbBlockEnd
  0
BLOCK
  5
F
330
B
100
AcDbEntity
 67
     1
  8
0
100
AcDbBlockBegin
  2
*PAPER_SPACE
 70
     0
 10
0.0
 20
0.0
 30
0.0
  3
*PAPER_SPACE
  1

  0
ENDBLK
  5
10
330
B
100
AcDbEntity
 67
     1
  8
0
100
AcDbBlockEnd
  0
BLOCK
  5
28
330
27
100
AcDbEntity
  8
0
  6
ByBlock
 62
     0
370
    -2
100
AcDbBlockBegin
  2
_OPEN30
 70
     2
 10
0.0
 20
0.0
 30
0.0
  3
_OPEN30
  1

  0
LINE
  5
29
330
27
100
AcDbEntity
  8
0
  6
ByBlock
 62
     0
370
    -2
100
AcDbLine
 10
-1.0
 20
0.267949
 30
0.0
 11
0.0
 21
0.0
 31
0.0
  0
LINE
  5
2A
330
27
100
AcDbEntity
  8
0
  6
ByBlock
 62
     0
370
    -2
100
AcDbLine
 10
0.0
 20
0.0
 30
0.0
 11
-1.0
 21
-0.267949
 31
0.0
  0
LINE
  5
2B
330
27
100
AcDbEntity
  8
0
  6
ByBlock
 62
     0
370
    -2
100
AcDbLine
 10
0.0
 20
0.0
 30
0.0
 11
-1.0
 21
0.0
 31
0.0
  0
ENDBLK
  5
2C
330
27
100
AcDbEntity
  8
0
  6
ByBlock
 62
     0
370
    -2
100
AcDbBlockEnd
  0
BLOCK
  5
39
330
38
100
AcDbEntity
  8
0
  6
ByBlock
 62
     0
370
    -2
100
AcDbBlockBegin
  2
*D1
 70
     1
 10
0.0
 20
0.0
 30
0.0
  3
*D1
  1

  0
LINE
  5
3A
330
38
100
AcDbEntity
  8
0
  6
Continuous
 62
     7
100
AcDbLine
 10
43.45713299999999
 20
-187.488277
 30
0.0
 11
31.863147
 21
-209.913222
 31
0.0
  0
LINE
  5
3B
330
38
100
AcDbEntity
  8
0
  6
Continuous
 62
     7
100
AcDbLine
 10
31.863147
 20
-209.913222
 30
0.0
 11
-45.014156
 21
-209.913222
 31
0.0
  0
LINE
  5
3C
330
38
100
AcDbEntity
  8
0
  6
Continuous
 62
     7
100
AcDbLine
 10
43.45713299999999
 20
-187.488277
 30
0.0
 11
40.540814
 21
-193.1289849999999
 31
0.0
  0
INSERT
  5
3D
330
38
100
AcDbEntity
  8
0
  6
Continuous
 62
     7
100
AcDbBlockReference
  2
_OPEN30
 10
43.45713299999999
 20
-187.488277
 30
0.0
 41
2.77
 42
2.77
 43
2.77
 50
62.660452
  0
MTEXT
  5
42
330
38
100
AcDbEntity
  8
0
  6
Continuous
 62
     7
100
AcDbMText
 10
-4.647489
 20
-205.413222
 30
0.0
 40
7.0
 41
0.0
 71
     5
 72
     1
  1
\A1;8-8.5キリ（等配）
 73
     1
 44
1.0
  0
POINT
  5
43
330
38
100
AcDbEntity
  8
DEFPOINTS
  6
Continuous
 62
     0
100
AcDbPoint
 10
43.45713299999999
 20
-187.488277
 30
0.0
  0
POINT
  5
44
330
38
100
AcDbEntity
  8
DEFPOINTS
  6
Continuous
 62
     0
100
AcDbPoint
 10
47.360867
 20
-179.937723
 30
0.0
  0
ENDBLK
  5
45
330
38
100
AcDbEntity
  8
0
  6
ByBlock
 62
     0
370
    -2
100
AcDbBlockEnd
  0
BLOCK
  5
3F
330
3E
100
AcDbEntity
  8
0
  6
ByBlock
 62
     0
370
    -2
100
AcDbBlockBegin
  2
_NONE
 70
     2
 10
0.0
 20
0.0
 30
0.0
  3
_NONE
  1

  0
CIRCLE
  5
40
330
3E
100
AcDbEntity
  8
0
  6
ByBlock
 62
     0
370
    -2
100
AcDbCircle
 10
0.0
 20
0.0
 30
0.0
 40
0.25
  0
ENDBLK
  5
41
330
3E
100
AcDbEntity
  8
0
  6
ByBlock
 62
     0
370
    -2
100
AcDbBlockEnd
  0
ENDSEC
  0
SECTION
  2
ENTITIES
  0
LINE
  5
2D
330
A
100
AcDbEntity
  8
0
  6
Continuous
 62
     7
100
AcDbLine
 10
-153.0
 20
120.7559999999999
 30
0.0
 11
-172.9
 21
120.7559999999999
 31
0.0
  0
LINE
  5
2E
330
A
100
AcDbEntity
  8
0
  6
Continuous
 62
     7
100
AcDbLine
 10
118.25
 20
-102.4999999999999
 30
0.0
 11
118.25
 21
-127.5
 31
0.0
  0
LINE
  5
2F
330
A
100
AcDbEntity
  8
0
  6
Continuous
 62
     7
100
AcDbLine
 10
57.75
 20
-102.4999999999999
 30
0.0
 11
57.75
 21
-127.5
 31
0.0
  0
LINE
  5
30
330
A
100
AcDbEntity
  8
0
  6
Continuous
 62
     7
100
AcDbLine
 10
-76.75
 20
-102.4999999999999
 30
0.0
 11
-76.75
 21
-127.5
 31
0.0
  0
LINE
  5
31
330
A
100
AcDbEntity
  8
0
  6
Continuous
 62
     7
100
AcDbLine
 10
-137.25
 20
-102.4999999999999
 30
0.0
 11
-137.25
 21
-127.5
 31
0.0
  0
LINE
  5
32
330
A
100
AcDbEntity
  8
0
  6
Continuous
 62
     7
100
AcDbLine
 10
-151.55
 20
-90.325
 30
0.0
 11
-172.9
 21
-90.325
 31
0.0
  0
LINE
  5
33
330
A
100
AcDbEntity
  8
0
  6
Continuous
 62
     7
100
AcDbLine
 10
-151.55
 20
-29.704
 30
0.0
 11
-172.9
 21
-29.704
 31
0.0
  0
LINE
  5
34
330
A
100
AcDbEntity
  8
0
  6
Continuous
 62
     7
100
AcDbLine
 10
-153.0
 20
181.2559999999999
 30
0.0
 11
-172.9
 21
181.2559999999999
 31
0.0
  0
LEADER
  5
35
330
A
100
AcDbEntity
  8
0
  6
Continuous
 62
     7
100
AcDbLeader
  3
MXDIMSTYLE
 74
     0
 76
     2
 10
88.0
 20
37.5
 30
0.0
 10
119.020237
 20
91.26156700000001
 30
0.0
1001
ACAD
1000
DSTYLE
1002
{
1070
    41
1040
2.77
1002
}
  0
MTEXT
  5
36
330
A
100
AcDbEntity
  8
0
  6
Continuous
 62
     7
100
AcDbMText
 10
121.22124
 20
98.56156699999999
 30
0.0
 40
8.4
 41
0.0
 71
     4
 72
     1
  1
\W1.139;\A1;Rc 1/8
 73
     1
 44
0.9
  0
LEADER
  5
37
330
A
100
AcDbEntity
  8
0
  6
Continuous
 62
     7
100
AcDbLeader
  3
MXDIMSTYLE
 74
     0
 76
     3
 10
88.0
 20
-1.5
 30
0.0
 10
119.020237
 20
91.26156700000001
 30
0.0
 10
171.6212379999998
 20
91.26156700000001
 30
0.0
1001
ACAD
1000
DSTYLE
1002
{
1070
    41
1040
2.77
1002
}
  0
DIMENSION
  5
46
330
A
100
AcDbEntity
  8
0
  6
Continuous
 62
     7
100
AcDbDimension
  2
*D1
 10
47.360867
 20
-179.937723
 30
0.0
 11
-4.647489
 21
-209.913222
 31
0.0
 70
   131
  1
8-<>
 71
     5
 42
8.5
  3
MXDIMSTYLE
100
AcDbDiametricDimension
 15
43.45713299999999
 25
-187.488277
 35
0.0
 40
0.0
1001
ACAD
1000
DSTYLE
1002
{
1070
     6
1000
_NONE
1070
    41
1040
2.77
1070
    73
1070
     1
1070
    74
1070
     1
1070
   140
1040
7.0
1070
   141
1040
0.0
1070
   172
1070
     0
1070
   271
1070
     1
1070
   284
1070
     8
1070
   343
1005
3E
1002
}
  0
LINE
  5
47
330
A
100
AcDbEntity
  8
PV
  6
Continuous
 62
     7
100
AcDbLine
 10
-26.107
 20
193.544
 30
0.0
 11
-25.179
 21
197.0059999999999
 31
0.0
  0
LINE
  5
48
330
A
100
AcDbEntity
  8
PV
  6
Continuous
 62
     7
100
AcDbLine
 10
-25.179
 20
197.0059999999999
 30
0.0
 11
-24.252
 21
193.544
 31
0.0
  0
LINE
  5
49
330
A
100
AcDbEntity
  8
PV
  6
Continuous
 62
     7
100
AcDbLine
 10
-25.179
 20
197.0059999999999
 30
0.0
 11
-25.179
 21
193.544
 31
0.0
  0
LINE
  5
4A
330
A
100
AcDbEntity
  8
PV
  6
Continuous
 62
     7
100
AcDbLine
 10
-24.252
 20
108.4689999999999
 30
0.0
 11
-25.179
 21
105.0059999999999
 31
0.0
  0
LINE
  5
4B
330
A
100
AcDbEntity
  8
PV
  6
Continuous
 62
     7
100
AcDbLine
 10
-25.179
 20
105.0059999999999
 30
0.0
 11
-26.107
 21
108.4689999999999
 31
0.0
  0
LINE
  5
4C
330
A
100
AcDbEntity
  8
PV
  6
Continuous
 62
     7
100
AcDbLine
 10
-25.179
 20
105.0059999999999
 30
0.0
 11
-25.179
 21
108.4689999999999
 31
0.0
  0
LINE
  5
4D
330
A
100
AcDbEntity
  8
PV
  6
Continuous
 62
     7
100
AcDbLine
 10
-25.179
 20
197.0059999999999
 30
0.0
 11
-25.179
 21
105.0059999999999
 31
0.0
  0
LINE
  5
4E
330
A
100
AcDbEntity
  8
PV
  6
Continuous
 62
     7
100
AcDbLine
 10
-63.763
 20
197.0059999999999
 30
0.0
 11
-22.322
 21
197.0059999999999
 31
0.0
  0
LINE
  5
4F
330
A
100
AcDbEntity
  8
PV
  6
Continuous
 62
     7
100
AcDbLine
 10
-63.763
 20
105.0059999999999
 30
0.0
 11
-22.322
 21
105.0059999999999
 31
0.0
  0
MTEXT
  5
50
330
A
100
AcDbEntity
  8
PV
  6
Continuous
 62
     7
100
AcDbMText
 10
-35.962333
 20
151.006
 30
0.0
 40
8.4
 41
0.0
 71
     2
 72
     1
  1
\T0.823;\W1.177;\A1;□92
 11
0.0
 21
1.0
 31
0.0
 73
     1
 44
1.0
  0
POINT
  5
51
330
A
100
AcDbEntity
  8
PV
  6
Continuous
 62
     7
100
AcDbPoint
 10
-66.938
 20
197.0059999999999
 30
0.0
  0
POINT
  5
52
330
A
100
AcDbEntity
  8
PV
  6
Continuous
 62
     7
100
AcDbPoint
 10
-66.938
 20
105.0059999999999
 30
0.0
  0
POINT
  5
53
330
A
100
AcDbEntity
  8
PV
  6
Continuous
 62
     7
100
AcDbPoint
 10
-25.179
 20
105.0059999999999
 30
0.0
  0
LINE
  5
54
330
A
100
AcDbEntity
  8
PV
  6
Continuous
 62
     7
100
AcDbLine
 10
120.5929999999999
 20
-193.5759999999999
 30
0.0
 11
122.577
 21
-196.562
 31
0.0
  0
LINE
  5
55
330
A
100
AcDbEntity
  8
PV
  6
Continuous
 62
     7
100
AcDbLine
 10
122.577
 20
-196.562
 30
0.0
 11
119.3659999999999
 21
-194.967
 31
0.0
  0
LINE
  5
56
330
A
100
AcDbEntity
  8
PV
  6
Continuous
 62
     7
100
AcDbLine
 10
122.577
 20
-196.562
 30
0.0
 11
119.9799999999999
 21
-194.2709999999999
 31
0.0
  0
LINE
  5
57
330
A
100
AcDbEntity
  8
PV
  6
Continuous
 62
     7
100
AcDbLine
 10
84.05500000000001
 20
-162.5929999999998
 30
0.0
 11
122.577
 21
-196.562
 31
0.0
  0
LINE
  5
58
330
A
100
AcDbEntity
  8
PV
  6
Continuous
 62
     7
100
AcDbLine
 10
122.577
 20
-196.562
 30
0.0
 11
169.240707
 21
-237.709154
 31
0.0
  0
MTEXT
  5
59
330
A
100
AcDbEntity
  8
PV
  6
Continuous
 62
     7
100
AcDbMText
 10
154.0447359999999
 20
-210.7888149999999
 30
0.0
 40
8.4
 41
0.0
 71
     2
 72
     1
  1
\A1;PCD 92.2
 11
0.7500411662983959
 21
-0.6613911466430001
 31
0.0
 73
     1
 44
1.0
  0
POINT
  5
5A
330
A
100
AcDbEntity
  8
PV
  6
Continuous
 62
     7
100
AcDbPoint
 10
122.577
 20
-196.562
 30
0.0
  0
POINT
  5
5B
330
A
100
AcDbEntity
  8
PV
  6
Continuous
 62
     7
100
AcDbPoint
 10
84.05500000000001
 20
-162.5929999999998
 30
0.0
  0
LINE
  5
5C
330
A
100
AcDbEntity
  8
PV
  6
Continuous
 62
     7
100
AcDbLine
 10
-148.0879999999999
 20
-81.53499999999999
 30
0.0
 11
-151.55
 21
-80.608
 31
0.0
  0
LINE
  5
5D
330
A
100
AcDbEntity
  8
PV
  6
Continuous
 62
     7
100
AcDbLine
 10
-151.55
 20
-80.608
 30
0.0
 11
-148.0879999999999
 21
-79.68
 31
0.0
  0
LINE
  5
5E
330
A
100
AcDbEntity
  8
PV
  6
Continuous
 62
     7
100
AcDbLine
 10
-151.55
 20
-80.608
 30
0.0
 11
-148.0879999999999
 21
-80.608
 31
0.0
  0
LINE
  5
5F
330
A
100
AcDbEntity
  8
PV
  6
Continuous
 62
     7
100
AcDbLine
 10
-65.91199999999999
 20
-79.68
 30
0.0
 11
-62.45
 21
-80.608
 31
0.0
  0
LINE
  5
60
330
A
100
AcDbEntity
  8
PV
  6
Continuous
 62
     7
100
AcDbLine
 10
-62.45
 20
-80.608
 30
0.0
 11
-65.91199999999999
 21
-81.53499999999999
 31
0.0
  0
LINE
  5
61
330
A
100
AcDbEntity
  8
PV
  6
Continuous
 62
     7
100
AcDbLine
 10
-62.45
 20
-80.608
 30
0.0
 11
-65.91199999999999
 21
-80.608
 31
0.0
  0
LINE
  5
62
330
A
100
AcDbEntity
  8
PV
  6
Continuous
 62
     7
100
AcDbLine
 10
-151.55
 20
-80.608
 30
0.0
 11
-62.45
 21
-80.608
 31
0.0
  0
LINE
  5
63
330
A
100
AcDbEntity
  8
PV
  6
Continuous
 62
     7
100
AcDbLine
 10
-151.55
 20
-90.325
 30
0.0
 11
-151.55
 21
-77.75
 31
0.0
  0
MTEXT
  5
64
330
A
100
AcDbEntity
  8
PV
  6
Continuous
 62
     7
100
AcDbMText
 10
-92.481
 20
-69.824667
 30
0.0
 40
8.4
 41
0.0
 71
     2
 72
     1
  1
\T0.871;\W1.115;\A1;\U+220589
 73
     1
 44
1.0
  0
POINT
  5
65
330
A
100
AcDbEntity
  8
PV
  6
Continuous
 62
     7
100
AcDbPoint
 10
-151.55
 20
-93.49999999999999
 30
0.0
  0
POINT
  5
66
330
A
100
AcDbEntity
  8
PV
  6
Continuous
 62
     7
100
AcDbPoint
 10
-62.45
 20
-93.49999999999999
 30
0.0
  0
POINT
  5
67
330
A
100
AcDbEntity
  8
PV
  6
Continuous
 62
     7
100
AcDbPoint
 10
-62.45
 20
-80.608
 30
0.0
  0
LINE
  5
68
330
A
100
AcDbEntity
  8
PV
  6
Continuous
 62
     7
100
AcDbLine
 10
-33.73699999999999
 20
-13.962
 30
0.0
 11
-32.80899999999999
 21
-10.5
 31
0.0
  0
LINE
  5
69
330
A
100
AcDbEntity
  8
PV
  6
Continuous
 62
     7
100
AcDbLine
 10
-32.80899999999999
 20
-10.5
 30
0.0
 11
-31.881
 21
-13.962
 31
0.0
  0
LINE
  5
6A
330
A
100
AcDbEntity
  8
PV
  6
Continuous
 62
     7
100
AcDbLine
 10
-32.80899999999999
 20
-10.5
 30
0.0
 11
-32.80899999999999
 21
-13.962
 31
0.0
  0
LINE
  5
6B
330
A
100
AcDbEntity
  8
PV
  6
Continuous
 62
     7
100
AcDbLine
 10
-31.881
 20
-141.5379999999998
 30
0.0
 11
-32.80899999999999
 21
-145.0
 31
0.0
  0
LINE
  5
6C
330
A
100
AcDbEntity
  8
PV
  6
Continuous
 62
     7
100
AcDbLine
 10
-32.80899999999999
 20
-145.0
 30
0.0
 11
-33.73699999999999
 21
-141.5379999999998
 31
0.0
  0
LINE
  5
6D
330
A
100
AcDbEntity
  8
PV
  6
Continuous
 62
     7
100
AcDbLine
 10
-32.80899999999999
 20
-145.0
 30
0.0
 11
-32.80899999999999
 21
-141.5379999999998
 31
0.0
  0
LINE
  5
6E
330
A
100
AcDbEntity
  8
PV
  6
Continuous
 62
     7
100
AcDbLine
 10
-32.80899999999999
 20
-10.5
 30
0.0
 11
-32.80899999999999
 21
-145.0
 31
0.0
  0
MTEXT
  5
6F
330
A
100
AcDbEntity
  8
PV
  6
Continuous
 62
     7
100
AcDbMText
 10
-43.592333
 20
-77.75
 30
0.0
 40
8.4
 41
0.0
 71
     2
 72
     1
  1
\A1;134.5
 11
0.0
 21
1.0
 31
0.0
 73
     1
 44
1.0
  0
POINT
  5
70
330
A
100
AcDbEntity
  8
PV
  6
Continuous
 62
     7
100
AcDbPoint
 10
-61.0
 20
-10.5
 30
0.0
  0
POINT
  5
71
330
A
100
AcDbEntity
  8
PV
  6
Continuous
 62
     7
100
AcDbPoint
 10
-51.05
 20
-145.0
 30
0.0
  0
POINT
  5
72
330
A
100
AcDbEntity
  8
PV
  6
Continuous
 62
     7
100
AcDbPoint
 10
-32.80899999999999
 20
-145.0
 30
0.0
  0
LINE
  5
73
330
A
100
AcDbEntity
  8
PV
  6
Continuous
 62
     7
100
AcDbLine
 10
-33.73699999999999
 20
53.038
 30
0.0
 11
-32.80899999999999
 21
56.5
 31
0.0
  0
LINE
  5
74
330
A
100
AcDbEntity
  8
PV
  6
Continuous
 62
     7
100
AcDbLine
 10
-32.80899999999999
 20
56.5
 30
0.0
 11
-31.881
 21
53.038
 31
0.0
  0
LINE
  5
75
330
A
100
AcDbEntity
  8
PV
  6
Continuous
 62
     7
100
AcDbLine
 10
-32.80899999999999
 20
56.5
 30
0.0
 11
-32.80899999999999
 21
53.038
 31
0.0
  0
LINE
  5
76
330
A
100
AcDbEntity
  8
PV
  6
Continuous
 62
     7
100
AcDbLine
 10
-31.881
 20
-7.037
 30
0.0
 11
-32.80899999999999
 21
-10.5
 31
0.0
  0
LINE
  5
77
330
A
100
AcDbEntity
  8
PV
  6
Continuous
 62
     7
100
AcDbLine
 10
-32.80899999999999
 20
-10.5
 30
0.0
 11
-33.73699999999999
 21
-7.037
 31
0.0
  0
LINE
  5
78
330
A
100
AcDbEntity
  8
PV
  6
Continuous
 62
     7
100
AcDbLine
 10
-32.80899999999999
 20
-10.5
 30
0.0
 11
-32.80899999999999
 21
-7.037
 31
0.0
  0
LINE
  5
79
330
A
100
AcDbEntity
  8
PV
  6
Continuous
 62
     7
100
AcDbLine
 10
-32.80899999999999
 20
56.5
 30
0.0
 11
-32.80899999999999
 21
-10.5
 31
0.0
  0
LINE
  5
7A
330
A
100
AcDbEntity
  8
PV
  6
Continuous
 62
     7
100
AcDbLine
 10
-57.825
 20
-10.5
 30
0.0
 11
-29.951
 21
-10.5
 31
0.0
  0
MTEXT
  5
7B
330
A
100
AcDbEntity
  8
PV
  6
Continuous
 62
     7
100
AcDbMText
 10
-43.592333
 20
23.0
 30
0.0
 40
8.4
 41
0.0
 71
     2
 72
     1
  1
\W0.952;\A1;67
 11
0.0
 21
1.0
 31
0.0
 73
     1
 44
1.0
  0
POINT
  5
7C
330
A
100
AcDbEntity
  8
PV
  6
Continuous
 62
     7
100
AcDbPoint
 10
-61.0
 20
56.5
 30
0.0
  0
POINT
  5
7D
330
A
100
AcDbEntity
  8
PV
  6
Continuous
 62
     7
100
AcDbPoint
 10
-61.0
 20
-10.5
 30
0.0
  0
POINT
  5
7E
330
A
100
AcDbEntity
  8
PV
  6
Continuous
 62
     7
100
AcDbPoint
 10
-32.80899999999999
 20
-10.5
 30
0.0
  0
LINE
  5
7F
330
A
100
AcDbEntity
  8
PV
  6
Continuous
 62
     7
100
AcDbLine
 10
-188.5379999999999
 20
217.072
 30
0.0
 11
-192.0
 21
218.0
 31
0.0
  0
LINE
  5
80
330
A
100
AcDbEntity
  8
PV
  6
Continuous
 62
     7
100
AcDbLine
 10
-192.0
 20
218.0
 30
0.0
 11
-188.5379999999999
 21
218.928
 31
0.0
  0
LINE
  5
81
330
A
100
AcDbEntity
  8
PV
  6
Continuous
 62
     7
100
AcDbLine
 10
-192.0
 20
218.0
 30
0.0
 11
-188.5379999999999
 21
218.0
 31
0.0
  0
LINE
  5
82
330
A
100
AcDbEntity
  8
PV
  6
Continuous
 62
     7
100
AcDbLine
 10
-64.46200000000001
 20
218.928
 30
0.0
 11
-61.0
 21
218.0
 31
0.0
  0
LINE
  5
83
330
A
100
AcDbEntity
  8
PV
  6
Continuous
 62
     7
100
AcDbLine
 10
-61.0
 20
218.0
 30
0.0
 11
-64.46200000000001
 21
217.072
 31
0.0
  0
LINE
  5
84
330
A
100
AcDbEntity
  8
PV
  6
Continuous
 62
     7
100
AcDbLine
 10
-61.0
 20
218.0
 30
0.0
 11
-64.46200000000001
 21
218.0
 31
0.0
  0
LINE
  5
85
330
A
100
AcDbEntity
  8
PV
  6
Continuous
 62
     7
100
AcDbLine
 10
-192.0
 20
218.0
 30
0.0
 11
-61.0
 21
218.0
 31
0.0
  0
LINE
  5
86
330
A
100
AcDbEntity
  8
PV
  6
Continuous
 62
     7
100
AcDbLine
 10
-192.0
 20
210.1309999999999
 30
0.0
 11
-192.0
 21
220.2859999999999
 31
0.0
  0
LINE
  5
87
330
A
100
AcDbEntity
  8
PV
  6
Continuous
 62
     7
100
AcDbLine
 10
-61.0
 20
194.244
 30
0.0
 11
-61.0
 21
220.2859999999999
 31
0.0
  0
MTEXT
  5
88
330
A
100
AcDbEntity
  8
PV
  6
Continuous
 62
     7
100
AcDbMText
 10
-120.0
 20
228.783333
 30
0.0
 40
8.4
 41
0.0
 71
     2
 72
     1
  1
\A1;131
 73
     1
 44
1.0
  0
POINT
  5
89
330
A
100
AcDbEntity
  8
PV
  6
Continuous
 62
     7
100
AcDbPoint
 10
-192.0
 20
206.956
 30
0.0
  0
POINT
  5
8A
330
A
100
AcDbEntity
  8
PV
  6
Continuous
 62
     7
100
AcDbPoint
 10
-61.0
 20
191.069
 30
0.0
  0
POINT
  5
8B
330
A
100
AcDbEntity
  8
PV
  6
Continuous
 62
     7
100
AcDbPoint
 10
-61.0
 20
218.0
 30
0.0
  0
LINE
  5
8C
330
A
100
AcDbEntity
  8
PV
  6
Continuous
 62
     7
100
AcDbLine
 10
164.0719999999999
 20
34.037
 30
0.0
 11
165.0
 21
37.5
 31
0.0
  0
LINE
  5
8D
330
A
100
AcDbEntity
  8
PV
  6
Continuous
 62
     7
100
AcDbLine
 10
165.0
 20
37.5
 30
0.0
 11
165.928
 21
34.037
 31
0.0
  0
LINE
  5
8E
330
A
100
AcDbEntity
  8
PV
  6
Continuous
 62
     7
100
AcDbLine
 10
165.0
 20
37.5
 30
0.0
 11
165.0
 21
34.037
 31
0.0
  0
LINE
  5
8F
330
A
100
AcDbEntity
  8
PV
  6
Continuous
 62
     7
100
AcDbLine
 10
165.928
 20
1.963
 30
0.0
 11
165.0
 21
-1.5
 31
0.0
  0
LINE
  5
90
330
A
100
AcDbEntity
  8
PV
  6
Continuous
 62
     7
100
AcDbLine
 10
165.0
 20
-1.5
 30
0.0
 11
164.0719999999999
 21
1.963
 31
0.0
  0
LINE
  5
91
330
A
100
AcDbEntity
  8
PV
  6
Continuous
 62
     7
100
AcDbLine
 10
165.0
 20
-1.5
 30
0.0
 11
165.0
 21
1.963
 31
0.0
  0
LINE
  5
92
330
A
100
AcDbEntity
  8
PV
  6
Continuous
 62
     7
100
AcDbLine
 10
165.0
 20
37.5
 30
0.0
 11
165.0
 21
-1.5
 31
0.0
  0
LINE
  5
93
330
A
100
AcDbEntity
  8
PV
  6
Continuous
 62
     7
100
AcDbLine
 10
100.3659999999999
 20
37.5
 30
0.0
 11
167.2859999999999
 21
37.5
 31
0.0
  0
LINE
  5
94
330
A
100
AcDbEntity
  8
PV
  6
Continuous
 62
     7
100
AcDbLine
 10
100.5129999999998
 20
-1.5
 30
0.0
 11
167.2859999999999
 21
-1.5
 31
0.0
  0
MTEXT
  5
95
330
A
100
AcDbEntity
  8
PV
  6
Continuous
 62
     7
100
AcDbMText
 10
154.216667
 20
18.0
 30
0.0
 40
8.4
 41
0.0
 71
     2
 72
     1
  1
\W0.952;\A1;39
 11
0.0
 21
1.0
 31
0.0
 73
     1
 44
1.0
  0
POINT
  5
96
330
A
100
AcDbEntity
  8
PV
  6
Continuous
 62
     7
100
AcDbPoint
 10
97.191
 20
37.5
 30
0.0
  0
POINT
  5
97
330
A
100
AcDbEntity
  8
PV
  6
Continuous
 62
     7
100
AcDbPoint
 10
97.338
 20
-1.5
 30
0.0
  0
POINT
  5
98
330
A
100
AcDbEntity
  8
PV
  6
Continuous
 62
     7
100
AcDbPoint
 10
165.0
 20
-1.5
 30
0.0
  0
LINE
  5
99
330
A
100
AcDbEntity
  8
PV
  6
Continuous
 62
     7
100
AcDbLine
 10
164.0719999999999
 20
-4.961999999999998
 30
0.0
 11
165.0
 21
-1.5
 31
0.0
  0
LINE
  5
9A
330
A
100
AcDbEntity
  8
PV
  6
Continuous
 62
     7
100
AcDbLine
 10
165.0
 20
-1.5
 30
0.0
 11
165.928
 21
-4.961999999999998
 31
0.0
  0
LINE
  5
9B
330
A
100
AcDbEntity
  8
PV
  6
Continuous
 62
     7
100
AcDbLine
 10
165.0
 20
-1.5
 30
0.0
 11
165.0
 21
-4.961999999999998
 31
0.0
  0
LINE
  5
9C
330
A
100
AcDbEntity
  8
PV
  6
Continuous
 62
     7
100
AcDbLine
 10
165.928
 20
-141.5379999999998
 30
0.0
 11
165.0
 21
-145.0
 31
0.0
  0
LINE
  5
9D
330
A
100
AcDbEntity
  8
PV
  6
Continuous
 62
     7
100
AcDbLine
 10
165.0
 20
-145.0
 30
0.0
 11
164.0719999999999
 21
-141.5379999999998
 31
0.0
  0
LINE
  5
9E
330
A
100
AcDbEntity
  8
PV
  6
Continuous
 62
     7
100
AcDbLine
 10
165.0
 20
-145.0
 30
0.0
 11
165.0
 21
-141.5379999999998
 31
0.0
  0
LINE
  5
9F
330
A
100
AcDbEntity
  8
PV
  6
Continuous
 62
     7
100
AcDbLine
 10
165.0
 20
-1.5
 30
0.0
 11
165.0
 21
-145.0
 31
0.0
  0
LINE
  5
A0
330
A
100
AcDbEntity
  8
PV
  6
Continuous
 62
     7
100
AcDbLine
 10
147.1249999999999
 20
-145.0
 30
0.0
 11
167.2859999999999
 21
-145.0
 31
0.0
  0
MTEXT
  5
A1
330
A
100
AcDbEntity
  8
PV
  6
Continuous
 62
     7
100
AcDbMText
 10
154.216667
 20
-73.25
 30
0.0
 40
8.4
 41
0.0
 71
     2
 72
     1
  1
\A1;143.5
 11
0.0
 21
1.0
 31
0.0
 73
     1
 44
1.0
  0
POINT
  5
A2
330
A
100
AcDbEntity
  8
PV
  6
Continuous
 62
     7
100
AcDbPoint
 10
97.338
 20
-1.5
 30
0.0
  0
POINT
  5
A3
330
A
100
AcDbEntity
  8
PV
  6
Continuous
 62
     7
100
AcDbPoint
 10
143.9499999999999
 20
-145.0
 30
0.0
  0
POINT
  5
A4
330
A
100
AcDbEntity
  8
PV
  6
Continuous
 62
     7
100
AcDbPoint
 10
165.0
 20
-145.0
 30
0.0
  0
LINE
  5
A5
330
A
100
AcDbEntity
  8
PV
  6
Continuous
 62
     7
100
AcDbLine
 10
-17.136
 20
53.038
 30
0.0
 11
-16.20899999999998
 21
56.5
 31
0.0
  0
LINE
  5
A6
330
A
100
AcDbEntity
  8
PV
  6
Continuous
 62
     7
100
AcDbLine
 10
-16.20899999999998
 20
56.5
 30
0.0
 11
-15.281
 21
53.038
 31
0.0
  0
LINE
  5
A7
330
A
100
AcDbEntity
  8
PV
  6
Continuous
 62
     7
100
AcDbLine
 10
-16.20899999999998
 20
56.5
 30
0.0
 11
-16.20899999999998
 21
53.038
 31
0.0
  0
LINE
  5
A8
330
A
100
AcDbEntity
  8
PV
  6
Continuous
 62
     7
100
AcDbLine
 10
-15.281
 20
-141.5379999999998
 30
0.0
 11
-16.20899999999998
 21
-145.0
 31
0.0
  0
LINE
  5
A9
330
A
100
AcDbEntity
  8
PV
  6
Continuous
 62
     7
100
AcDbLine
 10
-16.20899999999998
 20
-145.0
 30
0.0
 11
-17.136
 21
-141.5379999999998
 31
0.0
  0
LINE
  5
AA
330
A
100
AcDbEntity
  8
PV
  6
Continuous
 62
     7
100
AcDbLine
 10
-16.20899999999998
 20
-145.0
 30
0.0
 11
-16.20899999999998
 21
-141.5379999999998
 31
0.0
  0
LINE
  5
AB
330
A
100
AcDbEntity
  8
PV
  6
Continuous
 62
     7
100
AcDbLine
 10
-16.20899999999998
 20
56.5
 30
0.0
 11
-16.20899999999998
 21
-145.0
 31
0.0
  0
LINE
  5
AC
330
A
100
AcDbEntity
  8
PV
  6
Continuous
 62
     7
100
AcDbLine
 10
-57.825
 20
56.5
 30
0.0
 11
-13.35099999999999
 21
56.5
 31
0.0
  0
LINE
  5
AD
330
A
100
AcDbEntity
  8
PV
  6
Continuous
 62
     7
100
AcDbLine
 10
-47.875
 20
-145.0
 30
0.0
 11
-13.35099999999999
 21
-145.0
 31
0.0
  0
MTEXT
  5
AE
330
A
100
AcDbEntity
  8
PV
  6
Continuous
 62
     7
100
AcDbMText
 10
-26.992333
 20
-44.24999999999999
 30
0.0
 40
8.4
 41
0.0
 71
     2
 72
     1
  1
\A1;201.5
 11
0.0
 21
1.0
 31
0.0
 73
     1
 44
1.0
  0
POINT
  5
AF
330
A
100
AcDbEntity
  8
PV
  6
Continuous
 62
     7
100
AcDbPoint
 10
-61.0
 20
56.5
 30
0.0
  0
POINT
  5
B0
330
A
100
AcDbEntity
  8
PV
  6
Continuous
 62
     7
100
AcDbPoint
 10
-51.05
 20
-145.0
 30
0.0
  0
POINT
  5
B1
330
A
100
AcDbEntity
  8
PV
  6
Continuous
 62
     7
100
AcDbPoint
 10
-16.20899999999998
 20
-145.0
 30
0.0
  0
LINE
  5
B2
330
A
100
AcDbEntity
  8
PV
  6
Continuous
 62
     7
100
AcDbLine
 10
-110.463
 20
-182.072
 30
0.0
 11
-107.0
 21
-183.0
 31
0.0
  0
LINE
  5
B3
330
A
100
AcDbEntity
  8
PV
  6
Continuous
 62
     7
100
AcDbLine
 10
-107.0
 20
-183.0
 30
0.0
 11
-110.463
 21
-183.928
 31
0.0
  0
LINE
  5
B4
330
A
100
AcDbEntity
  8
PV
  6
Continuous
 62
     7
100
AcDbLine
 10
-107.0
 20
-183.0
 30
0.0
 11
-110.463
 21
-183.0
 31
0.0
  0
LINE
  5
B5
330
A
100
AcDbEntity
  8
PV
  6
Continuous
 62
     7
100
AcDbLine
 10
-188.5379999999999
 20
-183.928
 30
0.0
 11
-192.0
 21
-183.0
 31
0.0
  0
LINE
  5
B6
330
A
100
AcDbEntity
  8
PV
  6
Continuous
 62
     7
100
AcDbLine
 10
-192.0
 20
-183.0
 30
0.0
 11
-188.5379999999999
 21
-182.072
 31
0.0
  0
LINE
  5
B7
330
A
100
AcDbEntity
  8
PV
  6
Continuous
 62
     7
100
AcDbLine
 10
-192.0
 20
-183.0
 30
0.0
 11
-188.5379999999999
 21
-183.0
 31
0.0
  0
LINE
  5
B8
330
A
100
AcDbEntity
  8
PV
  6
Continuous
 62
     7
100
AcDbLine
 10
-107.0
 20
-183.0
 30
0.0
 11
-192.0
 21
-183.0
 31
0.0
  0
LINE
  5
B9
330
A
100
AcDbEntity
  8
PV
  6
Continuous
 62
     7
100
AcDbLine
 10
-107.0
 20
-152.401
 30
0.0
 11
-107.0
 21
-185.857
 31
0.0
  0
LINE
  5
BA
330
A
100
AcDbEntity
  8
PV
  6
Continuous
 62
     7
100
AcDbLine
 10
-192.0
 20
-119.1249999999999
 30
0.0
 11
-192.0
 21
-185.857
 31
0.0
  0
MTEXT
  5
BB
330
A
100
AcDbEntity
  8
PV
  6
Continuous
 62
     7
100
AcDbMText
 10
-149.5
 20
-172.216667
 30
0.0
 40
8.4
 41
0.0
 71
     2
 72
     1
  1
\W0.952;\A1;85
 73
     1
 44
1.0
  0
POINT
  5
BC
330
A
100
AcDbEntity
  8
PV
  6
Continuous
 62
     7
100
AcDbPoint
 10
-107.0
 20
-149.2259999999999
 30
0.0
  0
POINT
  5
BD
330
A
100
AcDbEntity
  8
PV
  6
Continuous
 62
     7
100
AcDbPoint
 10
-192.0
 20
-115.9499999999999
 30
0.0
  0
POINT
  5
BE
330
A
100
AcDbEntity
  8
PV
  6
Continuous
 62
     7
100
AcDbPoint
 10
-192.0
 20
-183.0
 30
0.0
  0
LINE
  5
BF
330
A
100
AcDbEntity
  8
PV
  6
Continuous
 62
     7
100
AcDbLine
 10
-224.072
 20
-141.5379999999998
 30
0.0
 11
-225.0
 21
-145.0
 31
0.0
  0
LINE
  5
C0
330
A
100
AcDbEntity
  8
PV
  6
Continuous
 62
     7
100
AcDbLine
 10
-225.0
 20
-145.0
 30
0.0
 11
-225.9279999999999
 21
-141.5379999999998
 31
0.0
  0
LINE
  5
C1
330
A
100
AcDbEntity
  8
PV
  6
Continuous
 62
     7
100
AcDbLine
 10
-225.0
 20
-145.0
 30
0.0
 11
-225.0
 21
-141.5379999999998
 31
0.0
  0
LINE
  5
C2
330
A
100
AcDbEntity
  8
PV
  6
Continuous
 62
     7
100
AcDbLine
 10
-225.9279999999999
 20
-63.46199999999999
 30
0.0
 11
-225.0
 21
-60.0
 31
0.0
  0
LINE
  5
C3
330
A
100
AcDbEntity
  8
PV
  6
Continuous
 62
     7
100
AcDbLine
 10
-225.0
 20
-60.0
 30
0.0
 11
-224.072
 21
-63.46199999999999
 31
0.0
  0
LINE
  5
C4
330
A
100
AcDbEntity
  8
PV
  6
Continuous
 62
     7
100
AcDbLine
 10
-225.0
 20
-60.0
 30
0.0
 11
-225.0
 21
-63.46199999999999
 31
0.0
  0
LINE
  5
C5
330
A
100
AcDbEntity
  8
PV
  6
Continuous
 62
     7
100
AcDbLine
 10
-225.0
 20
-145.0
 30
0.0
 11
-225.0
 21
-60.0
 31
0.0
  0
LINE
  5
C6
330
A
100
AcDbEntity
  8
PV
  6
Continuous
 62
     7
100
AcDbLine
 10
-166.125
 20
-145.0
 30
0.0
 11
-227.857
 21
-145.0
 31
0.0
  0
LINE
  5
C7
330
A
100
AcDbEntity
  8
PV
  6
Continuous
 62
     7
100
AcDbLine
 10
-205.4629999999999
 20
-60.0
 30
0.0
 11
-227.857
 21
-60.0
 31
0.0
  0
MTEXT
  5
C8
330
A
100
AcDbEntity
  8
PV
  6
Continuous
 62
     7
100
AcDbMText
 10
-235.783333
 20
-103.0
 30
0.0
 40
8.4
 41
0.0
 71
     2
 72
     1
  1
\W0.952;\A1;85
 11
0.0
 21
1.0
 31
0.0
 73
     1
 44
1.0
  0
POINT
  5
C9
330
A
100
AcDbEntity
  8
PV
  6
Continuous
 62
     7
100
AcDbPoint
 10
-162.9499999999999
 20
-145.0
 30
0.0
  0
POINT
  5
CA
330
A
100
AcDbEntity
  8
PV
  6
Continuous
 62
     7
100
AcDbPoint
 10
-202.2879999999999
 20
-60.0
 30
0.0
  0
POINT
  5
CB
330
A
100
AcDbEntity
  8
PV
  6
Continuous
 62
     7
100
AcDbPoint
 10
-225.0
 20
-60.0
 30
0.0
  0
LINE
  5
CC
330
A
100
AcDbEntity
  8
PV
  6
Continuous
 62
     7
100
AcDbLine
 10
-53.71199999999999
 20
-167.072
 30
0.0
 11
-50.25
 21
-168.0
 31
0.0
  0
LINE
  5
CD
330
A
100
AcDbEntity
  8
PV
  6
Continuous
 62
     7
100
AcDbLine
 10
-50.25
 20
-168.0
 30
0.0
 11
-53.71199999999999
 21
-168.928
 31
0.0
  0
LINE
  5
CE
330
A
100
AcDbEntity
  8
PV
  6
Continuous
 62
     7
100
AcDbLine
 10
-50.25
 20
-168.0
 30
0.0
 11
-53.71199999999999
 21
-168.0
 31
0.0
  0
LINE
  5
CF
330
A
100
AcDbEntity
  8
PV
  6
Continuous
 62
     7
100
AcDbLine
 10
-160.287
 20
-168.928
 30
0.0
 11
-163.75
 21
-168.0
 31
0.0
  0
LINE
  5
D0
330
A
100
AcDbEntity
  8
PV
  6
Continuous
 62
     7
100
AcDbLine
 10
-163.75
 20
-168.0
 30
0.0
 11
-160.287
 21
-167.072
 31
0.0
  0
LINE
  5
D1
330
A
100
AcDbEntity
  8
PV
  6
Continuous
 62
     7
100
AcDbLine
 10
-163.75
 20
-168.0
 30
0.0
 11
-160.287
 21
-168.0
 31
0.0
  0
LINE
  5
D2
330
A
100
AcDbEntity
  8
PV
  6
Continuous
 62
     7
100
AcDbLine
 10
-50.25
 20
-168.0
 30
0.0
 11
-163.75
 21
-168.0
 31
0.0
  0
LINE
  5
D3
330
A
100
AcDbEntity
  8
PV
  6
Continuous
 62
     7
100
AcDbLine
 10
-50.25
 20
-147.375
 30
0.0
 11
-50.25
 21
-170.8569999999999
 31
0.0
  0
LINE
  5
D4
330
A
100
AcDbEntity
  8
PV
  6
Continuous
 62
     7
100
AcDbLine
 10
-163.75
 20
-147.375
 30
0.0
 11
-163.75
 21
-170.8569999999999
 31
0.0
  0
MTEXT
  5
D5
330
A
100
AcDbEntity
  8
PV
  6
Continuous
 62
     7
100
AcDbMText
 10
-85.0
 20
-157.216667
 30
0.0
 40
8.4
 41
0.0
 71
     2
 72
     1
  1
\A1;\U+2205113.5
 73
     1
 44
1.0
  0
POINT
  5
D6
330
A
100
AcDbEntity
  8
PV
  6
Continuous
 62
     7
100
AcDbPoint
 10
-50.25
 20
-144.1999999999999
 30
0.0
  0
POINT
  5
D7
330
A
100
AcDbEntity
  8
PV
  6
Continuous
 62
     7
100
AcDbPoint
 10
-163.75
 20
-144.1999999999999
 30
0.0
  0
POINT
  5
D8
330
A
100
AcDbEntity
  8
PV
  6
Continuous
 62
     7
100
AcDbPoint
 10
-163.75
 20
-168.0
 30
0.0
  0
LINE
  5
D9
330
A
100
AcDbEntity
  8
PV
  6
Continuous
 62
     7
100
AcDbLine
 10
-209.072
 20
-113.287
 30
0.0
 11
-210.0
 21
-116.7499999999999
 31
0.0
  0
LINE
  5
DA
330
A
100
AcDbEntity
  8
PV
  6
Continuous
 62
     7
100
AcDbLine
 10
-210.0
 20
-116.7499999999999
 30
0.0
 11
-210.928
 21
-113.287
 31
0.0
  0
LINE
  5
DB
330
A
100
AcDbEntity
  8
PV
  6
Continuous
 62
     7
100
AcDbLine
 10
-210.0
 20
-116.7499999999999
 30
0.0
 11
-210.0
 21
-113.287
 31
0.0
  0
LINE
  5
DC
330
A
100
AcDbEntity
  8
PV
  6
Continuous
 62
     7
100
AcDbLine
 10
-210.928
 20
-6.712999999999999
 30
0.0
 11
-210.0
 21
-3.25
 31
0.0
  0
LINE
  5
DD
330
A
100
AcDbEntity
  8
PV
  6
Continuous
 62
     7
100
AcDbLine
 10
-210.0
 20
-3.25
 30
0.0
 11
-209.072
 21
-6.712999999999999
 31
0.0
  0
LINE
  5
DE
330
A
100
AcDbEntity
  8
PV
  6
Continuous
 62
     7
100
AcDbLine
 10
-210.0
 20
-3.25
 30
0.0
 11
-210.0
 21
-6.712999999999999
 31
0.0
  0
LINE
  5
DF
330
A
100
AcDbEntity
  8
PV
  6
Continuous
 62
     7
100
AcDbLine
 10
-210.0
 20
-116.7499999999999
 30
0.0
 11
-210.0
 21
-3.25
 31
0.0
  0
LINE
  5
E0
330
A
100
AcDbEntity
  8
PV
  6
Continuous
 62
     7
100
AcDbLine
 10
-194.375
 20
-116.7499999999999
 30
0.0
 11
-212.8569999999998
 21
-116.7499999999999
 31
0.0
  0
LINE
  5
E1
330
A
100
AcDbEntity
  8
PV
  6
Continuous
 62
     7
100
AcDbLine
 10
-194.375
 20
-3.25
 30
0.0
 11
-212.8569999999998
 21
-3.25
 31
0.0
  0
MTEXT
  5
E2
330
A
100
AcDbEntity
  8
PV
  6
Continuous
 62
     7
100
AcDbMText
 10
-220.783333
 20
-38.0
 30
0.0
 40
8.4
 41
0.0
 71
     2
 72
     1
  1
\A1;\U+2205113.5
 11
0.0
 21
1.0
 31
0.0
 73
     1
 44
1.0
  0
POINT
  5
E3
330
A
100
AcDbEntity
  8
PV
  6
Continuous
 62
     7
100
AcDbPoint
 10
-191.1999999999999
 20
-116.7499999999999
 30
0.0
  0
POINT
  5
E4
330
A
100
AcDbEntity
  8
PV
  6
Continuous
 62
     7
100
AcDbPoint
 10
-191.1999999999999
 20
-3.25
 30
0.0
  0
POINT
  5
E5
330
A
100
AcDbEntity
  8
PV
  6
Continuous
 62
     7
100
AcDbPoint
 10
-210.0
 20
-3.25
 30
0.0
  0
CIRCLE
  5
E6
330
A
100
AcDbEntity
  8
PV
  6
Continuous
 62
     7
100
AcDbCircle
 10
-71.5
 20
186.5059999999999
 30
0.0
 40
5.633999999999998
  0
CIRCLE
  5
E7
330
A
100
AcDbEntity
  8
PV
  6
Continuous
 62
     7
100
AcDbCircle
 10
-71.5
 20
186.5059999999999
 30
0.0
 40
6.5
  0
LINE
  5
E8
330
A
100
AcDbEntity
  8
PV
  6
Continuous
 62
     7
100
AcDbLine
 10
-74.5
 20
184.7739999999999
 30
0.0
 11
-71.5
 21
183.042
 31
0.0
  0
LINE
  5
E9
330
A
100
AcDbEntity
  8
PV
  6
Continuous
 62
     7
100
AcDbLine
 10
-71.5
 20
189.9709999999999
 30
0.0
 11
-68.5
 21
188.2379999999999
 31
0.0
  0
LINE
  5
EA
330
A
100
AcDbEntity
  8
PV
  6
Continuous
 62
     7
100
AcDbLine
 10
-74.5
 20
188.2379999999999
 30
0.0
 11
-74.5
 21
184.7739999999999
 31
0.0
  0
LINE
  5
EB
330
A
100
AcDbEntity
  8
PV
  6
Continuous
 62
     7
100
AcDbLine
 10
-68.5
 20
188.2379999999999
 30
0.0
 11
-68.5
 21
184.7739999999999
 31
0.0
  0
LINE
  5
EC
330
A
100
AcDbEntity
  8
PV
  6
Continuous
 62
     7
100
AcDbLine
 10
-74.5
 20
188.2379999999999
 30
0.0
 11
-71.5
 21
189.9709999999999
 31
0.0
  0
LINE
  5
ED
330
A
100
AcDbEntity
  8
PV
  6
Continuous
 62
     7
100
AcDbLine
 10
-71.5
 20
183.042
 30
0.0
 11
-68.5
 21
184.7739999999999
 31
0.0
  0
CIRCLE
  5
EE
330
A
100
AcDbEntity
  8
PV
  6
Continuous
 62
     7
100
AcDbCircle
 10
-71.5
 20
115.5059999999999
 30
0.0
 40
5.633999999999998
  0
CIRCLE
  5
EF
330
A
100
AcDbEntity
  8
PV
  6
Continuous
 62
     7
100
AcDbCircle
 10
-71.5
 20
115.5059999999999
 30
0.0
 40
6.5
  0
LINE
  5
F0
330
A
100
AcDbEntity
  8
PV
  6
Continuous
 62
     7
100
AcDbLine
 10
-74.5
 20
113.7739999999999
 30
0.0
 11
-71.5
 21
112.0419999999999
 31
0.0
  0
LINE
  5
F1
330
A
100
AcDbEntity
  8
PV
  6
Continuous
 62
     7
100
AcDbLine
 10
-71.5
 20
118.971
 30
0.0
 11
-68.5
 21
117.2379999999999
 31
0.0
  0
LINE
  5
F2
330
A
100
AcDbEntity
  8
PV
  6
Continuous
 62
     7
100
AcDbLine
 10
-74.5
 20
117.2379999999999
 30
0.0
 11
-74.5
 21
113.7739999999999
 31
0.0
  0
LINE
  5
F3
330
A
100
AcDbEntity
  8
PV
  6
Continuous
 62
     7
100
AcDbLine
 10
-68.5
 20
117.2379999999999
 30
0.0
 11
-68.5
 21
113.7739999999999
 31
0.0
  0
LINE
  5
F4
330
A
100
AcDbEntity
  8
PV
  6
Continuous
 62
     7
100
AcDbLine
 10
-74.5
 20
117.2379999999999
 30
0.0
 11
-71.5
 21
118.971
 31
0.0
  0
LINE
  5
F5
330
A
100
AcDbEntity
  8
PV
  6
Continuous
 62
     7
100
AcDbLine
 10
-71.5
 20
112.0419999999999
 30
0.0
 11
-68.5
 21
113.7739999999999
 31
0.0
  0
CIRCLE
  5
F6
330
A
100
AcDbEntity
  8
PV
  6
Continuous
 62
     7
100
AcDbCircle
 10
-142.5
 20
115.5059999999999
 30
0.0
 40
5.633999999999998
  0
CIRCLE
  5
F7
330
A
100
AcDbEntity
  8
PV
  6
Continuous
 62
     7
100
AcDbCircle
 10
-142.5
 20
115.5059999999999
 30
0.0
 40
6.5
  0
LINE
  5
F8
330
A
100
AcDbEntity
  8
PV
  6
Continuous
 62
     7
100
AcDbLine
 10
-145.5
 20
113.7739999999999
 30
0.0
 11
-142.5
 21
112.0419999999999
 31
0.0
  0
LINE
  5
F9
330
A
100
AcDbEntity
  8
PV
  6
Continuous
 62
     7
100
AcDbLine
 10
-142.5
 20
118.971
 30
0.0
 11
-139.5
 21
117.2379999999999
 31
0.0
  0
LINE
  5
FA
330
A
100
AcDbEntity
  8
PV
  6
Continuous
 62
     7
100
AcDbLine
 10
-145.5
 20
117.2379999999999
 30
0.0
 11
-145.5
 21
113.7739999999999
 31
0.0
  0
LINE
  5
FB
330
A
100
AcDbEntity
  8
PV
  6
Continuous
 62
     7
100
AcDbLine
 10
-139.5
 20
117.2379999999999
 30
0.0
 11
-139.5
 21
113.7739999999999
 31
0.0
  0
LINE
  5
FC
330
A
100
AcDbEntity
  8
PV
  6
Continuous
 62
     7
100
AcDbLine
 10
-145.5
 20
117.2379999999999
 30
0.0
 11
-142.5
 21
118.971
 31
0.0
  0
LINE
  5
FD
330
A
100
AcDbEntity
  8
PV
  6
Continuous
 62
     7
100
AcDbLine
 10
-142.5
 20
112.0419999999999
 30
0.0
 11
-139.5
 21
113.7739999999999
 31
0.0
  0
CIRCLE
  5
FE
330
A
100
AcDbEntity
  8
PV
  6
Continuous
 62
     7
100
AcDbCircle
 10
-142.5
 20
186.5059999999999
 30
0.0
 40
5.633999999999998
  0
CIRCLE
  5
FF
330
A
100
AcDbEntity
  8
PV
  6
Continuous
 62
     7
100
AcDbCircle
 10
-142.5
 20
186.5059999999999
 30
0.0
 40
6.5
  0
LINE
  5
100
330
A
100
AcDbEntity
  8
PV
  6
Continuous
 62
     7
100
AcDbLine
 10
-145.5
 20
184.7739999999999
 30
0.0
 11
-142.5
 21
183.042
 31
0.0
  0
LINE
  5
101
330
A
100
AcDbEntity
  8
PV
  6
Continuous
 62
     7
100
AcDbLine
 10
-142.5
 20
189.9709999999999
 30
0.0
 11
-139.5
 21
188.2379999999999
 31
0.0
  0
LINE
  5
102
330
A
100
AcDbEntity
  8
PV
  6
Continuous
 62
     7
100
AcDbLine
 10
-145.5
 20
188.2379999999999
 30
0.0
 11
-145.5
 21
184.7739999999999
 31
0.0
  0
LINE
  5
103
330
A
100
AcDbEntity
  8
PV
  6
Continuous
 62
     7
100
AcDbLine
 10
-139.5
 20
188.2379999999999
 30
0.0
 11
-139.5
 21
184.7739999999999
 31
0.0
  0
LINE
  5
104
330
A
100
AcDbEntity
  8
PV
  6
Continuous
 62
     7
100
AcDbLine
 10
-145.5
 20
188.2379999999999
 30
0.0
 11
-142.5
 21
189.9709999999999
 31
0.0
  0
LINE
  5
105
330
A
100
AcDbEntity
  8
PV
  6
Continuous
 62
     7
100
AcDbLine
 10
-142.5
 20
183.042
 30
0.0
 11
-139.5
 21
184.7739999999999
 31
0.0
  0
SOLID
  5
106
330
A
100
AcDbEntity
  8
PV
  6
Continuous
 62
     7
100
AcDbTrace
 10
-124.0699999999999
 20
172.3549999999999
 30
0.0
 11
-123.4879999999999
 21
172.3549999999999
 31
0.0
 12
-124.0699999999999
 22
175.2649999999999
 32
0.0
 13
-123.4879999999999
 23
175.2649999999999
 33
0.0
  0
SOLID
  5
107
330
A
100
AcDbEntity
  8
PV
  6
Continuous
 62
     7
100
AcDbTrace
 10
-128.5819999999999
 20
172.3549999999999
 30
0.0
 11
-127.9989999999999
 21
172.3549999999999
 31
0.0
 12
-128.5819999999999
 22
175.2649999999999
 32
0.0
 13
-127.9989999999999
 23
175.2649999999999
 33
0.0
  0
SOLID
  5
108
330
A
100
AcDbEntity
  8
PV
  6
Continuous
 62
     7
100
AcDbTrace
 10
-110.5099999999999
 20
179.459
 30
0.0
 11
-108.495
 21
179.459
 31
0.0
 12
-110.5099999999999
 22
184.074
 32
0.0
 13
-108.495
 23
184.074
 33
0.0
  0
MTEXT
  5
109
330
A
100
AcDbEntity
  8
PV
  6
Continuous
 62
     7
100
AcDbMText
 10
-107.1439999999999
 20
123.103
 30
0.0
 40
1.5
 41
0.0
 71
     2
 72
     1
  1
\W0.980;\A1;MADE IN JAPAN
 73
     1
 44
1.0
  0
MTEXT
  5
10A
330
A
100
AcDbEntity
  8
PV
  6
Continuous
 62
     7
100
AcDbMText
 10
-106.6629999999999
 20
133.472
 30
0.0
 40
3.2
 41
0.0
 71
     2
 72
     1
  1
\W0.930;\A1;METAL BELLOWS
 73
     1
 44
1.0
  0
MTEXT
  5
10B
330
A
100
AcDbEntity
  8
PV
  6
Continuous
 62
     7
100
AcDbMText
 10
-105.8939999999999
 20
141.645
 30
0.0
 40
3.2
 41
0.0
 71
     2
 72
     1
  1
\W0.925;\A1;HIGH VACUUM VALVES
 73
     1
 44
1.0
  0
LWPOLYLINE
  5
10C
330
A
100
AcDbEntity
  8
PV
  6
Continuous
 62
     7
100
AcDbPolyline
 90
       94
 70
     0
 43
0.0
 10
-75.686
 20
158.286
 10
-75.688
 20
158.292
 10
-75.708
 20
158.3549999999999
 10
-75.73199999999999
 20
158.418
 10
-75.75700000000002
 20
158.4789999999999
 10
-75.786
 20
158.5399999999999
 10
-75.81699999999997
 20
158.5989999999999
 10
-75.84999999999998
 20
158.656
 10
-75.885
 20
158.712
 10
-75.923
 20
158.7659999999999
 10
-75.964
 20
158.8189999999999
 10
-76.006
 20
158.8689999999999
 10
-76.05
 20
158.9179999999998
 10
-76.097
 20
158.9639999999999
 10
-76.14499999999998
 20
159.0079999999999
 10
-76.19499999999998
 20
159.05
 10
-76.246
 20
159.0899999999999
 10
-76.29999999999999
 20
159.127
 10
-76.355
 20
159.1619999999998
 10
-76.411
 20
159.1949999999999
 10
-76.468
 20
159.2239999999998
 10
-76.527
 20
159.251
 10
-76.587
 20
159.276
 10
-76.64799999999998
 20
159.297
 10
-76.709
 20
159.316
 10
-76.771
 20
159.332
 10
-76.834
 20
159.3449999999999
 10
-76.89799999999998
 20
159.355
 10
-76.96200000000001
 20
159.363
 10
-77.02600000000002
 20
159.367
 10
-77.09
 20
159.369
 10
-77.15399999999998
 20
159.367
 10
-77.218
 20
159.363
 10
-77.28100000000002
 20
159.355
 10
-77.345
 20
159.3449999999999
 10
-77.408
 20
159.332
 10
-77.46999999999998
 20
159.316
 10
-77.53199999999998
 20
159.297
 10
-77.59199999999998
 20
159.276
 10
-77.652
 20
159.251
 10
-77.711
 20
159.2239999999998
 10
-77.768
 20
159.1949999999999
 10
-77.825
 20
159.1619999999998
 10
-77.87899999999997
 20
159.127
 10
-77.93300000000002
 20
159.0899999999999
 10
-77.985
 20
159.05
 10
-78.03499999999998
 20
159.0079999999999
 10
-78.083
 20
158.9639999999999
 10
-78.12899999999998
 20
158.9179999999998
 10
-78.173
 20
158.8689999999999
 10
-78.216
 20
158.8189999999999
 10
-78.256
 20
158.7659999999999
 10
-78.29399999999998
 20
158.712
 10
-78.32899999999998
 20
158.656
 10
-78.363
 20
158.5989999999999
 10
-78.39399999999997
 20
158.5399999999999
 10
-78.422
 20
158.4789999999999
 10
-78.44800000000002
 20
158.418
 10
-78.47100000000001
 20
158.3549999999999
 10
-78.492
 20
158.292
 10
-78.51
 20
158.227
 10
-78.525
 20
158.162
 10
-78.53699999999998
 20
158.096
 10
-78.547
 20
158.03
 10
-78.554
 20
157.9629999999999
 10
-78.55800000000002
 20
157.896
 10
-78.56
 20
157.829
 10
-78.55800000000002
 20
157.7609999999999
 10
-78.554
 20
157.694
 10
-78.547
 20
157.6279999999998
 10
-78.53699999999998
 20
157.561
 10
-78.525
 20
157.495
 10
-78.51
 20
157.43
 10
-78.492
 20
157.366
 10
-78.47100000000001
 20
157.302
 10
-78.44800000000002
 20
157.239
 10
-78.422
 20
157.1779999999999
 10
-78.39399999999997
 20
157.118
 10
-78.363
 20
157.0589999999999
 10
-78.32899999999998
 20
157.001
 10
-78.29399999999998
 20
156.9449999999999
 10
-78.256
 20
156.8909999999999
 10
-78.216
 20
156.8389999999999
 10
-78.173
 20
156.7879999999999
 10
-78.12899999999998
 20
156.74
 10
-78.083
 20
156.6929999999999
 10
-78.03499999999998
 20
156.6489999999999
 10
-77.985
 20
156.607
 10
-77.93300000000002
 20
156.567
 10
-77.87899999999997
 20
156.53
 10
-77.825
 20
156.495
 10
-77.768
 20
156.463
 10
-77.711
 20
156.4329999999999
 10
-77.67199999999998
 20
156.4149999999998
  0
LWPOLYLINE
  5
10D
330
A
100
AcDbEntity
  8
PV
  6
Continuous
 62
     7
100
AcDbPolyline
 90
       94
 70
     0
 43
0.0
 10
-79.053
 20
154.995
 10
-79.05199999999998
 20
154.99
 10
-79.03100000000002
 20
154.926
 10
-79.008
 20
154.8629999999999
 10
-78.982
 20
154.802
 10
-78.95399999999998
 20
154.741
 10
-78.923
 20
154.6829999999999
 10
-78.88899999999998
 20
154.625
 10
-78.854
 20
154.569
 10
-78.816
 20
154.5149999999999
 10
-78.77600000000002
 20
154.4629999999999
 10
-78.733
 20
154.412
 10
-78.689
 20
154.364
 10
-78.643
 20
154.317
 10
-78.595
 20
154.2729999999999
 10
-78.545
 20
154.231
 10
-78.49299999999998
 20
154.191
 10
-78.43899999999997
 20
154.1539999999999
 10
-78.385
 20
154.119
 10
-78.328
 20
154.087
 10
-78.271
 20
154.057
 10
-78.21200000000001
 20
154.03
 10
-78.152
 20
154.0049999999999
 10
-78.092
 20
153.984
 10
-78.03
 20
153.9649999999999
 10
-77.96800000000001
 20
153.9489999999998
 10
-77.905
 20
153.936
 10
-77.842
 20
153.926
 10
-77.778
 20
153.9179999999998
 10
-77.71399999999998
 20
153.9139999999999
 10
-77.65
 20
153.9129999999999
 10
-77.586
 20
153.9139999999999
 10
-77.52199999999998
 20
153.9179999999998
 10
-77.458
 20
153.926
 10
-77.39399999999998
 20
153.936
 10
-77.331
 20
153.9489999999998
 10
-77.26899999999997
 20
153.9649999999999
 10
-77.208
 20
153.984
 10
-77.14699999999997
 20
154.0049999999999
 10
-77.087
 20
154.03
 10
-77.028
 20
154.057
 10
-76.971
 20
154.087
 10
-76.91500000000002
 20
154.119
 10
-76.85999999999999
 20
154.1539999999999
 10
-76.806
 20
154.191
 10
-76.75499999999998
 20
154.231
 10
-76.705
 20
154.2729999999999
 10
-76.657
 20
154.317
 10
-76.61
 20
154.364
 10
-76.566
 20
154.412
 10
-76.524
 20
154.4629999999999
 10
-76.483
 20
154.5149999999999
 10
-76.44499999999998
 20
154.569
 10
-76.41
 20
154.625
 10
-76.37699999999998
 20
154.6829999999999
 10
-76.346
 20
154.741
 10
-76.31699999999998
 20
154.802
 10
-76.292
 20
154.8629999999999
 10
-76.268
 20
154.926
 10
-76.248
 20
154.99
 10
-76.23000000000001
 20
155.0539999999999
 10
-76.214
 20
155.119
 10
-76.202
 20
155.1849999999999
 10
-76.19199999999998
 20
155.252
 10
-76.185
 20
155.3179999999999
 10
-76.181
 20
155.3849999999999
 10
-76.18000000000002
 20
155.4529999999999
 10
-76.181
 20
155.52
 10
-76.185
 20
155.587
 10
-76.19199999999998
 20
155.654
 10
-76.202
 20
155.7199999999999
 10
-76.214
 20
155.7859999999999
 10
-76.23000000000001
 20
155.851
 10
-76.248
 20
155.916
 10
-76.268
 20
155.9789999999999
 10
-76.292
 20
156.042
 10
-76.31699999999998
 20
156.1029999999998
 10
-76.346
 20
156.1639999999998
 10
-76.37699999999998
 20
156.2229999999999
 10
-76.41
 20
156.28
 10
-76.44499999999998
 20
156.336
 10
-76.483
 20
156.3899999999998
 10
-76.524
 20
156.442
 10
-76.566
 20
156.4929999999999
 10
-76.61
 20
156.542
 10
-76.657
 20
156.5879999999999
 10
-76.705
 20
156.632
 10
-76.75499999999998
 20
156.674
 10
-76.806
 20
156.714
 10
-76.85999999999999
 20
156.751
 10
-76.91500000000002
 20
156.786
 10
-76.971
 20
156.8189999999999
 10
-77.028
 20
156.8479999999999
 10
-77.06699999999997
 20
156.867
  0
LWPOLYLINE
  5
10E
330
A
100
AcDbEntity
  8
PV
  6
Continuous
 62
     7
100
AcDbPolyline
 90
       26
 70
     0
 43
0.0
 10
-121.445
 20
157.5699999999999
 10
-121.446
 20
157.5739999999998
 10
-121.48
 20
157.681
 10
-121.5189999999999
 20
157.786
 10
-121.561
 20
157.888
 10
-121.6079999999999
 20
157.9889999999998
 10
-121.6579999999999
 20
158.086
 10
-121.7119999999999
 20
158.181
 10
-121.77
 20
158.272
 10
-121.831
 20
158.361
 10
-121.896
 20
158.4459999999999
 10
-121.964
 20
158.528
 10
-122.035
 20
158.6059999999999
 10
-122.11
 20
158.68
 10
-122.187
 20
158.75
 10
-122.267
 20
158.817
 10
-122.35
 20
158.8789999999999
 10
-122.435
 20
158.936
 10
-122.523
 20
158.99
 10
-122.612
 20
159.039
 10
-122.7039999999999
 20
159.0829999999999
 10
-122.797
 20
159.122
 10
-122.892
 20
159.157
 10
-122.9889999999999
 20
159.187
 10
-123.086
 20
159.212
 10
-123.185
 20
159.2319999999999
  0
LWPOLYLINE
  5
10F
330
A
100
AcDbEntity
  8
PV
  6
Continuous
 62
     7
100
AcDbPolyline
 90
      113
 70
     0
 43
0.0
 10
-123.185
 20
159.2319999999999
 10
-123.285
 20
159.247
 10
-123.385
 20
159.257
 10
-123.486
 20
159.262
 10
-123.587
 20
159.261
 10
-123.689
 20
159.2559999999999
 10
-123.79
 20
159.246
 10
-123.891
 20
159.2309999999999
 10
-123.991
 20
159.211
 10
-124.091
 20
159.186
 10
-124.19
 20
159.156
 10
-124.2879999999999
 20
159.121
 10
-124.385
 20
159.081
 10
-124.48
 20
159.037
 10
-124.574
 20
158.9879999999999
 10
-124.666
 20
158.9339999999999
 10
-124.756
 20
158.877
 10
-124.8429999999999
 20
158.8139999999999
 10
-124.929
 20
158.748
 10
-125.012
 20
158.678
 10
-125.0929999999998
 20
158.6029999999998
 10
-125.171
 20
158.525
 10
-125.246
 20
158.4429999999999
 10
-125.3179999999999
 20
158.3579999999999
 10
-125.386
 20
158.269
 10
-125.452
 20
158.177
 10
-125.5139999999999
 20
158.0829999999999
 10
-125.5719999999999
 20
157.985
 10
-125.627
 20
157.8849999999999
 10
-125.678
 20
157.782
 10
-125.7249999999999
 20
157.677
 10
-125.7679999999999
 20
157.5709999999999
 10
-125.807
 20
157.462
 10
-125.842
 20
157.352
 10
-125.8729999999999
 20
157.24
 10
-125.9
 20
157.127
 10
-125.922
 20
157.0129999999998
 10
-125.94
 20
156.8979999999999
 10
-125.9539999999999
 20
156.7829999999998
 10
-125.963
 20
156.668
 10
-125.9679999999999
 20
156.552
 10
-125.9679999999999
 20
156.437
 10
-125.964
 20
156.3209999999999
 10
-125.956
 20
156.207
 10
-125.943
 20
156.0929999999999
 10
-125.926
 20
155.9799999999999
 10
-125.9039999999999
 20
155.868
 10
-125.8779999999999
 20
155.7579999999999
 10
-125.848
 20
155.6499999999998
 10
-125.814
 20
155.543
 10
-125.776
 20
155.4379999999999
 10
-125.7329999999999
 20
155.336
 10
-125.687
 20
155.235
 10
-125.636
 20
155.1379999999998
 10
-125.582
 20
155.043
 10
-125.5249999999999
 20
154.952
 10
-125.4629999999999
 20
154.8629999999999
 10
-125.398
 20
154.7779999999999
 10
-125.33
 20
154.696
 10
-125.259
 20
154.6179999999999
 10
-125.185
 20
154.5439999999999
 10
-125.107
 20
154.474
 10
-125.0269999999999
 20
154.407
 10
-124.944
 20
154.3449999999999
 10
-124.8589999999999
 20
154.2879999999998
 10
-124.772
 20
154.234
 10
-124.682
 20
154.185
 10
-124.59
 20
154.1409999999999
 10
-124.497
 20
154.102
 10
-124.402
 20
154.067
 10
-124.306
 20
154.037
 10
-124.208
 20
154.0119999999999
 10
-124.109
 20
153.992
 10
-124.009
 20
153.977
 10
-123.909
 20
153.967
 10
-123.8079999999999
 20
153.962
 10
-123.707
 20
153.963
 10
-123.606
 20
153.9679999999999
 10
-123.5049999999999
 20
153.9779999999999
 10
-123.404
 20
153.993
 10
-123.303
 20
154.0129999999998
 10
-123.2029999999999
 20
154.0379999999998
 10
-123.1039999999999
 20
154.0679999999998
 10
-123.0059999999999
 20
154.1029999999999
 10
-122.91
 20
154.143
 10
-122.814
 20
154.187
 10
-122.721
 20
154.2359999999999
 10
-122.6289999999998
 20
154.2899999999999
 10
-122.5389999999999
 20
154.347
 10
-122.451
 20
154.41
 10
-122.3649999999999
 20
154.476
 10
-122.282
 20
154.546
 10
-122.201
 20
154.621
 10
-122.1239999999999
 20
154.6989999999999
 10
-122.0489999999999
 20
154.781
 10
-121.977
 20
154.866
 10
-121.9079999999999
 20
154.955
 10
-121.8429999999999
 20
155.0469999999999
 10
-121.781
 20
155.1409999999999
 10
-121.722
 20
155.239
 10
-121.667
 20
155.339
 10
-121.616
 20
155.442
 10
-121.569
 20
155.5469999999999
 10
-121.526
 20
155.6529999999999
 10
-121.487
 20
155.762
 10
-121.452
 20
155.872
 10
-121.421
 20
155.984
 10
-121.395
 20
156.097
 10
-121.372
 20
156.211
 10
-121.354
 20
156.3259999999999
 10
-121.341
 20
156.441
 10
-121.331
 20
156.556
 10
-121.3289999999999
 20
156.6119999999999
  0
CIRCLE
  5
110
330
A
100
AcDbEntity
  8
PV
  6
Continuous
 62
     7
100
AcDbCircle
 10
-107.0
 20
151.006
 30
0.0
 40
37.25
  0
ARC
  5
111
330
A
100
AcDbEntity
  8
PV
  6
Continuous
 62
   255
100
AcDbCircle
 10
-86.67100000000003
 20
173.81
 30
0.0
 40
1.455
100
AcDbArc
 50
359.999996
 51
90.00003000000003
  0
ARC
  5
112
330
A
100
AcDbEntity
  8
PV
  6
Continuous
 62
   255
100
AcDbCircle
 10
-86.67100000000003
 20
173.81
 30
0.0
 40
0.873
100
AcDbArc
 50
359.999996
 51
90.00003000000003
  0
ARC
  5
113
330
A
100
AcDbEntity
  8
PV
  6
Continuous
 62
   255
100
AcDbCircle
 10
-97.149
 20
173.81
 30
0.0
 40
1.455
100
AcDbArc
 50
359.999996
 51
89.999975
  0
ARC
  5
114
330
A
100
AcDbEntity
  8
PV
  6
Continuous
 62
   255
100
AcDbCircle
 10
-97.149
 20
173.81
 30
0.0
 40
0.873
100
AcDbArc
 50
359.999996
 51
89.999975
  0
ARC
  5
115
330
A
100
AcDbEntity
  8
PV
  6
Continuous
 62
   255
100
AcDbCircle
 10
-97.43999999999999
 20
173.81
 30
0.0
 40
0.873
100
AcDbArc
 50
179.999978
 51
270.000001
  0
ARC
  5
116
330
A
100
AcDbEntity
  8
PV
  6
Continuous
 62
   255
100
AcDbCircle
 10
-97.43999999999999
 20
173.81
 30
0.0
 40
1.455
100
AcDbArc
 50
179.999978
 51
270.000001
  0
ARC
  5
117
330
A
100
AcDbEntity
  8
PV
  6
Continuous
 62
   255
100
AcDbCircle
 10
-114.3199999999999
 20
173.81
 30
0.0
 40
1.455
100
AcDbArc
 50
179.999978
 51
270.000001
  0
ARC
  5
118
330
A
100
AcDbEntity
  8
PV
  6
Continuous
 62
   255
100
AcDbCircle
 10
-114.3199999999999
 20
173.81
 30
0.0
 40
0.873
100
AcDbArc
 50
179.999978
 51
270.000001
  0
ARC
  5
119
330
A
100
AcDbEntity
  8
PV
  6
Continuous
 62
   255
100
AcDbCircle
 10
-114.029
 20
173.81
 30
0.0
 40
0.873
100
AcDbArc
 50
359.999996
 51
89.999975
  0
ARC
  5
11A
330
A
100
AcDbEntity
  8
PV
  6
Continuous
 62
   255
100
AcDbCircle
 10
-114.029
 20
173.81
 30
0.0
 40
1.455
100
AcDbArc
 50
359.999996
 51
89.999975
  0
ARC
  5
11B
330
A
100
AcDbEntity
  8
PV
  6
Continuous
 62
   255
100
AcDbCircle
 10
-125.38
 20
174.3919999999999
 30
0.0
 40
0.873
100
AcDbArc
 50
359.999996
 51
89.999975
  0
ARC
  5
11C
330
A
100
AcDbEntity
  8
PV
  6
Continuous
 62
   255
100
AcDbCircle
 10
-125.38
 20
174.3919999999999
 30
0.0
 40
0.291
100
AcDbArc
 50
359.999996
 51
89.999975
  0
ARC
  5
11D
330
A
100
AcDbEntity
  8
PV
  6
Continuous
 62
   255
100
AcDbCircle
 10
-100.496
 20
173.81
 30
0.0
 40
0.873
100
AcDbArc
 50
89.999975
 51
270.000001
  0
ARC
  5
11E
330
A
100
AcDbEntity
  8
PV
  6
Continuous
 62
   255
100
AcDbCircle
 10
-100.496
 20
173.81
 30
0.0
 40
1.455
100
AcDbArc
 50
89.999975
 51
270.000001
  0
ARC
  5
11F
330
A
100
AcDbEntity
  8
PV
  6
Continuous
 62
   255
100
AcDbCircle
 10
-86.67100000000003
 20
173.81
 30
0.0
 40
0.873
100
AcDbArc
 50
270.0000109999999
 51
359.999996
  0
ARC
  5
120
330
A
100
AcDbEntity
  8
PV
  6
Continuous
 62
   255
100
AcDbCircle
 10
-86.67100000000003
 20
173.81
 30
0.0
 40
1.455
100
AcDbArc
 50
270.0000109999999
 51
359.999996
  0
ARC
  5
121
330
A
100
AcDbEntity
  8
PV
  6
Continuous
 62
   255
100
AcDbCircle
 10
-92.63800000000001
 20
173.519
 30
0.0
 40
0.5820000000000001
100
AcDbArc
 50
179.999978
 51
270.000001
  0
ARC
  5
122
330
A
100
AcDbEntity
  8
PV
  6
Continuous
 62
   255
100
AcDbCircle
 10
-92.63800000000001
 20
173.519
 30
0.0
 40
1.164
100
AcDbArc
 50
179.999978
 51
270.000001
  0
CIRCLE
  5
123
330
A
100
AcDbEntity
  8
PV
  6
Continuous
 62
   255
100
AcDbCircle
 10
-95.402
 20
172.7179999999999
 30
0.0
 40
0.364
  0
ARC
  5
124
330
A
100
AcDbEntity
  8
PV
  6
Continuous
 62
   255
100
AcDbCircle
 10
-94.471
 20
172.7179999999999
 30
0.0
 40
0.364
100
AcDbArc
 50
319.9999189999998
 51
241.536827
  0
ARC
  5
125
330
A
100
AcDbEntity
  8
PV
  6
Continuous
 62
   255
100
AcDbCircle
 10
-114.029
 20
173.81
 30
0.0
 40
0.873
100
AcDbArc
 50
270.0000109999999
 51
359.999996
  0
ARC
  5
126
330
A
100
AcDbEntity
  8
PV
  6
Continuous
 62
   255
100
AcDbCircle
 10
-114.3199999999999
 20
173.81
 30
0.0
 40
0.873
100
AcDbArc
 50
89.999975
 51
179.99995
  0
ARC
  5
127
330
A
100
AcDbEntity
  8
PV
  6
Continuous
 62
   255
100
AcDbCircle
 10
-114.029
 20
173.81
 30
0.0
 40
1.455
100
AcDbArc
 50
270.0000109999999
 51
359.999996
  0
ARC
  5
128
330
A
100
AcDbEntity
  8
PV
  6
Continuous
 62
   255
100
AcDbCircle
 10
-114.3199999999999
 20
173.81
 30
0.0
 40
1.455
100
AcDbArc
 50
89.999975
 51
179.99995
  0
ARC
  5
129
330
A
100
AcDbEntity
  8
PV
  6
Continuous
 62
   255
100
AcDbCircle
 10
-104.5699999999999
 20
173.955
 30
0.0
 40
0.728
100
AcDbArc
 50
359.999996
 51
89.999975
  0
ARC
  5
12A
330
A
100
AcDbEntity
  8
PV
  6
Continuous
 62
   255
100
AcDbCircle
 10
-104.861
 20
173.955
 30
0.0
 40
0.728
100
AcDbArc
 50
89.999975
 51
179.99995
  0
ARC
  5
12B
330
A
100
AcDbEntity
  8
PV
  6
Continuous
 62
   255
100
AcDbCircle
 10
-104.5699999999999
 20
173.955
 30
0.0
 40
1.31
100
AcDbArc
 50
359.999996
 51
89.999975
  0
ARC
  5
12C
330
A
100
AcDbEntity
  8
PV
  6
Continuous
 62
   255
100
AcDbCircle
 10
-104.861
 20
173.955
 30
0.0
 40
1.31
100
AcDbArc
 50
89.999975
 51
179.99995
  0
ARC
  5
12D
330
A
100
AcDbEntity
  8
PV
  6
Continuous
 62
   255
100
AcDbCircle
 10
-121.742
 20
173.81
 30
0.0
 40
0.873
100
AcDbArc
 50
199.471211
 51
270.0000109999999
  0
ARC
  5
12E
330
A
100
AcDbEntity
  8
PV
  6
Continuous
 62
   255
100
AcDbCircle
 10
-121.742
 20
173.81
 30
0.0
 40
0.873
100
AcDbArc
 50
89.999975
 51
160.528775
  0
ARC
  5
12F
330
A
100
AcDbEntity
  8
PV
  6
Continuous
 62
   255
100
AcDbCircle
 10
-121.742
 20
173.81
 30
0.0
 40
1.455
100
AcDbArc
 50
89.999975
 51
270.000001
  0
ARC
  5
130
330
A
100
AcDbEntity
  8
PV
  6
Continuous
 62
   255
100
AcDbCircle
 10
-97.149
 20
173.81
 30
0.0
 40
0.873
100
AcDbArc
 50
270.0000109999999
 51
359.999996
  0
ARC
  5
131
330
A
100
AcDbEntity
  8
PV
  6
Continuous
 62
   255
100
AcDbCircle
 10
-97.43999999999999
 20
173.81
 30
0.0
 40
0.873
100
AcDbArc
 50
89.999975
 51
179.99995
  0
ARC
  5
132
330
A
100
AcDbEntity
  8
PV
  6
Continuous
 62
   255
100
AcDbCircle
 10
-97.149
 20
173.81
 30
0.0
 40
1.455
100
AcDbArc
 50
270.0000109999999
 51
359.999996
  0
ARC
  5
133
330
A
100
AcDbEntity
  8
PV
  6
Continuous
 62
   255
100
AcDbCircle
 10
-97.43999999999999
 20
173.81
 30
0.0
 40
1.455
100
AcDbArc
 50
89.999975
 51
179.99995
  0
ARC
  5
134
330
A
100
AcDbEntity
  8
PV
  6
Continuous
 62
   255
100
AcDbCircle
 10
-107.9169999999999
 20
173.81
 30
0.0
 40
0.873
100
AcDbArc
 50
199.471211
 51
270.0000109999999
  0
ARC
  5
135
330
A
100
AcDbEntity
  8
PV
  6
Continuous
 62
   255
100
AcDbCircle
 10
-107.9169999999999
 20
173.81
 30
0.0
 40
0.873
100
AcDbArc
 50
89.999975
 51
160.528775
  0
ARC
  5
136
330
A
100
AcDbEntity
  8
PV
  6
Continuous
 62
   255
100
AcDbCircle
 10
-107.9169999999999
 20
173.81
 30
0.0
 40
1.455
100
AcDbArc
 50
89.999975
 51
270.000001
  0
ARC
  5
137
330
A
100
AcDbEntity
  8
PV
  6
Continuous
 62
   255
100
AcDbCircle
 10
-125.38
 20
174.3919999999999
 30
0.0
 40
0.291
100
AcDbArc
 50
270.0000109999999
 51
359.999996
  0
ARC
  5
138
330
A
100
AcDbEntity
  8
PV
  6
Continuous
 62
   255
100
AcDbCircle
 10
-125.38
 20
174.3919999999999
 30
0.0
 40
0.873
100
AcDbArc
 50
273.7218359999999
 51
359.999996
  0
ARC
  5
139
330
A
100
AcDbEntity
  8
PV
  6
Continuous
 62
     7
100
AcDbCircle
 10
-99.97900000000001
 20
181.766
 30
0.0
 40
1.3
100
AcDbArc
 50
269.9999969999999
 51
90.00000300000001
  0
ARC
  5
13A
330
A
100
AcDbEntity
  8
PV
  6
Continuous
 62
     7
100
AcDbCircle
 10
-99.97900000000001
 20
181.766
 30
0.0
 40
1.3
100
AcDbArc
 50
90.00000300000001
 51
270.000001
  0
ARC
  5
13B
330
A
100
AcDbEntity
  8
PV
  6
Continuous
 62
     7
100
AcDbCircle
 10
-101.9619999999999
 20
181.766
 30
0.0
 40
2.308
100
AcDbArc
 50
34.225552
 51
325.774451
  0
ARC
  5
13C
330
A
100
AcDbEntity
  8
PV
  6
Continuous
 62
     7
100
AcDbCircle
 10
-106.187
 20
181.766
 30
0.0
 40
1.268
100
AcDbArc
 50
269.9999969999999
 51
90.00000300000001
  0
ARC
  5
13D
330
A
100
AcDbEntity
  8
PV
  6
Continuous
 62
     7
100
AcDbCircle
 10
-106.187
 20
181.766
 30
0.0
 40
1.268
100
AcDbArc
 50
90.00000300000001
 51
270.000001
  0
ARC
  5
13E
330
A
100
AcDbEntity
  8
PV
  6
Continuous
 62
     7
100
AcDbCircle
 10
-106.187
 20
181.766
 30
0.0
 40
2.308
100
AcDbArc
 50
90.00000300000001
 51
270.000001
  0
ARC
  5
13F
330
A
100
AcDbEntity
  8
PV
  6
Continuous
 62
     7
100
AcDbCircle
 10
-112.635
 20
182.839
 30
0.0
 40
1.235
100
AcDbArc
 50
179.9999909999999
 51
0.00001
  0
ARC
  5
140
330
A
100
AcDbEntity
  8
PV
  6
Continuous
 62
     7
100
AcDbCircle
 10
-112.635
 20
182.839
 30
0.0
 40
1.235
100
AcDbArc
 50
0.0
 51
180.000005
  0
CIRCLE
  5
141
330
A
100
AcDbEntity
  8
PV
  6
Continuous
 62
     7
100
AcDbCircle
 10
-107.0
 20
151.006
 30
0.0
 40
37.5
  0
LINE
  5
142
330
A
100
AcDbEntity
  8
PV
  6
Continuous
 62
     7
100
AcDbLine
 10
-77.618
 20
156.946
 30
0.0
 11
-77.068
 21
156.868
 31
0.0
  0
LINE
  5
143
330
A
100
AcDbEntity
  8
PV
  6
Continuous
 62
     7
100
AcDbLine
 10
-77.67100000000002
 20
156.4139999999999
 30
0.0
 11
-77.11199999999998
 21
156.33
 31
0.0
  0
LINE
  5
144
330
A
100
AcDbEntity
  8
PV
  6
Continuous
 62
     7
100
AcDbLine
 10
-75.686
 20
158.2869999999998
 30
0.0
 11
-76.128
 21
158.032
 31
0.0
  0
LINE
  5
145
330
A
100
AcDbEntity
  8
PV
  6
Continuous
 62
     7
100
AcDbLine
 10
-79.053
 20
154.994
 30
0.0
 11
-78.611
 21
155.2489999999998
 31
0.0
  0
LINE
  5
146
330
A
100
AcDbEntity
  8
PV
  6
Continuous
 62
     7
100
AcDbLine
 10
-102.2679999999998
 20
159.272
 30
0.0
 11
-101.6929999999999
 21
159.272
 31
0.0
  0
LINE
  5
147
330
A
100
AcDbEntity
  8
PV
  6
Continuous
 62
     7
100
AcDbLine
 10
-105.244
 20
159.272
 30
0.0
 11
-104.306
 21
153.9519999999999
 31
0.0
  0
LINE
  5
148
330
A
100
AcDbEntity
  8
PV
  6
Continuous
 62
     7
100
AcDbLine
 10
-104.6899999999999
 20
159.272
 30
0.0
 11
-103.9
 21
154.7889999999999
 31
0.0
  0
LINE
  5
149
330
A
100
AcDbEntity
  8
PV
  6
Continuous
 62
     7
100
AcDbLine
 10
-103.9
 20
154.7889999999999
 30
0.0
 11
-102.2679999999998
 21
159.272
 31
0.0
  0
LINE
  5
14A
330
A
100
AcDbEntity
  8
PV
  6
Continuous
 62
     7
100
AcDbLine
 10
-103.6289999999999
 20
153.9519999999999
 30
0.0
 11
-101.6929999999999
 21
159.272
 31
0.0
  0
LINE
  5
14B
330
A
100
AcDbEntity
  8
PV
  6
Continuous
 62
     7
100
AcDbLine
 10
-105.244
 20
159.272
 30
0.0
 11
-104.6899999999999
 21
159.272
 31
0.0
  0
LINE
  5
14C
330
A
100
AcDbEntity
  8
PV
  6
Continuous
 62
     7
100
AcDbLine
 10
-104.306
 20
153.9519999999999
 30
0.0
 11
-103.6289999999999
 21
153.9519999999999
 31
0.0
  0
LINE
  5
14D
330
A
100
AcDbEntity
  8
PV
  6
Continuous
 62
     7
100
AcDbLine
 10
-86.51799999999999
 20
159.272
 30
0.0
 11
-85.943
 21
159.272
 31
0.0
  0
LINE
  5
14E
330
A
100
AcDbEntity
  8
PV
  6
Continuous
 62
     7
100
AcDbLine
 10
-89.494
 20
159.272
 30
0.0
 11
-88.556
 21
153.9519999999999
 31
0.0
  0
LINE
  5
14F
330
A
100
AcDbEntity
  8
PV
  6
Continuous
 62
     7
100
AcDbLine
 10
-88.94
 20
159.272
 30
0.0
 11
-88.15000000000003
 21
154.7889999999999
 31
0.0
  0
LINE
  5
150
330
A
100
AcDbEntity
  8
PV
  6
Continuous
 62
     7
100
AcDbLine
 10
-88.14899999999999
 20
154.7889999999999
 30
0.0
 11
-86.51799999999999
 21
159.272
 31
0.0
  0
LINE
  5
151
330
A
100
AcDbEntity
  8
PV
  6
Continuous
 62
     7
100
AcDbLine
 10
-87.87899999999998
 20
153.9519999999999
 30
0.0
 11
-85.943
 21
159.272
 31
0.0
  0
LINE
  5
152
330
A
100
AcDbEntity
  8
PV
  6
Continuous
 62
     7
100
AcDbLine
 10
-89.494
 20
159.272
 30
0.0
 11
-88.94
 21
159.272
 31
0.0
  0
LINE
  5
153
330
A
100
AcDbEntity
  8
PV
  6
Continuous
 62
     7
100
AcDbLine
 10
-88.556
 20
153.9519999999999
 30
0.0
 11
-87.87899999999998
 21
153.9519999999999
 31
0.0
  0
LINE
  5
154
330
A
100
AcDbEntity
  8
PV
  6
Continuous
 62
     7
100
AcDbLine
 10
-83.09200000000002
 20
156.874
 30
0.0
 11
-82.772
 21
158.687
 31
0.0
  0
LINE
  5
155
330
A
100
AcDbEntity
  8
PV
  6
Continuous
 62
     7
100
AcDbLine
 10
-80.83
 20
158.687
 30
0.0
 11
-80.72700000000002
 21
159.272
 31
0.0
  0
LINE
  5
156
330
A
100
AcDbEntity
  8
PV
  6
Continuous
 62
     7
100
AcDbLine
 10
-81.247
 20
156.325
 30
0.0
 11
-81.15
 21
156.874
 31
0.0
  0
LINE
  5
157
330
A
100
AcDbEntity
  8
PV
  6
Continuous
 62
     7
100
AcDbLine
 10
-83.511
 20
154.4939999999999
 30
0.0
 11
-83.18899999999997
 21
156.325
 31
0.0
  0
LINE
  5
158
330
A
100
AcDbEntity
  8
PV
  6
Continuous
 62
     7
100
AcDbLine
 10
-83.511
 20
154.4939999999999
 30
0.0
 11
-81.57
 21
154.4939999999999
 31
0.0
  0
LINE
  5
159
330
A
100
AcDbEntity
  8
PV
  6
Continuous
 62
     7
100
AcDbLine
 10
-82.772
 20
158.687
 30
0.0
 11
-80.83
 21
158.687
 31
0.0
  0
LINE
  5
15A
330
A
100
AcDbEntity
  8
PV
  6
Continuous
 62
     7
100
AcDbLine
 10
-83.09200000000002
 20
156.874
 30
0.0
 11
-81.15
 21
156.874
 31
0.0
  0
LINE
  5
15B
330
A
100
AcDbEntity
  8
PV
  6
Continuous
 62
     7
100
AcDbLine
 10
-83.18899999999997
 20
156.325
 30
0.0
 11
-81.247
 21
156.325
 31
0.0
  0
LINE
  5
15C
330
A
100
AcDbEntity
  8
PV
  6
Continuous
 62
     7
100
AcDbLine
 10
-81.665
 20
153.9519999999999
 30
0.0
 11
-81.57
 21
154.4939999999999
 31
0.0
  0
LINE
  5
15D
330
A
100
AcDbEntity
  8
PV
  6
Continuous
 62
     7
100
AcDbLine
 10
-84.15399999999998
 20
153.9519999999999
 30
0.0
 11
-83.21600000000001
 21
159.272
 31
0.0
  0
LINE
  5
15E
330
A
100
AcDbEntity
  8
PV
  6
Continuous
 62
     7
100
AcDbLine
 10
-93.78
 20
154.518
 30
0.0
 11
-91.452
 21
154.518
 31
0.0
  0
LINE
  5
15F
330
A
100
AcDbEntity
  8
PV
  6
Continuous
 62
     7
100
AcDbLine
 10
-93.78
 20
154.518
 30
0.0
 11
-92.942
 21
159.272
 31
0.0
  0
LINE
  5
160
330
A
100
AcDbEntity
  8
PV
  6
Continuous
 62
     7
100
AcDbLine
 10
-94.434
 20
153.9519999999999
 30
0.0
 11
-93.496
 21
159.272
 31
0.0
  0
LINE
  5
161
330
A
100
AcDbEntity
  8
PV
  6
Continuous
 62
     7
100
AcDbLine
 10
-91.552
 20
153.9519999999999
 30
0.0
 11
-91.452
 21
154.518
 31
0.0
  0
LINE
  5
162
330
A
100
AcDbEntity
  8
PV
  6
Continuous
 62
     7
100
AcDbLine
 10
-84.15399999999998
 20
153.9519999999999
 30
0.0
 11
-81.665
 21
153.9519999999999
 31
0.0
  0
LINE
  5
163
330
A
100
AcDbEntity
  8
PV
  6
Continuous
 62
     7
100
AcDbLine
 10
-83.21600000000001
 20
159.272
 30
0.0
 11
-80.72700000000002
 21
159.272
 31
0.0
  0
LINE
  5
164
330
A
100
AcDbEntity
  8
PV
  6
Continuous
 62
     7
100
AcDbLine
 10
-93.496
 20
159.272
 30
0.0
 11
-92.942
 21
159.272
 31
0.0
  0
LINE
  5
165
330
A
100
AcDbEntity
  8
PV
  6
Continuous
 62
     7
100
AcDbLine
 10
-94.434
 20
153.9519999999999
 30
0.0
 11
-91.552
 21
153.9519999999999
 31
0.0
  0
LINE
  5
166
330
A
100
AcDbEntity
  8
PV
  6
Continuous
 62
     7
100
AcDbLine
 10
-97.33299999999999
 20
155.081
 30
0.0
 11
-97.031
 21
153.9519999999999
 31
0.0
  0
LINE
  5
167
330
A
100
AcDbEntity
  8
PV
  6
Continuous
 62
     7
100
AcDbLine
 10
-99.243
 20
155.6349999999999
 30
0.0
 11
-98.229
 21
158.422
 31
0.0
  0
LINE
  5
168
330
A
100
AcDbEntity
  8
PV
  6
Continuous
 62
     7
100
AcDbLine
 10
-99.243
 20
155.6349999999999
 30
0.0
 11
-97.48200000000002
 21
155.6349999999999
 31
0.0
  0
LINE
  5
169
330
A
100
AcDbEntity
  8
PV
  6
Continuous
 62
     7
100
AcDbLine
 10
-99.44499999999999
 20
155.081
 30
0.0
 11
-97.33299999999999
 21
155.081
 31
0.0
  0
LINE
  5
16A
330
A
100
AcDbEntity
  8
PV
  6
Continuous
 62
     7
100
AcDbLine
 10
-97.031
 20
153.9519999999999
 30
0.0
 11
-96.48000000000001
 21
153.9519999999999
 31
0.0
  0
LINE
  5
16B
330
A
100
AcDbEntity
  8
PV
  6
Continuous
 62
     7
100
AcDbLine
 10
-98.229
 20
158.422
 30
0.0
 11
-97.48200000000002
 21
155.6349999999999
 31
0.0
  0
LINE
  5
16C
330
A
100
AcDbEntity
  8
PV
  6
Continuous
 62
     7
100
AcDbLine
 10
-97.90500000000001
 20
159.272
 30
0.0
 11
-96.48000000000001
 21
153.9519999999999
 31
0.0
  0
LINE
  5
16D
330
A
100
AcDbEntity
  8
PV
  6
Continuous
 62
     7
100
AcDbLine
 10
-99.85599999999999
 20
153.9519999999999
 30
0.0
 11
-99.44499999999999
 21
155.081
 31
0.0
  0
LINE
  5
16E
330
A
100
AcDbEntity
  8
PV
  6
Continuous
 62
     7
100
AcDbLine
 10
-100.422
 20
153.9519999999999
 30
0.0
 11
-98.48500000000001
 21
159.272
 31
0.0
  0
LINE
  5
16F
330
A
100
AcDbEntity
  8
PV
  6
Continuous
 62
     7
100
AcDbLine
 10
-98.48500000000001
 20
159.272
 30
0.0
 11
-97.90500000000001
 21
159.272
 31
0.0
  0
LINE
  5
170
330
A
100
AcDbEntity
  8
PV
  6
Continuous
 62
     7
100
AcDbLine
 10
-100.422
 20
153.9519999999999
 30
0.0
 11
-99.85599999999999
 21
153.9519999999999
 31
0.0
  0
LINE
  5
171
330
A
100
AcDbEntity
  8
PV
  6
Continuous
 62
     7
100
AcDbLine
 10
-112.912
 20
156.874
 30
0.0
 11
-112.592
 21
158.687
 31
0.0
  0
LINE
  5
172
330
A
100
AcDbEntity
  8
PV
  6
Continuous
 62
     7
100
AcDbLine
 10
-110.65
 20
158.687
 30
0.0
 11
-110.547
 21
159.272
 31
0.0
  0
LINE
  5
173
330
A
100
AcDbEntity
  8
PV
  6
Continuous
 62
     7
100
AcDbLine
 10
-111.067
 20
156.325
 30
0.0
 11
-110.9699999999999
 21
156.874
 31
0.0
  0
LINE
  5
174
330
A
100
AcDbEntity
  8
PV
  6
Continuous
 62
     7
100
AcDbLine
 10
-113.331
 20
154.4939999999999
 30
0.0
 11
-113.009
 21
156.325
 31
0.0
  0
LINE
  5
175
330
A
100
AcDbEntity
  8
PV
  6
Continuous
 62
     7
100
AcDbLine
 10
-113.331
 20
154.4939999999999
 30
0.0
 11
-111.39
 21
154.4939999999999
 31
0.0
  0
LINE
  5
176
330
A
100
AcDbEntity
  8
PV
  6
Continuous
 62
     7
100
AcDbLine
 10
-112.592
 20
158.687
 30
0.0
 11
-110.65
 21
158.687
 31
0.0
  0
LINE
  5
177
330
A
100
AcDbEntity
  8
PV
  6
Continuous
 62
     7
100
AcDbLine
 10
-112.912
 20
156.874
 30
0.0
 11
-110.9699999999999
 21
156.874
 31
0.0
  0
LINE
  5
178
330
A
100
AcDbEntity
  8
PV
  6
Continuous
 62
     7
100
AcDbLine
 10
-113.009
 20
156.325
 30
0.0
 11
-111.067
 21
156.325
 31
0.0
  0
LINE
  5
179
330
A
100
AcDbEntity
  8
PV
  6
Continuous
 62
     7
100
AcDbLine
 10
-111.485
 20
153.9519999999999
 30
0.0
 11
-111.39
 21
154.4939999999999
 31
0.0
  0
LINE
  5
17A
330
A
100
AcDbEntity
  8
PV
  6
Continuous
 62
     7
100
AcDbLine
 10
-113.9739999999999
 20
153.9519999999999
 30
0.0
 11
-113.036
 21
159.272
 31
0.0
  0
LINE
  5
17B
330
A
100
AcDbEntity
  8
PV
  6
Continuous
 62
     7
100
AcDbLine
 10
-113.9739999999999
 20
153.9519999999999
 30
0.0
 11
-111.485
 21
153.9519999999999
 31
0.0
  0
LINE
  5
17C
330
A
100
AcDbEntity
  8
PV
  6
Continuous
 62
     7
100
AcDbLine
 10
-113.036
 20
159.272
 30
0.0
 11
-110.547
 21
159.272
 31
0.0
  0
LINE
  5
17D
330
A
100
AcDbEntity
  8
PV
  6
Continuous
 62
     7
100
AcDbLine
 10
-118.7
 20
154.518
 30
0.0
 11
-116.372
 21
154.518
 31
0.0
  0
LINE
  5
17E
330
A
100
AcDbEntity
  8
PV
  6
Continuous
 62
     7
100
AcDbLine
 10
-118.7
 20
154.518
 30
0.0
 11
-117.862
 21
159.272
 31
0.0
  0
LINE
  5
17F
330
A
100
AcDbEntity
  8
PV
  6
Continuous
 62
     7
100
AcDbLine
 10
-119.354
 20
153.9519999999999
 30
0.0
 11
-118.416
 21
159.272
 31
0.0
  0
LINE
  5
180
330
A
100
AcDbEntity
  8
PV
  6
Continuous
 62
     7
100
AcDbLine
 10
-116.472
 20
153.9519999999999
 30
0.0
 11
-116.372
 21
154.518
 31
0.0
  0
LINE
  5
181
330
A
100
AcDbEntity
  8
PV
  6
Continuous
 62
     7
100
AcDbLine
 10
-118.416
 20
159.272
 30
0.0
 11
-117.862
 21
159.272
 31
0.0
  0
LINE
  5
182
330
A
100
AcDbEntity
  8
PV
  6
Continuous
 62
     7
100
AcDbLine
 10
-119.354
 20
153.9519999999999
 30
0.0
 11
-116.472
 21
153.9519999999999
 31
0.0
  0
LINE
  5
183
330
A
100
AcDbEntity
  8
PV
  6
Continuous
 62
     7
100
AcDbLine
 10
-135.5529999999999
 20
155.081
 30
0.0
 11
-135.251
 21
153.9519999999999
 31
0.0
  0
LINE
  5
184
330
A
100
AcDbEntity
  8
PV
  6
Continuous
 62
     7
100
AcDbLine
 10
-137.463
 20
155.6349999999999
 30
0.0
 11
-136.4489999999999
 21
158.422
 31
0.0
  0
LINE
  5
185
330
A
100
AcDbEntity
  8
PV
  6
Continuous
 62
     7
100
AcDbLine
 10
-137.463
 20
155.6349999999999
 30
0.0
 11
-135.702
 21
155.6349999999999
 31
0.0
  0
LINE
  5
186
330
A
100
AcDbEntity
  8
PV
  6
Continuous
 62
     7
100
AcDbLine
 10
-137.6649999999999
 20
155.081
 30
0.0
 11
-135.5529999999999
 21
155.081
 31
0.0
  0
LINE
  5
187
330
A
100
AcDbEntity
  8
PV
  6
Continuous
 62
     7
100
AcDbLine
 10
-135.251
 20
153.9519999999999
 30
0.0
 11
-134.6999999999999
 21
153.9519999999999
 31
0.0
  0
LINE
  5
188
330
A
100
AcDbEntity
  8
PV
  6
Continuous
 62
     7
100
AcDbLine
 10
-136.4489999999999
 20
158.422
 30
0.0
 11
-135.702
 21
155.6349999999999
 31
0.0
  0
LINE
  5
189
330
A
100
AcDbEntity
  8
PV
  6
Continuous
 62
     7
100
AcDbLine
 10
-136.125
 20
159.272
 30
0.0
 11
-134.6999999999999
 21
153.9519999999999
 31
0.0
  0
LINE
  5
18A
330
A
100
AcDbEntity
  8
PV
  6
Continuous
 62
     7
100
AcDbLine
 10
-138.0759999999999
 20
153.9519999999999
 30
0.0
 11
-137.6649999999999
 21
155.081
 31
0.0
  0
LINE
  5
18B
330
A
100
AcDbEntity
  8
PV
  6
Continuous
 62
     7
100
AcDbLine
 10
-138.6419999999999
 20
153.9519999999999
 30
0.0
 11
-136.705
 21
159.272
 31
0.0
  0
LINE
  5
18C
330
A
100
AcDbEntity
  8
PV
  6
Continuous
 62
     7
100
AcDbLine
 10
-136.705
 20
159.272
 30
0.0
 11
-136.125
 21
159.272
 31
0.0
  0
LINE
  5
18D
330
A
100
AcDbEntity
  8
PV
  6
Continuous
 62
     7
100
AcDbLine
 10
-138.6419999999999
 20
153.9519999999999
 30
0.0
 11
-138.0759999999999
 21
153.9519999999999
 31
0.0
  0
LINE
  5
18E
330
A
100
AcDbEntity
  8
PV
  6
Continuous
 62
     7
100
AcDbLine
 10
-123.0339999999999
 20
156.08
 30
0.0
 11
-121.9749999999999
 21
156.08
 31
0.0
  0
LINE
  5
18F
330
A
100
AcDbEntity
  8
PV
  6
Continuous
 62
     7
100
AcDbLine
 10
-123.0339999999999
 20
156.08
 30
0.0
 11
-122.94
 21
156.6119999999999
 31
0.0
  0
LINE
  5
190
330
A
100
AcDbEntity
  8
PV
  6
Continuous
 62
     7
100
AcDbLine
 10
-121.972
 20
157.378
 30
0.0
 11
-121.445
 21
157.5699999999999
 31
0.0
  0
LINE
  5
191
330
A
100
AcDbEntity
  8
PV
  6
Continuous
 62
     7
100
AcDbLine
 10
-122.94
 20
156.6119999999999
 30
0.0
 11
-121.3289999999999
 21
156.6119999999999
 31
0.0
  0
LINE
  5
192
330
A
100
AcDbEntity
  8
PV
  6
Continuous
 62
     7
100
AcDbLine
 10
-128.285
 20
159.272
 30
0.0
 11
-127.743
 21
159.272
 31
0.0
  0
LINE
  5
193
330
A
100
AcDbEntity
  8
PV
  6
Continuous
 62
     7
100
AcDbLine
 10
-129.237
 20
153.9519999999999
 30
0.0
 11
-128.681
 21
153.9519999999999
 31
0.0
  0
LINE
  5
194
330
A
100
AcDbEntity
  8
PV
  6
Continuous
 62
     7
100
AcDbLine
 10
-130.8869999999999
 20
159.272
 30
0.0
 11
-129.048
 21
154.942
 31
0.0
  0
LINE
  5
195
330
A
100
AcDbEntity
  8
PV
  6
Continuous
 62
     7
100
AcDbLine
 10
-131.0039999999998
 20
158.115
 30
0.0
 11
-129.237
 21
153.9519999999999
 31
0.0
  0
LINE
  5
196
330
A
100
AcDbEntity
  8
PV
  6
Continuous
 62
     7
100
AcDbLine
 10
-132.299
 20
153.9519999999999
 30
0.0
 11
-131.3609999999999
 21
159.272
 31
0.0
  0
LINE
  5
197
330
A
100
AcDbEntity
  8
PV
  6
Continuous
 62
     7
100
AcDbLine
 10
-131.7379999999999
 20
153.9519999999999
 30
0.0
 11
-131.0039999999998
 21
158.115
 31
0.0
  0
LINE
  5
198
330
A
100
AcDbEntity
  8
PV
  6
Continuous
 62
     7
100
AcDbLine
 10
-129.048
 20
154.942
 30
0.0
 11
-128.285
 21
159.272
 31
0.0
  0
LINE
  5
199
330
A
100
AcDbEntity
  8
PV
  6
Continuous
 62
     7
100
AcDbLine
 10
-128.681
 20
153.9519999999999
 30
0.0
 11
-127.743
 21
159.272
 31
0.0
  0
LINE
  5
19A
330
A
100
AcDbEntity
  8
PV
  6
Continuous
 62
     7
100
AcDbLine
 10
-131.3609999999999
 20
159.272
 30
0.0
 11
-130.8869999999999
 21
159.272
 31
0.0
  0
LINE
  5
19B
330
A
100
AcDbEntity
  8
PV
  6
Continuous
 62
     7
100
AcDbLine
 10
-132.299
 20
153.9519999999999
 30
0.0
 11
-131.7379999999999
 21
153.9519999999999
 31
0.0
  0
LINE
  5
19C
330
A
100
AcDbEntity
  8
PV
  6
Continuous
 62
   255
100
AcDbLine
 10
-114.3199999999999
 20
174.6829999999999
 30
0.0
 11
-114.029
 21
174.6829999999999
 31
0.0
  0
LINE
  5
19D
330
A
100
AcDbEntity
  8
PV
  6
Continuous
 62
   255
100
AcDbLine
 10
-87.69
 20
173.81
 30
0.0
 11
-87.69
 21
172.937
 31
0.0
  0
LINE
  5
19E
330
A
100
AcDbEntity
  8
PV
  6
Continuous
 62
   255
100
AcDbLine
 10
-88.27200000000003
 20
173.81
 30
0.0
 11
-88.27200000000003
 21
172.3549999999999
 31
0.0
  0
LINE
  5
19F
330
A
100
AcDbEntity
  8
PV
  6
Continuous
 62
   255
100
AcDbLine
 10
-126.8349999999999
 20
174.3919999999999
 30
0.0
 11
-126.8349999999999
 21
174.1009999999999
 31
0.0
  0
LINE
  5
1A0
330
A
100
AcDbEntity
  8
PV
  6
Continuous
 62
   255
100
AcDbLine
 10
-127.417
 20
174.3919999999999
 30
0.0
 11
-127.417
 21
172.3549999999999
 31
0.0
  0
LINE
  5
1A1
330
A
100
AcDbEntity
  8
PV
  6
Continuous
 62
   255
100
AcDbLine
 10
-87.69
 20
174.6829999999999
 30
0.0
 11
-87.69
 21
173.81
 31
0.0
  0
LINE
  5
1A2
330
A
100
AcDbEntity
  8
PV
  6
Continuous
 62
   255
100
AcDbLine
 10
-87.69
 20
172.937
 30
0.0
 11
-86.67100000000003
 21
172.937
 31
0.0
  0
LINE
  5
1A3
330
A
100
AcDbEntity
  8
PV
  6
Continuous
 62
   255
100
AcDbLine
 10
-88.27200000000003
 20
175.2649999999999
 30
0.0
 11
-88.27200000000003
 21
173.81
 31
0.0
  0
LINE
  5
1A4
330
A
100
AcDbEntity
  8
PV
  6
Continuous
 62
   255
100
AcDbLine
 10
-90.309
 20
172.3549999999999
 30
0.0
 11
-89.72700000000001
 21
172.3549999999999
 31
0.0
  0
LINE
  5
1A5
330
A
100
AcDbEntity
  8
PV
  6
Continuous
 62
   255
100
AcDbLine
 10
-89.72700000000001
 20
174.6829999999999
 30
0.0
 11
-88.56299999999997
 21
174.6829999999999
 31
0.0
  0
LINE
  5
1A6
330
A
100
AcDbEntity
  8
PV
  6
Continuous
 62
   255
100
AcDbLine
 10
-88.27200000000003
 20
175.2649999999999
 30
0.0
 11
-86.67100000000003
 21
175.2649999999999
 31
0.0
  0
LINE
  5
1A7
330
A
100
AcDbEntity
  8
PV
  6
Continuous
 62
   255
100
AcDbLine
 10
-87.69
 20
174.6829999999999
 30
0.0
 11
-86.67100000000003
 21
174.6829999999999
 31
0.0
  0
LINE
  5
1A8
330
A
100
AcDbEntity
  8
PV
  6
Continuous
 62
   255
100
AcDbLine
 10
-90.309
 20
174.6829999999999
 30
0.0
 11
-90.309
 21
172.3549999999999
 31
0.0
  0
LINE
  5
1A9
330
A
100
AcDbEntity
  8
PV
  6
Continuous
 62
   255
100
AcDbLine
 10
-89.72700000000001
 20
174.6829999999999
 30
0.0
 11
-89.72700000000001
 21
172.3549999999999
 31
0.0
  0
LINE
  5
1AA
330
A
100
AcDbEntity
  8
PV
  6
Continuous
 62
   255
100
AcDbLine
 10
-91.47299999999999
 20
174.6829999999999
 30
0.0
 11
-90.309
 21
174.6829999999999
 31
0.0
  0
LINE
  5
1AB
330
A
100
AcDbEntity
  8
PV
  6
Continuous
 62
   255
100
AcDbLine
 10
-88.56299999999997
 20
175.2649999999999
 30
0.0
 11
-88.56299999999997
 21
174.6829999999999
 31
0.0
  0
LINE
  5
1AC
330
A
100
AcDbEntity
  8
PV
  6
Continuous
 62
   255
100
AcDbLine
 10
-91.47299999999999
 20
175.2649999999999
 30
0.0
 11
-91.47299999999999
 21
174.6829999999999
 31
0.0
  0
LINE
  5
1AD
330
A
100
AcDbEntity
  8
PV
  6
Continuous
 62
   255
100
AcDbLine
 10
-91.47299999999999
 20
175.2649999999999
 30
0.0
 11
-88.56299999999997
 21
175.2649999999999
 31
0.0
  0
LINE
  5
1AE
330
A
100
AcDbEntity
  8
PV
  6
Continuous
 62
   255
100
AcDbLine
 10
-93.802
 20
175.2649999999999
 30
0.0
 11
-93.22
 21
175.2649999999999
 31
0.0
  0
LINE
  5
1AF
330
A
100
AcDbEntity
  8
PV
  6
Continuous
 62
   255
100
AcDbLine
 10
-88.27200000000003
 20
172.3549999999999
 30
0.0
 11
-86.67100000000003
 21
172.3549999999999
 31
0.0
  0
LINE
  5
1B0
330
A
100
AcDbEntity
  8
PV
  6
Continuous
 62
   255
100
AcDbLine
 10
-92.63800000000001
 20
172.937
 30
0.0
 11
-91.18199999999999
 21
172.937
 31
0.0
  0
LINE
  5
1B1
330
A
100
AcDbEntity
  8
PV
  6
Continuous
 62
   255
100
AcDbLine
 10
-93.22
 20
175.2649999999999
 30
0.0
 11
-93.22
 21
173.519
 31
0.0
  0
LINE
  5
1B2
330
A
100
AcDbEntity
  8
PV
  6
Continuous
 62
   255
100
AcDbLine
 10
-91.18199999999999
 20
172.937
 30
0.0
 11
-91.18199999999999
 21
172.3549999999999
 31
0.0
  0
LINE
  5
1B3
330
A
100
AcDbEntity
  8
PV
  6
Continuous
 62
   255
100
AcDbLine
 10
-93.802
 20
175.2649999999999
 30
0.0
 11
-93.802
 21
173.519
 31
0.0
  0
LINE
  5
1B4
330
A
100
AcDbEntity
  8
PV
  6
Continuous
 62
   255
100
AcDbLine
 10
-94.891
 20
172.1049999999999
 30
0.0
 11
-94.668
 21
171.918
 31
0.0
  0
LINE
  5
1B5
330
A
100
AcDbEntity
  8
PV
  6
Continuous
 62
   255
100
AcDbLine
 10
-94.891
 20
172.1049999999999
 30
0.0
 11
-94.64400000000001
 21
172.399
 31
0.0
  0
LINE
  5
1B6
330
A
100
AcDbEntity
  8
PV
  6
Continuous
 62
   255
100
AcDbLine
 10
-94.668
 20
171.918
 30
0.0
 11
-94.192
 21
172.485
 31
0.0
  0
LINE
  5
1B7
330
A
100
AcDbEntity
  8
PV
  6
Continuous
 62
   255
100
AcDbLine
 10
-114.3199999999999
 20
172.937
 30
0.0
 11
-114.029
 21
172.937
 31
0.0
  0
LINE
  5
1B8
330
A
100
AcDbEntity
  8
PV
  6
Continuous
 62
   255
100
AcDbLine
 10
-114.3199999999999
 20
175.2649999999999
 30
0.0
 11
-114.029
 21
175.2649999999999
 31
0.0
  0
LINE
  5
1B9
330
A
100
AcDbEntity
  8
PV
  6
Continuous
 62
   255
100
AcDbLine
 10
-114.3199999999999
 20
172.3549999999999
 30
0.0
 11
-114.029
 21
172.3549999999999
 31
0.0
  0
LINE
  5
1BA
330
A
100
AcDbEntity
  8
PV
  6
Continuous
 62
   255
100
AcDbLine
 10
-103.8429999999999
 20
172.3549999999999
 30
0.0
 11
-103.261
 21
172.3549999999999
 31
0.0
  0
LINE
  5
1BB
330
A
100
AcDbEntity
  8
PV
  6
Continuous
 62
   255
100
AcDbLine
 10
-103.8429999999999
 20
173.955
 30
0.0
 11
-103.8429999999999
 21
172.3549999999999
 31
0.0
  0
LINE
  5
1BC
330
A
100
AcDbEntity
  8
PV
  6
Continuous
 62
   255
100
AcDbLine
 10
-105.5889999999999
 20
173.955
 30
0.0
 11
-105.5889999999999
 21
172.3549999999999
 31
0.0
  0
LINE
  5
1BD
330
A
100
AcDbEntity
  8
PV
  6
Continuous
 62
   255
100
AcDbLine
 10
-104.861
 20
174.6829999999999
 30
0.0
 11
-104.5699999999999
 21
174.6829999999999
 31
0.0
  0
LINE
  5
1BE
330
A
100
AcDbEntity
  8
PV
  6
Continuous
 62
   255
100
AcDbLine
 10
-103.261
 20
173.955
 30
0.0
 11
-103.261
 21
172.3549999999999
 31
0.0
  0
LINE
  5
1BF
330
A
100
AcDbEntity
  8
PV
  6
Continuous
 62
   255
100
AcDbLine
 10
-106.171
 20
173.955
 30
0.0
 11
-106.171
 21
172.3549999999999
 31
0.0
  0
LINE
  5
1C0
330
A
100
AcDbEntity
  8
PV
  6
Continuous
 62
   255
100
AcDbLine
 10
-104.861
 20
175.2649999999999
 30
0.0
 11
-104.5699999999999
 21
175.2649999999999
 31
0.0
  0
LINE
  5
1C1
330
A
100
AcDbEntity
  8
PV
  6
Continuous
 62
   255
100
AcDbLine
 10
-106.1679999999999
 20
172.3549999999999
 30
0.0
 11
-105.5889999999999
 21
172.3549999999999
 31
0.0
  0
LINE
  5
1C2
330
A
100
AcDbEntity
  8
PV
  6
Continuous
 62
   255
100
AcDbLine
 10
-92.63800000000001
 20
172.3549999999999
 30
0.0
 11
-91.18199999999999
 21
172.3549999999999
 31
0.0
  0
LINE
  5
1C3
330
A
100
AcDbEntity
  8
PV
  6
Continuous
 62
   255
100
AcDbLine
 10
-99.04099999999999
 20
174.6829999999999
 30
0.0
 11
-99.04099999999999
 21
175.2649999999999
 31
0.0
  0
LINE
  5
1C4
330
A
100
AcDbEntity
  8
PV
  6
Continuous
 62
   255
100
AcDbLine
 10
-100.496
 20
174.6829999999999
 30
0.0
 11
-99.04000000000001
 21
174.6829999999999
 31
0.0
  0
LINE
  5
1C5
330
A
100
AcDbEntity
  8
PV
  6
Continuous
 62
   255
100
AcDbLine
 10
-100.496
 20
172.937
 30
0.0
 11
-99.04000000000001
 21
172.937
 31
0.0
  0
LINE
  5
1C6
330
A
100
AcDbEntity
  8
PV
  6
Continuous
 62
   255
100
AcDbLine
 10
-100.496
 20
175.2649999999999
 30
0.0
 11
-99.04000000000001
 21
175.2649999999999
 31
0.0
  0
LINE
  5
1C7
330
A
100
AcDbEntity
  8
PV
  6
Continuous
 62
   255
100
AcDbLine
 10
-100.496
 20
172.3549999999999
 30
0.0
 11
-99.04000000000001
 21
172.3549999999999
 31
0.0
  0
LINE
  5
1C8
330
A
100
AcDbEntity
  8
PV
  6
Continuous
 62
   255
100
AcDbLine
 10
-120.432
 20
172.937
 30
0.0
 11
-120.432
 21
172.3549999999999
 31
0.0
  0
LINE
  5
1C9
330
A
100
AcDbEntity
  8
PV
  6
Continuous
 62
   255
100
AcDbLine
 10
-120.432
 20
174.1009999999999
 30
0.0
 11
-120.432
 21
173.519
 31
0.0
  0
LINE
  5
1CA
330
A
100
AcDbEntity
  8
PV
  6
Continuous
 62
   255
100
AcDbLine
 10
-121.742
 20
172.937
 30
0.0
 11
-120.432
 21
172.937
 31
0.0
  0
LINE
  5
1CB
330
A
100
AcDbEntity
  8
PV
  6
Continuous
 62
   255
100
AcDbLine
 10
-122.5649999999999
 20
174.1009999999999
 30
0.0
 11
-120.432
 21
174.1009999999999
 31
0.0
  0
LINE
  5
1CC
330
A
100
AcDbEntity
  8
PV
  6
Continuous
 62
   255
100
AcDbLine
 10
-122.5649999999999
 20
173.519
 30
0.0
 11
-120.432
 21
173.519
 31
0.0
  0
LINE
  5
1CD
330
A
100
AcDbEntity
  8
PV
  6
Continuous
 62
   255
100
AcDbLine
 10
-121.742
 20
172.3549999999999
 30
0.0
 11
-120.432
 21
172.3549999999999
 31
0.0
  0
LINE
  5
1CE
330
A
100
AcDbEntity
  8
PV
  6
Continuous
 62
   255
100
AcDbLine
 10
-121.742
 20
175.2649999999999
 30
0.0
 11
-120.432
 21
175.2649999999999
 31
0.0
  0
LINE
  5
1CF
330
A
100
AcDbEntity
  8
PV
  6
Continuous
 62
   255
100
AcDbLine
 10
-120.432
 20
175.2649999999999
 30
0.0
 11
-120.432
 21
174.6829999999999
 31
0.0
  0
LINE
  5
1D0
330
A
100
AcDbEntity
  8
PV
  6
Continuous
 62
   255
100
AcDbLine
 10
-116.302
 20
172.3549999999999
 30
0.0
 11
-115.6299999999999
 21
172.3549999999999
 31
0.0
  0
LINE
  5
1D1
330
A
100
AcDbEntity
  8
PV
  6
Continuous
 62
   255
100
AcDbLine
 10
-116.6449999999999
 20
175.2649999999999
 30
0.0
 11
-115.6299999999999
 21
175.2649999999999
 31
0.0
  0
LINE
  5
1D2
330
A
100
AcDbEntity
  8
PV
  6
Continuous
 62
   255
100
AcDbLine
 10
-118.104
 20
173.5329999999999
 30
0.0
 11
-118.104
 21
172.3549999999999
 31
0.0
  0
LINE
  5
1D3
330
A
100
AcDbEntity
  8
PV
  6
Continuous
 62
   255
100
AcDbLine
 10
-117.305
 20
174.092
 30
0.0
 11
-118.104
 21
173.5329999999999
 31
0.0
  0
LINE
  5
1D4
330
A
100
AcDbEntity
  8
PV
  6
Continuous
 62
   255
100
AcDbLine
 10
-116.302
 20
172.3549999999999
 30
0.0
 11
-117.305
 21
174.092
 31
0.0
  0
LINE
  5
1D5
330
A
100
AcDbEntity
  8
PV
  6
Continuous
 62
   255
100
AcDbLine
 10
-116.6449999999999
 20
175.2649999999999
 30
0.0
 11
-118.104
 21
174.2429999999998
 31
0.0
  0
LINE
  5
1D6
330
A
100
AcDbEntity
  8
PV
  6
Continuous
 62
   255
100
AcDbLine
 10
-115.6299999999999
 20
175.2649999999999
 30
0.0
 11
-116.827
 21
174.427
 31
0.0
  0
LINE
  5
1D7
330
A
100
AcDbEntity
  8
PV
  6
Continuous
 62
   255
100
AcDbLine
 10
-115.6299999999999
 20
172.3549999999999
 30
0.0
 11
-116.827
 21
174.427
 31
0.0
  0
LINE
  5
1D8
330
A
100
AcDbEntity
  8
PV
  6
Continuous
 62
   255
100
AcDbLine
 10
-118.104
 20
175.2649999999999
 30
0.0
 11
-118.104
 21
174.2429999999998
 31
0.0
  0
LINE
  5
1D9
330
A
100
AcDbEntity
  8
PV
  6
Continuous
 62
   255
100
AcDbLine
 10
-118.686
 20
175.2649999999999
 30
0.0
 11
-118.686
 21
172.3549999999999
 31
0.0
  0
LINE
  5
1DA
330
A
100
AcDbEntity
  8
PV
  6
Continuous
 62
   255
100
AcDbLine
 10
-118.686
 20
172.3549999999999
 30
0.0
 11
-118.104
 21
172.3549999999999
 31
0.0
  0
LINE
  5
1DB
330
A
100
AcDbEntity
  8
PV
  6
Continuous
 62
   255
100
AcDbLine
 10
-118.686
 20
175.2649999999999
 30
0.0
 11
-118.104
 21
175.2649999999999
 31
0.0
  0
LINE
  5
1DC
330
A
100
AcDbEntity
  8
PV
  6
Continuous
 62
   255
100
AcDbLine
 10
-97.43999999999999
 20
174.6829999999999
 30
0.0
 11
-97.149
 21
174.6829999999999
 31
0.0
  0
LINE
  5
1DD
330
A
100
AcDbEntity
  8
PV
  6
Continuous
 62
   255
100
AcDbLine
 10
-97.43999999999999
 20
172.937
 30
0.0
 11
-97.149
 21
172.937
 31
0.0
  0
LINE
  5
1DE
330
A
100
AcDbEntity
  8
PV
  6
Continuous
 62
   255
100
AcDbLine
 10
-99.04099999999999
 20
172.358
 30
0.0
 11
-99.04099999999999
 21
172.937
 31
0.0
  0
LINE
  5
1DF
330
A
100
AcDbEntity
  8
PV
  6
Continuous
 62
   255
100
AcDbLine
 10
-97.43999999999999
 20
175.2649999999999
 30
0.0
 11
-97.149
 21
175.2649999999999
 31
0.0
  0
LINE
  5
1E0
330
A
100
AcDbEntity
  8
PV
  6
Continuous
 62
   255
100
AcDbLine
 10
-97.43999999999999
 20
172.3549999999999
 30
0.0
 11
-97.149
 21
172.3549999999999
 31
0.0
  0
LINE
  5
1E1
330
A
100
AcDbEntity
  8
PV
  6
Continuous
 62
   255
100
AcDbLine
 10
-109.899
 20
172.3549999999999
 30
0.0
 11
-109.227
 21
172.3549999999999
 31
0.0
  0
LINE
  5
1E2
330
A
100
AcDbEntity
  8
PV
  6
Continuous
 62
   255
100
AcDbLine
 10
-110.242
 20
175.2649999999999
 30
0.0
 11
-109.227
 21
175.2649999999999
 31
0.0
  0
LINE
  5
1E3
330
A
100
AcDbEntity
  8
PV
  6
Continuous
 62
   255
100
AcDbLine
 10
-111.701
 20
173.5329999999999
 30
0.0
 11
-111.701
 21
172.3549999999999
 31
0.0
  0
LINE
  5
1E4
330
A
100
AcDbEntity
  8
PV
  6
Continuous
 62
   255
100
AcDbLine
 10
-110.902
 20
174.092
 30
0.0
 11
-111.701
 21
173.5329999999999
 31
0.0
  0
LINE
  5
1E5
330
A
100
AcDbEntity
  8
PV
  6
Continuous
 62
   255
100
AcDbLine
 10
-109.899
 20
172.3549999999999
 30
0.0
 11
-110.902
 21
174.092
 31
0.0
  0
LINE
  5
1E6
330
A
100
AcDbEntity
  8
PV
  6
Continuous
 62
   255
100
AcDbLine
 10
-110.242
 20
175.2649999999999
 30
0.0
 11
-111.701
 21
174.2429999999998
 31
0.0
  0
LINE
  5
1E7
330
A
100
AcDbEntity
  8
PV
  6
Continuous
 62
   255
100
AcDbLine
 10
-109.227
 20
175.2649999999999
 30
0.0
 11
-110.4239999999999
 21
174.427
 31
0.0
  0
LINE
  5
1E8
330
A
100
AcDbEntity
  8
PV
  6
Continuous
 62
   255
100
AcDbLine
 10
-109.227
 20
172.3549999999999
 30
0.0
 11
-110.4239999999999
 21
174.427
 31
0.0
  0
LINE
  5
1E9
330
A
100
AcDbEntity
  8
PV
  6
Continuous
 62
   255
100
AcDbLine
 10
-125.2179999999998
 20
172.3549999999999
 30
0.0
 11
-126.0329999999999
 21
173.519
 31
0.0
  0
LINE
  5
1EA
330
A
100
AcDbEntity
  8
PV
  6
Continuous
 62
   255
100
AcDbLine
 10
-124.507
 20
172.3549999999999
 30
0.0
 11
-125.323
 21
173.5209999999999
 31
0.0
  0
LINE
  5
1EB
330
A
100
AcDbEntity
  8
PV
  6
Continuous
 62
   255
100
AcDbLine
 10
-111.701
 20
175.2649999999999
 30
0.0
 11
-111.701
 21
174.2429999999998
 31
0.0
  0
LINE
  5
1EC
330
A
100
AcDbEntity
  8
PV
  6
Continuous
 62
   255
100
AcDbLine
 10
-112.2829999999999
 20
175.2649999999999
 30
0.0
 11
-112.2829999999999
 21
172.3549999999999
 31
0.0
  0
LINE
  5
1ED
330
A
100
AcDbEntity
  8
PV
  6
Continuous
 62
   255
100
AcDbLine
 10
-106.6079999999999
 20
172.937
 30
0.0
 11
-106.6079999999999
 21
172.3549999999999
 31
0.0
  0
LINE
  5
1EE
330
A
100
AcDbEntity
  8
PV
  6
Continuous
 62
   255
100
AcDbLine
 10
-106.6079999999999
 20
174.1009999999999
 30
0.0
 11
-106.6079999999999
 21
173.519
 31
0.0
  0
LINE
  5
1EF
330
A
100
AcDbEntity
  8
PV
  6
Continuous
 62
   255
100
AcDbLine
 10
-107.9169999999999
 20
174.6829999999999
 30
0.0
 11
-106.6079999999999
 21
174.6829999999999
 31
0.0
  0
LINE
  5
1F0
330
A
100
AcDbEntity
  8
PV
  6
Continuous
 62
   255
100
AcDbLine
 10
-107.9169999999999
 20
172.937
 30
0.0
 11
-106.6079999999999
 21
172.937
 31
0.0
  0
LINE
  5
1F1
330
A
100
AcDbEntity
  8
PV
  6
Continuous
 62
   255
100
AcDbLine
 10
-108.7409999999999
 20
174.1009999999999
 30
0.0
 11
-106.6079999999999
 21
174.1009999999999
 31
0.0
  0
LINE
  5
1F2
330
A
100
AcDbEntity
  8
PV
  6
Continuous
 62
   255
100
AcDbLine
 10
-108.7409999999999
 20
173.519
 30
0.0
 11
-106.6079999999999
 21
173.519
 31
0.0
  0
LINE
  5
1F3
330
A
100
AcDbEntity
  8
PV
  6
Continuous
 62
   255
100
AcDbLine
 10
-112.2829999999999
 20
172.3549999999999
 30
0.0
 11
-111.701
 21
172.3549999999999
 31
0.0
  0
LINE
  5
1F4
330
A
100
AcDbEntity
  8
PV
  6
Continuous
 62
   255
100
AcDbLine
 10
-112.2829999999999
 20
175.2649999999999
 30
0.0
 11
-111.701
 21
175.2649999999999
 31
0.0
  0
LINE
  5
1F5
330
A
100
AcDbEntity
  8
PV
  6
Continuous
 62
   255
100
AcDbLine
 10
-107.9169999999999
 20
172.3549999999999
 30
0.0
 11
-106.6079999999999
 21
172.3549999999999
 31
0.0
  0
LINE
  5
1F6
330
A
100
AcDbEntity
  8
PV
  6
Continuous
 62
   255
100
AcDbLine
 10
-107.9169999999999
 20
175.2649999999999
 30
0.0
 11
-106.6079999999999
 21
175.2649999999999
 31
0.0
  0
LINE
  5
1F7
330
A
100
AcDbEntity
  8
PV
  6
Continuous
 62
   255
100
AcDbLine
 10
-123.4879999999999
 20
175.2649999999999
 30
0.0
 11
-123.4879999999999
 21
172.3549999999999
 31
0.0
  0
LINE
  5
1F8
330
A
100
AcDbEntity
  8
PV
  6
Continuous
 62
   255
100
AcDbLine
 10
-124.0699999999999
 20
175.2649999999999
 30
0.0
 11
-124.0699999999999
 21
172.3549999999999
 31
0.0
  0
LINE
  5
1F9
330
A
100
AcDbEntity
  8
PV
  6
Continuous
 62
   255
100
AcDbLine
 10
-124.0699999999999
 20
172.3549999999999
 30
0.0
 11
-123.4879999999999
 21
172.3549999999999
 31
0.0
  0
LINE
  5
1FA
330
A
100
AcDbEntity
  8
PV
  6
Continuous
 62
   255
100
AcDbLine
 10
-124.0699999999999
 20
175.2649999999999
 30
0.0
 11
-123.4879999999999
 21
175.2649999999999
 31
0.0
  0
LINE
  5
1FB
330
A
100
AcDbEntity
  8
PV
  6
Continuous
 62
   255
100
AcDbLine
 10
-125.2179999999998
 20
172.3549999999999
 30
0.0
 11
-124.507
 21
172.3549999999999
 31
0.0
  0
LINE
  5
1FC
330
A
100
AcDbEntity
  8
PV
  6
Continuous
 62
   255
100
AcDbLine
 10
-126.8349999999999
 20
173.519
 30
0.0
 11
-126.8349999999999
 21
172.3549999999999
 31
0.0
  0
LINE
  5
1FD
330
A
100
AcDbEntity
  8
PV
  6
Continuous
 62
   255
100
AcDbLine
 10
-127.417
 20
175.2649999999999
 30
0.0
 11
-125.38
 21
175.2649999999999
 31
0.0
  0
LINE
  5
1FE
330
A
100
AcDbEntity
  8
PV
  6
Continuous
 62
   255
100
AcDbLine
 10
-127.417
 20
172.3549999999999
 30
0.0
 11
-126.8349999999999
 21
172.3549999999999
 31
0.0
  0
LINE
  5
1FF
330
A
100
AcDbEntity
  8
PV
  6
Continuous
 62
   255
100
AcDbLine
 10
-125.38
 20
174.1009999999999
 30
0.0
 11
-126.8349999999999
 21
174.1009999999999
 31
0.0
  0
LINE
  5
200
330
A
100
AcDbEntity
  8
PV
  6
Continuous
 62
   255
100
AcDbLine
 10
-125.38
 20
174.6829999999999
 30
0.0
 11
-126.8349999999999
 21
174.6829999999999
 31
0.0
  0
LINE
  5
201
330
A
100
AcDbEntity
  8
PV
  6
Continuous
 62
   255
100
AcDbLine
 10
-126.8349999999999
 20
173.519
 30
0.0
 11
-126.0329999999999
 21
173.519
 31
0.0
  0
LINE
  5
202
330
A
100
AcDbEntity
  8
PV
  6
Continuous
 62
   255
100
AcDbLine
 10
-106.6079999999999
 20
175.2649999999999
 30
0.0
 11
-106.6079999999999
 21
174.6829999999999
 31
0.0
  0
LINE
  5
203
330
A
100
AcDbEntity
  8
PV
  6
Continuous
 62
   255
100
AcDbLine
 10
-126.8349999999999
 20
174.6829999999999
 30
0.0
 11
-126.8349999999999
 21
174.3919999999999
 31
0.0
  0
LINE
  5
204
330
A
100
AcDbEntity
  8
PV
  6
Continuous
 62
   255
100
AcDbLine
 10
-127.417
 20
175.2649999999999
 30
0.0
 11
-127.417
 21
174.3919999999999
 31
0.0
  0
LINE
  5
205
330
A
100
AcDbEntity
  8
PV
  6
Continuous
 62
   255
100
AcDbLine
 10
-127.9989999999999
 20
175.2649999999999
 30
0.0
 11
-127.9989999999999
 21
172.3549999999999
 31
0.0
  0
LINE
  5
206
330
A
100
AcDbEntity
  8
PV
  6
Continuous
 62
   255
100
AcDbLine
 10
-128.5819999999999
 20
175.2649999999999
 30
0.0
 11
-128.5819999999999
 21
172.3549999999999
 31
0.0
  0
LINE
  5
207
330
A
100
AcDbEntity
  8
PV
  6
Continuous
 62
   255
100
AcDbLine
 10
-128.5819999999999
 20
172.3549999999999
 30
0.0
 11
-127.9989999999999
 21
172.3549999999999
 31
0.0
  0
LINE
  5
208
330
A
100
AcDbEntity
  8
PV
  6
Continuous
 62
   255
100
AcDbLine
 10
-128.5819999999999
 20
175.2649999999999
 30
0.0
 11
-127.9989999999999
 21
175.2649999999999
 31
0.0
  0
LINE
  5
209
330
A
100
AcDbEntity
  8
PV
  6
Continuous
 62
   255
100
AcDbLine
 10
-121.742
 20
174.6829999999999
 30
0.0
 11
-120.432
 21
174.6829999999999
 31
0.0
  0
LINE
  5
20A
330
A
100
AcDbEntity
  8
PV
  6
Continuous
 62
     7
100
AcDbLine
 10
-106.187
 20
183.034
 30
0.0
 11
-106.187
 21
180.499
 31
0.0
  0
LINE
  5
20B
330
A
100
AcDbEntity
  8
PV
  6
Continuous
 62
     7
100
AcDbLine
 10
-106.187
 20
180.499
 30
0.0
 11
-106.187
 21
179.459
 31
0.0
  0
LINE
  5
20C
330
A
100
AcDbEntity
  8
PV
  6
Continuous
 62
     7
100
AcDbLine
 10
-99.97900000000001
 20
183.0659999999999
 30
0.0
 11
-99.97900000000001
 21
180.4659999999999
 31
0.0
  0
LINE
  5
20D
330
A
100
AcDbEntity
  8
PV
  6
Continuous
 62
     7
100
AcDbLine
 10
-106.187
 20
184.074
 30
0.0
 11
-106.187
 21
183.034
 31
0.0
  0
LINE
  5
20E
330
A
100
AcDbEntity
  8
PV
  6
Continuous
 62
     7
100
AcDbLine
 10
-110.5099999999999
 20
179.459
 30
0.0
 11
-108.495
 21
179.459
 31
0.0
  0
LINE
  5
20F
330
A
100
AcDbEntity
  8
PV
  6
Continuous
 62
     7
100
AcDbLine
 10
-110.5099999999999
 20
184.074
 30
0.0
 11
-108.495
 21
184.074
 31
0.0
  0
LINE
  5
210
330
A
100
AcDbEntity
  8
PV
  6
Continuous
 62
     7
100
AcDbLine
 10
-110.5099999999999
 20
184.074
 30
0.0
 11
-110.5099999999999
 21
179.459
 31
0.0
  0
LINE
  5
211
330
A
100
AcDbEntity
  8
PV
  6
Continuous
 62
     7
100
AcDbLine
 10
-113.87
 20
179.459
 30
0.0
 11
-111.4
 21
179.459
 31
0.0
  0
LINE
  5
212
330
A
100
AcDbEntity
  8
PV
  6
Continuous
 62
     7
100
AcDbLine
 10
-111.4
 20
182.839
 30
0.0
 11
-111.4
 21
179.459
 31
0.0
  0
LINE
  5
213
330
A
100
AcDbEntity
  8
PV
  6
Continuous
 62
     7
100
AcDbLine
 10
-113.87
 20
182.839
 30
0.0
 11
-113.87
 21
179.459
 31
0.0
  0
LINE
  5
214
330
A
100
AcDbEntity
  8
PV
  6
Continuous
 62
     7
100
AcDbLine
 10
-113.87
 20
182.839
 30
0.0
 11
-111.4
 21
182.839
 31
0.0
  0
LINE
  5
215
330
A
100
AcDbEntity
  8
PV
  6
Continuous
 62
     7
100
AcDbLine
 10
-108.495
 20
184.074
 30
0.0
 11
-108.495
 21
179.459
 31
0.0
  0
LINE
  5
216
330
A
100
AcDbEntity
  8
PV
  6
Continuous
 62
   255
100
AcDbLine
 10
-118.581
 20
174.2509999999999
 30
0.0
 11
-118.1929999999999
 21
174.2509999999999
 31
0.0
  0
LINE
  5
217
330
A
100
AcDbEntity
  8
PV
  6
Continuous
 62
     7
100
AcDbLine
 10
-74.527
 20
169.2559999999999
 30
0.0
 11
-139.4729999999998
 21
169.2559999999999
 31
0.0
  0
MTEXT
  5
218
330
A
100
AcDbEntity
  8
PV
  6
Continuous
 62
     7
100
AcDbMText
 10
-182.45
 20
206.4435
 30
0.0
 40
0.625
 41
0.0
 71
     2
 72
     1
  1
\A1;CF114
 11
-1.0
 21
0.0
 31
0.0
 73
     1
 44
1.0
  0
CIRCLE
  5
219
330
A
100
AcDbEntity
  8
PV
  6
Continuous
 62
     7
100
AcDbCircle
 10
70.358
 20
-208.6619999999999
 30
0.0
 40
4.25
  0
CIRCLE
  5
21A
330
A
100
AcDbEntity
  8
PV
  6
Continuous
 62
     7
100
AcDbCircle
 10
105.642
 20
-208.6619999999999
 30
0.0
 40
4.25
  0
CIRCLE
  5
21B
330
A
100
AcDbEntity
  8
PV
  6
Continuous
 62
     7
100
AcDbCircle
 10
130.591
 20
-183.7129999999999
 30
0.0
 40
4.25
  0
CIRCLE
  5
21C
330
A
100
AcDbEntity
  8
PV
  6
Continuous
 62
     7
100
AcDbCircle
 10
45.40899999999999
 20
-183.7129999999999
 30
0.0
 40
4.25
  0
ARC
  5
21E
330
A
100
AcDbEntity
  8
PV
  6
CENTER
 62
     7
100
AcDbCircle
 10
88.0
 20
-166.0709999999999
 30
0.0
 40
46.1
100
AcDbArc
 50
179.9999949999999
 51
0.0
  0
ARC
  5
21F
330
A
100
AcDbEntity
  8
PV
  6
Continuous
 62
     7
100
AcDbCircle
 10
-107.0
 20
151.006
 30
0.0
 40
56.75
100
AcDbArc
 50
234.15192
 51
305.848078
  0
ARC
  5
220
330
A
100
AcDbEntity
  8
PV
  6
Continuous
 62
     7
100
AcDbCircle
 10
-107.0
 20
151.006
 30
0.0
 40
56.75
100
AcDbArc
 50
324.151899
 51
35.848101
  0
ARC
  5
221
330
A
100
AcDbEntity
  8
PV
  6
Continuous
 62
     7
100
AcDbCircle
 10
-107.0
 20
151.006
 30
0.0
 40
56.75
100
AcDbArc
 50
144.1519209999998
 51
147.7889419999999
  0
ARC
  5
222
330
A
100
AcDbEntity
  8
PV
  6
Continuous
 62
     7
100
AcDbCircle
 10
-107.0
 20
151.006
 30
0.0
 40
56.75
100
AcDbArc
 50
212.211071
 51
215.848079
  0
ARC
  5
223
330
A
100
AcDbEntity
  8
PV
  6
Continuous
 62
     7
100
AcDbCircle
 10
-107.0
 20
151.006
 30
0.0
 40
56.75
100
AcDbArc
 50
54.151912
 51
125.848093
  0
ARC
  5
224
330
A
100
AcDbEntity
  8
PV
  6
CENTER
 62
     7
100
AcDbCircle
 10
88.0
 20
-60.0
 30
0.0
 40
46.1
100
AcDbArc
 50
165.1003159999999
 51
194.8996939999999
  0
ARC
  5
225
330
A
100
AcDbEntity
  8
PV
  6
Continuous
 62
     7
100
AcDbCircle
 10
88.0
 20
-60.0
 30
0.0
 40
56.75
100
AcDbArc
 50
141.72271
 51
237.788938
  0
ARC
  5
226
330
A
100
AcDbEntity
  8
PV
  6
CENTER
 62
     7
100
AcDbCircle
 10
88.0
 20
-60.0
 30
0.0
 40
46.1
100
AcDbArc
 50
345.100316
 51
14.89968399999999
  0
ARC
  5
227
330
A
100
AcDbEntity
  8
PV
  6
Continuous
 62
     7
100
AcDbCircle
 10
88.0
 20
-60.0
 30
0.0
 40
56.75
100
AcDbArc
 50
302.2110539999999
 51
38.277289
  0
CIRCLE
  5
228
330
A
100
AcDbEntity
  8
PV
  6
Continuous
 62
     7
100
AcDbCircle
 10
100.0
 20
-6.5
 30
0.0
 40
1.199999999999999
  0
CIRCLE
  5
229
330
A
100
AcDbEntity
  8
PV
  6
Continuous
 62
     7
100
AcDbCircle
 10
100.0
 20
-6.5
 30
0.0
 40
1.5
  0
CIRCLE
  5
22A
330
A
100
AcDbEntity
  8
PV
  6
Continuous
 62
     7
100
AcDbCircle
 10
76.0
 20
-6.5
 30
0.0
 40
1.199999999999999
  0
CIRCLE
  5
22B
330
A
100
AcDbEntity
  8
PV
  6
Continuous
 62
     7
100
AcDbCircle
 10
76.0
 20
-6.5
 30
0.0
 40
1.5
  0
CIRCLE
  5
22C
330
A
100
AcDbEntity
  8
PV
  6
Continuous
 62
     7
100
AcDbCircle
 10
100.0
 20
52.5
 30
0.0
 40
1.199999999999999
  0
CIRCLE
  5
22D
330
A
100
AcDbEntity
  8
PV
  6
Continuous
 62
     7
100
AcDbCircle
 10
100.0
 20
52.5
 30
0.0
 40
1.5
  0
CIRCLE
  5
22E
330
A
100
AcDbEntity
  8
PV
  6
Continuous
 62
     7
100
AcDbCircle
 10
76.0
 20
52.5
 30
0.0
 40
1.199999999999999
  0
CIRCLE
  5
22F
330
A
100
AcDbEntity
  8
PV
  6
Continuous
 62
     7
100
AcDbCircle
 10
76.0
 20
52.5
 30
0.0
 40
1.5
  0
CIRCLE
  5
230
330
A
100
AcDbEntity
  8
PV
  6
Continuous
 62
     7
100
AcDbCircle
 10
88.0
 20
-1.5
 30
0.0
 40
3.85
  0
CIRCLE
  5
231
330
A
100
AcDbEntity
  8
PV
  6
Continuous
 62
     7
100
AcDbCircle
 10
88.0
 20
-1.5
 30
0.0
 40
4.849999999999998
  0
CIRCLE
  5
232
330
A
100
AcDbEntity
  8
PV
  6
Continuous
 62
     7
100
AcDbCircle
 10
88.0
 20
37.5
 30
0.0
 40
4.849999999999998
  0
CIRCLE
  5
233
330
A
100
AcDbEntity
  8
PV
  6
Continuous
 62
     7
100
AcDbCircle
 10
88.0
 20
37.5
 30
0.0
 40
3.85
  0
ARC
  5
234
330
A
100
AcDbEntity
  8
PV
  6
Continuous
 62
     7
100
AcDbCircle
 10
-184.2549999999999
 20
-60.0
 30
0.0
 40
44.55
100
AcDbArc
 50
317.434049
 51
42.36908399999999
  0
ARC
  5
235
330
A
100
AcDbEntity
  8
PV
  6
Continuous
 62
     7
100
AcDbCircle
 10
-107.0
 20
151.006
 30
0.0
 40
61.0
100
AcDbArc
 50
41.053351
 51
48.946659
  0
ARC
  5
236
330
A
100
AcDbEntity
  8
PV
  6
Continuous
 62
     7
100
AcDbCircle
 10
-107.0
 20
151.006
 30
0.0
 40
61.0
100
AcDbArc
 50
311.053352
 51
318.946649
  0
ARC
  5
237
330
A
100
AcDbEntity
  8
PV
  6
Continuous
 62
     7
100
AcDbCircle
 10
-107.0
 20
151.006
 30
0.0
 40
61.0
100
AcDbArc
 50
221.053339
 51
228.946647
  0
ARC
  5
238
330
A
100
AcDbEntity
  8
PV
  6
Continuous
 62
     7
100
AcDbCircle
 10
-107.0
 20
151.006
 30
0.0
 40
61.0
100
AcDbArc
 50
131.053339
 51
138.946661
  0
CIRCLE
  5
239
330
A
100
AcDbEntity
  8
PV
  6
Continuous
 62
     7
100
AcDbCircle
 10
-71.5
 20
186.5059999999999
 30
0.0
 40
7.5
  0
CIRCLE
  5
23A
330
A
100
AcDbEntity
  8
PV
  6
Continuous
 62
     7
100
AcDbCircle
 10
-142.5
 20
186.5059999999999
 30
0.0
 40
7.5
  0
CIRCLE
  5
23B
330
A
100
AcDbEntity
  8
PV
  6
Continuous
 62
     7
100
AcDbCircle
 10
-142.5
 20
115.5059999999999
 30
0.0
 40
7.5
  0
CIRCLE
  5
23C
330
A
100
AcDbEntity
  8
PV
  6
Continuous
 62
     7
100
AcDbCircle
 10
-71.5
 20
115.5059999999999
 30
0.0
 40
7.5
  0
LINE
  5
23D
330
A
100
AcDbEntity
  8
PV
  6
CENTER
 62
     7
100
AcDbLine
 10
73.79699999999998
 20
-200.361
 30
0.0
 11
66.848
 21
-217.137
 31
0.0
  0
LINE
  5
23E
330
A
100
AcDbEntity
  8
PV
  6
CENTER
 62
     7
100
AcDbLine
 10
102.2029999999999
 20
-200.361
 30
0.0
 11
109.152
 21
-217.137
 31
0.0
  0
LINE
  5
23F
330
A
100
AcDbEntity
  8
PV
  6
CENTER
 62
     7
100
AcDbLine
 10
122.29
 20
-180.2749999999999
 30
0.0
 11
139.066
 21
-187.2229999999999
 31
0.0
  0
LINE
  5
240
330
A
100
AcDbEntity
  8
PV
  6
CENTER
 62
     7
100
AcDbLine
 10
35.173
 20
-166.0709999999999
 30
0.0
 11
143.273
 21
-166.0709999999999
 31
0.0
  0
LINE
  5
241
330
A
100
AcDbEntity
  8
PV
  6
CENTER
 62
     7
100
AcDbLine
 10
53.71
 20
-180.2749999999999
 30
0.0
 11
36.934
 21
-187.2229999999999
 31
0.0
  0
LINE
  5
242
330
A
100
AcDbEntity
  8
PV
  6
Continuous
 62
     7
100
AcDbLine
 10
-66.938
 20
56.5
 30
0.0
 11
-66.938
 21
-10.5
 31
0.0
  0
LINE
  5
243
330
A
100
AcDbEntity
  8
PV
  6
Continuous
 62
     7
100
AcDbLine
 10
-147.062
 20
56.5
 30
0.0
 11
-147.062
 21
-10.5
 31
0.0
  0
LINE
  5
244
330
A
100
AcDbEntity
  8
PV
  6
Continuous
 62
     7
100
AcDbLine
 10
128.062
 20
56.5
 30
0.0
 11
128.062
 21
-10.5
 31
0.0
  0
LINE
  5
245
330
A
100
AcDbEntity
  8
PV
  6
Continuous
 62
     7
100
AcDbLine
 10
47.938
 20
56.5
 30
0.0
 11
47.938
 21
-10.5
 31
0.0
  0
LINE
  5
246
330
A
100
AcDbEntity
  8
PV
  6
CENTER
 62
     7
100
AcDbLine
 10
96.688
 20
-6.5
 30
0.0
 11
103.729
 21
-6.5
 31
0.0
  0
LINE
  5
247
330
A
100
AcDbEntity
  8
PV
  6
CENTER
 62
     7
100
AcDbLine
 10
100.0
 20
-9.160999999999999
 30
0.0
 11
100.0
 21
-2.948999999999998
 31
0.0
  0
LINE
  5
248
330
A
100
AcDbEntity
  8
PV
  6
CENTER
 62
     7
100
AcDbLine
 10
79.312
 20
-6.5
 30
0.0
 11
72.271
 21
-6.5
 31
0.0
  0
LINE
  5
249
330
A
100
AcDbEntity
  8
PV
  6
CENTER
 62
     7
100
AcDbLine
 10
76.0
 20
-9.160999999999999
 30
0.0
 11
76.0
 21
-2.948999999999998
 31
0.0
  0
LINE
  5
24A
330
A
100
AcDbEntity
  8
PV
  6
CENTER
 62
     7
100
AcDbLine
 10
96.688
 20
52.5
 30
0.0
 11
103.729
 21
52.5
 31
0.0
  0
LINE
  5
24B
330
A
100
AcDbEntity
  8
PV
  6
CENTER
 62
     7
100
AcDbLine
 10
100.0
 20
55.161
 30
0.0
 11
100.0
 21
48.94899999999999
 31
0.0
  0
LINE
  5
24C
330
A
100
AcDbEntity
  8
PV
  6
CENTER
 62
     7
100
AcDbLine
 10
79.312
 20
52.5
 30
0.0
 11
72.271
 21
52.5
 31
0.0
  0
LINE
  5
24D
330
A
100
AcDbEntity
  8
PV
  6
CENTER
 62
     7
100
AcDbLine
 10
76.0
 20
55.161
 30
0.0
 11
76.0
 21
48.94899999999999
 31
0.0
  0
LINE
  5
24E
330
A
100
AcDbEntity
  8
PV
  6
Continuous
 62
     7
100
AcDbLine
 10
-62.45
 20
-93.49999999999999
 30
0.0
 11
-151.55
 21
-93.49999999999999
 31
0.0
  0
LINE
  5
24F
330
A
100
AcDbEntity
  8
PV
  6
Continuous
 62
     7
100
AcDbLine
 10
-142.55
 20
-102.4999999999999
 30
0.0
 11
-151.55
 21
-93.49999999999999
 31
0.0
  0
LINE
  5
250
330
A
100
AcDbEntity
  8
PV
  6
Continuous
 62
     7
100
AcDbLine
 10
-62.45
 20
-93.49999999999999
 30
0.0
 11
-71.45
 21
-102.4999999999999
 31
0.0
  0
LINE
  5
251
330
A
100
AcDbEntity
  8
PV
  6
Continuous
 62
     7
100
AcDbLine
 10
-61.0
 20
-23.5
 30
0.0
 11
-153.0
 21
-23.5
 31
0.0
  0
LINE
  5
252
330
A
100
AcDbEntity
  8
PV
  6
Continuous
 62
     7
100
AcDbLine
 10
-61.0
 20
-10.5
 30
0.0
 11
-153.0
 21
-10.5
 31
0.0
  0
LINE
  5
253
330
A
100
AcDbEntity
  8
PV
  6
Continuous
 62
     7
100
AcDbLine
 10
-191.1999999999999
 20
-3.25
 30
0.0
 11
-191.1999999999999
 21
-116.7499999999999
 31
0.0
  0
LINE
  5
254
330
A
100
AcDbEntity
  8
PV
  6
Continuous
 62
     7
100
AcDbLine
 10
-173.6999999999999
 20
-3.25
 30
0.0
 11
-173.6999999999999
 21
-116.7499999999999
 31
0.0
  0
LINE
  5
255
330
A
100
AcDbEntity
  8
PV
  6
Continuous
 62
     7
100
AcDbLine
 10
-172.9
 20
-115.9499999999999
 30
0.0
 11
-172.9
 21
-4.049999999999998
 31
0.0
  0
LINE
  5
256
330
A
100
AcDbEntity
  8
PV
  6
CENTER
 62
     7
100
AcDbLine
 10
-197.0
 20
-13.9
 30
0.0
 11
-167.9
 21
-13.9
 31
0.0
  0
LINE
  5
257
330
A
100
AcDbEntity
  8
PV
  6
CENTER
 62
     7
100
AcDbLine
 10
-197.0
 20
-106.0999999999999
 30
0.0
 11
-167.9
 21
-106.0999999999999
 31
0.0
  0
LINE
  5
258
330
A
100
AcDbEntity
  8
PV
  6
Continuous
 62
     7
100
AcDbLine
 10
-173.6999999999999
 20
-3.25
 30
0.0
 11
-172.9
 21
-4.049999999999998
 31
0.0
  0
LINE
  5
259
330
A
100
AcDbEntity
  8
PV
  6
Continuous
 62
     7
100
AcDbLine
 10
-173.6999999999999
 20
-116.7499999999999
 30
0.0
 11
-172.9
 21
-115.9499999999999
 31
0.0
  0
LINE
  5
25A
330
A
100
AcDbEntity
  8
PV
  6
Continuous
 62
     7
100
AcDbLine
 10
-192.0
 20
-4.049999999999998
 30
0.0
 11
-191.1999999999999
 21
-3.25
 31
0.0
  0
LINE
  5
25B
330
A
100
AcDbEntity
  8
PV
  6
Continuous
 62
     7
100
AcDbLine
 10
-191.1999999999999
 20
-116.7499999999999
 30
0.0
 11
-192.0
 21
-115.9499999999999
 31
0.0
  0
LINE
  5
25C
330
A
100
AcDbEntity
  8
PV
  6
Continuous
 62
     7
100
AcDbLine
 10
-192.0
 20
-115.9499999999999
 30
0.0
 11
-192.0
 21
-4.049999999999998
 31
0.0
  0
LINE
  5
25D
330
A
100
AcDbEntity
  8
PV
  6
Continuous
 62
     7
100
AcDbLine
 10
-191.1999999999999
 20
-116.7499999999999
 30
0.0
 11
-173.6999999999999
 21
-116.7499999999999
 31
0.0
  0
LINE
  5
25E
330
A
100
AcDbEntity
  8
PV
  6
Continuous
 62
     7
100
AcDbLine
 10
-191.1999999999999
 20
-3.25
 30
0.0
 11
-173.6999999999999
 21
-3.25
 31
0.0
  0
LINE
  5
25F
330
A
100
AcDbEntity
  8
PV
  6
Continuous
 62
     7
100
AcDbLine
 10
-163.75
 20
-144.1999999999999
 30
0.0
 11
-50.25
 21
-144.1999999999999
 31
0.0
  0
LINE
  5
260
330
A
100
AcDbEntity
  8
PV
  6
Continuous
 62
     7
100
AcDbLine
 10
-163.75
 20
-128.3
 30
0.0
 11
-50.25
 21
-128.3
 31
0.0
  0
LINE
  5
261
330
A
100
AcDbEntity
  8
PV
  6
Continuous
 62
     7
100
AcDbLine
 10
-51.05
 20
-127.5
 30
0.0
 11
-162.9499999999999
 21
-127.5
 31
0.0
  0
LINE
  5
262
330
A
100
AcDbEntity
  8
PV
  6
Continuous
 62
     7
100
AcDbLine
 10
-51.05
 20
-145.0
 30
0.0
 11
-162.9499999999999
 21
-145.0
 31
0.0
  0
LINE
  5
263
330
A
100
AcDbEntity
  8
PV
  6
CENTER
 62
     7
100
AcDbLine
 10
-153.0999999999998
 20
-151.6
 30
0.0
 11
-153.0999999999998
 21
-122.5
 31
0.0
  0
LINE
  5
264
330
A
100
AcDbEntity
  8
PV
  6
CENTER
 62
     7
100
AcDbLine
 10
-60.89999999999999
 20
-151.6
 30
0.0
 11
-60.89999999999999
 21
-122.5
 31
0.0
  0
LINE
  5
265
330
A
100
AcDbEntity
  8
PV
  6
Continuous
 62
     7
100
AcDbLine
 10
-163.75
 20
-128.3
 30
0.0
 11
-162.9499999999999
 21
-127.5
 31
0.0
  0
LINE
  5
266
330
A
100
AcDbEntity
  8
PV
  6
Continuous
 62
     7
100
AcDbLine
 10
-50.25
 20
-128.3
 30
0.0
 11
-51.05
 21
-127.5
 31
0.0
  0
LINE
  5
267
330
A
100
AcDbEntity
  8
PV
  6
Continuous
 62
     7
100
AcDbLine
 10
-162.9499999999999
 20
-145.0
 30
0.0
 11
-163.75
 21
-144.1999999999999
 31
0.0
  0
LINE
  5
268
330
A
100
AcDbEntity
  8
PV
  6
Continuous
 62
     7
100
AcDbLine
 10
-50.25
 20
-144.1999999999999
 30
0.0
 11
-51.05
 21
-145.0
 31
0.0
  0
LINE
  5
269
330
A
100
AcDbEntity
  8
PV
  6
Continuous
 62
     7
100
AcDbLine
 10
-50.25
 20
-144.1999999999999
 30
0.0
 11
-50.25
 21
-128.3
 31
0.0
  0
LINE
  5
26A
330
A
100
AcDbEntity
  8
PV
  6
Continuous
 62
     7
100
AcDbLine
 10
-163.75
 20
-144.1999999999999
 30
0.0
 11
-163.75
 21
-128.3
 31
0.0
  0
LINE
  5
26B
330
A
100
AcDbEntity
  8
PV
  6
Continuous
 62
     7
100
AcDbLine
 10
-151.55
 20
-23.5
 30
0.0
 11
-151.55
 21
-29.704
 31
0.0
  0
LINE
  5
26C
330
A
100
AcDbEntity
  8
PV
  6
Continuous
 62
     7
100
AcDbLine
 10
-147.0
 20
-10.5
 30
0.0
 11
-147.0
 21
-23.5
 31
0.0
  0
LINE
  5
26D
330
A
100
AcDbEntity
  8
PV
  6
Continuous
 62
     7
100
AcDbLine
 10
-67.0
 20
-10.5
 30
0.0
 11
-67.0
 21
-23.5
 31
0.0
  0
LINE
  5
26E
330
A
100
AcDbEntity
  8
PV
  6
Continuous
 62
     7
100
AcDbLine
 10
-61.0
 20
-11.5
 30
0.0
 11
-61.0
 21
-23.5
 31
0.0
  0
LINE
  5
26F
330
A
100
AcDbEntity
  8
PV
  6
Continuous
 62
     7
100
AcDbLine
 10
-153.0
 20
-11.5
 30
0.0
 11
-153.0
 21
-23.5
 31
0.0
  0
LINE
  5
270
330
A
100
AcDbEntity
  8
PV
  6
Continuous
 62
     7
100
AcDbLine
 10
-61.0
 20
56.5
 30
0.0
 11
-61.0
 21
-11.32
 31
0.0
  0
LINE
  5
271
330
A
100
AcDbEntity
  8
PV
  6
Continuous
 62
     7
100
AcDbLine
 10
-153.0
 20
56.5
 30
0.0
 11
-153.0
 21
-11.32
 31
0.0
  0
LINE
  5
272
330
A
100
AcDbEntity
  8
PV
  6
CENTER
 62
     7
100
AcDbLine
 10
-71.5
 20
55.78
 30
0.0
 11
-71.5
 21
-26.67199999999999
 31
0.0
  0
LINE
  5
273
330
A
100
AcDbEntity
  8
PV
  6
CENTER
 62
     7
100
AcDbLine
 10
-142.5
 20
56.926
 30
0.0
 11
-142.5
 21
-25.67199999999999
 31
0.0
  0
LINE
  5
274
330
A
100
AcDbEntity
  8
PV
  6
Continuous
 62
     7
100
AcDbLine
 10
-151.55
 20
-90.25
 30
0.0
 11
-151.55
 21
-93.49999999999999
 31
0.0
  0
LINE
  5
275
330
A
100
AcDbEntity
  8
PV
  6
Continuous
 62
     7
100
AcDbLine
 10
-62.45
 20
-23.5
 30
0.0
 11
-62.45
 21
-93.49999999999999
 31
0.0
  0
LINE
  5
276
330
A
100
AcDbEntity
  8
PV
  6
Continuous
 62
     7
100
AcDbLine
 10
-61.0
 20
56.5
 30
0.0
 11
-153.0
 21
56.5
 31
0.0
  0
LINE
  5
277
330
A
100
AcDbEntity
  8
PV
  6
Continuous
 62
     7
100
AcDbLine
 10
-95.75000000000001
 20
-10.5
 30
0.0
 11
-95.75000000000001
 21
56.5
 31
0.0
  0
LINE
  5
278
330
A
100
AcDbEntity
  8
PV
  6
Continuous
 62
     7
100
AcDbLine
 10
-100.15
 20
-10.5
 30
0.0
 11
-100.15
 21
56.5
 31
0.0
  0
LINE
  5
279
330
A
100
AcDbEntity
  8
PV
  6
Continuous
 62
     7
100
AcDbLine
 10
-118.1499999999999
 20
-10.5
 30
0.0
 11
-118.1499999999999
 21
56.5
 31
0.0
  0
LINE
  5
27A
330
A
100
AcDbEntity
  8
PV
  6
Continuous
 62
     7
100
AcDbLine
 10
-113.7499999999999
 20
-10.5
 30
0.0
 11
-113.7499999999999
 21
56.5
 31
0.0
  0
LINE
  5
27B
330
A
100
AcDbEntity
  8
PV
  6
CENTER
 62
     7
100
AcDbLine
 10
-52.68
 20
37.5
 30
0.0
 11
-71.711
 21
37.5
 31
0.0
  0
LINE
  5
27C
330
A
100
AcDbEntity
  8
PV
  6
CENTER
 62
     7
100
AcDbLine
 10
-50.18
 20
-1.5
 30
0.0
 11
-69.5
 21
-1.5
 31
0.0
  0
LINE
  5
27D
330
A
100
AcDbEntity
  8
PV
  6
Continuous
 62
     7
100
AcDbLine
 10
-71.45
 20
-102.4999999999999
 30
0.0
 11
-142.55
 21
-102.4999999999999
 31
0.0
  0
LINE
  5
27E
330
A
100
AcDbEntity
  8
PV
  6
CENTER
 62
     7
100
AcDbLine
 10
-107.0
 20
63.526
 30
0.0
 11
-107.0
 21
-150.8259999999999
 31
0.0
  0
LINE
  5
27F
330
A
100
AcDbEntity
  8
PV
  6
CENTER
 62
     7
100
AcDbLine
 10
-202.2879999999999
 20
-60.0
 30
0.0
 11
-121.0539999999999
 21
-60.0
 31
0.0
  0
LINE
  5
280
330
A
100
AcDbEntity
  8
PV
  6
Continuous
 62
     7
100
AcDbLine
 10
132.55
 20
-93.49999999999999
 30
0.0
 11
43.45
 21
-93.49999999999999
 31
0.0
  0
LINE
  5
281
330
A
100
AcDbEntity
  8
PV
  6
Continuous
 62
     7
100
AcDbLine
 10
52.45
 20
-102.4999999999999
 30
0.0
 11
43.45
 21
-93.49999999999999
 31
0.0
  0
LINE
  5
282
330
A
100
AcDbEntity
  8
PV
  6
Continuous
 62
     7
100
AcDbLine
 10
132.55
 20
-93.49999999999999
 30
0.0
 11
123.55
 21
-102.4999999999999
 31
0.0
  0
LINE
  5
283
330
A
100
AcDbEntity
  8
PV
  6
Continuous
 62
     7
100
AcDbLine
 10
134.0
 20
-23.5
 30
0.0
 11
42.0
 21
-23.5
 31
0.0
  0
LINE
  5
284
330
A
100
AcDbEntity
  8
PV
  6
Continuous
 62
     7
100
AcDbLine
 10
134.0
 20
-10.5
 30
0.0
 11
42.0
 21
-10.5
 31
0.0
  0
LINE
  5
285
330
A
100
AcDbEntity
  8
PV
  6
Continuous
 62
     7
100
AcDbLine
 10
31.25
 20
-144.1999999999999
 30
0.0
 11
144.7499999999999
 21
-144.1999999999999
 31
0.0
  0
LINE
  5
286
330
A
100
AcDbEntity
  8
PV
  6
Continuous
 62
     7
100
AcDbLine
 10
31.25
 20
-128.3
 30
0.0
 11
144.7499999999999
 21
-128.3
 31
0.0
  0
LINE
  5
287
330
A
100
AcDbEntity
  8
PV
  6
Continuous
 62
     7
100
AcDbLine
 10
143.9499999999999
 20
-127.5
 30
0.0
 11
32.05
 21
-127.5
 31
0.0
  0
LINE
  5
288
330
A
100
AcDbEntity
  8
PV
  6
Continuous
 62
     7
100
AcDbLine
 10
88.0
 20
-145.0
 30
0.0
 11
32.05
 21
-145.0
 31
0.0
  0
LINE
  5
289
330
A
100
AcDbEntity
  8
PV
  6
CENTER
 62
     7
100
AcDbLine
 10
41.9
 20
-151.6
 30
0.0
 11
41.9
 21
-122.5
 31
0.0
  0
LINE
  5
28A
330
A
100
AcDbEntity
  8
PV
  6
CENTER
 62
     7
100
AcDbLine
 10
134.0999999999999
 20
-151.6
 30
0.0
 11
134.0999999999999
 21
-122.5
 31
0.0
  0
LINE
  5
28B
330
A
100
AcDbEntity
  8
PV
  6
Continuous
 62
     7
100
AcDbLine
 10
31.25
 20
-128.3
 30
0.0
 11
32.05
 21
-127.5
 31
0.0
  0
LINE
  5
28C
330
A
100
AcDbEntity
  8
PV
  6
Continuous
 62
     7
100
AcDbLine
 10
144.7499999999999
 20
-128.3
 30
0.0
 11
143.9499999999999
 21
-127.5
 31
0.0
  0
LINE
  5
28D
330
A
100
AcDbEntity
  8
PV
  6
Continuous
 62
     7
100
AcDbLine
 10
32.05
 20
-145.0
 30
0.0
 11
31.25
 21
-144.1999999999999
 31
0.0
  0
LINE
  5
28E
330
A
100
AcDbEntity
  8
PV
  6
Continuous
 62
     7
100
AcDbLine
 10
144.7499999999999
 20
-144.1999999999999
 30
0.0
 11
143.9499999999999
 21
-145.0
 31
0.0
  0
LINE
  5
28F
330
A
100
AcDbEntity
  8
PV
  6
Continuous
 62
     7
100
AcDbLine
 10
143.9499999999999
 20
-145.0
 30
0.0
 11
88.0
 21
-145.0
 31
0.0
  0
LINE
  5
290
330
A
100
AcDbEntity
  8
PV
  6
Continuous
 62
     7
100
AcDbLine
 10
144.7499999999999
 20
-144.1999999999999
 30
0.0
 11
144.7499999999999
 21
-128.3
 31
0.0
  0
LINE
  5
291
330
A
100
AcDbEntity
  8
PV
  6
Continuous
 62
     7
100
AcDbLine
 10
31.25
 20
-144.1999999999999
 30
0.0
 11
31.25
 21
-128.3
 31
0.0
  0
LINE
  5
292
330
A
100
AcDbEntity
  8
PV
  6
Continuous
 62
     7
100
AcDbLine
 10
48.0
 20
-10.5
 30
0.0
 11
48.0
 21
-23.5
 31
0.0
  0
LINE
  5
293
330
A
100
AcDbEntity
  8
PV
  6
Continuous
 62
     7
100
AcDbLine
 10
128.0
 20
-10.5
 30
0.0
 11
128.0
 21
-23.5
 31
0.0
  0
LINE
  5
294
330
A
100
AcDbEntity
  8
PV
  6
Continuous
 62
     7
100
AcDbLine
 10
134.0
 20
-11.5
 30
0.0
 11
134.0
 21
-23.5
 31
0.0
  0
LINE
  5
295
330
A
100
AcDbEntity
  8
PV
  6
Continuous
 62
     7
100
AcDbLine
 10
42.0
 20
-11.5
 30
0.0
 11
42.0
 21
-23.5
 31
0.0
  0
LINE
  5
296
330
A
100
AcDbEntity
  8
PV
  6
Continuous
 62
     7
100
AcDbLine
 10
134.0
 20
56.5
 30
0.0
 11
134.0
 21
-11.32
 31
0.0
  0
LINE
  5
297
330
A
100
AcDbEntity
  8
PV
  6
Continuous
 62
     7
100
AcDbLine
 10
42.0
 20
56.5
 30
0.0
 11
42.0
 21
-11.32
 31
0.0
  0
LINE
  5
298
330
A
100
AcDbEntity
  8
PV
  6
CENTER
 62
     7
100
AcDbLine
 10
123.5
 20
61.817
 30
0.0
 11
123.5
 21
-26.67199999999999
 31
0.0
  0
LINE
  5
299
330
A
100
AcDbEntity
  8
PV
  6
CENTER
 62
     7
100
AcDbLine
 10
52.5
 20
61.57199999999999
 30
0.0
 11
52.5
 21
-25.67199999999999
 31
0.0
  0
LINE
  5
29A
330
A
100
AcDbEntity
  8
PV
  6
Continuous
 62
     7
100
AcDbLine
 10
43.45
 20
-23.5
 30
0.0
 11
43.45
 21
-93.49999999999999
 31
0.0
  0
LINE
  5
29B
330
A
100
AcDbEntity
  8
PV
  6
Continuous
 62
     7
100
AcDbLine
 10
132.55
 20
-23.5
 30
0.0
 11
132.55
 21
-93.49999999999999
 31
0.0
  0
LINE
  5
29C
330
A
100
AcDbEntity
  8
PV
  6
Continuous
 62
     7
100
AcDbLine
 10
134.0
 20
56.5
 30
0.0
 11
42.0
 21
56.5
 31
0.0
  0
LINE
  5
29D
330
A
100
AcDbEntity
  8
PV
  6
CENTER
 62
     7
100
AcDbLine
 10
97.191
 20
37.5
 30
0.0
 11
77.706
 21
37.5
 31
0.0
  0
LINE
  5
29E
330
A
100
AcDbEntity
  8
PV
  6
CENTER
 62
     7
100
AcDbLine
 10
97.338
 20
-1.5
 30
0.0
 11
77.558
 21
-1.5
 31
0.0
  0
LINE
  5
29F
330
A
100
AcDbEntity
  8
PV
  6
Continuous
 62
     7
100
AcDbLine
 10
123.55
 20
-102.4999999999999
 30
0.0
 11
52.45
 21
-102.4999999999999
 31
0.0
  0
LINE
  5
2A0
330
A
100
AcDbEntity
  8
PV
  6
CENTER
 62
     7
100
AcDbLine
 10
88.0
 20
63.526
 30
0.0
 11
88.0
 21
-222.059
 31
0.0
  0
LINE
  5
2A1
330
A
100
AcDbEntity
  8
PV
  6
Continuous
 62
     7
100
AcDbLine
 10
-191.1999999999999
 20
207.7559999999999
 30
0.0
 11
-191.1999999999999
 21
94.25600000000001
 31
0.0
  0
LINE
  5
2A2
330
A
100
AcDbEntity
  8
PV
  6
Continuous
 62
     7
100
AcDbLine
 10
-173.6999999999999
 20
207.7559999999999
 30
0.0
 11
-173.6999999999999
 21
94.25600000000001
 31
0.0
  0
LINE
  5
2A3
330
A
100
AcDbEntity
  8
PV
  6
Continuous
 62
     7
100
AcDbLine
 10
-192.0
 20
151.006
 30
0.0
 11
-192.0
 21
206.956
 31
0.0
  0
LINE
  5
2A4
330
A
100
AcDbEntity
  8
PV
  6
CENTER
 62
     7
100
AcDbLine
 10
-197.0
 20
197.1059999999999
 30
0.0
 11
-167.9
 21
197.1059999999999
 31
0.0
  0
LINE
  5
2A5
330
A
100
AcDbEntity
  8
PV
  6
CENTER
 62
     7
100
AcDbLine
 10
-197.0
 20
104.906
 30
0.0
 11
-167.9
 21
104.906
 31
0.0
  0
LINE
  5
2A6
330
A
100
AcDbEntity
  8
PV
  6
Continuous
 62
     7
100
AcDbLine
 10
-173.6999999999999
 20
207.7559999999999
 30
0.0
 11
-172.9
 21
206.956
 31
0.0
  0
LINE
  5
2A7
330
A
100
AcDbEntity
  8
PV
  6
Continuous
 62
     7
100
AcDbLine
 10
-173.6999999999999
 20
94.25600000000001
 30
0.0
 11
-172.9
 21
95.05599999999999
 31
0.0
  0
LINE
  5
2A8
330
A
100
AcDbEntity
  8
PV
  6
Continuous
 62
     7
100
AcDbLine
 10
-172.9
 20
95.05599999999999
 30
0.0
 11
-172.9
 21
206.956
 31
0.0
  0
LINE
  5
2A9
330
A
100
AcDbEntity
  8
PV
  6
Continuous
 62
     7
100
AcDbLine
 10
-192.0
 20
206.956
 30
0.0
 11
-191.1999999999999
 21
207.7559999999999
 31
0.0
  0
LINE
  5
2AA
330
A
100
AcDbEntity
  8
PV
  6
Continuous
 62
     7
100
AcDbLine
 10
-191.1999999999999
 20
94.25600000000001
 30
0.0
 11
-192.0
 21
95.05599999999999
 31
0.0
  0
LINE
  5
2AB
330
A
100
AcDbEntity
  8
PV
  6
Continuous
 62
     7
100
AcDbLine
 10
-192.0
 20
95.05599999999999
 30
0.0
 11
-192.0
 21
151.006
 31
0.0
  0
LINE
  5
2AC
330
A
100
AcDbEntity
  8
PV
  6
Continuous
 62
     7
100
AcDbLine
 10
-191.1999999999999
 20
94.25600000000001
 30
0.0
 11
-173.6999999999999
 21
94.25600000000001
 31
0.0
  0
LINE
  5
2AD
330
A
100
AcDbEntity
  8
PV
  6
Continuous
 62
     7
100
AcDbLine
 10
-191.1999999999999
 20
207.7559999999999
 30
0.0
 11
-173.6999999999999
 21
207.7559999999999
 31
0.0
  0
LINE
  5
2AE
330
A
100
AcDbEntity
  8
PV
  6
Continuous
 62
     7
100
AcDbLine
 10
-61.0
 20
150.897
 30
0.0
 11
-61.0
 21
110.9439999999999
 31
0.0
  0
LINE
  5
2AF
330
A
100
AcDbEntity
  8
PV
  6
Continuous
 62
     7
100
AcDbLine
 10
-118.1499999999999
 20
197.0059999999999
 30
0.0
 11
-118.1499999999999
 21
196.0059999999999
 31
0.0
  0
LINE
  5
2B0
330
A
100
AcDbEntity
  8
PV
  6
Continuous
 62
     7
100
AcDbLine
 10
-118.1499999999999
 20
196.0059999999999
 30
0.0
 11
-119.0499999999999
 21
196.0059999999999
 31
0.0
  0
LINE
  5
2B1
330
A
100
AcDbEntity
  8
PV
  6
Continuous
 62
     7
100
AcDbLine
 10
-119.0499999999999
 20
196.0059999999999
 30
0.0
 11
-119.0499999999999
 21
192.3059999999999
 31
0.0
  0
LINE
  5
2B2
330
A
100
AcDbEntity
  8
PV
  6
Continuous
 62
     7
100
AcDbLine
 10
-113.7499999999999
 20
197.0059999999999
 30
0.0
 11
-113.7499999999999
 21
196.0059999999999
 31
0.0
  0
LINE
  5
2B3
330
A
100
AcDbEntity
  8
PV
  6
Continuous
 62
     7
100
AcDbLine
 10
-112.85
 20
196.0059999999999
 30
0.0
 11
-113.7499999999999
 21
196.0059999999999
 31
0.0
  0
LINE
  5
2B4
330
A
100
AcDbEntity
  8
PV
  6
Continuous
 62
     7
100
AcDbLine
 10
-112.85
 20
196.0059999999999
 30
0.0
 11
-112.85
 21
192.3059999999999
 31
0.0
  0
LINE
  5
2B5
330
A
100
AcDbEntity
  8
PV
  6
Continuous
 62
     7
100
AcDbLine
 10
-112.85
 20
192.3059999999999
 30
0.0
 11
-119.0499999999999
 21
192.3059999999999
 31
0.0
  0
LINE
  5
2B6
330
A
100
AcDbEntity
  8
PV
  6
Continuous
 62
     7
100
AcDbLine
 10
-100.15
 20
197.0059999999999
 30
0.0
 11
-100.15
 21
196.0059999999999
 31
0.0
  0
LINE
  5
2B7
330
A
100
AcDbEntity
  8
PV
  6
Continuous
 62
     7
100
AcDbLine
 10
-100.15
 20
196.0059999999999
 30
0.0
 11
-101.0499999999999
 21
196.0059999999999
 31
0.0
  0
LINE
  5
2B8
330
A
100
AcDbEntity
  8
PV
  6
Continuous
 62
     7
100
AcDbLine
 10
-95.75000000000001
 20
197.0059999999999
 30
0.0
 11
-95.75000000000001
 21
196.0059999999999
 31
0.0
  0
LINE
  5
2B9
330
A
100
AcDbEntity
  8
PV
  6
Continuous
 62
     7
100
AcDbLine
 10
-94.84999999999999
 20
196.0059999999999
 30
0.0
 11
-95.75000000000001
 21
196.0059999999999
 31
0.0
  0
LINE
  5
2BA
330
A
100
AcDbEntity
  8
PV
  6
Continuous
 62
     7
100
AcDbLine
 10
-94.84999999999999
 20
196.0059999999999
 30
0.0
 11
-94.84999999999999
 21
192.3059999999999
 31
0.0
  0
LINE
  5
2BB
330
A
100
AcDbEntity
  8
PV
  6
Continuous
 62
     7
100
AcDbLine
 10
-101.0499999999999
 20
196.0059999999999
 30
0.0
 11
-101.0499999999999
 21
192.3059999999999
 31
0.0
  0
LINE
  5
2BC
330
A
100
AcDbEntity
  8
PV
  6
Continuous
 62
     7
100
AcDbLine
 10
-94.84999999999999
 20
192.3059999999999
 30
0.0
 11
-101.0499999999999
 21
192.3059999999999
 31
0.0
  0
LINE
  5
2BD
330
A
100
AcDbEntity
  8
PV
  6
CENTER
 62
     7
100
AcDbLine
 10
-71.5
 20
175.0059999999999
 30
0.0
 11
-71.5
 21
198.0059999999999
 31
0.0
  0
LINE
  5
2BE
330
A
100
AcDbEntity
  8
PV
  6
CENTER
 62
     7
100
AcDbLine
 10
-83.0
 20
186.5059999999999
 30
0.0
 11
-60.0
 21
186.5059999999999
 31
0.0
  0
LINE
  5
2BF
330
A
100
AcDbEntity
  8
PV
  6
CENTER
 62
     7
100
AcDbLine
 10
-142.5
 20
175.0059999999999
 30
0.0
 11
-142.5
 21
198.0059999999999
 31
0.0
  0
LINE
  5
2C0
330
A
100
AcDbEntity
  8
PV
  6
CENTER
 62
     7
100
AcDbLine
 10
-131.0
 20
186.5059999999999
 30
0.0
 11
-154.0
 21
186.5059999999999
 31
0.0
  0
LINE
  5
2C1
330
A
100
AcDbEntity
  8
PV
  6
CENTER
 62
     7
100
AcDbLine
 10
-71.5
 20
127.0059999999999
 30
0.0
 11
-71.5
 21
104.0059999999999
 31
0.0
  0
LINE
  5
2C2
330
A
100
AcDbEntity
  8
PV
  6
CENTER
 62
     7
100
AcDbLine
 10
-83.0
 20
115.5059999999999
 30
0.0
 11
-60.0
 21
115.5059999999999
 31
0.0
  0
LINE
  5
2C3
330
A
100
AcDbEntity
  8
PV
  6
Continuous
 62
     7
100
AcDbLine
 10
-107.0989999999998
 20
197.0059999999999
 30
0.0
 11
-147.062
 21
197.0059999999999
 31
0.0
  0
LINE
  5
2C4
330
A
100
AcDbEntity
  8
PV
  6
Continuous
 62
     7
100
AcDbLine
 10
-66.938
 20
105.0059999999999
 30
0.0
 11
-147.062
 21
105.0059999999999
 31
0.0
  0
LINE
  5
2C5
330
A
100
AcDbEntity
  8
PV
  6
Continuous
 62
     7
100
AcDbLine
 10
-66.938
 20
197.0059999999999
 30
0.0
 11
-107.0989999999998
 21
197.0059999999999
 31
0.0
  0
LINE
  5
2C6
330
A
100
AcDbEntity
  8
PV
  6
Continuous
 62
     7
100
AcDbLine
 10
-61.0
 20
191.069
 30
0.0
 11
-61.0
 21
151.0679999999998
 31
0.0
  0
LINE
  5
2C7
330
A
100
AcDbEntity
  8
PV
  6
Continuous
 62
     7
100
AcDbLine
 10
-153.0
 20
191.069
 30
0.0
 11
-153.0
 21
110.9439999999999
 31
0.0
  0
LINE
  5
2C8
330
A
100
AcDbEntity
  8
PV
  6
CENTER
 62
     7
100
AcDbLine
 10
-142.5
 20
127.0059999999999
 30
0.0
 11
-142.5
 21
104.0059999999999
 31
0.0
  0
LINE
  5
2C9
330
A
100
AcDbEntity
  8
PV
  6
CENTER
 62
     7
100
AcDbLine
 10
-131.0
 20
115.5059999999999
 30
0.0
 11
-154.0
 21
115.5059999999999
 31
0.0
  0
LINE
  5
2CA
330
A
100
AcDbEntity
  8
PV
  6
Continuous
 62
     7
100
AcDbLine
 10
-118.1499999999999
 20
105.0059999999999
 30
0.0
 11
-118.1499999999999
 21
106.006
 31
0.0
  0
LINE
  5
2CB
330
A
100
AcDbEntity
  8
PV
  6
Continuous
 62
     7
100
AcDbLine
 10
-113.7499999999999
 20
105.0059999999999
 30
0.0
 11
-113.7499999999999
 21
106.006
 31
0.0
  0
LINE
  5
2CC
330
A
100
AcDbEntity
  8
PV
  6
Continuous
 62
     7
100
AcDbLine
 10
-95.75000000000001
 20
105.0059999999999
 30
0.0
 11
-95.75000000000001
 21
106.006
 31
0.0
  0
LINE
  5
2CD
330
A
100
AcDbEntity
  8
PV
  6
Continuous
 62
     7
100
AcDbLine
 10
-100.15
 20
105.0059999999999
 30
0.0
 11
-100.15
 21
106.006
 31
0.0
  0
LINE
  5
2CE
330
A
100
AcDbEntity
  8
PV
  6
Continuous
 62
     7
100
AcDbLine
 10
-94.84999999999999
 20
106.006
 30
0.0
 11
-94.84999999999999
 21
109.706
 31
0.0
  0
LINE
  5
2CF
330
A
100
AcDbEntity
  8
PV
  6
Continuous
 62
     7
100
AcDbLine
 10
-94.84999999999999
 20
106.006
 30
0.0
 11
-95.75000000000001
 21
106.006
 31
0.0
  0
LINE
  5
2D0
330
A
100
AcDbEntity
  8
PV
  6
Continuous
 62
     7
100
AcDbLine
 10
-100.15
 20
106.006
 30
0.0
 11
-101.0499999999999
 21
106.006
 31
0.0
  0
LINE
  5
2D1
330
A
100
AcDbEntity
  8
PV
  6
Continuous
 62
     7
100
AcDbLine
 10
-101.0499999999999
 20
106.006
 30
0.0
 11
-101.0499999999999
 21
109.706
 31
0.0
  0
LINE
  5
2D2
330
A
100
AcDbEntity
  8
PV
  6
Continuous
 62
     7
100
AcDbLine
 10
-118.1499999999999
 20
106.006
 30
0.0
 11
-119.0499999999999
 21
106.006
 31
0.0
  0
LINE
  5
2D3
330
A
100
AcDbEntity
  8
PV
  6
Continuous
 62
     7
100
AcDbLine
 10
-119.0499999999999
 20
106.006
 30
0.0
 11
-119.0499999999999
 21
109.706
 31
0.0
  0
LINE
  5
2D4
330
A
100
AcDbEntity
  8
PV
  6
Continuous
 62
     7
100
AcDbLine
 10
-112.85
 20
109.706
 30
0.0
 11
-119.0499999999999
 21
109.706
 31
0.0
  0
LINE
  5
2D5
330
A
100
AcDbEntity
  8
PV
  6
Continuous
 62
     7
100
AcDbLine
 10
-112.85
 20
106.006
 30
0.0
 11
-112.85
 21
109.706
 31
0.0
  0
LINE
  5
2D6
330
A
100
AcDbEntity
  8
PV
  6
Continuous
 62
     7
100
AcDbLine
 10
-112.85
 20
106.006
 30
0.0
 11
-113.7499999999999
 21
106.006
 31
0.0
  0
LINE
  5
2D7
330
A
100
AcDbEntity
  8
PV
  6
Continuous
 62
     7
100
AcDbLine
 10
-94.84999999999999
 20
109.706
 30
0.0
 11
-101.0499999999999
 21
109.706
 31
0.0
  0
LINE
  5
2D8
330
A
100
AcDbEntity
  8
PV
  6
CENTER
 62
     7
100
AcDbLine
 10
-55.0
 20
151.006
 30
0.0
 11
-203.84
 21
151.006
 31
0.0
  0
LINE
  5
2D9
330
A
100
AcDbEntity
  8
PV
  6
CENTER
 62
     7
100
AcDbLine
 10
-107.0
 20
202.116
 30
0.0
 11
-107.0
 21
99.92600000000001
 31
0.0
  0
ENDSEC
  0
SECTION
  2
OBJECTS
  0
DICTIONARY
  5
19
330
0
100
AcDbDictionary
281
     1
  3
ACAD_GROUP
350
1A
  3
ACAD_LAYOUT
350
1E
  3
ACAD_MLINESTYLE
350
1B
  3
ACAD_PLOTSETTINGS
350
22
  3
ACAD_PLOTSTYLENAME
350
1F
  0
DICTIONARY
  5
1A
102
{ACAD_REACTORS
330
19
102
}
330
19
100
AcDbDictionary
281
     1
  0
DICTIONARY
  5
1E
102
{ACAD_REACTORS
330
19
102
}
330
19
100
AcDbDictionary
281
     1
  3
Layout1
350
21
  3
Model
350
20
  0
DICTIONARY
  5
1B
102
{ACAD_REACTORS
330
19
102
}
330
19
100
AcDbDictionary
281
     1
  3
Standard
350
1C
  0
DICTIONARY
  5
22
102
{ACAD_REACTORS
330
19
102
}
330
19
100
AcDbDictionary
281
     1
  0
ACDBDICTIONARYWDFLT
  5
1F
102
{ACAD_REACTORS
330
19
102
}
330
19
100
AcDbDictionary
281
     1
  3
Normal
350
1D
100
AcDbDictionaryWithDefault
340
1D
  0
LAYOUT
  5
21
102
{ACAD_REACTORS
330
1E
102
}
330
1E
100
AcDbPlotSettings
  1

  2

  4

  6

 40
0.0
 41
0.0
 42
0.0
 43
0.0
 44
0.0
 45
0.0
 46
0.0
 47
0.0
 48
0.0
 49
0.0
140
0.0
141
0.0
142
1.0
143
1.0
 70
     0
 72
     0
 73
     0
 74
     0
  7

 75
     0
147
1.0
148
0.0
149
0.0
100
AcDbLayout
  1
Layout1
 70
     0
 71
     1
 10
0.0
 20
0.0
 11
12.0
 21
9.0
 12
0.0
 22
0.0
 32
0.0
 14
1.000000000000000E+20
 24
1.000000000000000E+20
 34
1.000000000000000E+20
 15
-1.000000000000000E+20
 25
-1.000000000000000E+20
 35
-1.000000000000000E+20
146
0.0
 13
0.0
 23
0.0
 33
0.0
 16
1.0
 26
0.0
 36
0.0
 17
0.0
 27
1.0
 37
0.0
 76
     0
330
B
  0
LAYOUT
  5
20
102
{ACAD_REACTORS
330
1E
102
}
330
1E
100
AcDbPlotSettings
  1

  2
Adobe PDF
  4
A4
  6

 40
3.174999952316283
 41
3.174999952316283
 42
3.175003051757812
 43
3.17498779296875
 44
209.9098358154297
 45
297.0318298339843
 46
0.0
 47
55.19
 48
0.0
 49
0.0
140
0.0
141
0.0
142
1.0
143
2.309062222681189
 70
 11284
 72
     1
 73
     1
 74
     2
  7

 75
     0
147
0.4330762463554753
148
238.583333
149
238.448987
100
AcDbLayout
  1
Model
 70
     0
 71
     0
 10
0.0
 20
0.0
 11
0.0
 21
0.0
 12
0.0
 22
0.0
 32
0.0
 14
0.0
 24
0.0
 34
0.0
 15
0.0
 25
0.0
 35
0.0
146
0.0
 13
0.0
 23
0.0
 33
0.0
 16
0.0
 26
0.0
 36
0.0
 17
0.0
 27
0.0
 37
0.0
 76
     0
330
A
  0
MLINESTYLE
  5
1C
102
{ACAD_REACTORS
330
1B
102
}
330
1B
100
AcDbMlineStyle
  2
STANDARD
 70
     0
  3

 62
     0
 51
90.0
 52
90.0
 71
     2
 49
0.5
 62
   256
  6
BYLAYER
 49
-0.5
 62
   256
  6
BYLAYER
  0
ACDBPLACEHOLDER
  5
1D
102
{ACAD_REACTORS
330
1F
102
}
330
1F
  0
ENDSEC
  0
EOF
