  0
SECTION
  2
HEADER
  9
$ACADVER
  1
AC1009
  9
$DWGCODEPAGE
  3
dos932
  9
$INSBASE
 10
0.0
 20
0.0
 30
0.0
  9
$EXTMIN
 10
-40.0
 20
-61.0
 30
0.0
  9
$EXTMAX
 10
321.0
 20
56.066666841506958
 30
0.0
  9
$LIMMIN
 10
-40.0
 20
-61.0
  9
$LIMMAX
 10
321.0
 20
56.066666841506958
  9
$ORTHOMODE
 70
               0
  9
$REGENMODE
 70
               1
  9
$FILLMODE
 70
               1
  9
$QTEXTMODE
 70
               0
  9
$MIRRTEXT
 70
               1
  9
$DRAGMODE
 70
               2
  9
$LTSCALE
 40
1.0
  9
$OSMODE
 70
               0
  9
$ATTMODE
 70
               1
  9
$TEXTSIZE
 40
3.2000000476837158
  9
$TRACEWID
 40
0.05
  9
$TEXTSTYLE
  7
MX_NOTE_STANDARD
  9
$CLAYER
  8
0
  9
$CELTYPE
  6
CONTINUOUS
  9
$CECOLOR
 62
             256
  9
$DIMSCALE
 40
1.0
  9
$DIMASZ
 40
2.5
  9
$DIMEXO
 40
2.0
  9
$DIMDLI
 40
3.75
  9
$DIMRND
 40
0.0
  9
$DIMDLE
 40
0.0
  9
$DIMEXE
 40
1.0
  9
$DIMTP
 40
0.0
  9
$DIMTM
 40
0.0
  9
$DIMTXT
 40
4.1655998229980469
  9
$DIMCEN
 40
2.5
  9
$DIMTSZ
 40
0.0
  9
$DIMTOL
 70
               0
  9
$DIMLIM
 70
               0
  9
$DIMTIH
 70
               0
  9
$DIMTOH
 70
               0
  9
$DIMSE1
 70
               0
  9
$DIMSE2
 70
               0
  9
$DIMTAD
 70
               1
  9
$DIMZIN
 70
               8
  9
$DIMBLK
  1

  9
$DIMASO
 70
               1
  9
$DIMSHO
 70
               1
  9
$DIMPOST
  1

  9
$DIMAPOST
  1

  9
$DIMALT
 70
               0
  9
$DIMALTD
 70
               4
  9
$DIMALTF
 40
0.03937007874016
  9
$DIMLFAC
 40
1.0
  9
$DIMTOFL
 70
               1
  9
$DIMTVP
 40
0.0
  9
$DIMTIX
 70
               0
  9
$DIMSOXD
 70
               0
  9
$DIMSAH
 70
               1
  9
$DIMBLK1
  1
_OPEN30
  9
$DIMBLK2
  1
_OPEN30
  9
$DIMSTYLE
  2
MXDIMSTYLE
  9
$DIMCLRD
 70
               0
  9
$DIMCLRE
 70
               0
  9
$DIMCLRT
 70
               0
  9
$DIMTFAC
 40
1.0
  9
$DIMGAP
 40
1.0
  9
$LUNITS
 70
               2
  9
$LUPREC
 70
               4
  9
$AXISMODE
 70
               0
  9
$AXISUNIT
 10
0.0
 20
0.0
  9
$SKETCHINC
 40
0.1
  9
$FILLETRAD
 40
0.0
  9
$AUNITS
 70
               0
  9
$AUPREC
 70
               0
  9
$MENU
  1
acad
  9
$ELEVATION
 40
0.0
  9
$PELEVATION
 40
0.0
  9
$THICKNESS
 40
0.0
  9
$LIMCHECK
 70
               0
  9
$BLIPMODE
 70
               1
  9
$CHAMFERA
 40
0.0
  9
$CHAMFERB
 40
0.0
  9
$SKPOLY
 70
               0
  9
$TDCREATE
 40
2455216.449027778
  9
$TDUPDATE
 40
2455216.449027778
  9
$TDINDWG
 40
0.0000000000
  9
$TDUSRTIMER
 40
0.0000000000
  9
$USRTIMER
 70
               1
  9
$ANGBASE
 50
0.0
  9
$ANGDIR
 70
               0
  9
$PDMODE
 70
               0
  9
$PDSIZE
 40
0.0
  9
$PLINEWID
 40
0.0
  9
$COORDS
 70
               1
  9
$SPLFRAME
 70
               0
  9
$SPLINETYPE
 70
               6
  9
$SPLINESEGS
 70
               8
  9
$ATTDIA
 70
               0
  9
$ATTREQ
 70
               1
  9
$HANDLING
 70
               1
  9
$HANDSEED
  5
19E
  9
$SURFTAB1
 70
               6
  9
$SURFTAB2
 70
               6
  9
$SURFTYPE
 70
               6
  9
$SURFU
 70
               6
  9
$SURFV
 70
               6
  9
$UCSNAME
  2

  9
$UCSORG
 10
0.0
 20
0.0
 30
0.0
  9
$UCSXDIR
 10
1.0
 20
0.0
 30
0.0
  9
$UCSYDIR
 10
0.0
 20
1.0
 30
0.0
  9
$PUCSNAME
  2

  9
$PUCSORG
 10
0.0
 20
0.0
 30
0.0
  9
$PUCSXDIR
 10
1.0
 20
0.0
 30
0.0
  9
$PUCSYDIR
 10
0.0
 20
1.0
 30
0.0
  9
$USERI1
 70
               0
  9
$USERI2
 70
               0
  9
$USERI3
 70
               0
  9
$USERI4
 70
               0
  9
$USERI5
 70
               0
  9
$USERR1
 40
0.0
  9
$USERR2
 40
0.0
  9
$USERR3
 40
0.0
  9
$USERR4
 40
0.0
  9
$USERR5
 40
0.0
  9
$WORLDVIEW
 70
               1
  9
$SHADEDGE
 70
               3
  9
$SHADEDIF
 70
              70
  9
$TILEMODE
 70
               1
  9
$MAXACTVP
 70
              16
  9
$PINSBASE
 10
0.0
 20
0.0
 30
0.0
  9
$PLIMCHECK
 70
               0
  9
$PEXTMIN
 10
1.0000000000000000E+20
 20
1.0000000000000000E+20
 30
1.0000000000000000E+20
  9
$PEXTMAX
 10
-1.0000000000000000E+20
 20
-1.0000000000000000E+20
 30
-1.0000000000000000E+20
  9
$PLIMMIN
 10
0.0
 20
0.0
  9
$PLIMMAX
 10
12.0
 20
9.0
  9
$UNITMODE
 70
               0
  9
$VISRETAIN
 70
               0
  9
$PLINEGEN
 70
               1
  9
$PSLTSCALE
 70
               0
  9
$TREEDEPTH
 70
            3020
  0
ENDSEC
  0
SECTION
  2
TABLES
  0
TABLE
  2
VPORT
 70
               1
  0
VPORT
  2
*ACTIVE
 70
               0
 10
0.0
 20
0.0
 11
1.0
 21
1.0
 12
140.5
 22
-2.466666579246521
 13
0.0
 23
0.0
 14
1.0
 24
1.0
 15
0.0
 25
0.0
 16
0.0
 26
0.0
 36
1.0
 17
0.0
 27
0.0
 37
0.0
 40
118.23733350992202
 41
1.7320508075688772
 42
50.0
 43
0.0
 44
0.0
 50
0.0
 51
0.0
 71
               0
 72
             100
 73
               1
 74
               1
 75
               0
 76
               0
 77
               0
 78
               0
  0
ENDTAB
  0
TABLE
  2
LTYPE
 70
               2
  0
LTYPE
  2
CONTINUOUS
 70
              64
  3
Solid line
 72
              65
 73
               0
 40
0.0
  0
LTYPE
  2
CENTER
 70
              64
  3
Center ____ _ ____ _ ____ _ ____ _ ____ _ ____
 72
              65
 73
               4
 40
50.800000000000004
 49
31.75
 49
-6.3499999999999996
 49
6.3499999999999996
 49
-6.3499999999999996
  0
ENDTAB
  0
TABLE
  2
LAYER
 70
               3
  0
LAYER
  2
0
 70
               0
 62
               7
  6
CONTINUOUS
  0
LAYER
  2
DEFPOINTS
 70
               0
 62
               7
  6
CONTINUOUS
  0
LAYER
  2
LY_3
 70
               0
 62
               7
  6
CONTINUOUS
  0
ENDTAB
  0
TABLE
  2
STYLE
 70
               6
  0
STYLE
  2
MX_NOTE_STANDARD
 70
               0
 40
0.0
 41
1.0
 50
0.0
 71
               0
 42
3.2000000476837158
  3
txt.shx
  4
extfont.shx
  0
STYLE
  2
MX_DIMTXSTY_2
 70
               0
 40
0.0
 41
0.9
 50
0.0
 71
               0
 42
3.2000000476837158
  3
txt.shx
  4
extfont.shx
  0
STYLE
  2
MX_DIMTXSTY_3
 70
               0
 40
0.0
 41
1.05
 50
0.0
 71
               0
 42
3.2000000476837158
  3
txt.shx
  4
extfont.shx
  0
STYLE
  2
MX_DIMTXSTY_4
 70
               0
 40
0.0
 41
1.25
 50
0.0
 71
               0
 42
3.2000000476837158
  3
txt.shx
  4
extfont.shx
  0
STYLE
  2
MX_DIMTXSTY_5
 70
               0
 40
0.0
 41
1.1000000000000001
 50
0.0
 71
               0
 42
3.2000000476837158
  3
txt.shx
  4
extfont.shx
  0
STYLE
  2
MX_DIMTXSTY_6
 70
               0
 40
0.0
 41
1.3
 50
0.0
 71
               0
 42
3.2000000476837158
  3
txt.shx
  4
extfont.shx
  0
ENDTAB
  0
TABLE
  2
VIEW
 70
               0
  0
ENDTAB
  0
TABLE
  2
UCS
 70
               0
  0
ENDTAB
  0
TABLE
  2
APPID
 70
               1
  0
APPID
  2
ACAD
 70
               0
  0
ENDTAB
  0
TABLE
  2
DIMSTYLE
 70
               1
  0
DIMSTYLE
  2
MXDIMSTYLE
 70
               0
  3

  4

  5

  6
_OPEN30
  7
_OPEN30
 40
1.0
 41
2.5
 42
2.0
 43
3.75
 44
1.0
 45
0.0
 46
0.0
 47
0.0
 48
0.0
 71
               0
 72
               0
 73
               0
 74
               0
 75
               0
 76
               0
 77
               1
 78
               8
140
4.1655998229980469
141
2.5
142
0.0
143
0.03937007874016
144
1.0
145
0.0
146
1.0
147
1.0
170
               0
171
               4
172
               1
173
               1
174
               0
175
               0
176
               0
177
               0
178
               0
  0
ENDTAB
  0
ENDSEC
  0
SECTION
  2
BLOCKS
  0
BLOCK
  8
0
  6
BYBLOCK
 62
               0
  5
20
  2
_OPEN30
 70
               2
 10
0.0
 20
0.0
 30
0.0
  3
_OPEN30
  0
LINE
  8
0
  6
BYBLOCK
 62
               0
  5
21
 10
-1.0
 20
0.267949
 30
0.0
 11
0.0
 21
0.0
 31
0.0
  0
LINE
  8
0
  6
BYBLOCK
 62
               0
  5
22
 10
0.0
 20
0.0
 30
0.0
 11
-1.0
 21
-0.267949
 31
0.0
  0
LINE
  8
0
  6
BYBLOCK
 62
               0
  5
23
 10
0.0
 20
0.0
 30
0.0
 11
-1.0
 21
0.0
 31
0.0
  0
ENDBLK
  8
0
  6
BYBLOCK
 62
               0
  5
24
  0
BLOCK
  8
0
  6
BYBLOCK
 62
               0
  5
26
  2
*D1
 70
               1
 10
0.0
 20
0.0
 30
0.0
  3
*D1
  0
LINE
  8
0
  6
CONTINUOUS
 62
             110
  5
27
 10
70.000006743492804
 20
20.0
 30
0.0
 11
90.000006743492804
 21
20.0
 31
0.0
  0
LINE
  8
0
  6
CONTINUOUS
 62
             110
  5
28
 10
70.000006743492804
 20
5.7000045776367188
 30
0.0
 11
70.000006743492804
 21
21.0
 31
0.0
  0
LINE
  8
0
  6
CONTINUOUS
 62
             110
  5
29
 10
90.000006743492804
 20
7.0000028610229492
 30
0.0
 11
90.000006743492804
 21
21.0
 31
0.0
  0
INSERT
  8
0
  6
CONTINUOUS
 62
             110
  5
2A
  2
_OPEN30
 10
70.000006743492804
 20
20.0
 30
0.0
 41
2.77
 42
2.77
 50
180.0
 43
2.77
  0
INSERT
  8
0
  6
CONTINUOUS
 62
             110
  5
2B
  2
_OPEN30
 10
90.000006743492804
 20
20.0
 30
0.0
 41
2.77
 42
2.77
 43
2.77
  0
TEXT
  8
0
  6
CONTINUOUS
 62
             110
  5
2C
 10
77.545461294858555
 20
21.0
 30
0.0
 40
3.2000000476837158
  1
20
 41
1.0227272685709574
  7
MX_NOTE_STANDARD
 11
77.545461294858555
 21
22.600000023841858
 31
0.0
 73
               2
  0
POINT
  8
DEFPOINTS
  6
CONTINUOUS
 62
               0
  5
2D
 10
70.000006743492804
 20
3.7000045776367187
 30
0.0
  0
POINT
  8
DEFPOINTS
  6
CONTINUOUS
 62
               0
  5
2E
 10
90.000006743492804
 20
5.0000028610229492
 30
0.0
  0
POINT
  8
DEFPOINTS
  6
CONTINUOUS
 62
               0
  5
2F
 10
90.000006743492804
 20
20.0
 30
0.0
  0
ENDBLK
  8
0
  6
BYBLOCK
 62
               0
  5
30
  0
BLOCK
  8
0
  6
BYBLOCK
 62
               0
  5
119
  2
*D2
 70
               1
 10
0.0
 20
0.0
 30
0.0
  3
*D2
  0
LINE
  8
0
  6
CONTINUOUS
 62
             110
  5
11A
 10
60.0
 20
-4.9999987330397744
 30
0.0
 11
60.0
 21
4.0000031743088584
 31
0.0
  0
LINE
  8
0
  6
CONTINUOUS
 62
             110
  5
11B
 10
60.0
 20
-10.608195468421854
 30
0.0
 11
60.0
 21
-4.9999987330397744
 31
0.0
  0
LINE
  8
0
  6
CONTINUOUS
 62
             110
  5
11C
 10
67.760002136230469
 20
4.0000031743088584
 30
0.0
 11
57.714000701904297
 21
4.0000031743088584
 31
0.0
  0
INSERT
  8
0
  6
CONTINUOUS
 62
             110
  5
11D
  2
_OPEN30
 10
60.0
 20
-4.9999987330397744
 30
0.0
 41
2.77
 42
2.77
 50
270.0
 43
2.77
  0
INSERT
  8
0
  6
CONTINUOUS
 62
             110
  5
11E
  2
_OPEN30
 10
60.0
 20
4.0000031743088584
 30
0.0
 41
2.77
 42
2.77
 50
90.0
 43
2.77
  0
TEXT
  8
0
  6
CONTINUOUS
 62
             110
  5
120
 10
59.0
 20
-10.096237559036917
 30
0.0
 40
3.2000000476837158
  1
9
 50
90.0
 41
0.9599210657928184
  7
MX_DIMTXSTY_2
 11
57.399999976158142
 21
-10.096237559036917
 31
0.0
 73
               2
  0
POINT
  8
DEFPOINTS
  6
CONTINUOUS
 62
               0
  5
121
 10
70.300009727478027
 20
-4.9999987330397744
 30
0.0
  0
POINT
  8
DEFPOINTS
  6
CONTINUOUS
 62
               0
  5
122
 10
70.300002098083496
 20
4.0000031743088584
 30
0.0
  0
POINT
  8
DEFPOINTS
  6
CONTINUOUS
 62
               0
  5
123
 10
60.0
 20
4.0000031743088584
 30
0.0
  0
ENDBLK
  8
0
  6
BYBLOCK
 62
               0
  5
124
  0
BLOCK
  8
0
  6
BYBLOCK
 62
               0
  5
127
  2
*D3
 70
               1
 10
0.0
 20
0.0
 30
0.0
  3
*D3
  0
LINE
  8
0
  6
CONTINUOUS
 62
             110
  5
128
 10
50.0
 20
-4.9999987330397744
 30
0.0
 11
50.0
 21
5.0000031743088584
 31
0.0
  0
LINE
  8
0
  6
CONTINUOUS
 62
             110
  5
129
 10
50.0
 20
-28.051902547117152
 30
0.0
 11
50.0
 21
-4.9999987330397744
 31
0.0
  0
LINE
  8
0
  6
CONTINUOUS
 62
             110
  5
12A
 10
67.760010719299316
 20
-4.9999987330397744
 30
0.0
 11
47.7139892578125
 21
-4.9999987330397744
 31
0.0
  0
LINE
  8
0
  6
CONTINUOUS
 62
             110
  5
12B
 10
87.460007667541504
 20
5.0000031743088584
 30
0.0
 11
47.7139892578125
 21
5.0000031743088584
 31
0.0
  0
INSERT
  8
0
  6
CONTINUOUS
 62
             110
  5
12C
  2
_OPEN30
 10
50.0
 20
-4.9999987330397744
 30
0.0
 41
2.77
 42
2.77
 50
270.0
 43
2.77
  0
INSERT
  8
0
  6
CONTINUOUS
 62
             110
  5
12D
  2
_OPEN30
 10
50.0
 20
5.0000031743088584
 30
0.0
 41
2.77
 42
2.77
 50
90.0
 43
2.77
  0
TEXT
  8
0
  6
CONTINUOUS
 62
             110
  5
12F
 10
47.666666626930237
 20
-27.532693004698523
 30
0.0
 40
3.2000000476837158
  1
%%c10
 50
90.0
 41
0.9735178775283853
  7
MX_DIMTXSTY_3
 11
46.066666603088379
 21
-27.532693004698523
 31
0.0
 73
               2
  0
TEXT
  8
0
  6
CONTINUOUS
 62
             110
  5
130
 10
45.266666561365128
 20
-18.939269176664048
 30
0.0
 40
2.4000000357627869
  1
-0.01
 50
90.0
 41
1.1694857877420131
  7
MX_DIMTXSTY_3
 11
44.066666543483734
 21
-18.939269176664048
 31
0.0
 73
               2
  0
TEXT
  8
0
  6
CONTINUOUS
 62
             110
  5
131
 10
49.266666680574417
 20
-18.978252034803223
 30
0.0
 40
2.4000000357627869
  1
-0.02
 50
90.0
 41
1.0720286438462983
  7
MX_DIMTXSTY_3
 11
48.066666662693024
 21
-18.978252034803223
 31
0.0
 73
               2
  0
POINT
  8
DEFPOINTS
  6
CONTINUOUS
 62
               0
  5
132
 10
70.300010681152344
 20
-4.9999987330397744
 30
0.0
  0
POINT
  8
DEFPOINTS
  6
CONTINUOUS
 62
               0
  5
133
 10
90.000007629394531
 20
5.0000031743088584
 30
0.0
  0
POINT
  8
DEFPOINTS
  6
CONTINUOUS
 62
               0
  5
134
 10
50.0
 20
5.0000031743088584
 30
0.0
  0
ENDBLK
  8
0
  6
BYBLOCK
 62
               0
  5
135
  0
BLOCK
  8
0
  6
BYBLOCK
 62
               0
  5
140
  2
*D4
 70
               1
 10
0.0
 20
0.0
 30
0.0
  3
*D4
  0
LINE
  8
0
  6
CONTINUOUS
 62
             110
  5
141
 10
120.0
 20
-60.0
 30
0.0
 11
70.000006743492804
 21
-60.0
 31
0.0
  0
LINE
  8
0
  6
CONTINUOUS
 62
             110
  5
142
 10
120.0
 20
-35.850006103515625
 30
0.0
 11
120.0
 21
-61.0
 31
0.0
  0
LINE
  8
0
  6
CONTINUOUS
 62
             110
  5
143
 10
70.000006743492804
 20
-6.7000007629394531
 30
0.0
 11
70.000006743492804
 21
-61.0
 31
0.0
  0
INSERT
  8
0
  6
CONTINUOUS
 62
             110
  5
144
  2
_OPEN30
 10
120.0
 20
-60.0
 30
0.0
 41
2.77
 42
2.77
 43
2.77
  0
INSERT
  8
0
  6
CONTINUOUS
 62
             110
  5
145
  2
_OPEN30
 10
70.000006743492804
 20
-60.0
 30
0.0
 41
2.77
 42
2.77
 50
180.0
 43
2.77
  0
TEXT
  8
0
  6
CONTINUOUS
 62
             110
  5
146
 10
92.545458366063016
 20
-59.0
 30
0.0
 40
3.2000000476837158
  1
50
 41
1.0227272685709574
  7
MX_NOTE_STANDARD
 11
92.545458366063016
 21
-57.399999976158142
 31
0.0
 73
               2
  0
POINT
  8
DEFPOINTS
  6
CONTINUOUS
 62
               0
  5
147
 10
120.0
 20
-33.850006103515625
 30
0.0
  0
POINT
  8
DEFPOINTS
  6
CONTINUOUS
 62
               0
  5
148
 10
70.000006743492804
 20
-4.7000007629394531
 30
0.0
  0
POINT
  8
DEFPOINTS
  6
CONTINUOUS
 62
               0
  5
149
 10
70.000006743492804
 20
-60.0
 30
0.0
  0
ENDBLK
  8
0
  6
BYBLOCK
 62
               0
  5
14A
  0
BLOCK
  8
0
  6
BYBLOCK
 62
               0
  5
14D
  2
*D5
 70
               1
 10
0.0
 20
0.0
 30
0.0
  3
*D5
  0
LINE
  8
0
  6
CONTINUOUS
 62
             110
  5
14E
 10
285.0
 20
-60.0
 30
0.0
 11
120.0
 21
-60.0
 31
0.0
  0
LINE
  8
0
  6
CONTINUOUS
 62
             110
  5
14F
 10
285.0
 20
-36.5
 30
0.0
 11
285.0
 21
-61.0
 31
0.0
  0
INSERT
  8
0
  6
CONTINUOUS
 62
             110
  5
150
  2
_OPEN30
 10
285.0
 20
-60.0
 30
0.0
 41
2.77
 42
2.77
 43
2.77
  0
INSERT
  8
0
  6
CONTINUOUS
 62
             110
  5
151
  2
_OPEN30
 10
120.0
 20
-60.0
 30
0.0
 41
2.77
 42
2.77
 50
180.0
 43
2.77
  0
TEXT
  8
0
  6
CONTINUOUS
 62
             110
  5
152
 10
198.5357142817229
 20
-59.0
 30
0.0
 40
3.2000000476837158
  1
165
 41
1.0044642632627596
  7
MX_DIMTXSTY_3
 11
198.5357142817229
 21
-57.399999976158142
 31
0.0
 73
               2
  0
POINT
  8
DEFPOINTS
  6
CONTINUOUS
 62
               0
  5
153
 10
285.0
 20
-34.5
 30
0.0
  0
POINT
  8
DEFPOINTS
  6
CONTINUOUS
 62
               0
  5
154
 10
120.0
 20
-35.850006103515625
 30
0.0
  0
POINT
  8
DEFPOINTS
  6
CONTINUOUS
 62
               0
  5
155
 10
120.0
 20
-60.0
 30
0.0
  0
ENDBLK
  8
0
  6
BYBLOCK
 62
               0
  5
156
  0
BLOCK
  8
0
  6
BYBLOCK
 62
               0
  5
159
  2
*D6
 70
               1
 10
0.0
 20
0.0
 30
0.0
  3
*D6
  0
LINE
  8
0
  6
CONTINUOUS
 62
             110
  5
15A
 10
297.49995422363281
 20
-60.0
 30
0.0
 11
285.0
 21
-60.0
 31
0.0
  0
LINE
  8
0
  6
CONTINUOUS
 62
             110
  5
15B
 10
297.49995422363281
 20
-5.5
 30
0.0
 11
297.49995422363281
 21
-61.0
 31
0.0
  0
INSERT
  8
0
  6
CONTINUOUS
 62
             110
  5
15C
  2
_OPEN30
 10
297.49995422363281
 20
-60.0
 30
0.0
 41
2.77
 42
2.77
 43
2.77
  0
INSERT
  8
0
  6
CONTINUOUS
 62
             110
  5
15D
  2
_OPEN30
 10
285.0
 20
-60.0
 30
0.0
 41
2.77
 42
2.77
 50
180.0
 43
2.77
  0
TEXT
  8
0
  6
CONTINUOUS
 62
             110
  5
15F
 10
285.78331045309704
 20
-59.0
 30
0.0
 40
3.2000000476837158
  1
12.5
  7
MX_DIMTXSTY_4
 11
285.78331045309704
 21
-57.399999976158142
 31
0.0
 73
               2
  0
POINT
  8
DEFPOINTS
  6
CONTINUOUS
 62
               0
  5
160
 10
297.49995422363281
 20
-3.5
 30
0.0
  0
POINT
  8
DEFPOINTS
  6
CONTINUOUS
 62
               0
  5
161
 10
285.0
 20
-36.5
 30
0.0
  0
POINT
  8
DEFPOINTS
  6
CONTINUOUS
 62
               0
  5
162
 10
285.0
 20
-60.0
 30
0.0
  0
ENDBLK
  8
0
  6
BYBLOCK
 62
               0
  5
163
  0
BLOCK
  8
0
  6
BYBLOCK
 62
               0
  5
166
  2
*D7
 70
               1
 10
0.0
 20
0.0
 30
0.0
  3
*D7
  0
LINE
  8
0
  6
CONTINUOUS
 62
             110
  5
167
 10
174.99999618530273
 20
-50.0
 30
0.0
 11
120.0
 21
-50.0
 31
0.0
  0
LINE
  8
0
  6
CONTINUOUS
 62
             110
  5
168
 10
174.99999618530273
 20
-37.5
 30
0.0
 11
174.99999618530273
 21
-51.0
 31
0.0
  0
INSERT
  8
0
  6
CONTINUOUS
 62
             110
  5
169
  2
_OPEN30
 10
174.99999618530273
 20
-50.0
 30
0.0
 41
2.77
 42
2.77
 43
2.77
  0
INSERT
  8
0
  6
CONTINUOUS
 62
             110
  5
16A
  2
_OPEN30
 10
120.0
 20
-50.0
 30
0.0
 41
2.77
 42
2.77
 50
180.0
 43
2.77
  0
TEXT
  8
0
  6
CONTINUOUS
 62
             110
  5
16C
 10
143.35454352508893
 20
-49.0
 30
0.0
 40
3.2000000476837158
  1
(55)
 41
1.0227272452955902
  7
MX_DIMTXSTY_5
 11
143.35454352508893
 21
-47.399999976158142
 31
0.0
 73
               2
  0
POINT
  8
DEFPOINTS
  6
CONTINUOUS
 62
               0
  5
16D
 10
174.99999618530273
 20
-35.5
 30
0.0
  0
POINT
  8
DEFPOINTS
  6
CONTINUOUS
 62
               0
  5
16E
 10
120.0
 20
-35.850006103515625
 30
0.0
  0
POINT
  8
DEFPOINTS
  6
CONTINUOUS
 62
               0
  5
16F
 10
120.0
 20
-50.0
 30
0.0
  0
ENDBLK
  8
0
  6
BYBLOCK
 62
               0
  5
170
  0
BLOCK
  8
0
  6
BYBLOCK
 62
               0
  5
173
  2
*D8
 70
               1
 10
0.0
 20
0.0
 30
0.0
  3
*D8
  0
LINE
  8
0
  6
CONTINUOUS
 62
             110
  5
174
 10
285.0
 20
-50.0
 30
0.0
 11
174.99999618530273
 21
-50.0
 31
0.0
  0
INSERT
  8
0
  6
CONTINUOUS
 62
             110
  5
175
  2
_OPEN30
 10
285.0
 20
-50.0
 30
0.0
 41
2.77
 42
2.77
 43
2.77
  0
INSERT
  8
0
  6
CONTINUOUS
 62
             110
  5
176
  2
_OPEN30
 10
174.99999618530273
 20
-50.0
 30
0.0
 41
2.77
 42
2.77
 50
180.0
 43
2.77
  0
TEXT
  8
0
  6
CONTINUOUS
 62
             110
  5
178
 10
226.03254437381483
 20
-49.0
 30
0.0
 40
3.2000000476837158
  1
110
 41
0.9985206860236735
  7
MX_DIMTXSTY_6
 11
226.03254437381483
 21
-47.399999976158142
 31
0.0
 73
               2
  0
POINT
  8
DEFPOINTS
  6
CONTINUOUS
 62
               0
  5
179
 10
285.0
 20
-36.5
 30
0.0
  0
POINT
  8
DEFPOINTS
  6
CONTINUOUS
 62
               0
  5
17A
 10
174.99999618530273
 20
-50.0
 30
0.0
  0
POINT
  8
DEFPOINTS
  6
CONTINUOUS
 62
               0
  5
17B
 10
174.99999618530273
 20
-50.0
 30
0.0
  0
ENDBLK
  8
0
  6
BYBLOCK
 62
               0
  5
17C
  0
BLOCK
  8
0
  6
BYBLOCK
 62
               0
  5
17F
  2
*D9
 70
               1
 10
0.0
 20
0.0
 30
0.0
  3
*D9
  0
LINE
  8
0
  6
CONTINUOUS
 62
             110
  5
180
 10
320.0
 20
36.5
 30
0.0
 11
320.0
 21
-36.5
 31
0.0
  0
LINE
  8
0
  6
CONTINUOUS
 62
             110
  5
181
 10
285.0
 20
36.5
 30
0.0
 11
321.0
 21
36.5
 31
0.0
  0
LINE
  8
0
  6
CONTINUOUS
 62
             110
  5
182
 10
285.0
 20
-36.5
 30
0.0
 11
321.0
 21
-36.5
 31
0.0
  0
INSERT
  8
0
  6
CONTINUOUS
 62
             110
  5
183
  2
_OPEN30
 10
320.0
 20
36.5
 30
0.0
 41
2.77
 42
2.77
 50
90.0
 43
2.77
  0
INSERT
  8
0
  6
CONTINUOUS
 62
             110
  5
184
  2
_OPEN30
 10
320.0
 20
-36.5
 30
0.0
 41
2.77
 42
2.77
 50
270.0
 43
2.77
  0
TEXT
  8
0
  6
CONTINUOUS
 62
             110
  5
185
 10
319.0
 20
-2.9090890681612254
 30
0.0
 40
3.2000000476837158
  1
%%c73
 50
90.000000000000014
 41
0.9943181508382375
  7
MX_DIMTXSTY_2
 11
317.39999997615814
 21
-2.9090890681612258
 31
0.0
 73
               2
  0
POINT
  8
DEFPOINTS
  6
CONTINUOUS
 62
               0
  5
186
 10
283.0
 20
36.5
 30
0.0
  0
POINT
  8
DEFPOINTS
  6
CONTINUOUS
 62
               0
  5
187
 10
283.0
 20
-36.5
 30
0.0
  0
POINT
  8
DEFPOINTS
  6
CONTINUOUS
 62
               0
  5
188
 10
320.0
 20
-36.5
 30
0.0
  0
ENDBLK
  8
0
  6
BYBLOCK
 62
               0
  5
189
  0
BLOCK
  8
0
  6
BYBLOCK
 62
               0
  5
18C
  2
*D10
 70
               1
 10
0.0
 20
0.0
 30
0.0
  3
*D10
  0
LINE
  8
0
  6
CONTINUOUS
 62
             110
  5
18D
 10
150.0
 20
-36.5
 30
0.0
 11
150.0
 21
36.5
 31
0.0
  0
LINE
  8
0
  6
CONTINUOUS
 62
             110
  5
18E
 10
173.99999618530273
 20
-36.5
 30
0.0
 11
149.0
 21
-36.5
 31
0.0
  0
LINE
  8
0
  6
CONTINUOUS
 62
             110
  5
18F
 10
173.99999618530273
 20
36.5
 30
0.0
 11
149.0
 21
36.5
 31
0.0
  0
INSERT
  8
0
  6
CONTINUOUS
 62
             110
  5
190
  2
_OPEN30
 10
150.0
 20
-36.5
 30
0.0
 41
2.77
 42
2.77
 50
270.0
 43
2.77
  0
INSERT
  8
0
  6
CONTINUOUS
 62
             110
  5
191
  2
_OPEN30
 10
150.0
 20
36.5
 30
0.0
 41
2.77
 42
2.77
 50
90.0
 43
2.77
  0
TEXT
  8
0
  6
CONTINUOUS
 62
             110
  5
192
 10
149.0
 20
8.1409445011747117
 30
0.0
 40
3.2000000476837158
  1
%%c73
 50
90.0
 41
0.9943181508382375
  7
MX_DIMTXSTY_2
 11
147.39999997615814
 21
8.1409445011747117
 31
0.0
 73
               2
  0
POINT
  8
DEFPOINTS
  6
CONTINUOUS
 62
               0
  5
193
 10
175.99999618530273
 20
-36.5
 30
0.0
  0
POINT
  8
DEFPOINTS
  6
CONTINUOUS
 62
               0
  5
194
 10
175.99999618530273
 20
36.5
 30
0.0
  0
POINT
  8
DEFPOINTS
  6
CONTINUOUS
 62
               0
  5
195
 10
150.0
 20
36.5
 30
0.0
  0
ENDBLK
  8
0
  6
BYBLOCK
 62
               0
  5
196
  0
ENDSEC
  0
SECTION
  2
ENTITIES
  0
DIMENSION
  8
0
  6
CONTINUOUS
 62
             110
  5
31
  2
*D1
 10
90.000006743492804
 20
20.0
 30
0.0
 11
80.000006743492804
 21
20.0
 31
0.0
 70
             128
  1
<>
 13
70.000006743492804
 23
3.7000045776367187
 33
0.0
 14
90.000006743492804
 24
5.0000028610229492
 34
0.0
  3
MXDIMSTYLE
1001
ACAD
1000
DSTYLE
1002
{
1070
              41
1040
2.77
1070
             140
1040
3.2000000476837158
1070
             271
1070
               4
1070
             284
1070
               8
1002
}
  0
LINE
  8
LY_3
  6
CONTINUOUS
 62
             110
  5
32
 10
126.35000228881836
 20
34.649993896484375
 30
0.0
 11
126.99079934556418
 21
37.344855512980828
 31
0.0
  0
LINE
  8
LY_3
  6
CONTINUOUS
 62
             110
  5
33
 10
126.35000228881836
 20
34.649993896484375
 30
0.0
 11
126.26871387028558
 21
37.516556443538818
 31
0.0
  0
LINE
  8
LY_3
  6
CONTINUOUS
 62
             110
  5
34
 10
127.7128848208428
 20
37.173154582422839
 30
0.0
 11
126.35000228881836
 21
34.649993896484375
 31
0.0
  0
LINE
  8
LY_3
  6
CONTINUOUS
 62
             110
  5
35
 10
296.49995422363281
 20
4.5
 30
0.0
 11
296.199951171875
 21
4.5
 31
0.0
  0
LINE
  8
LY_3
  6
CONTINUOUS
 62
             110
  5
36
 10
292.89995574951172
 20
4.5
 30
0.0
 11
293.199951171875
 21
4.5
 31
0.0
  0
LINE
  8
LY_3
  6
CONTINUOUS
 62
               3
  5
37
 10
295.89995574951172
 20
-5.0
 30
0.0
 11
295.89995574951172
 21
5.0
 31
0.0
  0
LINE
  8
LY_3
  6
CONTINUOUS
 62
               3
  5
38
 10
293.49995422363281
 20
-5.0
 30
0.0
 11
293.49995422363281
 21
5.0
 31
0.0
  0
LINE
  8
LY_3
  6
CONTINUOUS
 62
               3
  5
39
 10
295.8999491298564
 20
4.9999988630343069
 30
0.0
 11
296.19994971807307
 21
4.6999982495294717
 31
0.0
  0
LINE
  8
LY_3
  6
CONTINUOUS
 62
               3
  5
3A
 10
293.19994775556302
 20
4.6999970272709106
 30
0.0
 11
293.49995241516558
 21
5.0000016615849745
 31
0.0
  0
LINE
  8
LY_3
  6
CONTINUOUS
 62
               3
  5
3B
 10
295.89996624147739
 20
-4.9999879483245309
 30
0.0
 11
296.19996008619842
 21
-4.6999940783159104
 31
0.0
  0
LINE
  8
LY_3
  6
CONTINUOUS
 62
               3
  5
3C
 10
293.49994727324969
 20
-5.0000046553316224
 30
0.0
 11
293.19994803373214
 21
-4.7000053905260302
 31
0.0
  0
LINE
  8
LY_3
  6
CONTINUOUS
 62
             110
  5
3D
 10
296.199951171875
 20
-4.5
 30
0.0
 11
296.49995422363281
 21
-4.5
 31
0.0
  0
LINE
  8
LY_3
  6
CONTINUOUS
 62
             110
  5
3E
 10
293.49995422363281
 20
-4.5
 30
0.0
 11
295.89995574951172
 21
-4.5
 31
0.0
  0
LINE
  8
LY_3
  6
CONTINUOUS
 62
               3
  5
3F
 10
296.199951171875
 20
4.6999969482421875
 30
0.0
 11
296.199951171875
 21
-4.6999969482421875
 31
0.0
  0
LINE
  8
LY_3
  6
CONTINUOUS
 62
               3
  5
40
 10
293.199951171875
 20
4.6999969482421875
 30
0.0
 11
293.199951171875
 21
-4.6999969482421875
 31
0.0
  0
LINE
  8
LY_3
  6
CONTINUOUS
 62
               3
  5
41
 10
290.49995422363281
 20
-3.0
 30
0.0
 11
291.89995574951172
 21
-3.0
 31
0.0
  0
LINE
  8
LY_3
  6
CONTINUOUS
 62
               3
  5
42
 10
290.49995422363281
 20
3.0
 30
0.0
 11
291.89995574951172
 21
3.0
 31
0.0
  0
LINE
  8
LY_3
  6
CONTINUOUS
 62
               3
  5
43
 10
291.89995574951172
 20
3.5
 30
0.0
 11
291.89995574951172
 21
-3.5
 31
0.0
  0
LINE
  8
LY_3
  6
CONTINUOUS
 62
               3
  5
44
 10
290.49995422363281
 20
4.0
 30
0.0
 11
290.49995422363281
 21
-4.0
 31
0.0
  0
LINE
  8
LY_3
  6
CONTINUOUS
 62
               3
  5
45
 10
289.49995422363281
 20
4.0
 30
0.0
 11
290.49995422363281
 21
4.0
 31
0.0
  0
LINE
  8
LY_3
  6
CONTINUOUS
 62
               3
  5
46
 10
289.49995422363281
 20
-4.0
 30
0.0
 11
290.49995422363281
 21
-4.0
 31
0.0
  0
LINE
  8
LY_3
  6
CONTINUOUS
 62
               3
  5
47
 10
289.49995422363281
 20
4.0
 30
0.0
 11
289.49995422363281
 21
-4.0
 31
0.0
  0
LINE
  8
LY_3
  6
CONTINUOUS
 62
             110
  5
48
 10
293.49995422363281
 20
4.5
 30
0.0
 11
295.89995574951172
 21
4.5
 31
0.0
  0
LINE
  8
LY_3
  6
CONTINUOUS
 62
             110
  5
49
 10
293.49995422363281
 20
4.0
 30
0.0
 11
295.89995574951172
 21
4.0
 31
0.0
  0
LINE
  8
LY_3
  6
CONTINUOUS
 62
             110
  5
4A
 10
293.49995422363281
 20
3.5
 30
0.0
 11
295.89995574951172
 21
3.5
 31
0.0
  0
LINE
  8
LY_3
  6
CONTINUOUS
 62
             110
  5
4B
 10
293.49995422363281
 20
3.0
 30
0.0
 11
295.89995574951172
 21
3.0
 31
0.0
  0
LINE
  8
LY_3
  6
CONTINUOUS
 62
             110
  5
4C
 10
293.49995422363281
 20
2.5
 30
0.0
 11
295.89995574951172
 21
2.5
 31
0.0
  0
LINE
  8
LY_3
  6
CONTINUOUS
 62
             110
  5
4D
 10
293.49995422363281
 20
2.0
 30
0.0
 11
295.89995574951172
 21
2.0
 31
0.0
  0
LINE
  8
LY_3
  6
CONTINUOUS
 62
             110
  5
4E
 10
293.49995422363281
 20
1.5
 30
0.0
 11
295.89995574951172
 21
1.5
 31
0.0
  0
LINE
  8
LY_3
  6
CONTINUOUS
 62
             110
  5
4F
 10
293.49995422363281
 20
1.0
 30
0.0
 11
295.89995574951172
 21
1.0
 31
0.0
  0
LINE
  8
LY_3
  6
CONTINUOUS
 62
             110
  5
50
 10
293.49995422363281
 20
0.5
 30
0.0
 11
295.89995574951172
 21
0.5
 31
0.0
  0
LINE
  8
LY_3
  6
CONTINUOUS
 62
             110
  5
51
 10
293.49995422363281
 20
-0.5
 30
0.0
 11
295.89995574951172
 21
-0.5
 31
0.0
  0
LINE
  8
LY_3
  6
CONTINUOUS
 62
             110
  5
52
 10
293.49995422363281
 20
-1.0
 30
0.0
 11
295.89995574951172
 21
-1.0
 31
0.0
  0
LINE
  8
LY_3
  6
CONTINUOUS
 62
             110
  5
53
 10
293.49995422363281
 20
-1.5
 30
0.0
 11
295.89995574951172
 21
-1.5
 31
0.0
  0
LINE
  8
LY_3
  6
CONTINUOUS
 62
             110
  5
54
 10
293.49995422363281
 20
-2.0
 30
0.0
 11
295.89995574951172
 21
-2.0
 31
0.0
  0
LINE
  8
LY_3
  6
CONTINUOUS
 62
             110
  5
55
 10
293.49995422363281
 20
-2.5
 30
0.0
 11
295.89995574951172
 21
-2.5
 31
0.0
  0
LINE
  8
LY_3
  6
CONTINUOUS
 62
             110
  5
56
 10
293.49995422363281
 20
-3.0
 30
0.0
 11
295.89995574951172
 21
-3.0
 31
0.0
  0
LINE
  8
LY_3
  6
CONTINUOUS
 62
             110
  5
57
 10
293.49995422363281
 20
-3.5
 30
0.0
 11
295.89995574951172
 21
-3.5
 31
0.0
  0
LINE
  8
LY_3
  6
CONTINUOUS
 62
             110
  5
58
 10
293.49995422363281
 20
-4.0
 30
0.0
 11
295.89995574951172
 21
-4.0
 31
0.0
  0
LINE
  8
LY_3
  6
CONTINUOUS
 62
             110
  5
59
 10
292.89995574951172
 20
-4.5
 30
0.0
 11
293.199951171875
 21
-4.5
 31
0.0
  0
LINE
  8
LY_3
  6
CONTINUOUS
 62
               3
  5
5A
 10
297.49995422363281
 20
3.5
 30
0.0
 11
297.49995422363281
 21
-3.5
 31
0.0
  0
LINE
  8
LY_3
  6
CONTINUOUS
 62
               3
  5
5B
 10
293.49995422363281
 20
-5.0
 30
0.0
 11
295.89995574951172
 21
-5.0
 31
0.0
  0
LINE
  8
LY_3
  6
CONTINUOUS
 62
               3
  5
5C
 10
293.49995422363281
 20
5.0
 30
0.0
 11
295.89995574951172
 21
5.0
 31
0.0
  0
LINE
  8
LY_3
  6
CONTINUOUS
 62
             110
  5
5D
 10
289.49995422363281
 20
-1.1999969482421875
 30
0.0
 11
285.0
 21
-1.1999969482421875
 31
0.0
  0
LINE
  8
LY_3
  6
CONTINUOUS
 62
             110
  5
5E
 10
289.49995422363281
 20
1.1999969482421875
 30
0.0
 11
285.0
 21
1.1999969482421875
 31
0.0
  0
LINE
  8
LY_3
  6
CONTINUOUS
 62
               3
  5
5F
 10
289.49995422363281
 20
-1.5
 30
0.0
 11
285.0
 21
-1.5
 31
0.0
  0
LINE
  8
LY_3
  6
CONTINUOUS
 62
               3
  5
60
 10
289.49995422363281
 20
1.5
 30
0.0
 11
285.0
 21
1.5
 31
0.0
  0
LINE
  8
LY_3
  6
CONTINUOUS
 62
               3
  5
61
 10
280.0
 20
36.5
 30
0.0
 11
280.0
 21
-36.5
 31
0.0
  0
LINE
  8
LY_3
  6
CONTINUOUS
 62
               3
  5
62
 10
278.0
 20
36.5
 30
0.0
 11
278.0
 21
-36.5
 31
0.0
  0
LINE
  8
LY_3
  6
CONTINUOUS
 62
               3
  5
63
 10
279.0000048785451
 20
-35.499994170469208
 30
0.0
 11
280.00000497075712
 21
-36.49999417838751
 31
0.0
  0
LINE
  8
LY_3
  6
CONTINUOUS
 62
               3
  5
64
 10
279.0000060165101
 20
-35.499995055553143
 30
0.0
 11
278.00000487062681
 21
-36.499996117142643
 31
0.0
  0
LINE
  8
LY_3
  6
CONTINUOUS
 62
               3
  5
65
 10
278.99999703923072
 20
35.499998173095264
 30
0.0
 11
279.99999818511401
 21
36.499999234684765
 31
0.0
  0
LINE
  8
LY_3
  6
CONTINUOUS
 62
               3
  5
66
 10
277.99999597764122
 20
36.499999318978553
 30
0.0
 11
278.99999703923072
 21
35.499998173095264
 31
0.0
  0
LINE
  8
LY_3
  6
CENTER
 62
             110
  5
68
 10
228.49999618530273
 20
4.25830078125
 30
0.0
 11
228.49999618530273
 21
-5.5060882568359375
 31
0.0
  0
LINE
  8
LY_3
  6
CONTINUOUS
 62
             110
  5
69
 10
186.49999618530273
 20
36.108444213867188
 30
0.0
 11
192.49999618530273
 21
36.108444213867188
 31
0.0
  0
LINE
  8
LY_3
  6
CONTINUOUS
 62
             110
  5
6A
 10
186.49999618530273
 20
34.593551635742187
 30
0.0
 11
192.49999618530273
 21
34.593551635742187
 31
0.0
  0
LINE
  8
LY_3
  6
CONTINUOUS
 62
             110
  5
6B
 10
186.49999618530273
 20
31.985198974609375
 30
0.0
 11
192.49999618530273
 21
31.985198974609375
 31
0.0
  0
LINE
  8
LY_3
  6
CONTINUOUS
 62
             110
  5
6C
 10
186.49999618530273
 20
28.365829467773438
 30
0.0
 11
192.49999618530273
 21
28.365829467773438
 31
0.0
  0
LINE
  8
LY_3
  6
CONTINUOUS
 62
             110
  5
6D
 10
186.49999618530273
 20
23.849853515625
 30
0.0
 11
192.49999618530273
 21
23.849853515625
 31
0.0
  0
LINE
  8
LY_3
  6
CONTINUOUS
 62
             110
  5
6E
 10
186.49999618530273
 20
18.58001708984375
 30
0.0
 11
192.49999618530273
 21
18.58001708984375
 31
0.0
  0
LINE
  8
LY_3
  6
CONTINUOUS
 62
             110
  5
6F
 10
186.49999618530273
 20
12.722869873046875
 30
0.0
 11
192.49999618530273
 21
12.722869873046875
 31
0.0
  0
LINE
  8
LY_3
  6
CONTINUOUS
 62
             110
  5
70
 10
186.49999618530273
 20
6.463592529296875
 30
0.0
 11
192.49999618530273
 21
6.463592529296875
 31
0.0
  0
LINE
  8
LY_3
  6
CONTINUOUS
 62
               3
  5
71
 10
186.49999618530273
 20
5.709869384765625
 30
0.0
 11
190.49999618530273
 21
5.709869384765625
 31
0.0
  0
LINE
  8
LY_3
  6
CONTINUOUS
 62
               3
  5
72
 10
186.49999618530273
 20
5.0798187255859375
 30
0.0
 11
190.49999618530273
 21
5.0798187255859375
 31
0.0
  0
LINE
  8
LY_3
  6
CONTINUOUS
 62
               3
  5
73
 10
186.49999618530273
 20
4.4482421875
 30
0.0
 11
190.49999618530273
 21
4.4482421875
 31
0.0
  0
LINE
  8
LY_3
  6
CONTINUOUS
 62
               3
  5
74
 10
186.49999618530273
 20
3.8152923583984375
 30
0.0
 11
190.49999618530273
 21
3.8152923583984375
 31
0.0
  0
LINE
  8
LY_3
  6
CONTINUOUS
 62
               3
  5
75
 10
186.49999618530273
 20
3.181182861328125
 30
0.0
 11
191.49999618530273
 21
3.181182861328125
 31
0.0
  0
LINE
  8
LY_3
  6
CONTINUOUS
 62
               3
  5
76
 10
186.49999618530273
 20
2.546112060546875
 30
0.0
 11
190.49999618530273
 21
2.546112060546875
 31
0.0
  0
LINE
  8
LY_3
  6
CONTINUOUS
 62
               3
  5
77
 10
186.49999618530273
 20
1.9102630615234375
 30
0.0
 11
190.49999618530273
 21
1.9102630615234375
 31
0.0
  0
LINE
  8
LY_3
  6
CONTINUOUS
 62
               3
  5
78
 10
186.49999618530273
 20
1.273834228515625
 30
0.0
 11
190.49999618530273
 21
1.273834228515625
 31
0.0
  0
LINE
  8
LY_3
  6
CONTINUOUS
 62
               3
  5
79
 10
186.49999618530273
 20
0.6370162963867188
 30
0.0
 11
190.49999618530273
 21
0.6370162963867188
 31
0.0
  0
LINE
  8
LY_3
  6
CONTINUOUS
 62
               3
  5
7A
 10
186.49999618530273
 20
-5.7098617553710937
 30
0.0
 11
190.49999618530273
 21
-5.7098617553710937
 31
0.0
  0
LINE
  8
LY_3
  6
CONTINUOUS
 62
               3
  5
7B
 10
186.49999618530273
 20
-5.0798187255859375
 30
0.0
 11
190.49999618530273
 21
-5.0798187255859375
 31
0.0
  0
LINE
  8
LY_3
  6
CONTINUOUS
 62
               3
  5
7C
 10
186.49999618530273
 20
-4.4482345581054687
 30
0.0
 11
190.49999618530273
 21
-4.4482345581054687
 31
0.0
  0
LINE
  8
LY_3
  6
CONTINUOUS
 62
               3
  5
7D
 10
186.49999618530273
 20
-3.8152923583984375
 30
0.0
 11
190.49999618530273
 21
-3.8152923583984375
 31
0.0
  0
LINE
  8
LY_3
  6
CONTINUOUS
 62
               3
  5
7E
 10
186.49999618530273
 20
-3.181182861328125
 30
0.0
 11
191.49999618530273
 21
-3.181182861328125
 31
0.0
  0
LINE
  8
LY_3
  6
CONTINUOUS
 62
               3
  5
7F
 10
186.49999618530273
 20
-2.546112060546875
 30
0.0
 11
190.49999618530273
 21
-2.546112060546875
 31
0.0
  0
LINE
  8
LY_3
  6
CONTINUOUS
 62
               3
  5
80
 10
186.49999618530273
 20
-1.9102630615234375
 30
0.0
 11
190.49999618530273
 21
-1.9102630615234375
 31
0.0
  0
LINE
  8
LY_3
  6
CONTINUOUS
 62
               3
  5
81
 10
186.49999618530273
 20
-1.273834228515625
 30
0.0
 11
190.49999618530273
 21
-1.273834228515625
 31
0.0
  0
LINE
  8
LY_3
  6
CONTINUOUS
 62
               3
  5
82
 10
186.49999618530273
 20
-0.6370162963867188
 30
0.0
 11
190.49999618530273
 21
-0.6370162963867188
 31
0.0
  0
LINE
  8
LY_3
  6
CONTINUOUS
 62
              90
  5
83
 10
186.49999618530273
 20
0.0
 30
0.0
 11
192.49999618530273
 21
0.0
 31
0.0
  0
LINE
  8
LY_3
  6
CONTINUOUS
 62
             110
  5
84
 10
186.49999618530273
 20
-36.108436584472656
 30
0.0
 11
192.49999618530273
 21
-36.108436584472656
 31
0.0
  0
LINE
  8
LY_3
  6
CONTINUOUS
 62
             110
  5
85
 10
186.49999618530273
 20
-34.593544006347656
 30
0.0
 11
192.49999618530273
 21
-34.593544006347656
 31
0.0
  0
LINE
  8
LY_3
  6
CONTINUOUS
 62
             110
  5
86
 10
186.49999618530273
 20
-31.985191345214844
 30
0.0
 11
192.49999618530273
 21
-31.985191345214844
 31
0.0
  0
LINE
  8
LY_3
  6
CONTINUOUS
 62
             110
  5
87
 10
186.49999618530273
 20
-28.365829467773438
 30
0.0
 11
192.49999618530273
 21
-28.365829467773438
 31
0.0
  0
LINE
  8
LY_3
  6
CONTINUOUS
 62
             110
  5
88
 10
186.49999618530273
 20
-23.849853515625
 30
0.0
 11
192.49999618530273
 21
-23.849853515625
 31
0.0
  0
LINE
  8
LY_3
  6
CONTINUOUS
 62
             110
  5
89
 10
186.49999618530273
 20
-18.580009460449219
 30
0.0
 11
192.49999618530273
 21
-18.580009460449219
 31
0.0
  0
LINE
  8
LY_3
  6
CONTINUOUS
 62
             110
  5
8A
 10
186.49999618530273
 20
-12.722877502441406
 30
0.0
 11
192.49999618530273
 21
-12.722877502441406
 31
0.0
  0
LINE
  8
LY_3
  6
CONTINUOUS
 62
             110
  5
8B
 10
186.49999618530273
 20
-6.463592529296875
 30
0.0
 11
192.49999618530273
 21
-6.463592529296875
 31
0.0
  0
LINE
  8
LY_3
  6
CONTINUOUS
 62
              90
  5
8C
 10
180.99999618530273
 20
0.0
 30
0.0
 11
185.99999618530273
 21
0.0
 31
0.0
  0
LINE
  8
LY_3
  6
CONTINUOUS
 62
             110
  5
8D
 10
278.0
 20
-26.5
 30
0.0
 11
263.5
 21
-26.5
 31
0.0
  0
LINE
  8
LY_3
  6
CONTINUOUS
 62
             110
  5
8E
 10
278.0
 20
-27.5
 30
0.0
 11
263.5
 21
-27.5
 31
0.0
  0
LINE
  8
LY_3
  6
CONTINUOUS
 62
             110
  5
8F
 10
278.0
 20
-28.5
 30
0.0
 11
263.5
 21
-28.5
 31
0.0
  0
LINE
  8
LY_3
  6
CONTINUOUS
 62
             110
  5
90
 10
278.0
 20
-29.5
 30
0.0
 11
263.5
 21
-29.5
 31
0.0
  0
LINE
  8
LY_3
  6
CONTINUOUS
 62
             110
  5
91
 10
278.0
 20
-30.5
 30
0.0
 11
263.5
 21
-30.5
 31
0.0
  0
LINE
  8
LY_3
  6
CONTINUOUS
 62
             110
  5
92
 10
278.0
 20
-31.5
 30
0.0
 11
263.5
 21
-31.5
 31
0.0
  0
LINE
  8
LY_3
  6
CONTINUOUS
 62
             110
  5
93
 10
278.0
 20
-32.5
 30
0.0
 11
263.5
 21
-32.5
 31
0.0
  0
LINE
  8
LY_3
  6
CONTINUOUS
 62
             110
  5
94
 10
278.0
 20
-33.5
 30
0.0
 11
263.5
 21
-33.5
 31
0.0
  0
LINE
  8
LY_3
  6
CONTINUOUS
 62
             110
  5
95
 10
278.0
 20
-34.5
 30
0.0
 11
263.5
 21
-34.5
 31
0.0
  0
LINE
  8
LY_3
  6
CONTINUOUS
 62
             110
  5
96
 10
278.0
 20
-35.5
 30
0.0
 11
263.5
 21
-35.5
 31
0.0
  0
LINE
  8
LY_3
  6
CONTINUOUS
 62
               3
  5
97
 10
278.0
 20
36.5
 30
0.0
 11
263.5
 21
36.5
 31
0.0
  0
LINE
  8
LY_3
  6
CONTINUOUS
 62
               3
  5
98
 10
278.0
 20
-36.5
 30
0.0
 11
263.5
 21
-36.5
 31
0.0
  0
LINE
  8
LY_3
  6
CONTINUOUS
 62
               3
  5
99
 10
263.5
 20
36.5
 30
0.0
 11
263.5
 21
-36.499984741210937
 31
0.0
  0
LINE
  8
LY_3
  6
CONTINUOUS
 62
               3
  5
9A
 10
257.82843017578125
 20
32.5
 30
0.0
 11
257.82843017578125
 21
-32.5
 31
0.0
  0
LINE
  8
LY_3
  6
CONTINUOUS
 62
               3
  5
9B
 10
252.0
 20
32.5
 30
0.0
 11
252.0
 21
-32.5
 31
0.0
  0
LINE
  8
LY_3
  6
CONTINUOUS
 62
               3
  5
9C
 10
196.99999523162842
 20
36.5
 30
0.0
 11
196.99999523162842
 21
-36.5
 31
0.0
  0
LINE
  8
LY_3
  6
CONTINUOUS
 62
               3
  5
9D
 10
175.99999618530273
 20
36.5
 30
0.0
 11
175.99999618530273
 21
-36.5
 31
0.0
  0
LINE
  8
LY_3
  6
CONTINUOUS
 62
               3
  5
9E
 10
167.99999618530273
 20
22.5
 30
0.0
 11
167.99999618530273
 21
-22.5
 31
0.0
  0
LINE
  8
LY_3
  6
CONTINUOUS
 62
               3
  5
9F
 10
131.90000152587891
 20
34.649993896484375
 30
0.0
 11
131.90000152587891
 21
-34.650001525878906
 31
0.0
  0
LINE
  8
LY_3
  6
CONTINUOUS
 62
               3
  5
A0
 10
120.79997253417969
 20
34.649993896484375
 30
0.0
 11
120.79997253417969
 21
-34.650001525878906
 31
0.0
  0
LINE
  8
LY_3
  6
CONTINUOUS
 62
               3
  5
A1
 10
196.99999853941927
 20
-36.499996538611185
 30
0.0
 11
197.99999420621225
 21
-35.500000787524868
 31
0.0
  0
LINE
  8
LY_3
  6
CONTINUOUS
 62
               3
  5
A2
 10
186.49999618530273
 20
-36.5
 30
0.0
 11
196.99999618530273
 21
-36.5
 31
0.0
  0
LINE
  8
LY_3
  6
CONTINUOUS
 62
               3
  5
A3
 10
185.99999618530273
 20
-34.25
 30
0.0
 11
186.49999618530273
 21
-34.25
 31
0.0
  0
LINE
  8
LY_3
  6
CONTINUOUS
 62
               3
  5
A4
 10
175.99999618530273
 20
-36.5
 30
0.0
 11
185.99999618530273
 21
-36.5
 31
0.0
  0
LINE
  8
LY_3
  6
CONTINUOUS
 62
               3
  5
A5
 10
175.999996307939
 20
-36.499998730247171
 30
0.0
 11
174.9999952463495
 21
-35.499997584363882
 31
0.0
  0
LINE
  8
LY_3
  6
CONTINUOUS
 62
               3
  5
A6
 10
167.99999618530273
 20
-22.5
 30
0.0
 11
174.99999618530273
 21
-22.5
 31
0.0
  0
LINE
  8
LY_3
  6
CONTINUOUS
 62
               3
  5
A7
 10
167.99999616029891
 20
-22.499996427754695
 30
0.0
 11
166.99999509870941
 21
-21.499995281871406
 31
0.0
  0
LINE
  8
LY_3
  6
CONTINUOUS
 62
               3
  5
A8
 10
186.49999618530273
 20
-36.5
 30
0.0
 11
186.49999618530273
 21
36.5
 31
0.0
  0
LINE
  8
LY_3
  6
CONTINUOUS
 62
               3
  5
A9
 10
285.0
 20
-34.5
 30
0.0
 11
285.0
 21
34.5
 31
0.0
  0
LINE
  8
LY_3
  6
CONTINUOUS
 62
               3
  5
AA
 10
262.50000196625655
 20
-35.499985087740697
 30
0.0
 11
263.50000943417348
 21
-36.499990616890045
 31
0.0
  0
LINE
  8
LY_3
  6
CONTINUOUS
 62
               3
  5
AB
 10
263.49999853921508
 20
36.499997717535734
 30
0.0
 11
262.49999655039392
 21
35.499997583177901
 31
0.0
  0
LINE
  8
LY_3
  6
CONTINUOUS
 62
               3
  5
AC
 10
283.0
 20
-36.5
 30
0.0
 11
280.0
 21
-36.5
 31
0.0
  0
LINE
  8
LY_3
  6
CONTINUOUS
 62
               3
  5
AD
 10
283.0
 20
36.5
 30
0.0
 11
280.0
 21
36.5
 31
0.0
  0
LINE
  8
LY_3
  6
CONTINUOUS
 62
               3
  5
AE
 10
262.5
 20
-35.499984741210938
 30
0.0
 11
262.5
 21
35.5
 31
0.0
  0
LINE
  8
LY_3
  6
CONTINUOUS
 62
               3
  5
AF
 10
279.0
 20
35.5
 30
0.0
 11
279.0
 21
-35.5
 31
0.0
  0
LINE
  8
LY_3
  6
CONTINUOUS
 62
               3
  5
B0
 10
196.99999558913942
 20
36.500000035474841
 30
0.0
 11
197.99999665072892
 21
35.499998889591552
 31
0.0
  0
LINE
  8
LY_3
  6
CONTINUOUS
 62
               3
  5
B1
 10
186.49999618530273
 20
36.5
 30
0.0
 11
196.99999618530273
 21
36.5
 31
0.0
  0
LINE
  8
LY_3
  6
CONTINUOUS
 62
               3
  5
B2
 10
197.99999618530273
 20
-35.5
 30
0.0
 11
197.99999618530273
 21
35.5
 31
0.0
  0
LINE
  8
LY_3
  6
CONTINUOUS
 62
               3
  5
B3
 10
257.82842254638672
 20
32.5
 30
0.0
 11
262.5
 21
32.5
 31
0.0
  0
LINE
  8
LY_3
  6
CONTINUOUS
 62
               3
  5
B4
 10
257.82842254638672
 20
-32.5
 30
0.0
 11
262.5
 21
-32.5
 31
0.0
  0
LINE
  8
LY_3
  6
CONTINUOUS
 62
               3
  5
B5
 10
197.99999618530273
 20
32.5
 30
0.0
 11
252.17156982421875
 21
32.5
 31
0.0
  0
LINE
  8
LY_3
  6
CONTINUOUS
 62
               3
  5
B6
 10
197.99999618530273
 20
-32.5
 30
0.0
 11
252.17156982421875
 21
-32.5
 31
0.0
  0
LINE
  8
LY_3
  6
CENTER
 62
             110
  5
B7
 10
63.781280517578125
 20
0.0
 30
0.0
 11
300.0
 21
0.0
 31
0.0
  0
LINE
  8
LY_3
  6
CONTINUOUS
 62
               3
  5
B8
 10
167.99999371578178
 20
22.500005319414868
 30
0.0
 11
166.99999265419228
 21
21.500004173531579
 31
0.0
  0
LINE
  8
LY_3
  6
CONTINUOUS
 62
               3
  5
B9
 10
175.99999656082036
 20
36.500004924509085
 30
0.0
 11
174.99999549923086
 21
35.500003778625796
 31
0.0
  0
LINE
  8
LY_3
  6
CONTINUOUS
 62
               3
  5
BA
 10
185.99999618530273
 20
34.25
 30
0.0
 11
186.49999618530273
 21
34.25
 31
0.0
  0
LINE
  8
LY_3
  6
CONTINUOUS
 62
               3
  5
BB
 10
175.99999618530273
 20
36.5
 30
0.0
 11
185.99999618530273
 21
36.5
 31
0.0
  0
LINE
  8
LY_3
  6
CENTER
 62
             110
  5
BC
 10
170.99999618530273
 20
-4.529449462890625
 30
0.0
 11
170.99999618530273
 21
5.6083526611328125
 31
0.0
  0
LINE
  8
LY_3
  6
CONTINUOUS
 62
               3
  5
BD
 10
167.99999618530273
 20
22.5
 30
0.0
 11
174.99999618530273
 21
22.5
 31
0.0
  0
LINE
  8
LY_3
  6
CONTINUOUS
 62
               3
  5
BE
 10
185.99999618530273
 20
-36.5
 30
0.0
 11
185.99999618530273
 21
36.5
 31
0.0
  0
LINE
  8
LY_3
  6
CONTINUOUS
 62
               3
  5
BF
 10
174.99999618530273
 20
35.5
 30
0.0
 11
174.99999618530273
 21
-35.5
 31
0.0
  0
LINE
  8
LY_3
  6
CENTER
 62
             110
  5
C0
 10
-11.414865989999271
 20
-6.5903800173887248
 30
0.0
 11
-5.8837261179533016
 21
-3.3969748660215373
 31
0.0
  0
LINE
  8
LY_3
  6
CENTER
 62
             110
  5
C1
 10
0.0
 20
40.0
 30
0.0
 11
0.0
 21
-40.0
 31
0.0
  0
LINE
  8
LY_3
  6
CONTINUOUS
 62
               3
  5
C2
 10
8.0
 20
-12.0
 30
0.0
 11
8.0
 21
-12.147407531738281
 31
0.0
  0
LINE
  8
LY_3
  6
CONTINUOUS
 62
               3
  5
C3
 10
-8.0
 20
-12.0
 30
0.0
 11
-8.0
 21
-12.147407531738281
 31
0.0
  0
LINE
  8
LY_3
  6
CONTINUOUS
 62
               3
  5
C4
 10
7.0
 20
-11.0
 30
0.0
 11
-7.0
 21
-11.0
 31
0.0
  0
LINE
  8
LY_3
  6
CONTINUOUS
 62
               3
  5
C5
 10
4.1313546228919904
 20
-14.656907363826804
 30
0.0
 11
5.3158819301122548
 21
-17.197133700664835
 31
0.0
  0
LINE
  8
LY_3
  6
CONTINUOUS
 62
               3
  5
C6
 10
-5.3158895505830515
 20
-17.197134358663789
 30
0.0
 11
-4.1313638555238867
 21
-14.656911479115479
 31
0.0
  0
LINE
  8
LY_3
  6
CENTER
 62
             110
  5
C7
 10
17.697503113202174
 20
-30.652954880659536
 30
0.0
 11
12.42195545672007
 21
-21.515439555160583
 31
0.0
  0
LINE
  8
LY_3
  6
CENTER
 62
             110
  5
C8
 10
18.219556439709777
 20
31.557183699298548
 30
0.0
 11
12.409352194833446
 21
21.493616125114386
 31
0.0
  0
LINE
  8
LY_3
  6
CENTER
 62
             110
  5
C9
 10
40.0
 20
0.0
 30
0.0
 11
0.0
 21
0.0
 31
0.0
  0
LINE
  8
LY_3
  6
CENTER
 62
             110
  5
CA
 10
-17.69749343519743
 20
-30.652963009436462
 30
0.0
 11
-12.421949593413046
 21
-21.51545429118687
 31
0.0
  0
LINE
  8
LY_3
  6
CENTER
 62
             110
  5
CB
 10
-18.219544854356172
 20
31.557188524450794
 30
0.0
 11
-12.409340609479841
 21
21.493620950266632
 31
0.0
  0
LINE
  8
LY_3
  6
CENTER
 62
             110
  5
CC
 10
11.90309326843726
 20
-6.8722521110662456
 30
0.0
 11
5.8979096837392717
 21
-3.4051576896795268
 31
0.0
  0
LINE
  8
LY_3
  6
CONTINUOUS
 62
               3
  5
CD
 10
132.69999694824219
 20
-20.0
 30
0.0
 11
166.99999618530273
 21
-20.0
 31
0.0
  0
LINE
  8
LY_3
  6
CONTINUOUS
 62
               3
  5
CE
 10
166.99999618530273
 20
21.5
 30
0.0
 11
166.99999618530273
 21
-21.5
 31
0.0
  0
LINE
  8
LY_3
  6
CONTINUOUS
 62
               3
  5
CF
 10
132.69999694824219
 20
20.0
 30
0.0
 11
166.99999618530273
 21
20.0
 31
0.0
  0
LINE
  8
LY_3
  6
CENTER
 62
             110
  5
D0
 10
-40.0
 20
0.0
 30
0.0
 11
0.0
 21
0.0
 31
0.0
  0
LINE
  8
LY_3
  6
CONTINUOUS
 62
               3
  5
D1
 10
132.7000073994268
 20
-33.8500085356809
 30
0.0
 11
131.90000668502535
 21
-34.650007361904045
 31
0.0
  0
LINE
  8
LY_3
  6
CONTINUOUS
 62
               3
  5
D2
 10
119.99997183234996
 20
-33.850028951695776
 30
0.0
 11
120.79997119805262
 21
-34.65002912661771
 31
0.0
  0
LINE
  8
LY_3
  6
CONTINUOUS
 62
               3
  5
D3
 10
120.79999649671458
 20
34.650009305810727
 30
0.0
 11
119.99999632179265
 21
33.850009872673127
 31
0.0
  0
LINE
  8
LY_3
  6
CONTINUOUS
 62
               3
  5
D4
 10
132.70000369051195
 20
33.849993403980989
 30
0.0
 11
131.89999758130762
 21
34.649997624994285
 31
0.0
  0
LINE
  8
LY_3
  6
CONTINUOUS
 62
               3
  5
D5
 10
132.69999694824219
 20
-33.850006103515625
 30
0.0
 11
132.69999694824219
 21
33.850006103515625
 31
0.0
  0
LINE
  8
LY_3
  6
CONTINUOUS
 62
               3
  5
D6
 10
120.0
 20
-33.850006103515625
 30
0.0
 11
120.0
 21
33.850006103515625
 31
0.0
  0
LINE
  8
LY_3
  6
CENTER
 62
             110
  5
D7
 10
115.0
 20
-29.349998474121094
 30
0.0
 11
137.5
 21
-29.349998474121094
 31
0.0
  0
LINE
  8
LY_3
  6
CENTER
 62
             110
  5
D8
 10
115.0
 20
29.350006103515625
 30
0.0
 11
137.5
 21
29.350006103515625
 31
0.0
  0
LINE
  8
LY_3
  6
CONTINUOUS
 62
               3
  5
D9
 10
120.80000305175781
 20
34.649993896484375
 30
0.0
 11
131.90000152587891
 21
34.649993896484375
 31
0.0
  0
LINE
  8
LY_3
  6
CONTINUOUS
 62
               3
  5
DA
 10
120.79999542236328
 20
-34.650001525878906
 30
0.0
 11
131.90000152587891
 21
-34.650001525878906
 31
0.0
  0
LINE
  8
LY_3
  6
CONTINUOUS
 62
               3
  5
DB
 10
-3.0
 20
4.0000019073486328
 30
0.0
 11
3.0
 21
4.0000019073486328
 31
0.0
  0
ARC
  8
LY_3
  6
CONTINUOUS
 62
               3
  5
DC
 10
292.89995574951172
 20
3.5
 30
0.0
 40
1.0
 50
90.000002504478161
 51
180.00000500895632
  0
ARC
  8
LY_3
  6
CONTINUOUS
 62
               3
  5
DD
 10
296.49995422363281
 20
-3.5
 30
0.0
 40
1.0
 50
269.99999749552182
 51
0.0
  0
ARC
  8
LY_3
  6
CONTINUOUS
 62
               3
  5
DE
 10
292.89995574951172
 20
-3.5
 30
0.0
 40
1.0
 50
179.99999134857799
 51
270.00000068324533
  0
ARC
  8
LY_3
  6
CONTINUOUS
 62
               3
  5
DF
 10
296.49995422363281
 20
3.5
 30
0.0
 40
1.0
 50
0.0
 51
90.000002504478161
  0
CIRCLE
  8
LY_3
  6
CONTINUOUS
 62
               3
  5
E0
 10
228.49999618530273
 20
0.0
 30
0.0
 40
1.6000000238418579
  0
CIRCLE
  8
LY_3
  6
CONTINUOUS
 62
             110
  5
E1
 10
228.49999618530273
 20
0.0
 30
0.0
 40
2.0
  0
CIRCLE
  8
LY_3
  6
CONTINUOUS
 62
               3
  5
E2
 10
170.99999618530273
 20
0.0
 30
0.0
 40
1.2000000476837158
  0
CIRCLE
  8
LY_3
  6
CONTINUOUS
 62
             110
  5
E3
 10
170.99999618530273
 20
0.0
 30
0.0
 40
1.5
  0
ARC
  8
LY_3
  6
CONTINUOUS
 62
               3
  5
E4
 10
283.0
 20
-34.5
 30
0.0
 40
2.0
 50
269.99999749552182
 51
0.0
  0
ARC
  8
LY_3
  6
CONTINUOUS
 62
               3
  5
E5
 10
283.0
 20
34.5
 30
0.0
 40
2.0
 50
0.0
 51
90.000002504478161
  0
ARC
  8
LY_3
  6
CONTINUOUS
 62
               3
  5
E6
 10
255.0
 20
-33.5
 30
0.0
 40
3.0
 50
19.471224955663672
 51
160.52878859102913
  0
ARC
  8
LY_3
  6
CONTINUOUS
 62
               3
  5
E7
 10
255.0
 20
33.5
 30
0.0
 40
3.0
 50
199.47121140897087
 51
340.52877504433633
  0
CIRCLE
  8
LY_3
  6
CONTINUOUS
 62
               3
  5
E8
 10
0.0
 20
0.0
 30
0.0
 40
5.0
  0
CIRCLE
  8
LY_3
  6
CONTINUOUS
 62
             110
  5
E9
 10
-8.660247802734375
 20
-5.0
 30
0.0
 40
1.5
  0
CIRCLE
  8
LY_3
  6
CONTINUOUS
 62
               3
  5
EA
 10
-8.660247802734375
 20
-5.0
 30
0.0
 40
1.2000000476837158
  0
CIRCLE
  8
LY_3
  6
CONTINUOUS
 62
             110
  5
EB
 10
0.0
 20
10.0
 30
0.0
 40
1.5
  0
CIRCLE
  8
LY_3
  6
CONTINUOUS
 62
               3
  5
EC
 10
0.0
 20
10.0
 30
0.0
 40
1.2000000476837158
  0
CIRCLE
  8
LY_3
  6
CONTINUOUS
 62
               3
  5
ED
 10
8.660247802734375
 20
-5.0
 30
0.0
 40
1.2000000476837158
  0
CIRCLE
  8
LY_3
  6
CONTINUOUS
 62
             110
  5
EE
 10
8.660247802734375
 20
-5.0
 30
0.0
 40
1.5
  0
CIRCLE
  8
LY_3
  6
CENTER
 62
             110
  5
EF
 10
0.0
 20
0.0
 30
0.0
 40
10.0
  0
ARC
  8
LY_3
  6
CONTINUOUS
 62
               3
  5
F0
 10
7.0
 20
-12.0
 30
0.0
 40
1.0
 50
0.0
 51
90.000002504478161
  0
ARC
  8
LY_3
  6
CONTINUOUS
 62
               3
  5
F1
 10
-7.0
 20
-12.0
 30
0.0
 40
1.0
 50
90.000002504478161
 51
180.00000500895632
  0
ARC
  8
LY_3
  6
CONTINUOUS
 62
               3
  5
F2
 10
9.6306304931640625
 20
-11.814903259277344
 30
0.0
 40
1.2999999523162842
 50
221.71951444153356
 51
311.35817603325597
  0
ARC
  8
LY_3
  6
CONTINUOUS
 62
               3
  5
F3
 10
-9.6306304931640625
 20
-11.814903259277344
 30
0.0
 40
1.2999999523162842
 50
228.64180188231478
 51
318.28046688913173
  0
ARC
  8
LY_3
  6
CONTINUOUS
 62
               3
  5
F4
 10
6.719635009765625
 20
-14.410293579101563
 30
0.0
 40
2.5999999046325684
 50
41.719519450489905
 51
185.44276419248607
  0
ARC
  8
LY_3
  6
CONTINUOUS
 62
               3
  5
F5
 10
-6.719635009765625
 20
-14.410293579101563
 30
0.0
 40
2.5999999046325684
 50
354.55719343203299
 51
138.28049921884477
  0
CIRCLE
  8
LY_3
  6
CONTINUOUS
 62
               3
  5
F6
 10
6.719635009765625
 20
-14.410293579101563
 30
0.0
 40
1.25
  0
CIRCLE
  8
LY_3
  6
CONTINUOUS
 62
               3
  5
F7
 10
-6.719635009765625
 20
-14.410293579101563
 30
0.0
 40
1.25
  0
ARC
  8
LY_3
  6
CONTINUOUS
 62
               3
  5
F8
 10
0.0
 20
-0.875
 30
0.0
 40
15.875
 50
311.35817603325597
 51
228.64178457947077
  0
CIRCLE
  8
LY_3
  6
CONTINUOUS
 62
               3
  5
F9
 10
0.0
 20
0.0
 30
0.0
 40
18.0
  0
CIRCLE
  8
LY_3
  6
CONTINUOUS
 62
               3
  5
FA
 10
0.0
 20
0.0
 30
0.0
 40
19.0
  0
CIRCLE
  8
LY_3
  6
CONTINUOUS
 62
               3
  5
FB
 10
0.0
 20
0.0
 30
0.0
 40
20.0
  0
CIRCLE
  8
LY_3
  6
CONTINUOUS
 62
               3
  5
FC
 10
0.0
 20
0.0
 30
0.0
 40
22.501522064208984
  0
CIRCLE
  8
LY_3
  6
CONTINUOUS
 62
               3
  5
FD
 10
0.0
 20
0.0
 30
0.0
 40
24.150001525878906
  0
CIRCLE
  8
LY_3
  6
CONTINUOUS
 62
               3
  5
FE
 10
14.675003051757812
 20
-25.4178466796875
 30
0.0
 40
3.4000000953674316
  0
CIRCLE
  8
LY_3
  6
CONTINUOUS
 62
               3
  5
FF
 10
29.350006103515625
 20
0.0
 30
0.0
 40
3.4000000953674316
  0
CIRCLE
  8
LY_3
  6
CONTINUOUS
 62
               3
  5
100
 10
14.675003051757812
 20
25.417842864990234
 30
0.0
 40
3.4000000953674316
  0
CIRCLE
  8
LY_3
  6
CENTER
 62
             110
  5
101
 10
0.0
 20
0.0
 30
0.0
 40
29.350000381469727
  0
CIRCLE
  8
LY_3
  6
CONTINUOUS
 62
               3
  5
102
 10
0.0
 20
0.0
 30
0.0
 40
34.650001525878906
  0
CIRCLE
  8
LY_3
  6
CONTINUOUS
 62
               3
  5
103
 10
-14.675003051757812
 20
-25.4178466796875
 30
0.0
 40
3.4000000953674316
  0
CIRCLE
  8
LY_3
  6
CONTINUOUS
 62
               3
  5
104
 10
-29.350006103515625
 20
0.0
 30
0.0
 40
3.4000000953674316
  0
CIRCLE
  8
LY_3
  6
CONTINUOUS
 62
               3
  5
105
 10
-14.675003051757812
 20
25.417842864990234
 30
0.0
 40
3.4000000953674316
  0
TEXT
  8
LY_3
  6
CONTINUOUS
 62
             110
  5
106
 10
196.34999620914459
 20
34.301900148391724
 30
0.0
 40
3.2000000476837158
  1
29
 50
90.0
 41
0.0911410884389119
  7
MX_NOTE_STANDARD
 72
               1
 11
194.74999618530273
 21
34.593551635742187
 31
0.0
 73
               2
  0
TEXT
  8
LY_3
  6
CONTINUOUS
 62
             110
  5
107
 10
196.34999620914459
 20
31.518556654453278
 30
0.0
 40
3.2000000476837158
  1
30
 50
90.0
 41
0.1590826084976199
  7
MX_NOTE_STANDARD
 72
               1
 11
194.74999618530273
 21
31.985198974609375
 31
0.0
 73
               2
  0
TEXT
  8
LY_3
  6
CONTINUOUS
 62
             110
  5
108
 10
196.34999620914459
 20
27.490874886512756
 30
0.0
 40
3.2000000476837158
  1
31
 50
90.0
 41
0.3281079591722141
  7
MX_NOTE_STANDARD
 72
               1
 11
194.74999618530273
 21
28.365829467773438
 31
0.0
 73
               2
  0
TEXT
  8
LY_3
  6
CONTINUOUS
 62
             110
  5
109
 10
196.34999620914459
 20
22.683247566223145
 30
0.0
 40
3.2000000476837158
  1
32
 50
90.0
 41
0.3645643537556476
  7
MX_NOTE_STANDARD
 72
               1
 11
194.74999618530273
 21
23.849853515625
 31
0.0
 73
               2
  0
TEXT
  8
LY_3
  6
CONTINUOUS
 62
             110
  5
10A
 10
196.34999620914459
 20
17.12175977230072
 30
0.0
 40
3.2000000476837158
  1
33
 50
90.0
 41
0.4557054049416571
  7
MX_NOTE_STANDARD
 72
               1
 11
194.74999618530273
 21
18.58001708984375
 31
0.0
 73
               2
  0
TEXT
  8
LY_3
  6
CONTINUOUS
 62
             110
  5
10B
 10
196.34999620914459
 20
10.972961068153381
 30
0.0
 40
3.2000000476837158
  1
34
 50
90.0
 41
0.546846493380569
  7
MX_NOTE_STANDARD
 72
               1
 11
194.74999618530273
 21
12.722869873046875
 31
0.0
 73
               2
  0
TEXT
  8
LY_3
  6
CONTINUOUS
 62
             110
  5
10C
 10
196.34999620914459
 20
4.4220321178436279
 30
0.0
 40
3.2000000476837158
  1
35
 50
90.0
 41
0.6379876190723833
  7
MX_NOTE_STANDARD
 72
               1
 11
194.74999618530273
 21
6.463592529296875
 31
0.0
 73
               2
  0
TEXT
  8
LY_3
  6
CONTINUOUS
 62
             110
  5
10D
 10
196.34999620914459
 20
-34.926877319812775
 30
0.0
 40
3.2000000476837158
  1
7
 50
90.0
 41
0.2083333250549108
  7
MX_NOTE_STANDARD
 72
               1
 11
194.74999618530273
 21
-34.593544006347656
 31
0.0
 73
               2
  0
TEXT
  8
LY_3
  6
CONTINUOUS
 62
             110
  5
10E
 10
196.34999620914459
 20
-32.651857972145081
 30
0.0
 40
3.2000000476837158
  1
6
 50
90.0
 41
0.4166666501098215
  7
MX_NOTE_STANDARD
 72
               1
 11
194.74999618530273
 21
-31.985191345214844
 31
0.0
 73
               2
  0
TEXT
  8
LY_3
  6
CONTINUOUS
 62
             110
  5
10F
 10
196.34999620914459
 20
-29.365829467773437
 30
0.0
 40
3.2000000476837158
  1
5
 50
90.0
 41
0.6249999751647323
  7
MX_NOTE_STANDARD
 72
               1
 11
194.74999618530273
 21
-28.365829467773438
 31
0.0
 73
               2
  0
TEXT
  8
LY_3
  6
CONTINUOUS
 62
             110
  5
110
 10
196.34999620914459
 20
-25.183186769485474
 30
0.0
 40
3.2000000476837158
  1
4
 50
90.0
 41
0.833333300219643
  7
MX_NOTE_STANDARD
 72
               1
 11
194.74999618530273
 21
-23.849853515625
 31
0.0
 73
               2
  0
TEXT
  8
LY_3
  6
CONTINUOUS
 62
             110
  5
111
 10
196.34999620914459
 20
-19.913342714309692
 30
0.0
 40
3.2000000476837158
  1
3
 50
90.0
 41
0.833333300219643
  7
MX_NOTE_STANDARD
 72
               1
 11
194.74999618530273
 21
-18.580009460449219
 31
0.0
 73
               2
  0
TEXT
  8
LY_3
  6
CONTINUOUS
 62
             110
  5
112
 10
196.34999620914459
 20
-14.246877431869507
 30
0.0
 40
3.2000000476837158
  1
2
 50
90.0
 41
0.9524999677141519
  7
MX_NOTE_STANDARD
 72
               1
 11
194.74999618530273
 21
-12.722877502441406
 31
0.0
 73
               2
  0
TEXT
  8
LY_3
  6
CONTINUOUS
 62
             110
  5
113
 10
196.34999620914459
 20
-8.0635925531387329
 30
0.0
 40
3.2000000476837158
  1
1
 50
90.0
 41
1.5749998785555428
  7
MX_NOTE_STANDARD
 72
               1
 11
194.74999618530273
 21
-6.463592529296875
 31
0.0
 73
               2
  0
TEXT
  8
LY_3
  6
CONTINUOUS
 62
             110
  5
114
 10
196.14999544620514
 20
-1.3240029811859131
 30
0.0
 40
3.2000000476837158
  1
0
 50
90.0
 41
1.1429999885082256
  7
MX_NOTE_STANDARD
 72
               1
 11
194.54999542236328
 21
0.1999969482421875
 31
0.0
 73
               2
  0
TEXT
  8
LY_3
  6
CONTINUOUS
 62
             110
  5
115
 10
179.89999544620514
 20
-1.3240029811859131
 30
0.0
 40
3.2000000476837158
  1
0
 50
90.0
 41
1.1429999885082256
  7
MX_NOTE_STANDARD
 72
               1
 11
178.29999542236328
 21
0.1999969482421875
 31
0.0
 73
               2
  0
POLYLINE
  8
LY_3
  6
CONTINUOUS
 62
             110
  5
116
 66
               1
 10
0.0
 20
0.0
 30
0.0
  0
VERTEX
  8
LY_3
  6
CONTINUOUS
 62
             110
  5
199
 10
126.35000228881836
 20
34.649993896484375
 30
0.0
  0
VERTEX
  8
LY_3
  6
CONTINUOUS
 62
             110
  5
19A
 10
130.0
 20
50.0
 30
0.0
  0
VERTEX
  8
LY_3
  6
CONTINUOUS
 62
             110
  5
19B
 10
148.35957026481628
 20
50.0
 30
0.0
  0
SEQEND
  8
LY_3
  6
CONTINUOUS
 62
             110
  5
19C
  0
TEXT
  8
LY_3
  6
CONTINUOUS
 62
             110
  5
117
 10
132.91609177670543
 20
51.800000071525574
 30
0.0
 40
3.2000000476837158
  1
CF70
 41
1.0434782662779258
  7
MX_NOTE_STANDARD
 11
132.91609177670543
 21
53.400000095367432
 31
0.0
 73
               2
  0
DIMENSION
  8
LY_3
  6
CONTINUOUS
 62
             110
  5
125
  2
*D2
 10
60.0
 20
4.0000031743088584
 30
0.0
 11
60.0
 21
-9.1567808833083291
 31
0.0
 70
             128
  1
<>
 13
70.300009727478027
 23
-4.9999987330397744
 33
0.0
 14
70.300002098083496
 24
4.0000031743088584
 34
0.0
 50
90.0
  3
MXDIMSTYLE
1001
ACAD
1000
DSTYLE
1002
{
1070
              41
1040
2.77
1070
              42
1040
2.5399999618530273
1070
              44
1040
2.2859992980957031
1070
              75
1070
               1
1070
             140
1040
3.2000000476837158
1070
             271
1070
               0
1070
             284
1070
               8
1070
             340
1005
11F
1002
}
  0
DIMENSION
  8
LY_3
  6
CONTINUOUS
 62
             110
  5
136
  2
*D3
 10
50.0
 20
5.0000031743088584
 30
0.0
 11
50.0
 21
-18.326458617683329
 31
0.0
 70
             128
  1
%%c<>
 13
70.300010681152344
 23
-4.9999987330397744
 33
0.0
 14
90.000007629394531
 24
5.0000031743088584
 34
0.0
 50
90.0
  3
MXDIMSTYLE
1001
ACAD
1000
DSTYLE
1002
{
1070
              41
1040
2.77
1070
              42
1040
2.5399999618530273
1070
              44
1040
2.2860107421875
1070
              47
1040
-0.01
1070
              48
1040
0.02
1070
              71
1070
               1
1070
             140
1040
3.2000000476837158
1070
             146
1040
0.75
1070
             271
1070
               0
1070
             283
1070
               1
1070
             284
1070
               8
1070
             340
1005
12E
1002
}
  0
LINE
  8
LY_3
  6
CONTINUOUS
 62
               3
  5
137
 10
70.300002165856085
 20
4.0000031743088584
 30
0.0
 11
70.300002165856085
 21
-4.9999987330397744
 31
0.0
  0
LINE
  8
LY_3
  6
CONTINUOUS
 62
               3
  5
138
 10
70.000006743492804
 20
3.7000039372483116
 30
0.0
 11
70.000006743492804
 21
-4.6999994959792275
 31
0.0
  0
LINE
  8
LY_3
  6
CONTINUOUS
 62
               3
  5
139
 10
90.000006743492804
 20
5.0000031743088584
 30
0.0
 11
120.0
 21
5.0000031743088584
 31
0.0
  0
LINE
  8
LY_3
  6
CONTINUOUS
 62
               3
  5
13A
 10
90.000006743492804
 20
5.0000031743088584
 30
0.0
 11
90.000006743492804
 21
4.0000031743088584
 31
0.0
  0
LINE
  8
LY_3
  6
CONTINUOUS
 62
               3
  5
13B
 10
70.3000079710298
 20
4.0000056647731981
 30
0.0
 11
70.000001414789722
 21
3.7000029270966479
 31
0.0
  0
LINE
  8
LY_3
  6
CONTINUOUS
 62
               3
  5
13C
 10
70.300002165856085
 20
4.0000031743088584
 30
0.0
 11
90.000006743492804
 21
4.0000031743088584
 31
0.0
  0
LINE
  8
LY_3
  6
CONTINUOUS
 62
               3
  5
13D
 10
70.300009795250617
 20
-4.9999987330397744
 30
0.0
 11
120.0
 21
-4.9999987330397744
 31
0.0
  0
LINE
  8
LY_3
  6
CONTINUOUS
 62
               3
  5
13E
 10
70.000000108232825
 20
-4.7000032341898077
 30
0.0
 11
70.300001269641825
 21
-5.0000005771039469
 31
0.0
  0
DIMENSION
  8
LY_3
  6
CONTINUOUS
 62
             110
  5
14B
  2
*D4
 10
70.000006743492804
 20
-60.0
 30
0.0
 11
95.000003814697266
 21
-60.0
 31
0.0
 70
             128
  1
<>
 13
120.0
 23
-33.850006103515625
 33
0.0
 14
70.000006743492804
 24
-4.7000007629394531
 34
0.0
  3
MXDIMSTYLE
1001
ACAD
1000
DSTYLE
1002
{
1070
              41
1040
2.77
1070
             140
1040
3.2000000476837158
1070
             271
1070
               4
1070
             284
1070
               8
1002
}
  0
DIMENSION
  8
LY_3
  6
CONTINUOUS
 62
             110
  5
157
  2
*D5
 10
120.0
 20
-60.0
 30
0.0
 11
202.5
 21
-60.0
 31
0.0
 70
             128
  1
<>
 13
285.0
 23
-34.5
 33
0.0
 14
120.0
 24
-35.850006103515625
 34
0.0
  3
MXDIMSTYLE
1001
ACAD
1000
DSTYLE
1002
{
1070
              41
1040
2.77
1070
              76
1070
               1
1070
             140
1040
3.2000000476837158
1070
             271
1070
               4
1070
             284
1070
               8
1070
             340
1005
12E
1002
}
  0
DIMENSION
  8
LY_3
  6
CONTINUOUS
 62
             110
  5
164
  2
*D6
 10
285.0
 20
-60.0
 30
0.0
 11
291.24997711181641
 21
-60.0
 31
0.0
 70
             128
  1
<>
 13
297.49995422363281
 23
-3.5
 33
0.0
 14
285.0
 24
-36.5
 34
0.0
  3
MXDIMSTYLE
1001
ACAD
1000
DSTYLE
1002
{
1070
              41
1040
2.77
1070
              76
1070
               1
1070
             140
1040
3.2000000476837158
1070
             271
1070
               4
1070
             284
1070
               8
1070
             340
1005
15E
1002
}
  0
DIMENSION
  8
LY_3
  6
CONTINUOUS
 62
             110
  5
171
  2
*D7
 10
120.0
 20
-50.0
 30
0.0
 11
147.49999809265137
 21
-50.0
 31
0.0
 70
             128
  1
(<>
 13
174.99999618530273
 23
-35.5
 33
0.0
 14
120.0
 24
-35.850006103515625
 34
0.0
  3
MXDIMSTYLE
1001
ACAD
1000
DSTYLE
1002
{
1070
              41
1040
2.77
1070
              76
1070
               1
1070
             140
1040
3.2000000476837158
1070
             271
1070
               4
1070
             284
1070
               8
1070
             340
1005
16B
1002
}
  0
DIMENSION
  8
LY_3
  6
CONTINUOUS
 62
             110
  5
17D
  2
*D8
 10
174.99999618530273
 20
-50.0
 30
0.0
 11
230.0
 21
-50.0
 31
0.0
 70
             128
  1
<>
 13
285.0
 23
-36.5
 33
0.0
 14
174.99999618530273
 24
-50.0
 34
0.0
  3
MXDIMSTYLE
1001
ACAD
1000
DSTYLE
1002
{
1070
              41
1040
2.77
1070
              75
1070
               1
1070
              76
1070
               1
1070
             140
1040
3.2000000476837158
1070
             271
1070
               4
1070
             284
1070
               8
1070
             340
1005
177
1002
}
  0
DIMENSION
  8
LY_3
  6
CONTINUOUS
 62
             110
  5
18A
  2
*D9
 10
320.0
 20
-36.5
 30
0.0
 11
320.0
 21
1.06060791015625
 31
0.0
 70
             128
  1
%%c<>
 13
283.0
 23
36.5
 33
0.0
 14
283.0
 24
-36.5
 34
0.0
 50
90.0
  3
MXDIMSTYLE
1001
ACAD
1000
DSTYLE
1002
{
1070
              41
1040
2.77
1070
             140
1040
3.2000000476837158
1070
             271
1070
               4
1070
             284
1070
               8
1070
             340
1005
11F
1002
}
  0
DIMENSION
  8
LY_3
  6
CONTINUOUS
 62
             110
  5
197
  2
*D10
 10
150.0
 20
36.5
 30
0.0
 11
150.0
 21
12.110641479492188
 31
0.0
 70
             128
  1
%%c<>
 13
175.99999618530273
 23
-36.5
 33
0.0
 14
175.99999618530273
 24
36.5
 34
0.0
 50
90.0
  3
MXDIMSTYLE
1001
ACAD
1000
DSTYLE
1002
{
1070
              41
1040
2.77
1070
             140
1040
3.2000000476837158
1070
             271
1070
               4
1070
             284
1070
               8
1070
             340
1005
11F
1002
}
  0
ENDSEC
  0
EOF
