  0
SECTION
  2
HEADER
  9
$ACADVER
  1
AC1009
  9
$DWGCODEPAGE
  3
dos932
  9
$INSBASE
 10
0.0
 20
0.0
 30
0.0
  9
$EXTMIN
 10
-19.0
 20
-41.0
 30
0.0
  9
$EXTMAX
 10
231.0
 20
36.066666841506958
 30
0.0
  9
$LIMMIN
 10
-19.0
 20
-41.0
  9
$LIMMAX
 10
231.0
 20
36.066666841506958
  9
$ORTHOMODE
 70
               0
  9
$REGENMODE
 70
               1
  9
$FILLMODE
 70
               1
  9
$QTEXTMODE
 70
               0
  9
$MIRRTEXT
 70
               1
  9
$DRAGMODE
 70
               2
  9
$LTSCALE
 40
1.0
  9
$OSMODE
 70
               0
  9
$ATTMODE
 70
               1
  9
$TEXTSIZE
 40
3.2000000476837158
  9
$TRACEWID
 40
0.05
  9
$TEXTSTYLE
  7
MX_NOTE_STANDARD
  9
$CLAYER
  8
LY_3
  9
$CELTYPE
  6
CONTINUOUS
  9
$CECOLOR
 62
             256
  9
$DIMSCALE
 40
1.0
  9
$DIMASZ
 40
2.5
  9
$DIMEXO
 40
2.0
  9
$DIMDLI
 40
3.75
  9
$DIMRND
 40
0.0
  9
$DIMDLE
 40
0.0
  9
$DIMEXE
 40
1.0
  9
$DIMTP
 40
0.0
  9
$DIMTM
 40
0.0
  9
$DIMTXT
 40
4.1655998229980469
  9
$DIMCEN
 40
2.5
  9
$DIMTSZ
 40
0.0
  9
$DIMTOL
 70
               0
  9
$DIMLIM
 70
               0
  9
$DIMTIH
 70
               0
  9
$DIMTOH
 70
               0
  9
$DIMSE1
 70
               0
  9
$DIMSE2
 70
               0
  9
$DIMTAD
 70
               1
  9
$DIMZIN
 70
               8
  9
$DIMBLK
  1

  9
$DIMASO
 70
               1
  9
$DIMSHO
 70
               1
  9
$DIMPOST
  1

  9
$DIMAPOST
  1

  9
$DIMALT
 70
               0
  9
$DIMALTD
 70
               4
  9
$DIMALTF
 40
0.03937007874016
  9
$DIMLFAC
 40
1.0
  9
$DIMTOFL
 70
               1
  9
$DIMTVP
 40
0.0
  9
$DIMTIX
 70
               0
  9
$DIMSOXD
 70
               0
  9
$DIMSAH
 70
               1
  9
$DIMBLK1
  1
_OPEN30
  9
$DIMBLK2
  1
_OPEN30
  9
$DIMSTYLE
  2
MXDIMSTYLE
  9
$DIMCLRD
 70
               0
  9
$DIMCLRE
 70
               0
  9
$DIMCLRT
 70
               0
  9
$DIMTFAC
 40
1.0
  9
$DIMGAP
 40
1.0
  9
$LUNITS
 70
               2
  9
$LUPREC
 70
               4
  9
$AXISMODE
 70
               0
  9
$AXISUNIT
 10
0.0
 20
0.0
  9
$SKETCHINC
 40
0.1
  9
$FILLETRAD
 40
0.0
  9
$AUNITS
 70
               0
  9
$AUPREC
 70
               0
  9
$MENU
  1
acad
  9
$ELEVATION
 40
0.0
  9
$PELEVATION
 40
0.0
  9
$THICKNESS
 40
0.0
  9
$LIMCHECK
 70
               0
  9
$BLIPMODE
 70
               1
  9
$CHAMFERA
 40
0.0
  9
$CHAMFERB
 40
0.0
  9
$SKPOLY
 70
               0
  9
$TDCREATE
 40
2455216.663923611
  9
$TDUPDATE
 40
2455216.663923611
  9
$TDINDWG
 40
0.0000000000
  9
$TDUSRTIMER
 40
0.0000000000
  9
$USRTIMER
 70
               1
  9
$ANGBASE
 50
0.0
  9
$ANGDIR
 70
               0
  9
$PDMODE
 70
               0
  9
$PDSIZE
 40
0.0
  9
$PLINEWID
 40
0.0
  9
$COORDS
 70
               1
  9
$SPLFRAME
 70
               0
  9
$SPLINETYPE
 70
               6
  9
$SPLINESEGS
 70
               8
  9
$ATTDIA
 70
               0
  9
$ATTREQ
 70
               1
  9
$HANDLING
 70
               1
  9
$HANDSEED
  5
1A4
  9
$SURFTAB1
 70
               6
  9
$SURFTAB2
 70
               6
  9
$SURFTYPE
 70
               6
  9
$SURFU
 70
               6
  9
$SURFV
 70
               6
  9
$UCSNAME
  2

  9
$UCSORG
 10
0.0
 20
0.0
 30
0.0
  9
$UCSXDIR
 10
1.0
 20
0.0
 30
0.0
  9
$UCSYDIR
 10
0.0
 20
1.0
 30
0.0
  9
$PUCSNAME
  2

  9
$PUCSORG
 10
0.0
 20
0.0
 30
0.0
  9
$PUCSXDIR
 10
1.0
 20
0.0
 30
0.0
  9
$PUCSYDIR
 10
0.0
 20
1.0
 30
0.0
  9
$USERI1
 70
               0
  9
$USERI2
 70
               0
  9
$USERI3
 70
               0
  9
$USERI4
 70
               0
  9
$USERI5
 70
               0
  9
$USERR1
 40
0.0
  9
$USERR2
 40
0.0
  9
$USERR3
 40
0.0
  9
$USERR4
 40
0.0
  9
$USERR5
 40
0.0
  9
$WORLDVIEW
 70
               1
  9
$SHADEDGE
 70
               3
  9
$SHADEDIF
 70
              70
  9
$TILEMODE
 70
               1
  9
$MAXACTVP
 70
              16
  9
$PINSBASE
 10
0.0
 20
0.0
 30
0.0
  9
$PLIMCHECK
 70
               0
  9
$PEXTMIN
 10
1.0000000000000000E+20
 20
1.0000000000000000E+20
 30
1.0000000000000000E+20
  9
$PEXTMAX
 10
-1.0000000000000000E+20
 20
-1.0000000000000000E+20
 30
-1.0000000000000000E+20
  9
$PLIMMIN
 10
0.0
 20
0.0
  9
$PLIMMAX
 10
12.0
 20
9.0
  9
$UNITMODE
 70
               0
  9
$VISRETAIN
 70
               0
  9
$PLINEGEN
 70
               1
  9
$PSLTSCALE
 70
               0
  9
$TREEDEPTH
 70
            3020
  0
ENDSEC
  0
SECTION
  2
TABLES
  0
TABLE
  2
VPORT
 70
               1
  0
VPORT
  2
*ACTIVE
 70
               0
 10
0.0
 20
0.0
 11
1.0
 21
1.0
 12
106.0
 22
-2.466666579246521
 13
0.0
 23
0.0
 14
1.0
 24
1.0
 15
0.0
 25
0.0
 16
0.0
 26
0.0
 36
1.0
 17
0.0
 27
0.0
 37
0.0
 40
77.837333509922033
 41
1.7320508075688772
 42
50.0
 43
0.0
 44
0.0
 50
0.0
 51
0.0
 71
               0
 72
             100
 73
               1
 74
               1
 75
               0
 76
               0
 77
               0
 78
               0
  0
ENDTAB
  0
TABLE
  2
LTYPE
 70
               2
  0
LTYPE
  2
CONTINUOUS
 70
              64
  3
Solid line
 72
              65
 73
               0
 40
0.0
  0
LTYPE
  2
CENTER
 70
              64
  3
Center ____ _ ____ _ ____ _ ____ _ ____ _ ____
 72
              65
 73
               4
 40
50.800000000000004
 49
31.75
 49
-6.3499999999999996
 49
6.3499999999999996
 49
-6.3499999999999996
  0
ENDTAB
  0
TABLE
  2
LAYER
 70
               3
  0
LAYER
  2
0
 70
               0
 62
               7
  6
CONTINUOUS
  0
LAYER
  2
DEFPOINTS
 70
               0
 62
               7
  6
CONTINUOUS
  0
LAYER
  2
LY_3
 70
               0
 62
               7
  6
CONTINUOUS
  0
ENDTAB
  0
TABLE
  2
STYLE
 70
               5
  0
STYLE
  2
MX_NOTE_STANDARD
 70
               0
 40
0.0
 41
1.0
 50
0.0
 71
               0
 42
3.2000000476837158
  3
txt.shx
  4
extfont.shx
  0
STYLE
  2
MX_DIMTXSTY_2
 70
               0
 40
0.0
 41
0.9
 50
0.0
 71
               0
 42
3.2000000476837158
  3
txt.shx
  4
extfont.shx
  0
STYLE
  2
MX_DIMTXSTY_3
 70
               0
 40
0.0
 41
1.1000000000000001
 50
0.0
 71
               0
 42
3.2000000476837158
  3
txt.shx
  4
extfont.shx
  0
STYLE
  2
MX_DIMTXSTY_4
 70
               0
 40
0.0
 41
1.2000000000000002
 50
0.0
 71
               0
 42
3.2000000476837158
  3
txt.shx
  4
extfont.shx
  0
STYLE
  2
MX_DIMTXSTY_5
 70
               0
 40
0.0
 41
1.05
 50
0.0
 71
               0
 42
3.2000000476837158
  3
txt.shx
  4
extfont.shx
  0
ENDTAB
  0
TABLE
  2
VIEW
 70
               0
  0
ENDTAB
  0
TABLE
  2
UCS
 70
               0
  0
ENDTAB
  0
TABLE
  2
APPID
 70
               1
  0
APPID
  2
ACAD
 70
               0
  0
ENDTAB
  0
TABLE
  2
DIMSTYLE
 70
               1
  0
DIMSTYLE
  2
MXDIMSTYLE
 70
               0
  3

  4

  5

  6
_OPEN30
  7
_OPEN30
 40
1.0
 41
2.5
 42
2.0
 43
3.75
 44
1.0
 45
0.0
 46
0.0
 47
0.0
 48
0.0
 71
               0
 72
               0
 73
               0
 74
               0
 75
               0
 76
               0
 77
               1
 78
               8
140
4.1655998229980469
141
2.5
142
0.0
143
0.03937007874016
144
1.0
145
0.0
146
1.0
147
1.0
170
               0
171
               4
172
               1
173
               1
174
               0
175
               0
176
               0
177
               0
178
               0
  0
ENDTAB
  0
ENDSEC
  0
SECTION
  2
BLOCKS
  0
BLOCK
  8
0
  6
BYBLOCK
 62
               0
  5
20
  2
_OPEN30
 70
               2
 10
0.0
 20
0.0
 30
0.0
  3
_OPEN30
  0
LINE
  8
0
  6
BYBLOCK
 62
               0
  5
21
 10
-1.0
 20
0.267949
 30
0.0
 11
0.0
 21
0.0
 31
0.0
  0
LINE
  8
0
  6
BYBLOCK
 62
               0
  5
22
 10
0.0
 20
0.0
 30
0.0
 11
-1.0
 21
-0.267949
 31
0.0
  0
LINE
  8
0
  6
BYBLOCK
 62
               0
  5
23
 10
0.0
 20
0.0
 30
0.0
 11
-1.0
 21
0.0
 31
0.0
  0
ENDBLK
  8
0
  6
BYBLOCK
 62
               0
  5
24
  0
BLOCK
  8
0
  6
BYBLOCK
 62
               0
  5
26
  2
*D1
 70
               1
 10
0.0
 20
0.0
 30
0.0
  3
*D1
  0
LINE
  8
0
  6
CONTINUOUS
 62
             110
  5
27
 10
120.0
 20
-19.0
 30
0.0
 11
120.0
 21
19.0
 31
0.0
  0
LINE
  8
0
  6
CONTINUOUS
 62
             110
  5
28
 10
133.70001220703125
 20
-19.0
 30
0.0
 11
119.0
 21
-19.0
 31
0.0
  0
LINE
  8
0
  6
CONTINUOUS
 62
             110
  5
29
 10
133.70000076293945
 20
19.0
 30
0.0
 11
119.0
 21
19.0
 31
0.0
  0
INSERT
  8
0
  6
CONTINUOUS
 62
             110
  5
2A
  2
_OPEN30
 10
120.0
 20
-19.0
 30
0.0
 41
2.77
 42
2.77
 50
270.0
 43
2.77
  0
INSERT
  8
0
  6
CONTINUOUS
 62
             110
  5
2B
  2
_OPEN30
 10
120.0
 20
19.0
 30
0.0
 41
2.77
 42
2.77
 50
90.0
 43
2.77
  0
TEXT
  8
0
  6
CONTINUOUS
 62
             110
  5
2D
 10
119.0
 20
-8.492883661972261
 30
0.0
 40
3.2000000476837158
  1
%%c38
 50
90.0
 41
0.9943181508382375
  7
MX_DIMTXSTY_2
 11
117.39999997615814
 21
-8.492883661972261
 31
0.0
 73
               2
  0
POINT
  8
DEFPOINTS
  6
CONTINUOUS
 62
               0
  5
2E
 10
135.70001220703125
 20
-19.0
 30
0.0
  0
POINT
  8
DEFPOINTS
  6
CONTINUOUS
 62
               0
  5
2F
 10
135.70000076293945
 20
19.0
 30
0.0
  0
POINT
  8
DEFPOINTS
  6
CONTINUOUS
 62
               0
  5
30
 10
120.0
 20
19.0
 30
0.0
  0
ENDBLK
  8
0
  6
BYBLOCK
 62
               0
  5
31
  0
BLOCK
  8
0
  6
BYBLOCK
 62
               0
  5
34
  2
*D2
 70
               1
 10
0.0
 20
0.0
 30
0.0
  3
*D2
  0
LINE
  8
0
  6
CONTINUOUS
 62
             110
  5
35
 10
230.0
 20
20.0
 30
0.0
 11
230.0
 21
-20.0
 31
0.0
  0
LINE
  8
0
  6
CONTINUOUS
 62
             110
  5
36
 10
198.0
 20
20.0
 30
0.0
 11
231.0
 21
20.0
 31
0.0
  0
LINE
  8
0
  6
CONTINUOUS
 62
             110
  5
37
 10
198.0
 20
-20.0
 30
0.0
 11
231.0
 21
-20.0
 31
0.0
  0
INSERT
  8
0
  6
CONTINUOUS
 62
             110
  5
38
  2
_OPEN30
 10
230.0
 20
20.0
 30
0.0
 41
2.77
 42
2.77
 50
90.0
 43
2.77
  0
INSERT
  8
0
  6
CONTINUOUS
 62
             110
  5
39
  2
_OPEN30
 10
230.0
 20
-20.0
 30
0.0
 41
2.77
 42
2.77
 50
270.0
 43
2.77
  0
TEXT
  8
0
  6
CONTINUOUS
 62
             110
  5
3A
 10
229.0
 20
-3.9960000052871698
 30
0.0
 40
3.2000000476837158
  1
%%c40
 50
90.000000000000014
 41
0.9449999760049586
  7
MX_NOTE_STANDARD
 11
227.39999997615814
 21
-3.9960000052871703
 31
0.0
 73
               2
  0
POINT
  8
DEFPOINTS
  6
CONTINUOUS
 62
               0
  5
3B
 10
196.0
 20
20.0
 30
0.0
  0
POINT
  8
DEFPOINTS
  6
CONTINUOUS
 62
               0
  5
3C
 10
196.0
 20
-20.0
 30
0.0
  0
POINT
  8
DEFPOINTS
  6
CONTINUOUS
 62
               0
  5
3D
 10
230.0
 20
-20.0
 30
0.0
  0
ENDBLK
  8
0
  6
BYBLOCK
 62
               0
  5
3E
  0
BLOCK
  8
0
  6
BYBLOCK
 62
               0
  5
41
  2
*D3
 70
               1
 10
0.0
 20
0.0
 30
0.0
  3
*D3
  0
LINE
  8
0
  6
CONTINUOUS
 62
             110
  5
42
 10
212.0
 20
-40.0
 30
0.0
 11
200.0
 21
-40.0
 31
0.0
  0
LINE
  8
0
  6
CONTINUOUS
 62
             110
  5
43
 10
212.0
 20
-5.5
 30
0.0
 11
212.0
 21
-41.0
 31
0.0
  0
LINE
  8
0
  6
CONTINUOUS
 62
             110
  5
44
 10
200.0
 20
-19.0
 30
0.0
 11
200.0
 21
-41.0
 31
0.0
  0
INSERT
  8
0
  6
CONTINUOUS
 62
             110
  5
45
  2
_OPEN30
 10
212.0
 20
-40.0
 30
0.0
 41
2.77
 42
2.77
 43
2.77
  0
INSERT
  8
0
  6
CONTINUOUS
 62
             110
  5
46
  2
_OPEN30
 10
200.0
 20
-40.0
 30
0.0
 41
2.77
 42
2.77
 50
180.0
 43
2.77
  0
TEXT
  8
0
  6
CONTINUOUS
 62
             110
  5
48
 10
203.54545453895221
 20
-39.0
 30
0.0
 40
3.2000000476837158
  1
12
 41
1.0227272452955902
  7
MX_DIMTXSTY_3
 11
203.54545453895221
 21
-37.399999976158142
 31
0.0
 73
               2
  0
POINT
  8
DEFPOINTS
  6
CONTINUOUS
 62
               0
  5
49
 10
212.0
 20
-3.5
 30
0.0
  0
POINT
  8
DEFPOINTS
  6
CONTINUOUS
 62
               0
  5
4A
 10
200.0
 20
-17.0
 30
0.0
  0
POINT
  8
DEFPOINTS
  6
CONTINUOUS
 62
               0
  5
4B
 10
200.0
 20
-40.0
 30
0.0
  0
ENDBLK
  8
0
  6
BYBLOCK
 62
               0
  5
4C
  0
BLOCK
  8
0
  6
BYBLOCK
 62
               0
  5
4F
  2
*D4
 70
               1
 10
0.0
 20
0.0
 30
0.0
  3
*D4
  0
LINE
  8
0
  6
CONTINUOUS
 62
             110
  5
50
 10
200.0
 20
-40.0
 30
0.0
 11
100.0
 21
-40.0
 31
0.0
  0
LINE
  8
0
  6
CONTINUOUS
 62
             110
  5
51
 10
200.0
 20
-19.0
 30
0.0
 11
200.0
 21
-41.0
 31
0.0
  0
LINE
  8
0
  6
CONTINUOUS
 62
             110
  5
52
 10
100.0
 20
-18.099990844726563
 30
0.0
 11
100.0
 21
-41.0
 31
0.0
  0
INSERT
  8
0
  6
CONTINUOUS
 62
             110
  5
53
  2
_OPEN30
 10
200.0
 20
-40.0
 30
0.0
 41
2.77
 42
2.77
 43
2.77
  0
INSERT
  8
0
  6
CONTINUOUS
 62
             110
  5
54
  2
_OPEN30
 10
100.0
 20
-40.0
 30
0.0
 41
2.77
 42
2.77
 50
180.0
 43
2.77
  0
TEXT
  8
0
  6
CONTINUOUS
 62
             110
  5
56
 10
146.03571429027588
 20
-39.0
 30
0.0
 40
3.2000000476837158
  1
100
 41
1.0044642792995639
  7
MX_DIMTXSTY_4
 11
146.03571429027588
 21
-37.399999976158142
 31
0.0
 73
               2
  0
POINT
  8
DEFPOINTS
  6
CONTINUOUS
 62
               0
  5
57
 10
200.0
 20
-17.0
 30
0.0
  0
POINT
  8
DEFPOINTS
  6
CONTINUOUS
 62
               0
  5
58
 10
100.0
 20
-16.099990844726563
 30
0.0
  0
POINT
  8
DEFPOINTS
  6
CONTINUOUS
 62
               0
  5
59
 10
100.0
 20
-40.0
 30
0.0
  0
ENDBLK
  8
0
  6
BYBLOCK
 62
               0
  5
5A
  0
BLOCK
  8
0
  6
BYBLOCK
 62
               0
  5
5D
  2
*D5
 70
               1
 10
0.0
 20
0.0
 30
0.0
  3
*D5
  0
LINE
  8
0
  6
CONTINUOUS
 62
             110
  5
5E
 10
134.70000076293945
 20
-30.0
 30
0.0
 11
100.0
 21
-30.0
 31
0.0
  0
LINE
  8
0
  6
CONTINUOUS
 62
             110
  5
5F
 10
134.70000076293945
 20
-19.999984741210937
 30
0.0
 11
134.70000076293945
 21
-31.0
 31
0.0
  0
LINE
  8
0
  6
CONTINUOUS
 62
             110
  5
60
 10
100.0
 20
-18.099990844726563
 30
0.0
 11
100.0
 21
-31.0
 31
0.0
  0
INSERT
  8
0
  6
CONTINUOUS
 62
             110
  5
61
  2
_OPEN30
 10
134.70000076293945
 20
-30.0
 30
0.0
 41
2.77
 42
2.77
 43
2.77
  0
INSERT
  8
0
  6
CONTINUOUS
 62
             110
  5
62
  2
_OPEN30
 10
100.0
 20
-30.0
 30
0.0
 41
2.77
 42
2.77
 50
180.0
 43
2.77
  0
TEXT
  8
0
  6
CONTINUOUS
 62
             110
  5
63
 10
110.17142893351158
 20
-29.0
 30
0.0
 40
3.2000000476837158
  1
(34.7)
 41
1.0044642600553988
  7
MX_DIMTXSTY_4
 11
110.17142893351158
 21
-27.399999976158142
 31
0.0
 73
               2
  0
POINT
  8
DEFPOINTS
  6
CONTINUOUS
 62
               0
  5
64
 10
134.70000076293945
 20
-17.999984741210937
 30
0.0
  0
POINT
  8
DEFPOINTS
  6
CONTINUOUS
 62
               0
  5
65
 10
100.0
 20
-16.099990844726563
 30
0.0
  0
POINT
  8
DEFPOINTS
  6
CONTINUOUS
 62
               0
  5
66
 10
100.0
 20
-30.0
 30
0.0
  0
ENDBLK
  8
0
  6
BYBLOCK
 62
               0
  5
67
  0
BLOCK
  8
0
  6
BYBLOCK
 62
               0
  5
6A
  2
*D6
 70
               1
 10
0.0
 20
0.0
 30
0.0
  3
*D6
  0
LINE
  8
0
  6
CONTINUOUS
 62
             110
  5
6B
 10
100.0
 20
-40.0
 30
0.0
 11
50.000010879442044
 21
-40.0
 31
0.0
  0
LINE
  8
0
  6
CONTINUOUS
 62
             110
  5
6C
 10
100.0
 20
-18.099990844726563
 30
0.0
 11
100.0
 21
-41.0
 31
0.0
  0
LINE
  8
0
  6
CONTINUOUS
 62
             110
  5
6D
 10
50.000010879442044
 20
-4.5000076293945313
 30
0.0
 11
50.000010879442044
 21
-41.0
 31
0.0
  0
INSERT
  8
0
  6
CONTINUOUS
 62
             110
  5
6E
  2
_OPEN30
 10
100.0
 20
-40.0
 30
0.0
 41
2.77
 42
2.77
 43
2.77
  0
INSERT
  8
0
  6
CONTINUOUS
 62
             110
  5
6F
  2
_OPEN30
 10
50.000010879442044
 20
-40.0
 30
0.0
 41
2.77
 42
2.77
 50
180.0
 43
2.77
  0
TEXT
  8
0
  6
CONTINUOUS
 62
             110
  5
70
 10
72.545460273411649
 20
-39.0
 30
0.0
 40
3.2000000476837158
  1
50
 41
1.0227272685709574
  7
MX_NOTE_STANDARD
 11
72.545460273411649
 21
-37.399999976158142
 31
0.0
 73
               2
  0
POINT
  8
DEFPOINTS
  6
CONTINUOUS
 62
               0
  5
71
 10
100.0
 20
-16.099990844726563
 30
0.0
  0
POINT
  8
DEFPOINTS
  6
CONTINUOUS
 62
               0
  5
72
 10
50.000010879442044
 20
-2.5000076293945313
 30
0.0
  0
POINT
  8
DEFPOINTS
  6
CONTINUOUS
 62
               0
  5
73
 10
50.000010879442044
 20
-40.0
 30
0.0
  0
ENDBLK
  8
0
  6
BYBLOCK
 62
               0
  5
74
  0
BLOCK
  8
0
  6
BYBLOCK
 62
               0
  5
77
  2
*D7
 70
               1
 10
0.0
 20
0.0
 30
0.0
  3
*D7
  0
LINE
  8
0
  6
CONTINUOUS
 62
             110
  5
78
 10
30.0
 20
-3.0000083963347777
 30
0.0
 11
30.0
 21
2.9999916036652223
 31
0.0
  0
LINE
  8
0
  6
CONTINUOUS
 62
             110
  5
79
 10
30.0
 20
2.9999916036652223
 30
0.0
 11
30.0
 21
22.527909465603699
 31
0.0
  0
LINE
  8
0
  6
CONTINUOUS
 62
             110
  5
7A
 10
48.500011444091797
 20
-3.0000083963347772
 30
0.0
 11
29.0
 21
-3.0000083963347777
 31
0.0
  0
LINE
  8
0
  6
CONTINUOUS
 62
             110
  5
7B
 10
68.000011444091797
 20
2.9999916036652228
 30
0.0
 11
29.0
 21
2.9999916036652223
 31
0.0
  0
LINE
  8
0
  6
CONTINUOUS
 62
             110
  5
7C
 10
30.0
 20
-3.0000083963347777
 30
0.0
 11
30.0
 21
-7.0000083963347777
 31
0.0
  0
LINE
  8
0
  6
CONTINUOUS
 62
             110
  5
7D
 10
30.0
 20
2.9999916036652223
 30
0.0
 11
30.0
 21
6.9999916036652223
 31
0.0
  0
INSERT
  8
0
  6
CONTINUOUS
 62
             110
  5
7E
  2
_OPEN30
 10
30.0
 20
-3.0000083963347777
 30
0.0
 41
2.77
 42
2.77
 50
90.0
 43
2.77
  0
INSERT
  8
0
  6
CONTINUOUS
 62
             110
  5
7F
  2
_OPEN30
 10
30.0
 20
2.9999916036652223
 30
0.0
 41
2.77
 42
2.77
 50
270.0
 43
2.77
  0
TEXT
  8
0
  6
CONTINUOUS
 62
             110
  5
81
 10
27.799999952316284
 20
5.722353899451762
 30
0.0
 40
3.2000000476837158
  1
%%c6
 50
90.0
 41
0.8333333010474847
  7
MX_DIMTXSTY_5
 11
26.199999928474426
 21
5.722353899451762
 31
0.0
 73
               2
  0
TEXT
  8
0
  6
CONTINUOUS
 62
             110
  5
82
 10
25.599999874830246
 20
11.764922453936151
 30
0.0
 40
2.4000000357627869
  1
-0.01
 50
90.0
 41
1.2175324526884832
  7
MX_DIMTXSTY_5
 11
24.399999856948853
 21
11.764922453936151
 31
0.0
 73
               2
  0
TEXT
  8
0
  6
CONTINUOUS
 62
             110
  5
83
 10
29.200000017881393
 20
11.724338040358422
 30
0.0
 40
2.4000000357627869
  1
-0.02
 50
90.0
 41
1.1160714202560482
  7
MX_DIMTXSTY_5
 11
28.0
 21
11.724338040358422
 31
0.0
 73
               2
  0
POINT
  8
DEFPOINTS
  6
CONTINUOUS
 62
               0
  5
84
 10
50.500011444091797
 20
-3.0000083963347777
 30
0.0
  0
POINT
  8
DEFPOINTS
  6
CONTINUOUS
 62
               0
  5
85
 10
70.000011444091797
 20
2.9999916036652223
 30
0.0
  0
POINT
  8
DEFPOINTS
  6
CONTINUOUS
 62
               0
  5
86
 10
30.0
 20
2.9999916036652223
 30
0.0
  0
ENDBLK
  8
0
  6
BYBLOCK
 62
               0
  5
87
  0
BLOCK
  8
0
  6
BYBLOCK
 62
               0
  5
8A
  2
*D8
 70
               1
 10
0.0
 20
0.0
 30
0.0
  3
*D8
  0
LINE
  8
0
  6
CONTINUOUS
 62
             110
  5
8B
 10
50.000010879442044
 20
20.0
 30
0.0
 11
70.000010879442044
 21
20.0
 31
0.0
  0
LINE
  8
0
  6
CONTINUOUS
 62
             110
  5
8C
 10
50.000010879442044
 20
3.9999923706054687
 30
0.0
 11
50.000010879442044
 21
21.0
 31
0.0
  0
LINE
  8
0
  6
CONTINUOUS
 62
             110
  5
8D
 10
70.000010879442044
 20
4.9999923706054687
 30
0.0
 11
70.000010879442044
 21
21.0
 31
0.0
  0
INSERT
  8
0
  6
CONTINUOUS
 62
             110
  5
8E
  2
_OPEN30
 10
50.000010879442044
 20
20.0
 30
0.0
 41
2.77
 42
2.77
 50
180.0
 43
2.77
  0
INSERT
  8
0
  6
CONTINUOUS
 62
             110
  5
8F
  2
_OPEN30
 10
70.000010879442044
 20
20.0
 30
0.0
 41
2.77
 42
2.77
 43
2.77
  0
TEXT
  8
0
  6
CONTINUOUS
 62
             110
  5
90
 10
57.545465430807795
 20
21.0
 30
0.0
 40
3.2000000476837158
  1
20
 41
1.0227272685709574
  7
MX_NOTE_STANDARD
 11
57.545465430807795
 21
22.600000023841858
 31
0.0
 73
               2
  0
POINT
  8
DEFPOINTS
  6
CONTINUOUS
 62
               0
  5
91
 10
50.000010879442044
 20
1.9999923706054687
 30
0.0
  0
POINT
  8
DEFPOINTS
  6
CONTINUOUS
 62
               0
  5
92
 10
70.000010879442044
 20
2.9999923706054687
 30
0.0
  0
POINT
  8
DEFPOINTS
  6
CONTINUOUS
 62
               0
  5
93
 10
70.000010879442044
 20
20.0
 30
0.0
  0
ENDBLK
  8
0
  6
BYBLOCK
 62
               0
  5
94
  0
BLOCK
  8
0
  6
BYBLOCK
 62
               0
  5
97
  2
*D9
 70
               1
 10
0.0
 20
0.0
 30
0.0
  3
*D9
  0
LINE
  8
0
  6
CONTINUOUS
 62
             110
  5
98
 10
40.0
 20
-3.0000083963347777
 30
0.0
 11
40.0
 21
1.9999916036652223
 31
0.0
  0
LINE
  8
0
  6
CONTINUOUS
 62
             110
  5
99
 10
40.0
 20
1.9999916036652223
 30
0.0
 11
40.0
 21
9.976384349636902
 31
0.0
  0
LINE
  8
0
  6
CONTINUOUS
 62
             110
  5
9A
 10
48.50001049041748
 20
-3.0000083963347772
 30
0.0
 11
39.0
 21
-3.0000083963347777
 31
0.0
  0
LINE
  8
0
  6
CONTINUOUS
 62
             110
  5
9B
 10
48.00001049041748
 20
1.9999916036652226
 30
0.0
 11
39.0
 21
1.9999916036652223
 31
0.0
  0
LINE
  8
0
  6
CONTINUOUS
 62
             110
  5
9C
 10
40.0
 20
-3.0000083963347777
 30
0.0
 11
40.0
 21
-7.0000083963347777
 31
0.0
  0
LINE
  8
0
  6
CONTINUOUS
 62
             110
  5
9D
 10
40.0
 20
1.9999916036652223
 30
0.0
 11
40.0
 21
5.9999916036652223
 31
0.0
  0
INSERT
  8
0
  6
CONTINUOUS
 62
             110
  5
9E
  2
_OPEN30
 10
40.0
 20
-3.0000083963347777
 30
0.0
 41
2.77
 42
2.77
 50
90.0
 43
2.77
  0
INSERT
  8
0
  6
CONTINUOUS
 62
             110
  5
9F
  2
_OPEN30
 10
40.0
 20
1.9999916036652223
 30
0.0
 41
2.77
 42
2.77
 50
270.0
 43
2.77
  0
TEXT
  8
0
  6
CONTINUOUS
 62
             110
  5
A0
 10
39.0
 20
7.5097176909175216
 30
0.0
 40
3.2000000476837158
  1
5
 50
90.0
  7
MX_NOTE_STANDARD
 11
37.399999976158142
 21
7.5097176909175216
 31
0.0
 73
               2
  0
POINT
  8
DEFPOINTS
  6
CONTINUOUS
 62
               0
  5
A1
 10
50.50001049041748
 20
-3.0000083963347777
 30
0.0
  0
POINT
  8
DEFPOINTS
  6
CONTINUOUS
 62
               0
  5
A2
 10
50.00001049041748
 20
1.9999916036652223
 30
0.0
  0
POINT
  8
DEFPOINTS
  6
CONTINUOUS
 62
               0
  5
A3
 10
40.0
 20
1.9999916036652223
 30
0.0
  0
ENDBLK
  8
0
  6
BYBLOCK
 62
               0
  5
A4
  0
BLOCK
  8
0
  6
BYBLOCK
 62
               0
  5
A7
  2
*D10
 70
               1
 10
0.0
 20
0.0
 30
0.0
  3
*D10
  0
LINE
  8
0
  6
CONTINUOUS
 62
             110
  5
A8
 10
200.0
 20
-30.0
 30
0.0
 11
134.70000076293945
 21
-30.0
 31
0.0
  0
INSERT
  8
0
  6
CONTINUOUS
 62
             110
  5
A9
  2
_OPEN30
 10
200.0
 20
-30.0
 30
0.0
 41
2.77
 42
2.77
 43
2.77
  0
INSERT
  8
0
  6
CONTINUOUS
 62
             110
  5
AA
  2
_OPEN30
 10
134.70000076293945
 20
-30.0
 30
0.0
 41
2.77
 42
2.77
 50
180.0
 43
2.77
  0
TEXT
  8
0
  6
CONTINUOUS
 62
             110
  5
AB
 10
163.53181700110434
 20
-29.0
 30
0.0
 40
3.2000000476837158
  1
65.3
 41
1.0227272544394841
  7
MX_DIMTXSTY_3
 11
163.53181700110434
 21
-27.399999976158142
 31
0.0
 73
               2
  0
POINT
  8
DEFPOINTS
  6
CONTINUOUS
 62
               0
  5
AC
 10
200.0
 20
-18.0
 30
0.0
  0
POINT
  8
DEFPOINTS
  6
CONTINUOUS
 62
               0
  5
AD
 10
134.70000076293945
 20
-30.0
 30
0.0
  0
POINT
  8
DEFPOINTS
  6
CONTINUOUS
 62
               0
  5
AE
 10
134.70000076293945
 20
-30.0
 30
0.0
  0
ENDBLK
  8
0
  6
BYBLOCK
 62
               0
  5
AF
  0
ENDSEC
  0
SECTION
  2
ENTITIES
  0
DIMENSION
  8
LY_3
  6
CONTINUOUS
 62
             110
  5
32
  2
*D1
 10
120.0
 20
19.0
 30
0.0
 11
120.0
 21
-4.5231866836547852
 31
0.0
 70
             128
  1
%%c<>
 13
135.70001220703125
 23
-19.0
 33
0.0
 14
135.70000076293945
 24
19.0
 34
0.0
 50
90.0
  3
MXDIMSTYLE
1001
ACAD
1000
DSTYLE
1002
{
1070
              41
1040
2.77
1070
             140
1040
3.2000000476837158
1070
             284
1070
               8
1070
             340
1005
2C
1002
}
  0
DIMENSION
  8
LY_3
  6
CONTINUOUS
 62
             110
  5
3F
  2
*D2
 10
230.0
 20
-20.0
 30
0.0
 11
230.0
 21
0.0
 31
0.0
 70
             128
  1
%%c<>
 13
196.0
 23
20.0
 33
0.0
 14
196.0
 24
-20.0
 34
0.0
 50
90.0
  3
MXDIMSTYLE
1001
ACAD
1000
DSTYLE
1002
{
1070
              41
1040
2.77
1070
             140
1040
3.2000000476837158
1070
             284
1070
               8
1002
}
  0
DIMENSION
  8
LY_3
  6
CONTINUOUS
 62
             110
  5
4D
  2
*D3
 10
200.0
 20
-40.0
 30
0.0
 11
206.0
 21
-40.0
 31
0.0
 70
             128
  1
<>
 13
212.0
 23
-3.5
 33
0.0
 14
200.0
 24
-17.0
 34
0.0
  3
MXDIMSTYLE
1001
ACAD
1000
DSTYLE
1002
{
1070
              41
1040
2.77
1070
             140
1040
3.2000000476837158
1070
             284
1070
               8
1070
             340
1005
47
1002
}
  0
DIMENSION
  8
LY_3
  6
CONTINUOUS
 62
             110
  5
5B
  2
*D4
 10
100.0
 20
-40.0
 30
0.0
 11
150.0
 21
-40.0
 31
0.0
 70
             128
  1
<>
 13
200.0
 23
-17.0
 33
0.0
 14
100.0
 24
-16.099990844726563
 34
0.0
  3
MXDIMSTYLE
1001
ACAD
1000
DSTYLE
1002
{
1070
              41
1040
2.77
1070
             140
1040
3.2000000476837158
1070
             284
1070
               8
1070
             340
1005
55
1002
}
  0
DIMENSION
  8
LY_3
  6
CONTINUOUS
 62
             110
  5
68
  2
*D5
 10
100.0
 20
-30.0
 30
0.0
 11
117.35000038146973
 21
-30.0
 31
0.0
 70
             128
  1
(<>
 13
134.70000076293945
 23
-17.999984741210937
 33
0.0
 14
100.0
 24
-16.099990844726563
 34
0.0
  3
MXDIMSTYLE
1001
ACAD
1000
DSTYLE
1002
{
1070
              41
1040
2.77
1070
             140
1040
3.2000000476837158
1070
             284
1070
               8
1070
             340
1005
55
1002
}
  0
DIMENSION
  8
LY_3
  6
CONTINUOUS
 62
             110
  5
75
  2
*D6
 10
50.000010879442044
 20
-40.0
 30
0.0
 11
75.000005722045898
 21
-40.0
 31
0.0
 70
             128
  1
<>
 13
100.0
 23
-16.099990844726563
 33
0.0
 14
50.000010879442044
 24
-2.5000076293945313
 34
0.0
  3
MXDIMSTYLE
1001
ACAD
1000
DSTYLE
1002
{
1070
              41
1040
2.77
1070
             140
1040
3.2000000476837158
1070
             284
1070
               8
1002
}
  0
DIMENSION
  8
LY_3
  6
CONTINUOUS
 62
             110
  5
88
  2
*D7
 10
30.0
 20
2.9999916036652223
 30
0.0
 11
30.0
 21
13.902909465603699
 31
0.0
 70
             128
  1
%%c<>
 13
50.500011444091797
 23
-3.0000083963347777
 33
0.0
 14
70.000011444091797
 24
2.9999916036652223
 34
0.0
 50
90.0
  3
MXDIMSTYLE
1001
ACAD
1000
DSTYLE
1002
{
1070
              41
1040
2.77
1070
              47
1040
-0.01
1070
              48
1040
0.02
1070
              71
1070
               1
1070
             140
1040
3.2000000476837158
1070
             146
1040
0.75
1070
             283
1070
               1
1070
             284
1070
               8
1070
             340
1005
80
1002
}
  0
DIMENSION
  8
LY_3
  6
CONTINUOUS
 62
             110
  5
95
  2
*D8
 10
70.000010879442044
 20
20.0
 30
0.0
 11
60.000010879442044
 21
20.0
 31
0.0
 70
             128
  1
<>
 13
50.000010879442044
 23
1.9999923706054687
 33
0.0
 14
70.000010879442044
 24
2.9999923706054687
 34
0.0
  3
MXDIMSTYLE
1001
ACAD
1000
DSTYLE
1002
{
1070
              41
1040
2.77
1070
             140
1040
3.2000000476837158
1070
             284
1070
               8
1002
}
  0
DIMENSION
  8
LY_3
  6
CONTINUOUS
 62
             110
  5
A5
  2
*D9
 10
40.0
 20
1.9999916036652223
 30
0.0
 11
40.0
 21
8.476384349636902
 31
0.0
 70
             128
  1
<>
 13
50.50001049041748
 23
-3.0000083963347777
 33
0.0
 14
50.00001049041748
 24
1.9999916036652223
 34
0.0
 50
90.0
  3
MXDIMSTYLE
1001
ACAD
1000
DSTYLE
1002
{
1070
              41
1040
2.77
1070
             140
1040
3.2000000476837158
1070
             284
1070
               8
1002
}
  0
DIMENSION
  8
LY_3
  6
CONTINUOUS
 62
             110
  5
B0
  2
*D10
 10
134.70000076293945
 20
-30.0
 30
0.0
 11
168.98636245727539
 21
-30.0
 31
0.0
 70
             128
  1
<>
 13
200.0
 23
-18.0
 33
0.0
 14
134.70000076293945
 24
-30.0
 34
0.0
  3
MXDIMSTYLE
1001
ACAD
1000
DSTYLE
1002
{
1070
              41
1040
2.77
1070
              75
1070
               1
1070
              76
1070
               1
1070
             140
1040
3.2000000476837158
1070
             271
1070
               4
1070
             284
1070
               8
1070
             340
1005
47
1002
}
  0
LINE
  8
LY_3
  6
CONTINUOUS
 62
               3
  5
B1
 10
50.000038700427496
 20
-2.5000089281909084
 30
0.0
 11
50.500037334612017
 21
-3.0000113555958876
 31
0.0
  0
LINE
  8
LY_3
  6
CONTINUOUS
 62
               3
  5
B2
 10
50.500010879442044
 20
-3.0000083963347777
 30
0.0
 11
100.0
 21
-3.0000083963347777
 31
0.0
  0
LINE
  8
LY_3
  6
CONTINUOUS
 62
               3
  5
B3
 10
50.000010879442044
 20
1.9999916036652223
 30
0.0
 11
70.000010879442044
 21
1.9999916036652223
 31
0.0
  0
LINE
  8
LY_3
  6
CONTINUOUS
 62
               3
  5
B4
 10
70.000010879442044
 20
2.9999916036652223
 30
0.0
 11
70.000010879442044
 21
1.9999916036652223
 31
0.0
  0
LINE
  8
LY_3
  6
CONTINUOUS
 62
               3
  5
B5
 10
50.000010879442044
 20
1.9999916036652223
 30
0.0
 11
50.000010879442044
 21
-2.5000083963347777
 31
0.0
  0
LINE
  8
LY_3
  6
CONTINUOUS
 62
               3
  5
B6
 10
70.000010879442044
 20
2.9999916036652223
 30
0.0
 11
100.0
 21
2.9999916036652223
 31
0.0
  0
LINE
  8
LY_3
  6
CONTINUOUS
 62
               3
  5
B7
 10
50.500010879442044
 20
1.9999916036652223
 30
0.0
 11
50.500010879442044
 21
-3.0000083963347777
 31
0.0
  0
TEXT
  8
LY_3
  6
CONTINUOUS
 62
             110
  5
B8
 10
111.771133462588
 20
31.800000071525574
 30
0.0
 40
3.2000000476837158
  1
CF34
  7
MX_NOTE_STANDARD
 11
111.771133462588
 21
33.400000095367432
 31
0.0
 73
               2
  0
POLYLINE
  8
LY_3
  6
CONTINUOUS
 62
             110
  5
B9
 66
               1
 10
0.0
 20
0.0
 30
0.0
  0
VERTEX
  8
LY_3
  6
CONTINUOUS
 62
             110
  5
19F
 10
103.60000610351562
 20
16.899993896484375
 30
0.0
  0
VERTEX
  8
LY_3
  6
CONTINUOUS
 62
             110
  5
1A0
 10
110.0
 20
30.0
 30
0.0
  0
VERTEX
  8
LY_3
  6
CONTINUOUS
 62
             110
  5
1A1
 10
124.03780031204224
 20
30.0
 30
0.0
  0
SEQEND
  8
LY_3
  6
CONTINUOUS
 62
             110
  5
1A2
  0
TEXT
  8
LY_3
  6
CONTINUOUS
 62
             110
  5
BA
 10
142.25000154972076
 20
-1.3240029811859131
 30
0.0
 40
3.2000000476837158
  1
0
 50
90.0
 41
1.1429999885082256
  7
MX_NOTE_STANDARD
 72
               1
 11
140.65000152587891
 21
0.1999969482421875
 31
0.0
 73
               2
  0
TEXT
  8
LY_3
  6
CONTINUOUS
 62
             110
  5
BB
 10
155.16999971866608
 20
-1.3240029811859131
 30
0.0
 40
3.2000000476837158
  1
0
 50
90.0
 41
1.1429999885082256
  7
MX_NOTE_STANDARD
 72
               1
 11
153.56999969482422
 21
0.1999969482421875
 31
0.0
 73
               2
  0
TEXT
  8
LY_3
  6
CONTINUOUS
 62
             110
  5
BC
 10
152.29717290401459
 20
-6.6825366020202637
 30
0.0
 40
3.2000000476837158
  1
30
 50
-90.0
 41
0.9604988817714879
  7
MX_NOTE_STANDARD
 72
               1
 11
153.89717292785645
 21
-9.5
 31
0.0
 73
               2
  0
TEXT
  8
LY_3
  6
CONTINUOUS
 62
             110
  5
BD
 10
152.29717290401459
 20
-14.693568587303162
 30
0.0
 40
3.2000000476837158
  1
60
 50
-90.0
 41
0.6003117401478845
  7
MX_NOTE_STANDARD
 72
               1
 11
153.89717292785645
 21
-16.454483032226562
 31
0.0
 73
               2
  0
TEXT
  8
LY_3
  6
CONTINUOUS
 62
             110
  5
BE
 10
152.29717290401459
 20
12.836533546447754
 30
0.0
 40
3.2000000476837158
  1
330
 50
-90.0
 41
0.73600004120434
  7
MX_NOTE_STANDARD
 72
               1
 11
153.89717292785645
 21
9.5
 31
0.0
 73
               2
  0
TEXT
  8
LY_3
  6
CONTINUOUS
 62
             110
  5
BF
 10
152.29717290401459
 20
18.790056228637695
 30
0.0
 40
3.2000000476837158
  1
300
 50
-90.0
 41
0.5473999679088594
  7
MX_NOTE_STANDARD
 72
               1
 11
153.89717292785645
 21
16.454483032226562
 31
0.0
 73
               2
  0
ARC
  8
LY_3
  6
CONTINUOUS
 62
               3
  5
C0
 10
107.5
 20
-9.3000030517578125
 30
0.0
 40
0.300000011920929
 50
89.999982013910653
 51
179.99996402782131
  0
ARC
  8
LY_3
  6
CONTINUOUS
 62
               3
  5
C1
 10
107.5
 20
9.3000030517578125
 30
0.0
 40
0.300000011920929
 50
179.99997768819969
 51
270.00002800400199
  0
ARC
  8
LY_3
  6
CONTINUOUS
 62
               3
  5
C2
 10
0.0
 20
0.0
 30
0.0
 40
3.0
 50
138.18971598686264
 51
41.810302909843131
  0
CIRCLE
  8
LY_3
  6
CONTINUOUS
 62
               3
  5
C3
 10
0.0
 20
0.0
 30
0.0
 40
9.1499996185302734
  0
CIRCLE
  8
LY_3
  6
CONTINUOUS
 62
               3
  5
C4
 10
0.0
 20
0.0
 30
0.0
 40
10.699999809265137
  0
CIRCLE
  8
LY_3
  6
CENTER
 62
             110
  5
C6
 10
0.0
 20
0.0
 30
0.0
 40
13.5
  0
ARC
  8
LY_3
  6
CONTINUOUS
 62
               3
  5
C7
 10
0.0
 20
0.0
 30
0.0
 40
16.100000381469727
 50
93.561058232047714
 51
266.43893129529744
  0
CIRCLE
  8
LY_3
  6
CONTINUOUS
 62
               3
  5
C8
 10
0.0
 20
0.0
 30
0.0
 40
16.899999618530273
  0
CIRCLE
  8
LY_3
  6
CONTINUOUS
 62
               3
  5
C9
 10
6.7500152587890625
 20
11.691341400146484
 30
0.0
 40
2.2000000476837158
  0
CIRCLE
  8
LY_3
  6
CONTINUOUS
 62
               3
  5
CA
 10
-6.75
 20
11.691343307495117
 30
0.0
 40
2.2000000476837158
  0
CIRCLE
  8
LY_3
  6
CONTINUOUS
 62
               3
  5
CB
 10
-13.5
 20
0.0000019073486328
 30
0.0
 40
2.2000000476837158
  0
CIRCLE
  8
LY_3
  6
CONTINUOUS
 62
               3
  5
CC
 10
-6.75
 20
-11.691341400146484
 30
0.0
 40
2.2000000476837158
  0
CIRCLE
  8
LY_3
  6
CONTINUOUS
 62
               3
  5
CD
 10
6.75
 20
-11.69134521484375
 30
0.0
 40
2.2000000476837158
  0
CIRCLE
  8
LY_3
  6
CONTINUOUS
 62
               3
  5
CE
 10
13.5
 20
-0.0000038146972656
 30
0.0
 40
2.2000000476837158
  0
ARC
  8
LY_3
  6
CONTINUOUS
 62
               3
  5
CF
 10
0.0
 20
0.0
 30
0.0
 40
16.100000381469727
 50
273.56103956271306
 51
86.438960437286966
  0
ARC
  8
LY_3
  6
CONTINUOUS
 62
               3
  5
D0
 10
0.0
 20
-0.5
 30
0.0
 40
6.9000000953674316
 50
328.82718396769644
 51
211.17278347521943
  0
ARC
  8
LY_3
  6
CONTINUOUS
 62
               3
  5
D1
 10
-3.274993896484375
 20
-5.6724662780761719
 30
0.0
 40
1.8500000238418579
 50
10.820896239774658
 51
131.45862921924109
  0
ARC
  8
LY_3
  6
CONTINUOUS
 62
               3
  5
D2
 10
3.274993896484375
 20
-5.6724662780761719
 30
0.0
 40
1.8500000238418579
 50
48.541392865188165
 51
169.17912755220189
  0
CIRCLE
  8
LY_3
  6
CONTINUOUS
 62
               3
  5
D3
 10
-3.274993896484375
 20
-5.6724662780761719
 30
0.0
 40
0.8500000238418579
  0
CIRCLE
  8
LY_3
  6
CONTINUOUS
 62
               3
  5
D4
 10
3.274993896484375
 20
-5.6724662780761719
 30
0.0
 40
0.8500000238418579
  0
ARC
  8
LY_3
  6
CONTINUOUS
 62
               3
  5
D5
 10
-5.112274169921875
 20
-3.5927886962890625
 30
0.0
 40
0.925000011920929
 50
211.17278711768509
 51
311.45860371971725
  0
ARC
  8
LY_3
  6
CONTINUOUS
 62
               3
  5
D6
 10
5.112274169921875
 20
-3.5927886962890625
 30
0.0
 40
0.925000011920929
 50
228.54137078075891
 51
328.8271942129802
  0
ARC
  8
LY_3
  6
CONTINUOUS
 62
               3
  5
D7
 10
0.0
 20
0.0
 30
0.0
 40
7.5
 50
250.75831641484206
 51
289.24171955733664
  0
CIRCLE
  8
LY_3
  6
CENTER
 62
             110
  5
D8
 10
0.0
 20
0.0
 30
0.0
 40
5.25
  0
CIRCLE
  8
LY_3
  6
CONTINUOUS
 62
             110
  5
D9
 10
-4.546630859375
 20
2.6249980926513672
 30
0.0
 40
1.2999999523162842
  0
CIRCLE
  8
LY_3
  6
CONTINUOUS
 62
               3
  5
DA
 10
-4.546630859375
 20
2.6249980926513672
 30
0.0
 40
1.0999999046325684
  0
CIRCLE
  8
LY_3
  6
CONTINUOUS
 62
               3
  5
DB
 10
0.0
 20
-5.25
 30
0.0
 40
1.0999999046325684
  0
CIRCLE
  8
LY_3
  6
CONTINUOUS
 62
             110
  5
DC
 10
0.0
 20
-5.25
 30
0.0
 40
1.2999999523162842
  0
CIRCLE
  8
LY_3
  6
CONTINUOUS
 62
               3
  5
DD
 10
4.546630859375
 20
2.625
 30
0.0
 40
1.0999999046325684
  0
CIRCLE
  8
LY_3
  6
CONTINUOUS
 62
             110
  5
DE
 10
4.546630859375
 20
2.625
 30
0.0
 40
1.2999999523162842
  0
ARC
  8
LY_3
  6
CONTINUOUS
 62
               3
  5
DF
 10
0.0
 20
0.0
 30
0.0
 40
2.5
 50
126.8699068716171
 51
53.130084704331978
  0
CIRCLE
  8
LY_3
  6
CONTINUOUS
 62
               3
  5
E0
 10
0.0
 20
0.0
 30
0.0
 40
8.0
  0
ARC
  8
LY_3
  6
CONTINUOUS
 62
               3
  5
E1
 10
198.0
 20
-17.0
 30
0.0
 40
2.0
 50
269.99999749552182
 51
0.0
  0
ARC
  8
LY_3
  6
CONTINUOUS
 62
               3
  5
E2
 10
198.0
 20
17.0
 30
0.0
 40
2.0
 50
0.0
 51
90.000002504478161
  0
ARC
  8
LY_3
  6
CONTINUOUS
 62
               3
  5
E3
 10
178.0
 20
19.0
 30
0.0
 40
2.0
 50
179.99999499104368
 51
0.000010017912262
  0
ARC
  8
LY_3
  6
CONTINUOUS
 62
               3
  5
E4
 10
178.0
 20
-19.0
 30
0.0
 40
2.0
 50
0.0
 51
180.00000500895632
  0
ARC
  8
LY_3
  6
CONTINUOUS
 62
               3
  5
E5
 10
211.0
 20
3.5
 30
0.0
 40
1.0
 50
0.0
 51
90.000002504478161
  0
ARC
  8
LY_3
  6
CONTINUOUS
 62
               3
  5
E6
 10
207.39999961853027
 20
3.5
 30
0.0
 40
1.0
 50
90.000002504478161
 51
180.00000500895632
  0
ARC
  8
LY_3
  6
CONTINUOUS
 62
               3
  5
E7
 10
211.0
 20
-3.5
 30
0.0
 40
1.0
 50
269.99999749552182
 51
0.0
  0
ARC
  8
LY_3
  6
CONTINUOUS
 62
               3
  5
E8
 10
207.39999961853027
 20
-3.5
 30
0.0
 40
1.0
 50
179.99999134857799
 51
270.00000068324533
  0
LINE
  8
LY_3
  6
CENTER
 62
             110
  5
E9
 10
46.406951904296875
 20
0.0
 30
0.0
 11
138.88179016113281
 21
0.0
 31
0.0
  0
LINE
  8
LY_3
  6
CONTINUOUS
 62
               3
  5
EA
 10
100.80000305175781
 20
16.899993896484375
 30
0.0
 11
106.40000915527344
 21
16.899993896484375
 31
0.0
  0
LINE
  8
LY_3
  6
CONTINUOUS
 62
               3
  5
EB
 10
100.79999542236328
 20
-16.900001525878906
 30
0.0
 11
106.39999389648437
 21
-16.900001525878906
 31
0.0
  0
LINE
  8
LY_3
  6
CONTINUOUS
 62
               3
  5
EC
 10
106.40001622384239
 20
-16.900018443571071
 30
0.0
 11
107.20001059935817
 21
-16.100024068055291
 31
0.0
  0
LINE
  8
LY_3
  6
CONTINUOUS
 62
               3
  5
ED
 10
100.00001118284433
 20
-16.09999709400438
 30
0.0
 11
100.8000098741976
 21
-16.899997943275707
 31
0.0
  0
LINE
  8
LY_3
  6
CONTINUOUS
 62
               3
  5
EE
 10
100.00001087944204
 20
16.099997707180847
 30
0.0
 11
100.80000984053507
 21
16.899998286712417
 31
0.0
  0
LINE
  8
LY_3
  6
CONTINUOUS
 62
               3
  5
EF
 10
107.20000583674931
 20
16.100003691962002
 30
0.0
 11
106.40001112406111
 21
16.899997730305358
 31
0.0
  0
LINE
  8
LY_3
  6
CENTER
 62
             110
  5
F0
 10
97.788497924804688
 20
-13.5
 30
0.0
 11
109.50637817382812
 21
-13.5
 31
0.0
  0
LINE
  8
LY_3
  6
CENTER
 62
             110
  5
F1
 10
97.565299987792969
 20
13.5
 30
0.0
 11
109.00418090820312
 21
13.5
 31
0.0
  0
LINE
  8
LY_3
  6
CONTINUOUS
 62
               3
  5
F2
 10
107.19999694824219
 20
-16.10003662109375
 30
0.0
 11
107.19999694824219
 21
16.100013732910156
 31
0.0
  0
LINE
  8
LY_3
  6
CONTINUOUS
 62
               3
  5
F3
 10
100.0
 20
-16.099990844726563
 30
0.0
 11
100.0
 21
16.100006103515625
 31
0.0
  0
LINE
  8
LY_3
  6
CONTINUOUS
 62
               3
  5
F4
 10
107.5
 20
-9.0
 30
0.0
 11
129.20000457763672
 21
-9.0
 31
0.0
  0
LINE
  8
LY_3
  6
CONTINUOUS
 62
               3
  5
F5
 10
107.5
 20
9.0
 30
0.0
 11
129.20000457763672
 21
9.0
 31
0.0
  0
LINE
  8
LY_3
  6
CONTINUOUS
 62
               3
  5
F6
 10
135.70001220703125
 20
-19.0
 30
0.0
 11
147.45000076293945
 21
-19.0
 31
0.0
  0
LINE
  8
LY_3
  6
CONTINUOUS
 62
               3
  5
F7
 10
200.0
 20
17.0
 30
0.0
 11
200.0
 21
-17.0
 31
0.0
  0
LINE
  8
LY_3
  6
CONTINUOUS
 62
               3
  5
F8
 10
147.45000076293945
 20
19.0
 30
0.0
 11
147.45000076293945
 21
-19.0
 31
0.0
  0
LINE
  8
LY_3
  6
CONTINUOUS
 62
               3
  5
F9
 10
129.20000457763672
 20
11.5
 30
0.0
 11
129.20000457763672
 21
0.0
 31
0.0
  0
LINE
  8
LY_3
  6
CONTINUOUS
 62
               3
  5
FA
 10
135.70000076293945
 20
19.0
 30
0.0
 11
147.45000076293945
 21
19.0
 31
0.0
  0
LINE
  8
LY_3
  6
CONTINUOUS
 62
               3
  5
FB
 10
130.20000076293945
 20
12.5
 30
0.0
 11
134.70000076293945
 21
12.5
 31
0.0
  0
LINE
  8
LY_3
  6
CONTINUOUS
 62
               3
  5
FC
 10
130.20000076293945
 20
-12.5
 30
0.0
 11
134.70000076293945
 21
-12.5
 31
0.0
  0
LINE
  8
LY_3
  6
CONTINUOUS
 62
               3
  5
FD
 10
129.20000158554808
 20
11.499992284303289
 30
0.0
 11
130.20000264713758
 21
12.49999334589279
 31
0.0
  0
LINE
  8
LY_3
  6
CONTINUOUS
 62
               3
  5
FE
 10
134.70000076293945
 20
18.0
 30
0.0
 11
134.70000076293945
 21
-17.999984741210937
 31
0.0
  0
LINE
  8
LY_3
  6
CONTINUOUS
 62
               3
  5
FF
 10
134.69998798195212
 20
-17.999973936775532
 30
0.0
 11
135.69998887495404
 21
-18.999975251246397
 31
0.0
  0
LINE
  8
LY_3
  6
CONTINUOUS
 62
               3
  5
100
 10
134.70000876034612
 20
18.00001186662189
 30
0.0
 11
135.7000099905232
 21
19.000012843917602
 31
0.0
  0
LINE
  8
LY_3
  6
CONTINUOUS
 62
               3
  5
101
 10
129.20000457763672
 20
-11.5
 30
0.0
 11
129.20000457763672
 21
0.0
 31
0.0
  0
LINE
  8
LY_3
  6
CONTINUOUS
 62
               3
  5
102
 10
129.19999888814982
 20
-11.500002460874384
 30
0.0
 11
130.19999994973932
 21
-12.500003522463885
 31
0.0
  0
LINE
  8
LY_3
  6
CONTINUOUS
 62
               3
  5
103
 10
100.80001068115234
 20
16.899993896484375
 30
0.0
 11
100.80001068115234
 21
-16.900001525878906
 31
0.0
  0
LINE
  8
LY_3
  6
CONTINUOUS
 62
               3
  5
104
 10
106.40001678466797
 20
16.899993896484375
 30
0.0
 11
106.40001678466797
 21
-16.900001525878906
 31
0.0
  0
LINE
  8
LY_3
  6
CONTINUOUS
 62
               3
  5
105
 10
130.20000076293945
 20
12.5
 30
0.0
 11
130.20000076293945
 21
-12.5
 31
0.0
  0
LINE
  8
LY_3
  6
CONTINUOUS
 62
               3
  5
106
 10
135.69999313354492
 20
19.0
 30
0.0
 11
135.69999313354492
 21
-19.0
 31
0.0
  0
LINE
  8
LY_3
  6
CONTINUOUS
 62
               3
  5
107
 10
147.45000076293945
 20
14.75
 30
0.0
 11
147.65000152587891
 21
14.75
 31
0.0
  0
LINE
  8
LY_3
  6
CONTINUOUS
 62
               3
  5
108
 10
147.45000076293945
 20
-14.75
 30
0.0
 11
147.65000152587891
 21
-14.75
 31
0.0
  0
LINE
  8
LY_3
  6
CENTER
 62
             110
  5
109
 10
158.35227203369141
 20
0.0
 30
0.0
 11
213.74391937255859
 21
0.0
 31
0.0
  0
LINE
  8
LY_3
  6
CONTINUOUS
 62
             110
  5
10A
 10
143.45000076293945
 20
0.0
 30
0.0
 11
147.45000076293945
 21
0.0
 31
0.0
  0
LINE
  8
LY_3
  6
CENTER
 62
             110
  5
10B
 10
-3.0165792943212182
 20
1.7414975663214136
 30
0.0
 11
-6.3137281896474633
 21
3.6451089304537163
 31
0.0
  0
LINE
  8
LY_3
  6
CONTINUOUS
 62
               3
  5
10C
 10
-2.236053466796875
 20
2.0
 30
0.0
 11
2.236083984375
 21
2.0
 31
0.0
  0
LINE
  8
LY_3
  6
CONTINUOUS
 62
               3
  5
10D
 10
1.0
 20
16.870388031005859
 30
0.0
 11
1.0
 21
10.653167724609375
 31
0.0
  0
LINE
  8
LY_3
  6
CONTINUOUS
 62
               3
  5
10E
 10
-1.0
 20
16.870388031005859
 30
0.0
 11
-1.0
 21
10.653167724609375
 31
0.0
  0
LINE
  8
LY_3
  6
CONTINUOUS
 62
               3
  5
10F
 10
1.0
 20
-10.653167724609375
 30
0.0
 11
1.0
 21
-16.870388031005859
 31
0.0
  0
LINE
  8
LY_3
  6
CONTINUOUS
 62
               3
  5
110
 10
-1.0
 20
-10.653167724609375
 30
0.0
 11
-1.0
 21
-16.870388031005859
 31
0.0
  0
LINE
  8
LY_3
  6
CENTER
 62
             110
  5
111
 10
5.2499736781132924
 20
9.0932839480269649
 30
0.0
 11
8.2499740357411611
 21
14.28943627747185
 31
0.0
  0
LINE
  8
LY_3
  6
CENTER
 62
             110
  5
112
 10
-8.2500430730874541
 20
14.289432952587504
 30
0.0
 11
-5.2500350860641447
 21
9.0932674086438965
 31
0.0
  0
LINE
  8
LY_3
  6
CENTER
 62
             110
  5
113
 10
-8.2499579056257062
 20
-14.289418133261279
 30
0.0
 11
-5.2499571903699689
 21
-9.0932661614442623
 31
0.0
  0
LINE
  8
LY_3
  6
CENTER
 62
             110
  5
114
 10
5.2499680729822558
 20
-9.0932690480378824
 30
0.0
 11
8.2499722453078448
 21
-14.289427984732129
 31
0.0
  0
LINE
  8
LY_3
  6
CENTER
 62
             110
  5
115
 10
-19.0
 20
0.0
 30
0.0
 11
18.718902587890625
 21
0.0
 31
0.0
  0
LINE
  8
LY_3
  6
CONTINUOUS
 62
               3
  5
116
 10
-2.7258583285229179
 20
-7.5212784936020398
 30
0.0
 11
-1.457910026736954
 21
-5.3251279147566493
 31
0.0
  0
LINE
  8
LY_3
  6
CONTINUOUS
 62
               3
  5
117
 10
1.4578845845278465
 20
-5.3251457134722386
 30
0.0
 11
2.7258328863138104
 21
-7.5212962923176292
 31
0.0
  0
LINE
  8
LY_3
  6
CENTER
 62
             110
  5
118
 10
0.0
 20
19.652793884277344
 30
0.0
 11
0.0
 21
-18.769927978515625
 31
0.0
  0
LINE
  8
LY_3
  6
CENTER
 62
             110
  5
119
 10
3.1001957230175776
 20
1.7899093066153
 30
0.0
 11
6.5015817332507595
 21
3.7536996149146944
 31
0.0
  0
LINE
  8
LY_3
  6
CONTINUOUS
 62
               3
  5
11A
 10
147.65000152587891
 20
19.0
 30
0.0
 11
176.0
 21
19.0
 31
0.0
  0
LINE
  8
LY_3
  6
CONTINUOUS
 62
               3
  5
11B
 10
147.65000152587891
 20
-19.0
 30
0.0
 11
147.65000152587891
 21
19.0
 31
0.0
  0
LINE
  8
LY_3
  6
CONTINUOUS
 62
               3
  5
11C
 10
186.0
 20
-19.0
 30
0.0
 11
186.0
 21
19.0
 31
0.0
  0
LINE
  8
LY_3
  6
CONTINUOUS
 62
               3
  5
11D
 10
147.65000152587891
 20
-19.0
 30
0.0
 11
176.0
 21
-19.0
 31
0.0
  0
LINE
  8
LY_3
  6
CONTINUOUS
 62
             110
  5
11E
 10
147.65000152587891
 20
0.0
 30
0.0
 11
151.64999961853027
 21
0.0
 31
0.0
  0
LINE
  8
LY_3
  6
CONTINUOUS
 62
               3
  5
11F
 10
180.0
 20
-19.0
 30
0.0
 11
183.0
 21
-19.0
 31
0.0
  0
LINE
  8
LY_3
  6
CONTINUOUS
 62
               3
  5
120
 10
180.0
 20
19.0
 30
0.0
 11
183.0
 21
19.0
 31
0.0
  0
LINE
  8
LY_3
  6
CONTINUOUS
 62
               3
  5
121
 10
180.0
 20
19.0
 30
0.0
 11
180.0
 21
-19.0
 31
0.0
  0
LINE
  8
LY_3
  6
CONTINUOUS
 62
             110
  5
122
 10
147.65000152587891
 20
-18.352592468261719
 30
0.0
 11
149.65000152587891
 21
-18.352592468261719
 31
0.0
  0
LINE
  8
LY_3
  6
CONTINUOUS
 62
             110
  5
123
 10
147.65000152587891
 20
-16.454483032226562
 30
0.0
 11
151.65000152587891
 21
-16.454483032226562
 31
0.0
  0
LINE
  8
LY_3
  6
CONTINUOUS
 62
             110
  5
124
 10
147.65000152587891
 20
-13.435028076171875
 30
0.0
 11
149.65000152587891
 21
-13.435028076171875
 31
0.0
  0
LINE
  8
LY_3
  6
CONTINUOUS
 62
             110
  5
125
 10
147.65000152587891
 20
-9.5
 30
0.0
 11
151.65000152587891
 21
-9.5
 31
0.0
  0
LINE
  8
LY_3
  6
CONTINUOUS
 62
             110
  5
126
 10
147.65000152587891
 20
-4.9175567626953125
 30
0.0
 11
149.65000152587891
 21
-4.9175567626953125
 31
0.0
  0
LINE
  8
LY_3
  6
CONTINUOUS
 62
             110
  5
127
 10
147.65000152587891
 20
4.9175567626953125
 30
0.0
 11
149.65000152587891
 21
4.9175567626953125
 31
0.0
  0
LINE
  8
LY_3
  6
CONTINUOUS
 62
             110
  5
128
 10
147.65000152587891
 20
9.5
 30
0.0
 11
151.65000152587891
 21
9.5
 31
0.0
  0
LINE
  8
LY_3
  6
CONTINUOUS
 62
             110
  5
129
 10
147.65000152587891
 20
13.435028076171875
 30
0.0
 11
149.65000152587891
 21
13.435028076171875
 31
0.0
  0
LINE
  8
LY_3
  6
CONTINUOUS
 62
             110
  5
12A
 10
147.65000152587891
 20
16.454483032226562
 30
0.0
 11
151.65000152587891
 21
16.454483032226562
 31
0.0
  0
LINE
  8
LY_3
  6
CONTINUOUS
 62
             110
  5
12B
 10
147.65000152587891
 20
18.352592468261719
 30
0.0
 11
149.65000152587891
 21
18.352592468261719
 31
0.0
  0
LINE
  8
LY_3
  6
CONTINUOUS
 62
               3
  5
12C
 10
186.99999923624614
 20
-19.999996732988166
 30
0.0
 11
186.0000008720549
 21
-18.999998284503363
 31
0.0
  0
LINE
  8
LY_3
  6
CONTINUOUS
 62
               3
  5
12D
 10
187.0
 20
-20.0
 30
0.0
 11
196.0
 21
-20.0
 31
0.0
  0
LINE
  8
LY_3
  6
CONTINUOUS
 62
               3
  5
12E
 10
196.0000024263777
 20
-19.999997533778298
 30
0.0
 11
197.00000079056895
 21
-18.999999085293496
 31
0.0
  0
LINE
  8
LY_3
  6
CONTINUOUS
 62
               3
  5
12F
 10
197.0
 20
-19.0
 30
0.0
 11
198.0
 21
-19.0
 31
0.0
  0
LINE
  8
LY_3
  6
CONTINUOUS
 62
               3
  5
130
 10
197.0
 20
19.0
 30
0.0
 11
198.0
 21
19.0
 31
0.0
  0
LINE
  8
LY_3
  6
CONTINUOUS
 62
               3
  5
131
 10
196.0000027635524
 20
20.000001181373591
 30
0.0
 11
197.00000112774364
 21
19.000002732888788
 31
0.0
  0
LINE
  8
LY_3
  6
CONTINUOUS
 62
               3
  5
132
 10
187.0
 20
20.0
 30
0.0
 11
196.0
 21
20.0
 31
0.0
  0
LINE
  8
LY_3
  6
CONTINUOUS
 62
               3
  5
133
 10
186.99999687602258
 20
20.000002403632152
 30
0.0
 11
186.00000120922959
 21
19.000006652545835
 31
0.0
  0
LINE
  8
LY_3
  6
CONTINUOUS
 62
               3
  5
134
 10
183.0
 20
-19.0
 30
0.0
 11
183.0
 21
19.0
 31
0.0
  0
LINE
  8
LY_3
  6
CONTINUOUS
 62
               3
  5
135
 10
183.0
 20
19.0
 30
0.0
 11
186.0
 21
19.0
 31
0.0
  0
LINE
  8
LY_3
  6
CONTINUOUS
 62
               3
  5
136
 10
183.0
 20
-19.0
 30
0.0
 11
186.0
 21
-19.0
 31
0.0
  0
LINE
  8
LY_3
  6
CONTINUOUS
 62
               3
  5
137
 10
187.0
 20
20.0
 30
0.0
 11
187.0
 21
-20.0
 31
0.0
  0
LINE
  8
LY_3
  6
CONTINUOUS
 62
               3
  5
138
 10
196.0
 20
20.0
 30
0.0
 11
196.0
 21
-20.0
 31
0.0
  0
LINE
  8
LY_3
  6
CONTINUOUS
 62
               3
  5
139
 10
197.0
 20
19.0
 30
0.0
 11
197.0
 21
-19.0
 31
0.0
  0
LINE
  8
LY_3
  6
CONTINUOUS
 62
             110
  5
13A
 10
187.0
 20
-19.5
 30
0.0
 11
196.0
 21
-19.5
 31
0.0
  0
LINE
  8
LY_3
  6
CONTINUOUS
 62
             110
  5
13B
 10
187.0
 20
-19.0
 30
0.0
 11
196.0
 21
-19.0
 31
0.0
  0
LINE
  8
LY_3
  6
CONTINUOUS
 62
             110
  5
13C
 10
187.0
 20
-18.5
 30
0.0
 11
196.0
 21
-18.5
 31
0.0
  0
LINE
  8
LY_3
  6
CONTINUOUS
 62
             110
  5
13D
 10
187.0
 20
-18.0
 30
0.0
 11
196.0
 21
-18.0
 31
0.0
  0
LINE
  8
LY_3
  6
CONTINUOUS
 62
             110
  5
13E
 10
187.0
 20
-17.5
 30
0.0
 11
196.0
 21
-17.5
 31
0.0
  0
LINE
  8
LY_3
  6
CONTINUOUS
 62
             110
  5
13F
 10
187.0
 20
-17.0
 30
0.0
 11
196.0
 21
-17.0
 31
0.0
  0
LINE
  8
LY_3
  6
CONTINUOUS
 62
             110
  5
140
 10
187.0
 20
-16.5
 30
0.0
 11
196.0
 21
-16.5
 31
0.0
  0
LINE
  8
LY_3
  6
CONTINUOUS
 62
             110
  5
141
 10
187.0
 20
-16.0
 30
0.0
 11
196.0
 21
-16.0
 31
0.0
  0
LINE
  8
LY_3
  6
CONTINUOUS
 62
             110
  5
142
 10
187.0
 20
-15.5
 30
0.0
 11
196.0
 21
-15.5
 31
0.0
  0
LINE
  8
LY_3
  6
CONTINUOUS
 62
             110
  5
143
 10
187.0
 20
-15.0
 30
0.0
 11
196.0
 21
-15.0
 31
0.0
  0
LINE
  8
LY_3
  6
CONTINUOUS
 62
             110
  5
144
 10
187.0
 20
-14.5
 30
0.0
 11
196.0
 21
-14.5
 31
0.0
  0
LINE
  8
LY_3
  6
CONTINUOUS
 62
             110
  5
145
 10
187.0
 20
-14.0
 30
0.0
 11
196.0
 21
-14.0
 31
0.0
  0
LINE
  8
LY_3
  6
CONTINUOUS
 62
             110
  5
146
 10
187.0
 20
-13.0
 30
0.0
 11
196.0
 21
-13.0
 31
0.0
  0
LINE
  8
LY_3
  6
CONTINUOUS
 62
             110
  5
147
 10
187.0
 20
-12.0
 30
0.0
 11
196.0
 21
-12.0
 31
0.0
  0
LINE
  8
LY_3
  6
CONTINUOUS
 62
             110
  5
148
 10
187.0
 20
-11.0
 30
0.0
 11
196.0
 21
-11.0
 31
0.0
  0
LINE
  8
LY_3
  6
CONTINUOUS
 62
             110
  5
149
 10
187.0
 20
-10.0
 30
0.0
 11
196.0
 21
-10.0
 31
0.0
  0
LINE
  8
LY_3
  6
CONTINUOUS
 62
             110
  5
14A
 10
187.0
 20
-9.0
 30
0.0
 11
196.0
 21
-9.0
 31
0.0
  0
LINE
  8
LY_3
  6
CONTINUOUS
 62
             110
  5
14B
 10
187.0
 20
-8.0
 30
0.0
 11
196.0
 21
-8.0
 31
0.0
  0
LINE
  8
LY_3
  6
CONTINUOUS
 62
             110
  5
14C
 10
187.0
 20
-7.0
 30
0.0
 11
196.0
 21
-7.0
 31
0.0
  0
LINE
  8
LY_3
  6
CONTINUOUS
 62
             110
  5
14D
 10
187.0
 20
-6.0
 30
0.0
 11
196.0
 21
-6.0
 31
0.0
  0
LINE
  8
LY_3
  6
CONTINUOUS
 62
             110
  5
14E
 10
187.0
 20
-5.0
 30
0.0
 11
196.0
 21
-5.0
 31
0.0
  0
LINE
  8
LY_3
  6
CONTINUOUS
 62
             110
  5
14F
 10
187.0
 20
-4.0
 30
0.0
 11
196.0
 21
-4.0
 31
0.0
  0
LINE
  8
LY_3
  6
CONTINUOUS
 62
             110
  5
150
 10
187.0
 20
-3.0
 30
0.0
 11
196.0
 21
-3.0
 31
0.0
  0
LINE
  8
LY_3
  6
CONTINUOUS
 62
             110
  5
151
 10
187.0
 20
-2.0
 30
0.0
 11
196.0
 21
-2.0
 31
0.0
  0
LINE
  8
LY_3
  6
CONTINUOUS
 62
             110
  5
152
 10
187.0
 20
-1.0
 30
0.0
 11
196.0
 21
-1.0
 31
0.0
  0
LINE
  8
LY_3
  6
CONTINUOUS
 62
             110
  5
153
 10
187.0
 20
0.0
 30
0.0
 11
196.0
 21
0.0
 31
0.0
  0
LINE
  8
LY_3
  6
CONTINUOUS
 62
             110
  5
154
 10
187.0
 20
1.0
 30
0.0
 11
196.0
 21
1.0
 31
0.0
  0
LINE
  8
LY_3
  6
CONTINUOUS
 62
             110
  5
155
 10
187.0
 20
2.0
 30
0.0
 11
196.0
 21
2.0
 31
0.0
  0
LINE
  8
LY_3
  6
CONTINUOUS
 62
             110
  5
156
 10
187.0
 20
3.0
 30
0.0
 11
196.0
 21
3.0
 31
0.0
  0
LINE
  8
LY_3
  6
CONTINUOUS
 62
             110
  5
157
 10
187.0
 20
4.0
 30
0.0
 11
196.0
 21
4.0
 31
0.0
  0
LINE
  8
LY_3
  6
CONTINUOUS
 62
             110
  5
158
 10
187.0
 20
5.0
 30
0.0
 11
196.0
 21
5.0
 31
0.0
  0
LINE
  8
LY_3
  6
CONTINUOUS
 62
             110
  5
159
 10
187.0
 20
6.0
 30
0.0
 11
196.0
 21
6.0
 31
0.0
  0
LINE
  8
LY_3
  6
CONTINUOUS
 62
             110
  5
15A
 10
187.0
 20
7.0
 30
0.0
 11
196.0
 21
7.0
 31
0.0
  0
LINE
  8
LY_3
  6
CONTINUOUS
 62
             110
  5
15B
 10
187.0
 20
8.0
 30
0.0
 11
196.0
 21
8.0
 31
0.0
  0
LINE
  8
LY_3
  6
CONTINUOUS
 62
             110
  5
15C
 10
187.0
 20
9.0
 30
0.0
 11
196.0
 21
9.0
 31
0.0
  0
LINE
  8
LY_3
  6
CONTINUOUS
 62
             110
  5
15D
 10
187.0
 20
10.0
 30
0.0
 11
196.0
 21
10.0
 31
0.0
  0
LINE
  8
LY_3
  6
CONTINUOUS
 62
             110
  5
15E
 10
187.0
 20
14.0
 30
0.0
 11
196.0
 21
14.0
 31
0.0
  0
LINE
  8
LY_3
  6
CONTINUOUS
 62
             110
  5
15F
 10
187.0
 20
15.0
 30
0.0
 11
196.0
 21
15.0
 31
0.0
  0
LINE
  8
LY_3
  6
CONTINUOUS
 62
             110
  5
160
 10
187.0
 20
15.5
 30
0.0
 11
196.0
 21
15.5
 31
0.0
  0
LINE
  8
LY_3
  6
CONTINUOUS
 62
             110
  5
161
 10
187.0
 20
16.0
 30
0.0
 11
196.0
 21
16.0
 31
0.0
  0
LINE
  8
LY_3
  6
CONTINUOUS
 62
             110
  5
162
 10
187.0
 20
16.5
 30
0.0
 11
196.0
 21
16.5
 31
0.0
  0
LINE
  8
LY_3
  6
CONTINUOUS
 62
             110
  5
163
 10
187.0
 20
17.0
 30
0.0
 11
196.0
 21
17.0
 31
0.0
  0
LINE
  8
LY_3
  6
CONTINUOUS
 62
             110
  5
164
 10
187.0
 20
17.5
 30
0.0
 11
196.0
 21
17.5
 31
0.0
  0
LINE
  8
LY_3
  6
CONTINUOUS
 62
             110
  5
165
 10
187.0
 20
18.0
 30
0.0
 11
196.0
 21
18.0
 31
0.0
  0
LINE
  8
LY_3
  6
CONTINUOUS
 62
             110
  5
166
 10
187.0
 20
18.5
 30
0.0
 11
196.0
 21
18.5
 31
0.0
  0
LINE
  8
LY_3
  6
CONTINUOUS
 62
             110
  5
167
 10
187.0
 20
19.0
 30
0.0
 11
196.0
 21
19.0
 31
0.0
  0
LINE
  8
LY_3
  6
CONTINUOUS
 62
             110
  5
168
 10
187.0
 20
19.5
 30
0.0
 11
196.0
 21
19.5
 31
0.0
  0
LINE
  8
LY_3
  6
CONTINUOUS
 62
             110
  5
169
 10
187.0
 20
11.0
 30
0.0
 11
196.0
 21
11.0
 31
0.0
  0
LINE
  8
LY_3
  6
CONTINUOUS
 62
             110
  5
16A
 10
187.0
 20
12.0
 30
0.0
 11
196.0
 21
12.0
 31
0.0
  0
LINE
  8
LY_3
  6
CONTINUOUS
 62
             110
  5
16B
 10
187.0
 20
13.0
 30
0.0
 11
196.0
 21
13.0
 31
0.0
  0
LINE
  8
LY_3
  6
CONTINUOUS
 62
             110
  5
16C
 10
187.0
 20
14.5
 30
0.0
 11
196.0
 21
14.5
 31
0.0
  0
LINE
  8
LY_3
  6
CONTINUOUS
 62
             110
  5
16D
 10
187.0
 20
13.5
 30
0.0
 11
196.0
 21
13.5
 31
0.0
  0
LINE
  8
LY_3
  6
CONTINUOUS
 62
               3
  5
16E
 10
176.0
 20
19.0
 30
0.0
 11
176.0
 21
-19.0
 31
0.0
  0
LINE
  8
LY_3
  6
CONTINUOUS
 62
               3
  5
16F
 10
204.0
 20
1.5
 30
0.0
 11
200.0
 21
1.5
 31
0.0
  0
LINE
  8
LY_3
  6
CONTINUOUS
 62
               3
  5
170
 10
204.0
 20
-1.5
 30
0.0
 11
200.0
 21
-1.5
 31
0.0
  0
LINE
  8
LY_3
  6
CONTINUOUS
 62
             110
  5
171
 10
204.0
 20
1.1999969482421875
 30
0.0
 11
200.0
 21
1.1999969482421875
 31
0.0
  0
LINE
  8
LY_3
  6
CONTINUOUS
 62
             110
  5
172
 10
204.0
 20
-1.1999969482421875
 30
0.0
 11
200.0
 21
-1.1999969482421875
 31
0.0
  0
LINE
  8
LY_3
  6
CONTINUOUS
 62
               3
  5
173
 10
208.0
 20
5.0
 30
0.0
 11
210.40000152587891
 21
5.0
 31
0.0
  0
LINE
  8
LY_3
  6
CONTINUOUS
 62
               3
  5
174
 10
208.0
 20
-5.0
 30
0.0
 11
210.40000152587891
 21
-5.0
 31
0.0
  0
LINE
  8
LY_3
  6
CONTINUOUS
 62
               3
  5
175
 10
212.0
 20
3.5
 30
0.0
 11
212.0
 21
-3.5
 31
0.0
  0
LINE
  8
LY_3
  6
CONTINUOUS
 62
             110
  5
176
 10
207.39999961853027
 20
-4.5
 30
0.0
 11
207.70000076293945
 21
-4.5
 31
0.0
  0
LINE
  8
LY_3
  6
CONTINUOUS
 62
             110
  5
177
 10
208.0
 20
-4.0
 30
0.0
 11
210.40000152587891
 21
-4.0
 31
0.0
  0
LINE
  8
LY_3
  6
CONTINUOUS
 62
             110
  5
178
 10
208.0
 20
-3.5
 30
0.0
 11
210.40000152587891
 21
-3.5
 31
0.0
  0
LINE
  8
LY_3
  6
CONTINUOUS
 62
             110
  5
179
 10
208.0
 20
-3.0
 30
0.0
 11
210.40000152587891
 21
-3.0
 31
0.0
  0
LINE
  8
LY_3
  6
CONTINUOUS
 62
             110
  5
17A
 10
208.0
 20
-2.5
 30
0.0
 11
210.40000152587891
 21
-2.5
 31
0.0
  0
LINE
  8
LY_3
  6
CONTINUOUS
 62
             110
  5
17B
 10
208.0
 20
-2.0
 30
0.0
 11
210.40000152587891
 21
-2.0
 31
0.0
  0
LINE
  8
LY_3
  6
CONTINUOUS
 62
             110
  5
17C
 10
208.0
 20
-1.5
 30
0.0
 11
210.40000152587891
 21
-1.5
 31
0.0
  0
LINE
  8
LY_3
  6
CONTINUOUS
 62
             110
  5
17D
 10
208.0
 20
-1.0
 30
0.0
 11
210.40000152587891
 21
-1.0
 31
0.0
  0
LINE
  8
LY_3
  6
CONTINUOUS
 62
             110
  5
17E
 10
208.0
 20
-0.5
 30
0.0
 11
210.40000152587891
 21
-0.5
 31
0.0
  0
LINE
  8
LY_3
  6
CONTINUOUS
 62
             110
  5
17F
 10
208.0
 20
0.5
 30
0.0
 11
210.40000152587891
 21
0.5
 31
0.0
  0
LINE
  8
LY_3
  6
CONTINUOUS
 62
             110
  5
180
 10
208.0
 20
1.0
 30
0.0
 11
210.40000152587891
 21
1.0
 31
0.0
  0
LINE
  8
LY_3
  6
CONTINUOUS
 62
             110
  5
181
 10
208.0
 20
1.5
 30
0.0
 11
210.40000152587891
 21
1.5
 31
0.0
  0
LINE
  8
LY_3
  6
CONTINUOUS
 62
             110
  5
182
 10
208.0
 20
2.0
 30
0.0
 11
210.40000152587891
 21
2.0
 31
0.0
  0
LINE
  8
LY_3
  6
CONTINUOUS
 62
             110
  5
183
 10
208.0
 20
2.5
 30
0.0
 11
210.40000152587891
 21
2.5
 31
0.0
  0
LINE
  8
LY_3
  6
CONTINUOUS
 62
             110
  5
184
 10
208.0
 20
3.0
 30
0.0
 11
210.40000152587891
 21
3.0
 31
0.0
  0
LINE
  8
LY_3
  6
CONTINUOUS
 62
             110
  5
185
 10
208.0
 20
3.5
 30
0.0
 11
210.40000152587891
 21
3.5
 31
0.0
  0
LINE
  8
LY_3
  6
CONTINUOUS
 62
             110
  5
186
 10
208.0
 20
4.0
 30
0.0
 11
210.40000152587891
 21
4.0
 31
0.0
  0
LINE
  8
LY_3
  6
CONTINUOUS
 62
             110
  5
187
 10
208.0
 20
4.5
 30
0.0
 11
210.40000152587891
 21
4.5
 31
0.0
  0
LINE
  8
LY_3
  6
CONTINUOUS
 62
               3
  5
188
 10
204.0
 20
4.0
 30
0.0
 11
204.0
 21
-4.0
 31
0.0
  0
LINE
  8
LY_3
  6
CONTINUOUS
 62
               3
  5
189
 10
204.0
 20
-4.0
 30
0.0
 11
205.0
 21
-4.0
 31
0.0
  0
LINE
  8
LY_3
  6
CONTINUOUS
 62
               3
  5
18A
 10
204.0
 20
4.0
 30
0.0
 11
205.0
 21
4.0
 31
0.0
  0
LINE
  8
LY_3
  6
CONTINUOUS
 62
               3
  5
18B
 10
205.0
 20
4.0
 30
0.0
 11
205.0
 21
-4.0
 31
0.0
  0
LINE
  8
LY_3
  6
CONTINUOUS
 62
               3
  5
18C
 10
206.39999961853027
 20
3.5
 30
0.0
 11
206.39999961853027
 21
-3.5
 31
0.0
  0
LINE
  8
LY_3
  6
CONTINUOUS
 62
               3
  5
18D
 10
205.0
 20
3.0
 30
0.0
 11
206.39999961853027
 21
3.0
 31
0.0
  0
LINE
  8
LY_3
  6
CONTINUOUS
 62
               3
  5
18E
 10
205.0
 20
-3.0
 30
0.0
 11
206.39999961853027
 21
-3.0
 31
0.0
  0
LINE
  8
LY_3
  6
CONTINUOUS
 62
               3
  5
18F
 10
207.70000076293945
 20
4.6999969482421875
 30
0.0
 11
207.70000076293945
 21
-4.6999969482421875
 31
0.0
  0
LINE
  8
LY_3
  6
CONTINUOUS
 62
               3
  5
190
 10
210.70000076293945
 20
4.6999969482421875
 30
0.0
 11
210.70000076293945
 21
-4.6999969482421875
 31
0.0
  0
LINE
  8
LY_3
  6
CONTINUOUS
 62
             110
  5
191
 10
208.0
 20
-4.5
 30
0.0
 11
210.40000152587891
 21
-4.5
 31
0.0
  0
LINE
  8
LY_3
  6
CONTINUOUS
 62
             110
  5
192
 10
210.70000076293945
 20
-4.5
 30
0.0
 11
211.0
 21
-4.5
 31
0.0
  0
LINE
  8
LY_3
  6
CONTINUOUS
 62
               3
  5
193
 10
207.99999877032769
 20
-4.9999999438146006
 30
0.0
 11
207.69999953081015
 21
-4.7000006790090083
 31
0.0
  0
LINE
  8
LY_3
  6
CONTINUOUS
 62
               3
  5
194
 10
210.40000096410927
 20
-4.9999992526064148
 30
0.0
 11
210.70000020362681
 21
-4.6999999878008225
 31
0.0
  0
LINE
  8
LY_3
  6
CONTINUOUS
 62
               3
  5
195
 10
207.69999992699059
 20
4.700001064438311
 30
0.0
 11
207.99999919179618
 21
5.0000003039558578
 31
0.0
  0
LINE
  8
LY_3
  6
CONTINUOUS
 62
               3
  5
196
 10
210.40000130128396
 20
5.0000029002017072
 30
0.0
 11
210.70000323819977
 21
4.7000009379976291
 31
0.0
  0
LINE
  8
LY_3
  6
CONTINUOUS
 62
               3
  5
197
 10
208.0
 20
-5.0
 30
0.0
 11
208.0
 21
5.0
 31
0.0
  0
LINE
  8
LY_3
  6
CONTINUOUS
 62
               3
  5
198
 10
210.40000152587891
 20
-5.0
 30
0.0
 11
210.40000152587891
 21
5.0
 31
0.0
  0
LINE
  8
LY_3
  6
CONTINUOUS
 62
             110
  5
199
 10
207.39999961853027
 20
4.5
 30
0.0
 11
207.70000076293945
 21
4.5
 31
0.0
  0
LINE
  8
LY_3
  6
CONTINUOUS
 62
             110
  5
19A
 10
211.0
 20
4.5
 30
0.0
 11
210.70000076293945
 21
4.5
 31
0.0
  0
LINE
  8
LY_3
  6
CONTINUOUS
 62
             110
  5
19B
 10
105.4828223550039
 20
19.063045353638007
 30
0.0
 11
103.60000610351562
 21
16.899993896484375
 31
0.0
  0
LINE
  8
LY_3
  6
CONTINUOUS
 62
             110
  5
19C
 10
103.60000610351562
 20
16.899993896484375
 30
0.0
 11
104.14904809007983
 21
19.714659336665932
 31
0.0
  0
LINE
  8
LY_3
  6
CONTINUOUS
 62
             110
  5
19D
 10
103.60000610351562
 20
16.899993896484375
 30
0.0
 11
104.81593522254187
 21
19.388852345151967
 31
0.0
  0
ENDSEC
  0
EOF
