  0
SECTION
  2
HEADER
  9
$ACADVER
  1
AC1009
  9
$DWGCODEPAGE
  3
dos932
  9
$INSBASE
 10
0.0
 20
0.0
 30
0.0
  9
$EXTMIN
 10
-19.900016784667969
 20
-41.000026702880859
 30
0.0
  9
$EXTMAX
 10
230.52284808158873
 20
46.8974928855896
 30
0.0
  9
$LIMMIN
 10
-19.900016784667969
 20
-41.000026702880859
  9
$LIMMAX
 10
230.52284808158873
 20
46.8974928855896
  9
$ORTHOMODE
 70
               0
  9
$REGENMODE
 70
               1
  9
$FILLMODE
 70
               1
  9
$QTEXTMODE
 70
               0
  9
$MIRRTEXT
 70
               1
  9
$DRAGMODE
 70
               2
  9
$LTSCALE
 40
1.0
  9
$OSMODE
 70
               0
  9
$ATTMODE
 70
               1
  9
$TEXTSIZE
 40
3.2000000476837158
  9
$TRACEWID
 40
0.05
  9
$TEXTSTYLE
  7
MX_NOTE_STANDARD
  9
$CLAYER
  8
0
  9
$CELTYPE
  6
CONTINUOUS
  9
$CECOLOR
 62
             256
  9
$DIMSCALE
 40
1.0
  9
$DIMASZ
 40
2.5
  9
$DIMEXO
 40
2.0
  9
$DIMDLI
 40
3.75
  9
$DIMRND
 40
0.0
  9
$DIMDLE
 40
0.0
  9
$DIMEXE
 40
1.0
  9
$DIMTP
 40
0.0
  9
$DIMTM
 40
0.0
  9
$DIMTXT
 40
4.1655998229980469
  9
$DIMCEN
 40
2.5
  9
$DIMTSZ
 40
0.0
  9
$DIMTOL
 70
               0
  9
$DIMLIM
 70
               0
  9
$DIMTIH
 70
               0
  9
$DIMTOH
 70
               0
  9
$DIMSE1
 70
               0
  9
$DIMSE2
 70
               0
  9
$DIMTAD
 70
               1
  9
$DIMZIN
 70
               8
  9
$DIMBLK
  1

  9
$DIMASO
 70
               1
  9
$DIMSHO
 70
               1
  9
$DIMPOST
  1

  9
$DIMAPOST
  1

  9
$DIMALT
 70
               0
  9
$DIMALTD
 70
               4
  9
$DIMALTF
 40
0.03937007874016
  9
$DIMLFAC
 40
1.0
  9
$DIMTOFL
 70
               1
  9
$DIMTVP
 40
0.0
  9
$DIMTIX
 70
               0
  9
$DIMSOXD
 70
               0
  9
$DIMSAH
 70
               1
  9
$DIMBLK1
  1
_OPEN30
  9
$DIMBLK2
  1
_OPEN30
  9
$DIMSTYLE
  2
MXDIMSTYLE
  9
$DIMCLRD
 70
               0
  9
$DIMCLRE
 70
               0
  9
$DIMCLRT
 70
               0
  9
$DIMTFAC
 40
1.0
  9
$DIMGAP
 40
1.0
  9
$LUNITS
 70
               2
  9
$LUPREC
 70
               4
  9
$AXISMODE
 70
               0
  9
$AXISUNIT
 10
0.0
 20
0.0
  9
$SKETCHINC
 40
0.1
  9
$FILLETRAD
 40
0.0
  9
$AUNITS
 70
               0
  9
$AUPREC
 70
               0
  9
$MENU
  1
acad
  9
$ELEVATION
 40
0.0
  9
$PELEVATION
 40
0.0
  9
$THICKNESS
 40
0.0
  9
$LIMCHECK
 70
               0
  9
$BLIPMODE
 70
               1
  9
$CHAMFERA
 40
0.0
  9
$CHAMFERB
 40
0.0
  9
$SKPOLY
 70
               0
  9
$TDCREATE
 40
2455216.594664352
  9
$TDUPDATE
 40
2455216.594664352
  9
$TDINDWG
 40
0.0000000000
  9
$TDUSRTIMER
 40
0.0000000000
  9
$USRTIMER
 70
               1
  9
$ANGBASE
 50
0.0
  9
$ANGDIR
 70
               0
  9
$PDMODE
 70
               0
  9
$PDSIZE
 40
0.0
  9
$PLINEWID
 40
0.0
  9
$COORDS
 70
               1
  9
$SPLFRAME
 70
               0
  9
$SPLINETYPE
 70
               6
  9
$SPLINESEGS
 70
               8
  9
$ATTDIA
 70
               0
  9
$ATTREQ
 70
               1
  9
$HANDLING
 70
               1
  9
$HANDSEED
  5
1E5
  9
$SURFTAB1
 70
               6
  9
$SURFTAB2
 70
               6
  9
$SURFTYPE
 70
               6
  9
$SURFU
 70
               6
  9
$SURFV
 70
               6
  9
$UCSNAME
  2

  9
$UCSORG
 10
0.0
 20
0.0
 30
0.0
  9
$UCSXDIR
 10
1.0
 20
0.0
 30
0.0
  9
$UCSYDIR
 10
0.0
 20
1.0
 30
0.0
  9
$PUCSNAME
  2

  9
$PUCSORG
 10
0.0
 20
0.0
 30
0.0
  9
$PUCSXDIR
 10
1.0
 20
0.0
 30
0.0
  9
$PUCSYDIR
 10
0.0
 20
1.0
 30
0.0
  9
$USERI1
 70
               0
  9
$USERI2
 70
               0
  9
$USERI3
 70
               0
  9
$USERI4
 70
               0
  9
$USERI5
 70
               0
  9
$USERR1
 40
0.0
  9
$USERR2
 40
0.0
  9
$USERR3
 40
0.0
  9
$USERR4
 40
0.0
  9
$USERR5
 40
0.0
  9
$WORLDVIEW
 70
               1
  9
$SHADEDGE
 70
               3
  9
$SHADEDIF
 70
              70
  9
$TILEMODE
 70
               1
  9
$MAXACTVP
 70
              16
  9
$PINSBASE
 10
0.0
 20
0.0
 30
0.0
  9
$PLIMCHECK
 70
               0
  9
$PEXTMIN
 10
1.0000000000000000E+20
 20
1.0000000000000000E+20
 30
1.0000000000000000E+20
  9
$PEXTMAX
 10
-1.0000000000000000E+20
 20
-1.0000000000000000E+20
 30
-1.0000000000000000E+20
  9
$PLIMMIN
 10
0.0
 20
0.0
  9
$PLIMMAX
 10
12.0
 20
9.0
  9
$UNITMODE
 70
               0
  9
$VISRETAIN
 70
               0
  9
$PLINEGEN
 70
               1
  9
$PSLTSCALE
 70
               0
  9
$TREEDEPTH
 70
            3020
  0
ENDSEC
  0
SECTION
  2
TABLES
  0
TABLE
  2
VPORT
 70
               1
  0
VPORT
  2
*ACTIVE
 70
               0
 10
0.0
 20
0.0
 11
1.0
 21
1.0
 12
105.31141564846038
 22
2.9487330913543701
 13
0.0
 23
0.0
 14
1.0
 24
1.0
 15
0.0
 25
0.0
 16
0.0
 26
0.0
 36
1.0
 17
0.0
 27
0.0
 37
0.0
 40
88.776494784355165
 41
1.7320508075688772
 42
50.0
 43
0.0
 44
0.0
 50
0.0
 51
0.0
 71
               0
 72
             100
 73
               1
 74
               1
 75
               0
 76
               0
 77
               0
 78
               0
  0
ENDTAB
  0
TABLE
  2
LTYPE
 70
               2
  0
LTYPE
  2
CONTINUOUS
 70
              64
  3
Solid line
 72
              65
 73
               0
 40
0.0
  0
LTYPE
  2
CENTER
 70
              64
  3
Center ____ _ ____ _ ____ _ ____ _ ____ _ ____
 72
              65
 73
               4
 40
50.800000000000004
 49
31.75
 49
-6.3499999999999996
 49
6.3499999999999996
 49
-6.3499999999999996
  0
ENDTAB
  0
TABLE
  2
LAYER
 70
               2
  0
LAYER
  2
0
 70
               0
 62
               7
  6
CONTINUOUS
  0
LAYER
  2
DEFPOINTS
 70
               0
 62
               7
  6
CONTINUOUS
  0
ENDTAB
  0
TABLE
  2
STYLE
 70
               4
  0
STYLE
  2
MX_NOTE_STANDARD
 70
               0
 40
0.0
 41
1.0
 50
0.0
 71
               0
 42
3.2000000476837158
  3
txt.shx
  4
extfont.shx
  0
STYLE
  2
MX_DIMTXSTY_2
 70
               0
 40
0.0
 41
1.05
 50
0.0
 71
               0
 42
3.2000000476837158
  3
txt.shx
  4
extfont.shx
  0
STYLE
  2
MX_DIMTXSTY_3
 70
               0
 40
0.0
 41
1.1000000000000001
 50
0.0
 71
               0
 42
3.2000000476837158
  3
txt.shx
  4
extfont.shx
  0
STYLE
  2
MX_DIMTXSTY_4
 70
               0
 40
0.0
 41
1.2000000000000002
 50
0.0
 71
               0
 42
3.2000000476837158
  3
txt.shx
  4
extfont.shx
  0
ENDTAB
  0
TABLE
  2
VIEW
 70
               0
  0
ENDTAB
  0
TABLE
  2
UCS
 70
               0
  0
ENDTAB
  0
TABLE
  2
APPID
 70
               1
  0
APPID
  2
ACAD
 70
               0
  0
ENDTAB
  0
TABLE
  2
DIMSTYLE
 70
               1
  0
DIMSTYLE
  2
MXDIMSTYLE
 70
               0
  3

  4

  5

  6
_OPEN30
  7
_OPEN30
 40
1.0
 41
2.5
 42
2.0
 43
3.75
 44
1.0
 45
0.0
 46
0.0
 47
0.0
 48
0.0
 71
               0
 72
               0
 73
               0
 74
               0
 75
               0
 76
               0
 77
               1
 78
               8
140
4.1655998229980469
141
2.5
142
0.0
143
0.03937007874016
144
1.0
145
0.0
146
1.0
147
1.0
170
               0
171
               4
172
               1
173
               1
174
               0
175
               0
176
               0
177
               0
178
               0
  0
ENDTAB
  0
ENDSEC
  0
SECTION
  2
BLOCKS
  0
BLOCK
  8
0
  5
25
  2
*U0
 70
               1
 10
0.0
 20
0.0
 30
0.0
  3
*U0
  0
LINE
  8
0
  6
CONTINUOUS
 62
             110
  5
26
 10
0.0
 20
0.0
 30
0.0
 11
-1.0
 21
0.0
 31
0.0
  0
LINE
  8
0
  6
CONTINUOUS
 62
             110
  5
27
 10
0.0
 20
0.0
 30
0.0
 11
-1.0
 21
-0.267949
 31
0.0
  0
LINE
  8
0
  6
CONTINUOUS
 62
             110
  5
28
 10
-1.0
 20
0.267949
 30
0.0
 11
0.0
 21
0.0
 31
0.0
  0
ENDBLK
  8
0
  5
29
  0
BLOCK
  8
0
  6
BYBLOCK
 62
               0
  5
20
  2
_OPEN30
 70
               2
 10
0.0
 20
0.0
 30
0.0
  3
_OPEN30
  0
LINE
  8
0
  6
BYBLOCK
 62
               0
  5
21
 10
-1.0
 20
0.267949
 30
0.0
 11
0.0
 21
0.0
 31
0.0
  0
LINE
  8
0
  6
BYBLOCK
 62
               0
  5
22
 10
0.0
 20
0.0
 30
0.0
 11
-1.0
 21
-0.267949
 31
0.0
  0
LINE
  8
0
  6
BYBLOCK
 62
               0
  5
23
 10
0.0
 20
0.0
 30
0.0
 11
-1.0
 21
0.0
 31
0.0
  0
ENDBLK
  8
0
  6
BYBLOCK
 62
               0
  5
24
  0
BLOCK
  8
0
  6
BYBLOCK
 62
               0
  5
2B
  2
*D2
 70
               1
 10
0.0
 20
0.0
 30
0.0
  3
*D2
  0
LINE
  8
0
  6
CONTINUOUS
 62
             110
  5
2C
 10
-3.0
 20
30.0
 30
0.0
 11
2.0000228881835937
 21
30.0
 31
0.0
  0
LINE
  8
0
  6
CONTINUOUS
 62
             110
  5
2D
 10
2.0000228881835937
 20
30.0
 30
0.0
 11
9.0232753753662109
 21
30.0
 31
0.0
  0
LINE
  8
0
  6
CONTINUOUS
 62
             110
  5
2E
 10
-3.0
 20
2.0
 30
0.0
 11
-3.0
 21
31.0
 31
0.0
  0
LINE
  8
0
  6
CONTINUOUS
 62
             110
  5
2F
 10
2.0000228881835937
 20
4.2360687255859375
 30
0.0
 11
2.0000228881835937
 21
31.0
 31
0.0
  0
LINE
  8
0
  6
CONTINUOUS
 62
             110
  5
30
 10
-3.0
 20
30.0
 30
0.0
 11
-7.0
 21
30.0
 31
0.0
  0
LINE
  8
0
  6
CONTINUOUS
 62
             110
  5
31
 10
2.0000228881835937
 20
30.0
 30
0.0
 11
6.0000228881835938
 21
30.0
 31
0.0
  0
INSERT
  8
0
  6
CONTINUOUS
 62
             110
  5
32
  2
_OPEN30
 10
-3.0
 20
30.0
 30
0.0
 41
2.77
 42
2.77
 43
2.77
  0
INSERT
  8
0
  6
CONTINUOUS
 62
             110
  5
33
  2
_OPEN30
 10
2.0000228881835937
 20
30.0
 30
0.0
 41
2.77
 42
2.77
 50
180.0
 43
2.77
  0
TEXT
  8
0
  6
CONTINUOUS
 62
             110
  5
34
 10
5.7857753435770674
 20
31.0
 30
0.0
 40
4.1999998092651367
  1
5
  7
MX_NOTE_STANDARD
 11
5.7857753435770674
 21
33.099999904632568
 31
0.0
 73
               2
  0
POINT
  8
DEFPOINTS
  6
CONTINUOUS
 62
               0
  5
35
 10
-3.0
 20
0.0
 30
0.0
  0
POINT
  8
DEFPOINTS
  6
CONTINUOUS
 62
               0
  5
36
 10
2.0000228881835937
 20
2.2360687255859375
 30
0.0
  0
POINT
  8
DEFPOINTS
  6
CONTINUOUS
 62
               0
  5
37
 10
2.0000228881835937
 20
30.0
 30
0.0
  0
ENDBLK
  8
0
  6
BYBLOCK
 62
               0
  5
38
  0
BLOCK
  8
0
  6
BYBLOCK
 62
               0
  5
3B
  2
*D3
 70
               1
 10
0.0
 20
0.0
 30
0.0
  3
*D3
  0
LINE
  8
0
  6
CONTINUOUS
 62
             110
  5
3C
 10
30.0
 20
-3.0
 30
0.0
 11
30.0
 21
3.0
 31
0.0
  0
LINE
  8
0
  6
CONTINUOUS
 62
             110
  5
3D
 10
30.0
 20
3.0
 30
0.0
 11
30.0
 21
38.381221771240234
 31
0.0
  0
LINE
  8
0
  6
CONTINUOUS
 62
             110
  5
3E
 10
39.0
 20
-2.9999999999999996
 30
0.0
 11
29.0
 21
-3.0
 31
0.0
  0
LINE
  8
0
  6
CONTINUOUS
 62
             110
  5
3F
 10
39.0
 20
3.0000000000000004
 30
0.0
 11
29.0
 21
3.0
 31
0.0
  0
LINE
  8
0
  6
CONTINUOUS
 62
             110
  5
40
 10
30.0
 20
-3.0
 30
0.0
 11
30.0
 21
-7.0
 31
0.0
  0
LINE
  8
0
  6
CONTINUOUS
 62
             110
  5
41
 10
30.0
 20
3.0
 30
0.0
 11
30.0
 21
7.0
 31
0.0
  0
INSERT
  8
0
  6
CONTINUOUS
 62
             110
  5
42
  2
_OPEN30
 10
30.0
 20
-3.0
 30
0.0
 41
2.77
 42
2.77
 50
90.0
 43
2.77
  0
INSERT
  8
0
  6
CONTINUOUS
 62
             110
  5
43
  2
_OPEN30
 10
30.0
 20
3.0
 30
0.0
 41
2.77
 42
2.77
 50
270.0
 43
2.77
  0
TEXT
  8
0
  6
CONTINUOUS
 62
             110
  5
45
 10
27.424999952316281
 20
5.5159200396605819
 30
0.0
 40
4.1999998092651367
  1
%%c6f6
 50
90.0
 41
0.8620689940354039
  7
MX_DIMTXSTY_2
 11
25.325000047683712
 21
5.5159200396605819
 31
0.0
 73
               2
  0
TEXT
  8
0
  6
CONTINUOUS
 62
             110
  5
46
 10
24.537499904632568
 20
21.287471775379444
 30
0.0
 40
3.1499998569488525
  1
-0.010
 50
90.0
 41
1.1904762524235755
  7
MX_DIMTXSTY_2
 11
22.962499976158142
 21
21.287471775379444
 31
0.0
 73
               2
  0
TEXT
  8
0
  6
CONTINUOUS
 62
             110
  5
47
 10
29.262500047683716
 20
21.265150343951749
 30
0.0
 40
3.1499998569488525
  1
-0.018
 50
90.0
 41
1.1479592382495176
  7
MX_DIMTXSTY_2
 11
27.68750011920929
 21
21.265150343951749
 31
0.0
 73
               2
  0
POINT
  8
DEFPOINTS
  6
CONTINUOUS
 62
               0
  5
48
 10
41.0
 20
-3.0
 30
0.0
  0
POINT
  8
DEFPOINTS
  6
CONTINUOUS
 62
               0
  5
49
 10
41.0
 20
3.0
 30
0.0
  0
POINT
  8
DEFPOINTS
  6
CONTINUOUS
 62
               0
  5
4A
 10
30.0
 20
3.0
 30
0.0
  0
ENDBLK
  8
0
  6
BYBLOCK
 62
               0
  5
4B
  0
BLOCK
  8
0
  6
BYBLOCK
 62
               0
  5
54
  2
*D4
 70
               1
 10
0.0
 20
0.0
 30
0.0
  3
*D4
  0
LINE
  8
0
  6
CONTINUOUS
 62
             110
  5
55
 10
199.3999053955078
 20
-40.000026702880859
 30
0.0
 11
110.0
 21
-40.000026702880859
 31
0.0
  0
LINE
  8
0
  6
CONTINUOUS
 62
             110
  5
56
 10
199.3999053955078
 20
-15.399993896484375
 30
0.0
 11
199.3999053955078
 21
-41.000026702880859
 31
0.0
  0
LINE
  8
0
  6
CONTINUOUS
 62
             110
  5
57
 10
110.0
 20
-18.099952697753906
 30
0.0
 11
110.0
 21
-41.000026702880859
 31
0.0
  0
INSERT
  8
0
  6
CONTINUOUS
 62
             110
  5
58
  2
_OPEN30
 10
199.3999053955078
 20
-40.000026702880859
 30
0.0
 41
2.77
 42
2.77
 43
2.77
  0
INSERT
  8
0
  6
CONTINUOUS
 62
             110
  5
59
  2
_OPEN30
 10
110.0
 20
-40.000026702880859
 30
0.0
 41
2.77
 42
2.77
 50
180.0
 43
2.77
  0
TEXT
  8
0
  6
CONTINUOUS
 62
             110
  5
5B
 10
148.25677136294541
 20
-39.000026702880859
 30
0.0
 40
4.1999998092651367
  1
89.4
 41
1.0227273161244872
  7
MX_DIMTXSTY_3
 11
148.25677136294541
 21
-36.900026798248291
 31
0.0
 73
               2
  0
POINT
  8
DEFPOINTS
  6
CONTINUOUS
 62
               0
  5
5C
 10
199.3999053955078
 20
-13.399993896484375
 30
0.0
  0
POINT
  8
DEFPOINTS
  6
CONTINUOUS
 62
               0
  5
5D
 10
110.0
 20
-16.099952697753906
 30
0.0
  0
POINT
  8
DEFPOINTS
  6
CONTINUOUS
 62
               0
  5
5E
 10
110.0
 20
-40.000026702880859
 30
0.0
  0
ENDBLK
  8
0
  6
BYBLOCK
 62
               0
  5
5F
  0
BLOCK
  8
0
  6
BYBLOCK
 62
               0
  5
62
  2
*D5
 70
               1
 10
0.0
 20
0.0
 30
0.0
  3
*D5
  0
LINE
  8
0
  6
CONTINUOUS
 62
             110
  5
63
 10
206.3999053955078
 20
-40.000026702880859
 30
0.0
 11
199.3999053955078
 21
-40.000026702880859
 31
0.0
  0
LINE
  8
0
  6
CONTINUOUS
 62
             110
  5
64
 10
226.60931797027587
 20
-40.000026702880859
 30
0.0
 11
206.3999053955078
 21
-40.000026702880859
 31
0.0
  0
LINE
  8
0
  6
CONTINUOUS
 62
             110
  5
65
 10
206.3999053955078
 20
-5.499969482421875
 30
0.0
 11
206.3999053955078
 21
-41.000026702880859
 31
0.0
  0
LINE
  8
0
  6
CONTINUOUS
 62
             110
  5
66
 10
199.3999053955078
 20
-15.399993896484375
 30
0.0
 11
199.3999053955078
 21
-41.000026702880859
 31
0.0
  0
LINE
  8
0
  6
CONTINUOUS
 62
             110
  5
67
 10
206.3999053955078
 20
-40.000026702880859
 30
0.0
 11
210.3999053955078
 21
-40.000026702880859
 31
0.0
  0
LINE
  8
0
  6
CONTINUOUS
 62
             110
  5
68
 10
199.3999053955078
 20
-40.000026702880859
 30
0.0
 11
195.3999053955078
 21
-40.000026702880859
 31
0.0
  0
INSERT
  8
0
  6
CONTINUOUS
 62
             110
  5
69
  2
_OPEN30
 10
206.3999053955078
 20
-40.000026702880859
 30
0.0
 41
2.77
 42
2.77
 50
180.0
 43
2.77
  0
INSERT
  8
0
  6
CONTINUOUS
 62
             110
  5
6A
  2
_OPEN30
 10
199.3999053955078
 20
-40.000026702880859
 30
0.0
 41
2.77
 42
2.77
 43
2.77
  0
TEXT
  8
0
  6
CONTINUOUS
 62
             110
  5
6C
 10
217.18744292956376
 20
-39.000026702880859
 30
0.0
 40
4.1999998092651367
  1
(7)
 41
1.0044643142241616
  7
MX_DIMTXSTY_4
 11
217.18744292956376
 21
-36.900026798248291
 31
0.0
 73
               2
  0
POINT
  8
DEFPOINTS
  6
CONTINUOUS
 62
               0
  5
6D
 10
206.3999053955078
 20
-3.499969482421875
 30
0.0
  0
POINT
  8
DEFPOINTS
  6
CONTINUOUS
 62
               0
  5
6E
 10
199.3999053955078
 20
-13.399993896484375
 30
0.0
  0
POINT
  8
DEFPOINTS
  6
CONTINUOUS
 62
               0
  5
6F
 10
199.3999053955078
 20
-40.000026702880859
 30
0.0
  0
ENDBLK
  8
0
  6
BYBLOCK
 62
               0
  5
70
  0
BLOCK
  8
0
  6
BYBLOCK
 62
               0
  5
73
  2
*D6
 70
               1
 10
0.0
 20
0.0
 30
0.0
  3
*D6
  0
LINE
  8
0
  6
CONTINUOUS
 62
             110
  5
74
 10
199.3999053955078
 20
-30.000026702880859
 30
0.0
 11
135.19990539550781
 21
-30.000026702880859
 31
0.0
  0
LINE
  8
0
  6
CONTINUOUS
 62
             110
  5
75
 10
199.3999053955078
 20
-15.399993896484375
 30
0.0
 11
199.3999053955078
 21
-31.000026702880859
 31
0.0
  0
LINE
  8
0
  6
CONTINUOUS
 62
             110
  5
76
 10
135.19990539550781
 20
-15.300003051757813
 30
0.0
 11
135.19990539550781
 21
-31.000026702880859
 31
0.0
  0
INSERT
  8
0
  6
CONTINUOUS
 62
             110
  5
77
  2
_OPEN30
 10
199.3999053955078
 20
-30.000026702880859
 30
0.0
 41
2.77
 42
2.77
 43
2.77
  0
INSERT
  8
0
  6
CONTINUOUS
 62
             110
  5
78
  2
_OPEN30
 10
135.19990539550781
 20
-30.000026702880859
 30
0.0
 41
2.77
 42
2.77
 50
180.0
 43
2.77
  0
TEXT
  8
0
  6
CONTINUOUS
 62
             110
  5
79
 10
160.85672596804795
 20
-29.000026702880859
 30
0.0
 40
4.1999998092651367
  1
64.2
 41
1.0227273161244872
  7
MX_DIMTXSTY_3
 11
160.85672596804795
 21
-26.900026798248291
 31
0.0
 73
               2
  0
POINT
  8
DEFPOINTS
  6
CONTINUOUS
 62
               0
  5
7A
 10
199.3999053955078
 20
-13.399993896484375
 30
0.0
  0
POINT
  8
DEFPOINTS
  6
CONTINUOUS
 62
               0
  5
7B
 10
135.19990539550781
 20
-13.300003051757813
 30
0.0
  0
POINT
  8
DEFPOINTS
  6
CONTINUOUS
 62
               0
  5
7C
 10
135.19990539550781
 20
-30.000026702880859
 30
0.0
  0
ENDBLK
  8
0
  6
BYBLOCK
 62
               0
  5
7D
  0
BLOCK
  8
0
  6
BYBLOCK
 62
               0
  5
155
  2
*D7
 70
               1
 10
0.0
 20
0.0
 30
0.0
  3
*D7
  0
LINE
  8
0
  6
CONTINUOUS
 62
             110
  5
156
 10
40.0
 20
20.0
 30
0.0
 11
60.0
 21
20.0
 31
0.0
  0
LINE
  8
0
  6
CONTINUOUS
 62
             110
  5
157
 10
40.0
 20
3.9999961853027344
 30
0.0
 11
40.0
 21
22.286003112792969
 31
0.0
  0
LINE
  8
0
  6
CONTINUOUS
 62
             110
  5
158
 10
60.0
 20
4.2360649108886719
 30
0.0
 11
60.0
 21
22.286003112792969
 31
0.0
  0
INSERT
  8
0
  6
CONTINUOUS
 62
             110
  5
159
  2
_OPEN30
 10
40.0
 20
20.0
 30
0.0
 41
2.77
 42
2.77
 50
180.0
 43
2.77
  0
INSERT
  8
0
  6
CONTINUOUS
 62
             110
  5
15A
  2
_OPEN30
 10
60.0
 20
20.0
 30
0.0
 41
2.77
 42
2.77
 43
2.77
  0
TEXT
  8
0
  6
CONTINUOUS
 62
             110
  5
15B
 10
47.188429863626666
 20
21.0
 30
0.0
 40
4.1999998092651367
  1
20
 41
0.991735547937727
  7
MX_DIMTXSTY_3
 11
47.188429863626666
 21
23.099999904632568
 31
0.0
 73
               2
  0
POINT
  8
DEFPOINTS
  6
CONTINUOUS
 62
               0
  5
15C
 10
40.0
 20
1.9999961853027344
 30
0.0
  0
POINT
  8
DEFPOINTS
  6
CONTINUOUS
 62
               0
  5
15D
 10
60.0
 20
2.2360649108886719
 30
0.0
  0
POINT
  8
DEFPOINTS
  6
CONTINUOUS
 62
               0
  5
15E
 10
60.0
 20
20.0
 30
0.0
  0
ENDBLK
  8
0
  6
BYBLOCK
 62
               0
  5
15F
  0
BLOCK
  8
0
  6
BYBLOCK
 62
               0
  5
162
  2
*D8
 70
               1
 10
0.0
 20
0.0
 30
0.0
  3
*D8
  0
LINE
  8
0
  6
CONTINUOUS
 62
             110
  5
163
 10
135.19990539550781
 20
-30.000026702880859
 30
0.0
 11
117.19998168945312
 21
-30.000026702880859
 31
0.0
  0
LINE
  8
0
  6
CONTINUOUS
 62
             110
  5
164
 10
117.19998168945312
 20
-18.099998474121094
 30
0.0
 11
117.19998168945312
 21
-32.286029815673828
 31
0.0
  0
INSERT
  8
0
  6
CONTINUOUS
 62
             110
  5
165
  2
_OPEN30
 10
135.19990539550781
 20
-30.000026702880859
 30
0.0
 41
2.77
 42
2.77
 43
2.77
  0
INSERT
  8
0
  6
CONTINUOUS
 62
             110
  5
166
  2
_OPEN30
 10
117.19998168945312
 20
-30.000026702880859
 30
0.0
 41
2.77
 42
2.77
 50
180.0
 43
2.77
  0
TEXT
  8
0
  6
CONTINUOUS
 62
             110
  5
167
 10
123.39994351069133
 20
-29.000026702880859
 30
0.0
 40
4.1999998092651367
  1
18
  7
MX_DIMTXSTY_4
 11
123.39994351069133
 21
-26.900026798248291
 31
0.0
 73
               2
  0
POINT
  8
DEFPOINTS
  6
CONTINUOUS
 62
               0
  5
168
 10
135.19990539550781
 20
-13.300003051757813
 30
0.0
  0
POINT
  8
DEFPOINTS
  6
CONTINUOUS
 62
               0
  5
169
 10
117.19998168945312
 20
-16.099998474121094
 30
0.0
  0
POINT
  8
DEFPOINTS
  6
CONTINUOUS
 62
               0
  5
16A
 10
117.19998168945312
 20
-30.000026702880859
 30
0.0
  0
ENDBLK
  8
0
  6
BYBLOCK
 62
               0
  5
16B
  0
BLOCK
  8
0
  6
BYBLOCK
 62
               0
  5
16E
  2
*D9
 70
               1
 10
0.0
 20
0.0
 30
0.0
  3
*D9
  0
LINE
  8
0
  6
CONTINUOUS
 62
             110
  5
16F
 10
110.0
 20
-40.000026702880859
 30
0.0
 11
40.0
 21
-40.000026702880859
 31
0.0
  0
LINE
  8
0
  6
CONTINUOUS
 62
             110
  5
170
 10
40.0
 20
-4.0
 30
0.0
 11
40.0
 21
-41.000026702880859
 31
0.0
  0
INSERT
  8
0
  6
CONTINUOUS
 62
             110
  5
171
  2
_OPEN30
 10
110.0
 20
-40.000026702880859
 30
0.0
 41
2.77
 42
2.77
 43
2.77
  0
INSERT
  8
0
  6
CONTINUOUS
 62
             110
  5
172
  2
_OPEN30
 10
40.0
 20
-40.000026702880859
 30
0.0
 41
2.77
 42
2.77
 50
180.0
 43
2.77
  0
TEXT
  8
0
  6
CONTINUOUS
 62
             110
  5
173
 10
72.18842890995235
 20
-39.000026702880859
 30
0.0
 40
4.1999998092651367
  1
70
 41
0.991735547937727
  7
MX_DIMTXSTY_3
 11
72.18842890995235
 21
-36.900026798248291
 31
0.0
 73
               2
  0
POINT
  8
DEFPOINTS
  6
CONTINUOUS
 62
               0
  5
174
 10
110.0
 20
-11.099952697753906
 30
0.0
  0
POINT
  8
DEFPOINTS
  6
CONTINUOUS
 62
               0
  5
175
 10
40.0
 20
-2.0
 30
0.0
  0
POINT
  8
DEFPOINTS
  6
CONTINUOUS
 62
               0
  5
176
 10
40.0
 20
-40.000026702880859
 30
0.0
  0
ENDBLK
  8
0
  6
BYBLOCK
 62
               0
  5
177
  0
BLOCK
  8
0
  6
BYBLOCK
 62
               0
  5
17A
  2
*D10
 70
               1
 10
0.0
 20
0.0
 30
0.0
  3
*D10
  0
LINE
  8
0
  6
CONTINUOUS
 62
             110
  5
17B
 10
130.0
 20
9.0
 30
0.0
 11
130.0
 21
-9.0
 31
0.0
  0
LINE
  8
0
  6
CONTINUOUS
 62
             110
  5
17C
 10
130.0
 20
32.706779956817627
 30
0.0
 11
130.0
 21
9.0
 31
0.0
  0
INSERT
  8
0
  6
CONTINUOUS
 62
             110
  5
17D
  2
_OPEN30
 10
130.0
 20
9.0
 30
0.0
 41
2.77
 42
2.77
 50
90.0
 43
2.77
  0
INSERT
  8
0
  6
CONTINUOUS
 62
             110
  5
17E
  2
_OPEN30
 10
130.0
 20
-9.0
 30
0.0
 41
2.77
 42
2.77
 50
270.0
 43
2.77
  0
TEXT
  8
0
  6
CONTINUOUS
 62
             110
  5
17F
 10
129.0
 20
20.81864488549494
 30
0.0
 40
4.1999998092651367
  1
%%c18
 50
90.000000000000014
 41
1.0169491268580966
  7
MX_DIMTXSTY_2
 11
126.90000009536743
 21
20.81864488549494
 31
0.0
 73
               2
  0
POINT
  8
DEFPOINTS
  6
CONTINUOUS
 62
               0
  5
180
 10
117.19998168945312
 20
9.0
 30
0.0
  0
POINT
  8
DEFPOINTS
  6
CONTINUOUS
 62
               0
  5
181
 10
117.19998168945312
 20
-9.0
 30
0.0
  0
POINT
  8
DEFPOINTS
  6
CONTINUOUS
 62
               0
  5
182
 10
130.0
 20
-9.0
 30
0.0
  0
ENDBLK
  8
0
  6
BYBLOCK
 62
               0
  5
183
  0
BLOCK
  8
0
  6
BYBLOCK
 62
               0
  5
186
  2
*D11
 70
               1
 10
0.0
 20
0.0
 30
0.0
  3
*D11
  0
LINE
  8
0
  6
CONTINUOUS
 62
             110
  5
187
 10
150.0
 20
13.600006103515625
 30
0.0
 11
150.0
 21
-13.599990844726563
 31
0.0
  0
LINE
  8
0
  6
CONTINUOUS
 62
             110
  5
188
 10
150.0
 20
46.8974928855896
 30
0.0
 11
150.0
 21
13.600006103515625
 31
0.0
  0
INSERT
  8
0
  6
CONTINUOUS
 62
             110
  5
189
  2
_OPEN30
 10
150.0
 20
13.600006103515625
 30
0.0
 41
2.77
 42
2.77
 50
90.0
 43
2.77
  0
INSERT
  8
0
  6
CONTINUOUS
 62
             110
  5
18A
  2
_OPEN30
 10
150.0
 20
-13.599990844726563
 30
0.0
 41
2.77
 42
2.77
 50
270.0
 43
2.77
  0
TEXT
  8
0
  6
CONTINUOUS
 62
             110
  5
18B
 10
149.0
 20
26.608325518762136
 30
0.0
 40
4.1999998092651367
  1
%%c27.2
 50
90.000000000000014
 41
1.015473873970381
  7
MX_DIMTXSTY_3
 11
146.90000009536743
 21
26.608325518762136
 31
0.0
 73
               2
  0
POINT
  8
DEFPOINTS
  6
CONTINUOUS
 62
               0
  5
18C
 10
135.49998474121094
 20
13.600006103515625
 30
0.0
  0
POINT
  8
DEFPOINTS
  6
CONTINUOUS
 62
               0
  5
18D
 10
135.49998474121094
 20
-13.599990844726563
 30
0.0
  0
POINT
  8
DEFPOINTS
  6
CONTINUOUS
 62
               0
  5
18E
 10
150.0
 20
-13.599990844726563
 30
0.0
  0
ENDBLK
  8
0
  6
BYBLOCK
 62
               0
  5
18F
  0
BLOCK
  8
0
  6
BYBLOCK
 62
               0
  5
192
  2
*D12
 70
               1
 10
0.0
 20
0.0
 30
0.0
  3
*D12
  0
LINE
  8
0
  6
CONTINUOUS
 62
             110
  5
193
 10
220.0186798095703
 20
15.900009155273438
 30
0.0
 11
220.0186798095703
 21
-15.899993896484375
 31
0.0
  0
LINE
  8
0
  6
CONTINUOUS
 62
             110
  5
194
 10
192.89989013671874
 20
15.900009155273438
 30
0.0
 11
222.30467529296874
 21
15.900009155273438
 31
0.0
  0
LINE
  8
0
  6
CONTINUOUS
 62
             110
  5
195
 10
192.89989013671874
 20
-15.899993896484375
 30
0.0
 11
222.30467529296874
 21
-15.899993896484375
 31
0.0
  0
INSERT
  8
0
  6
CONTINUOUS
 62
             110
  5
196
  2
_OPEN30
 10
220.0186798095703
 20
15.900009155273438
 30
0.0
 41
2.77
 42
2.77
 50
90.0
 43
2.77
  0
INSERT
  8
0
  6
CONTINUOUS
 62
             110
  5
197
  2
_OPEN30
 10
220.0186798095703
 20
-15.899993896484375
 30
0.0
 41
2.77
 42
2.77
 50
270.0
 43
2.77
  0
TEXT
  8
0
  6
CONTINUOUS
 62
             110
  5
198
 10
219.0186798095703
 20
-9.0919455897748609
 30
0.0
 40
4.1999998092651367
  1
%%c31.8
 50
90.000000000000014
 41
1.0057471067989061
  7
MX_DIMTXSTY_4
 11
216.91867990493773
 21
-9.0919455897748609
 31
0.0
 73
               2
  0
POINT
  8
DEFPOINTS
  6
CONTINUOUS
 62
               0
  5
199
 10
190.89989013671874
 20
15.900009155273438
 30
0.0
  0
POINT
  8
DEFPOINTS
  6
CONTINUOUS
 62
               0
  5
19A
 10
190.89989013671874
 20
-15.899993896484375
 30
0.0
  0
POINT
  8
DEFPOINTS
  6
CONTINUOUS
 62
               0
  5
19B
 10
220.0186798095703
 20
-15.899993896484375
 30
0.0
  0
ENDBLK
  8
0
  6
BYBLOCK
 62
               0
  5
19C
  0
ENDSEC
  0
SECTION
  2
ENTITIES
  0
DIMENSION
  8
0
  6
CONTINUOUS
 62
             110
  5
39
  2
*D2
 10
2.0000228881835937
 20
30.0
 30
0.0
 11
7.0545253753662109
 21
30.0
 31
0.0
 70
             128
  1
<>
 13
-3.0
 23
0.0
 33
0.0
 14
2.0000228881835937
 24
2.2360687255859375
 34
0.0
  3
MXDIMSTYLE
1001
ACAD
1000
DSTYLE
1002
{
1070
              41
1040
2.77
1070
             140
1040
4.1999998092651367
1070
             284
1070
               8
1002
}
  0
DIMENSION
  8
0
  6
CONTINUOUS
 62
             110
  5
4C
  2
*D3
 10
30.0
 20
3.0
 30
0.0
 11
30.0
 21
21.646846771240234
 31
0.0
 70
             128
  1
%%c<>
 13
41.0
 23
-3.0
 33
0.0
 14
41.0
 24
3.0
 34
0.0
 50
90.0
  3
MXDIMSTYLE
1001
ACAD
1000
DSTYLE
1002
{
1070
              41
1040
2.77
1070
             140
1040
4.1999998092651367
1070
             284
1070
               8
1070
             340
1005
44
1002
}
  0
INSERT
  8
0
  6
BYBLOCK
  5
4D
  2
*U0
 10
113.59999084472656
 20
16.899993896484375
 30
0.0
 41
2.77
 42
2.77
 50
316.07279666588187
 43
2.77
  0
INSERT
  8
0
  6
BYBLOCK
  5
4E
  2
*U0
 10
204.3999053955078
 20
4.000030517578125
 30
0.0
 41
2.77
 42
2.77
 50
257.80551164648807
 43
2.77
  0
TEXT
  8
0
  6
CONTINUOUS
 62
             110
  5
4F
 10
82.199345350265503
 20
32.050000190734863
 30
0.0
 40
4.1999998092651367
  1
CF34
 41
0.9375000425747482
  7
MX_NOTE_STANDARD
 11
82.199345350265503
 21
34.150000095367432
 31
0.0
 73
               2
  0
POLYLINE
  8
0
  6
CONTINUOUS
 62
             110
  5
50
 66
               1
 10
0.0
 20
0.0
 30
0.0
  0
VERTEX
  8
0
  6
CONTINUOUS
 62
             110
  5
1DC
 10
113.59999084472656
 20
16.899993896484375
 30
0.0
  0
VERTEX
  8
0
  6
CONTINUOUS
 62
             110
  5
1DD
 10
100.0
 20
30.0
 30
0.0
  0
VERTEX
  8
0
  6
CONTINUOUS
 62
             110
  5
1DE
 10
81.543095350265503
 20
30.0
 30
0.0
  0
SEQEND
  8
0
  6
CONTINUOUS
 62
             110
  5
1DF
  0
TEXT
  8
0
  6
CONTINUOUS
 62
             110
  5
51
 10
211.38222299363051
 20
32.050000190734863
 30
0.0
 40
4.1999998092651367
  1
ストッパー
 41
0.781249909824323
  7
MX_NOTE_STANDARD
 11
211.38222299363051
 21
34.150000095367432
 31
0.0
 73
               2
  0
POLYLINE
  8
0
  6
CONTINUOUS
 62
             110
  5
52
 66
               1
 10
0.0
 20
0.0
 30
0.0
  0
VERTEX
  8
0
  6
CONTINUOUS
 62
             110
  5
1E0
 10
204.3999053955078
 20
4.000030517578125
 30
0.0
  0
VERTEX
  8
0
  6
CONTINUOUS
 62
             110
  5
1E1
 10
210.0186798095703
 20
30.0
 30
0.0
  0
VERTEX
  8
0
  6
CONTINUOUS
 62
             110
  5
1E2
 10
230.52284808158873
 20
30.0
 30
0.0
  0
SEQEND
  8
0
  6
CONTINUOUS
 62
             110
  5
1E3
  0
DIMENSION
  8
0
  6
CONTINUOUS
 62
             110
  5
60
  2
*D4
 10
110.0
 20
-40.000026702880859
 30
0.0
 11
155.41586227416991
 21
-40.000026702880859
 31
0.0
 70
             128
  1
<>
 13
199.3999053955078
 23
-13.399993896484375
 33
0.0
 14
110.0
 24
-16.099952697753906
 34
0.0
  3
MXDIMSTYLE
1001
ACAD
1000
DSTYLE
1002
{
1070
              41
1040
2.77
1070
             140
1040
4.1999998092651367
1070
             271
1070
               4
1070
             284
1070
               8
1070
             340
1005
5A
1002
}
  0
DIMENSION
  8
0
  6
CONTINUOUS
 62
             110
  5
71
  2
*D5
 10
199.3999053955078
 20
-40.000026702880859
 30
0.0
 11
220.70306797027587
 21
-40.000026702880859
 31
0.0
 70
             128
  1
(<>
 13
206.3999053955078
 23
-3.499969482421875
 33
0.0
 14
199.3999053955078
 24
-13.399993896484375
 34
0.0
  3
MXDIMSTYLE
1001
ACAD
1000
DSTYLE
1002
{
1070
              41
1040
2.77
1070
             140
1040
4.1999998092651367
1070
             271
1070
               4
1070
             284
1070
               8
1070
             340
1005
6B
1002
}
  0
DIMENSION
  8
0
  6
CONTINUOUS
 62
             110
  5
7E
  2
*D6
 10
135.19990539550781
 20
-30.000026702880859
 30
0.0
 11
168.01581687927245
 21
-30.000026702880859
 31
0.0
 70
             128
  1
<>
 13
199.3999053955078
 23
-13.399993896484375
 33
0.0
 14
135.19990539550781
 24
-13.300003051757813
 34
0.0
  3
MXDIMSTYLE
1001
ACAD
1000
DSTYLE
1002
{
1070
              41
1040
2.77
1070
             140
1040
4.1999998092651367
1070
             271
1070
               4
1070
             284
1070
               8
1070
             340
1005
5A
1002
}
  0
LINE
  8
0
  6
CENTER
 62
             110
  5
80
 10
163.37261886596679
 20
0.0
 30
0.0
 11
208.12892456054686
 21
0.0
 31
0.0
  0
LINE
  8
0
  6
CONTINUOUS
 62
               3
  5
81
 10
59.999999414508181
 20
2.2360661952906753
 30
0.0
 11
40.236080253486023
 21
-2.2360709334914191
 31
0.0
  0
LINE
  8
0
  6
CONTINUOUS
 62
               3
  5
82
 10
59.999997324626747
 20
-2.2360717973997453
 30
0.0
 11
40.236069514531209
 21
2.2360655054221752
 31
0.0
  0
LINE
  8
0
  6
CONTINUOUS
 62
               3
  5
83
 10
41.0
 20
-2.2360725402832031
 30
0.0
 11
41.0
 21
-3.0
 31
0.0
  0
LINE
  8
0
  6
CONTINUOUS
 62
               3
  5
84
 10
41.000002164729267
 20
2.9999990451537997
 30
0.0
 11
40.000001693200375
 21
1.999994696105432
 31
0.0
  0
LINE
  8
0
  6
CONTINUOUS
 62
               3
  5
85
 10
41.000002108217814
 20
-3.0000020645647965
 30
0.0
 11
40.000002816797405
 21
-2.0000046276027206
 31
0.0
  0
LINE
  8
0
  6
CONTINUOUS
 62
               3
  5
86
 10
60.0
 20
2.2360649108886719
 30
0.0
 11
60.0
 21
-2.2360725402832031
 31
0.0
  0
LINE
  8
0
  6
CONTINUOUS
 62
               3
  5
87
 10
60.0
 20
-2.2360725402832031
 30
0.0
 11
40.236080169677734
 21
-2.2360725402832031
 31
0.0
  0
LINE
  8
0
  6
CONTINUOUS
 62
               3
  5
88
 10
60.0
 20
2.2360649108886719
 30
0.0
 11
40.236072540283203
 21
2.2360649108886719
 31
0.0
  0
LINE
  8
0
  6
CONTINUOUS
 62
               3
  5
89
 10
2.0000228881835937
 20
-2.2360610961914062
 30
0.0
 11
2.0000228881835937
 21
2.2360687255859375
 31
0.0
  0
LINE
  8
0
  6
CONTINUOUS
 62
               3
  5
8A
 10
-10.653160095214844
 20
-0.9999942779541016
 30
0.0
 11
-16.870384216308594
 21
-0.9999942779541016
 31
0.0
  0
LINE
  8
0
  6
CONTINUOUS
 62
               3
  5
8B
 10
-10.653160095214844
 20
0.9999980926513672
 30
0.0
 11
-16.870384216308594
 21
0.9999980926513672
 31
0.0
  0
LINE
  8
0
  6
CONTINUOUS
 62
               3
  5
8C
 10
16.870391845703125
 20
-0.9999942779541016
 30
0.0
 11
10.653167724609375
 21
-0.9999942779541016
 31
0.0
  0
LINE
  8
0
  6
CONTINUOUS
 62
               3
  5
8D
 10
16.870391845703125
 20
0.9999980926513672
 30
0.0
 11
10.653167724609375
 21
0.9999980926513672
 31
0.0
  0
LINE
  8
0
  6
CENTER
 62
             110
  5
8E
 10
-16.021401946927654
 20
9.2501941715054272
 30
0.0
 11
-7.3611450842872728
 21
4.2501989398770093
 31
0.0
  0
LINE
  8
0
  6
CENTER
 62
             110
  5
8F
 10
-16.021516573637655
 20
-9.2499537504850196
 30
0.0
 11
-7.3612650754153037
 21
-4.2499495781598853
 31
0.0
  0
LINE
  8
0
  6
CENTER
 62
             110
  5
90
 10
16.021469201308946
 20
-9.2499511241487653
 30
0.0
 11
7.3612135307614608
 21
-4.2499538063577802
 31
0.0
  0
LINE
  8
0
  6
CENTER
 62
             110
  5
91
 10
16.021340716624763
 20
9.2501552260382596
 30
0.0
 11
7.3610904104953079
 21
4.2501486695273343
 31
0.0
  0
LINE
  8
0
  6
CENTER
 62
             110
  5
92
 10
19.899993896484375
 20
0.0000057220458984
 30
0.0
 11
-19.900016784667969
 21
0.0000057220458984
 31
0.0
  0
LINE
  8
0
  6
CENTER
 62
             110
  5
93
 10
0.0000228881835938
 20
-19.899993896484375
 30
0.0
 11
0.0000228881835938
 21
19.900009155273438
 31
0.0
  0
LINE
  8
0
  6
CONTINUOUS
 62
               3
  5
94
 10
41.0
 20
3.0
 30
0.0
 11
41.0
 21
2.2360649108886719
 31
0.0
  0
LINE
  8
0
  6
CENTER
 62
             110
  5
95
 10
37.496360778808594
 20
0.0
 30
0.0
 11
152.19990539550781
 21
0.0
 31
0.0
  0
LINE
  8
0
  6
CONTINUOUS
 62
               3
  5
96
 10
41.0
 20
3.0
 30
0.0
 11
110.0
 21
3.0
 31
0.0
  0
LINE
  8
0
  6
CONTINUOUS
 62
               3
  5
97
 10
41.0
 20
-3.0
 30
0.0
 11
110.0
 21
-3.0
 31
0.0
  0
LINE
  8
0
  6
CONTINUOUS
 62
               3
  5
98
 10
40.0
 20
1.9999961853027344
 30
0.0
 11
40.0
 21
-2.0000019073486328
 31
0.0
  0
LINE
  8
0
  6
CONTINUOUS
 62
               3
  5
99
 10
114.44174194335937
 20
0.2238807678222656
 30
0.0
 11
112.65069580078125
 21
0.2238807678222656
 31
0.0
  0
LINE
  8
0
  6
CONTINUOUS
 62
               3
  5
9A
 10
112.65069580078125
 20
0.2238807678222656
 30
0.0
 11
111.79248809814453
 21
0.2238807678222656
 31
0.0
  0
LINE
  8
0
  6
CONTINUOUS
 62
               3
  5
9B
 10
114.38577270507812
 20
-5.5597019195556641
 30
0.0
 11
114.38577270507812
 21
-3.7313423156738281
 31
0.0
  0
LINE
  8
0
  6
CONTINUOUS
 62
               3
  5
9C
 10
114.38577270507812
 20
-3.7313423156738281
 30
0.0
 11
111.79248809814453
 21
-3.7313423156738281
 31
0.0
  0
LINE
  8
0
  6
CONTINUOUS
 62
               3
  5
9D
 10
114.44174194335937
 20
4.6641788482666016
 30
0.0
 11
112.65069580078125
 21
4.6641788482666016
 31
0.0
  0
LINE
  8
0
  6
CONTINUOUS
 62
               3
  5
9E
 10
111.79248809814453
 20
-3.208953857421875
 30
0.0
 11
111.79248809814453
 21
-1.5298500061035156
 31
0.0
  0
LINE
  8
0
  6
CONTINUOUS
 62
               3
  5
9F
 10
115.29994964599609
 20
0.2238807678222656
 30
0.0
 11
114.44174194335937
 21
0.2238807678222656
 31
0.0
  0
LINE
  8
0
  6
CONTINUOUS
 62
               3
  5
A0
 10
115.22532653808594
 20
-3.208953857421875
 30
0.0
 11
115.22532653808594
 21
-1.5298500061035156
 31
0.0
  0
LINE
  8
0
  6
CONTINUOUS
 62
               3
  5
A1
 10
115.22532653808594
 20
-1.5298500061035156
 30
0.0
 11
111.79248809814453
 21
-1.5298500061035156
 31
0.0
  0
LINE
  8
0
  6
CONTINUOUS
 62
               3
  5
A2
 10
115.22532653808594
 20
-3.208953857421875
 30
0.0
 11
111.79248809814453
 21
-3.208953857421875
 31
0.0
  0
LINE
  8
0
  6
CONTINUOUS
 62
               3
  5
A3
 10
114.38577270507812
 20
-5.5597019195556641
 30
0.0
 11
111.79248809814453
 21
-5.5597019195556641
 31
0.0
  0
LINE
  8
0
  6
CONTINUOUS
 62
               3
  5
A4
 10
111.79248809814453
 20
-5.5597019195556641
 30
0.0
 11
111.79248809814453
 21
-3.7313423156738281
 31
0.0
  0
LINE
  8
0
  6
CONTINUOUS
 62
               3
  5
A5
 10
199.71608276367186
 20
1.2000312805175781
 30
0.0
 11
199.3999053955078
 21
1.2000312805175781
 31
0.0
  0
LINE
  8
0
  6
CONTINUOUS
 62
               3
  5
A6
 10
199.78912658691405
 20
1.500030517578125
 30
0.0
 11
199.3999053955078
 21
1.500030517578125
 31
0.0
  0
LINE
  8
0
  6
CONTINUOUS
 62
               3
  5
A7
 10
200.45209045410155
 20
1.2000312805175781
 30
0.0
 11
200.03607482910155
 21
1.2000312805175781
 31
0.0
  0
LINE
  8
0
  6
CONTINUOUS
 62
               3
  5
A8
 10
200.52511901855468
 20
1.500030517578125
 30
0.0
 11
200.1091339111328
 21
1.500030517578125
 31
0.0
  0
LINE
  8
0
  6
CONTINUOUS
 62
               3
  5
A9
 10
201.18808288574218
 20
1.2000312805175781
 30
0.0
 11
200.7720977783203
 21
1.2000312805175781
 31
0.0
  0
LINE
  8
0
  6
CONTINUOUS
 62
               3
  5
AA
 10
201.26112670898436
 20
1.500030517578125
 30
0.0
 11
200.84512634277343
 21
1.500030517578125
 31
0.0
  0
LINE
  8
0
  6
CONTINUOUS
 62
               3
  5
AB
 10
201.9240753173828
 20
1.2000312805175781
 30
0.0
 11
201.50809020996093
 21
1.2000312805175781
 31
0.0
  0
LINE
  8
0
  6
CONTINUOUS
 62
               3
  5
AC
 10
201.99711914062499
 20
1.500030517578125
 30
0.0
 11
201.58111877441405
 21
1.500030517578125
 31
0.0
  0
LINE
  8
0
  6
CONTINUOUS
 62
               3
  5
AD
 10
199.7946807861328
 20
-1.499969482421875
 30
0.0
 11
199.3999053955078
 21
-1.499969482421875
 31
0.0
  0
LINE
  8
0
  6
CONTINUOUS
 62
               3
  5
AE
 10
199.86773986816405
 20
-1.1999702453613281
 30
0.0
 11
199.45172424316405
 21
-1.1999702453613281
 31
0.0
  0
LINE
  8
0
  6
CONTINUOUS
 62
               3
  5
AF
 10
200.53068847656249
 20
-1.499969482421875
 30
0.0
 11
200.11482543945311
 21
-1.499969482421875
 31
0.0
  0
LINE
  8
0
  6
CONTINUOUS
 62
               3
  5
B0
 10
200.60373229980468
 20
-1.1999702453613281
 30
0.0
 11
200.18785400390624
 21
-1.1999702453613281
 31
0.0
  0
LINE
  8
0
  6
CONTINUOUS
 62
               3
  5
B1
 10
202.0026885986328
 20
-1.499969482421875
 30
0.0
 11
201.58668823242186
 21
-1.499969482421875
 31
0.0
  0
LINE
  8
0
  6
CONTINUOUS
 62
               3
  5
B2
 10
201.3397247314453
 20
-1.1999702453613281
 30
0.0
 11
200.92373962402343
 21
-1.1999702453613281
 31
0.0
  0
LINE
  8
0
  6
CONTINUOUS
 62
               3
  5
B3
 10
201.26669616699218
 20
-1.499969482421875
 30
0.0
 11
200.85068054199218
 21
-1.499969482421875
 31
0.0
  0
LINE
  8
0
  6
CONTINUOUS
 62
               3
  5
B4
 10
202.07988726048308
 20
1.8400146833130293
 30
0.0
 11
201.18388760594536
 21
-1.8399835733041527
 31
0.0
  0
LINE
  8
0
  6
CONTINUOUS
 62
               3
  5
B5
 10
202.39996797739627
 20
1.8400127856723429
 30
0.0
 11
201.50396978909419
 21
-1.8399780581096365
 31
0.0
  0
LINE
  8
0
  6
CONTINUOUS
 62
               3
  5
B6
 10
202.39989816285521
 20
0.1314472998481051
 30
0.0
 11
201.91989809008652
 21
-1.8399813966018428
 31
0.0
  0
LINE
  8
0
  6
CONTINUOUS
 62
               3
  5
B7
 10
202.39999279271217
 20
-1.1828465400376444
 30
0.0
 11
202.23999330960805
 21
-1.8399869679092262
 31
0.0
  0
LINE
  8
0
  6
CONTINUOUS
 62
               3
  5
B8
 10
199.45596366267432
 20
1.8400153731182627
 30
0.0
 11
199.3999659332917
 21
1.610024748123692
 31
0.0
  0
LINE
  8
0
  6
CONTINUOUS
 62
               3
  5
B9
 10
199.87187274562945
 20
1.8400219997729437
 30
0.0
 11
199.39987008640122
 21
-0.0985604238944689
 31
0.0
  0
LINE
  8
0
  6
CONTINUOUS
 62
               3
  5
BA
 10
200.19194269579918
 20
1.8400173351316198
 30
0.0
 11
199.39995005638741
 21
-1.4128088801029435
 31
0.0
  0
LINE
  8
0
  6
CONTINUOUS
 62
               3
  5
BB
 10
200.60790456065502
 20
1.8400150767773766
 30
0.0
 11
199.71190682385793
 21
-1.8399757670046029
 31
0.0
  0
LINE
  8
0
  6
CONTINUOUS
 62
               3
  5
BC
 10
200.92795465189573
 20
1.8400253418435568
 30
0.0
 11
200.03210494797185
 21
-1.8399780291078969
 31
0.0
  0
LINE
  8
0
  6
CONTINUOUS
 62
               3
  5
BD
 10
201.34393588564586
 20
1.8400295239008528
 30
0.0
 11
200.44793803597253
 21
-1.8399613198811267
 31
0.0
  0
LINE
  8
0
  6
CONTINUOUS
 62
               3
  5
BE
 10
201.66395686965626
 20
1.8400170618415359
 30
0.0
 11
200.76795698936559
 21
-1.8399811947756461
 31
0.0
  0
LINE
  8
0
  6
CONTINUOUS
 62
             110
  5
BF
 10
199.45570974036511
 20
1.8330801895673403
 30
0.0
 11
199.4412292110442
 21
1.5000284399117163
 31
0.0
  0
LINE
  8
0
  6
CONTINUOUS
 62
             110
  5
C0
 10
200.19180154874502
 20
1.8330735208367059
 30
0.0
 11
200.17732118512419
 21
1.5000255822778854
 31
0.0
  0
LINE
  8
0
  6
CONTINUOUS
 62
             110
  5
C1
 10
199.71206381153871
 20
-1.833017688788118
 30
0.0
 11
199.7265441540477
 21
-1.4999697502292975
 31
0.0
  0
LINE
  8
0
  6
CONTINUOUS
 62
             110
  5
C2
 10
200.92771821237204
 20
1.8330782854062022
 30
0.0
 11
200.91323784875121
 21
1.5000303468473817
 31
0.0
  0
LINE
  8
0
  6
CONTINUOUS
 62
             110
  5
C3
 10
200.44806415157086
 20
-1.8330203341501488
 30
0.0
 11
200.4625446597797
 21
-1.4999685844945247
 31
0.0
  0
LINE
  8
0
  6
CONTINUOUS
 62
             110
  5
C4
 10
201.6637873198712
 20
1.8330764219728053
 30
0.0
 11
201.6493067905503
 21
1.5000246723171813
 31
0.0
  0
LINE
  8
0
  6
CONTINUOUS
 62
             110
  5
C5
 10
201.18404162502219
 20
-1.8330219853132235
 30
0.0
 11
201.19852213323102
 21
-1.4999702356575995
 31
0.0
  0
LINE
  8
0
  6
CONTINUOUS
 62
             110
  5
C6
 10
202.39970381779816
 20
1.8330773754454981
 30
0.0
 11
202.38522328847725
 21
1.5000256257898741
 31
0.0
  0
LINE
  8
0
  6
CONTINUOUS
 62
             110
  5
C7
 10
201.92006516303482
 20
-1.8330180026806033
 30
0.0
 11
201.93454550554384
 21
-1.4999700641217828
 31
0.0
  0
LINE
  8
0
  6
CONTINUOUS
 62
             110
  5
C8
 10
205.8999053955078
 20
-0.7803306579589844
 30
0.0
 11
202.8999053955078
 21
-0.7803306579589844
 31
0.0
  0
LINE
  8
0
  6
CONTINUOUS
 62
             110
  5
C9
 10
205.8999053955078
 20
-1.5307044982910156
 30
0.0
 11
202.8999053955078
 21
-1.5307044982910156
 31
0.0
  0
LINE
  8
0
  6
CONTINUOUS
 62
             110
  5
CA
 10
205.8999053955078
 20
-2.2222480773925781
 30
0.0
 11
202.8999053955078
 21
-2.2222480773925781
 31
0.0
  0
LINE
  8
0
  6
CONTINUOUS
 62
             110
  5
CB
 10
205.8999053955078
 20
-2.8283958435058594
 30
0.0
 11
202.8999053955078
 21
-2.8283958435058594
 31
0.0
  0
LINE
  8
0
  6
CONTINUOUS
 62
             110
  5
CC
 10
205.8999053955078
 20
-3.3258476257324219
 30
0.0
 11
202.8999053955078
 21
-3.3258476257324219
 31
0.0
  0
LINE
  8
0
  6
CONTINUOUS
 62
             110
  5
CD
 10
205.8999053955078
 20
-3.6954879760742187
 30
0.0
 11
202.8999053955078
 21
-3.6954879760742187
 31
0.0
  0
LINE
  8
0
  6
CONTINUOUS
 62
             110
  5
CE
 10
205.8999053955078
 20
-3.9231109619140625
 30
0.0
 11
202.8999053955078
 21
-3.9231109619140625
 31
0.0
  0
LINE
  8
0
  6
CONTINUOUS
 62
             110
  5
CF
 10
205.8999053955078
 20
0.7803916931152344
 30
0.0
 11
202.8999053955078
 21
0.7803916931152344
 31
0.0
  0
LINE
  8
0
  6
CONTINUOUS
 62
             110
  5
D0
 10
205.8999053955078
 20
1.5307655334472656
 30
0.0
 11
202.8999053955078
 21
1.5307655334472656
 31
0.0
  0
LINE
  8
0
  6
CONTINUOUS
 62
             110
  5
D1
 10
205.8999053955078
 20
2.2223091125488281
 30
0.0
 11
202.8999053955078
 21
2.2223091125488281
 31
0.0
  0
LINE
  8
0
  6
CONTINUOUS
 62
             110
  5
D2
 10
205.8999053955078
 20
2.8284568786621094
 30
0.0
 11
202.8999053955078
 21
2.8284568786621094
 31
0.0
  0
LINE
  8
0
  6
CONTINUOUS
 62
             110
  5
D3
 10
205.8999053955078
 20
3.3259086608886719
 30
0.0
 11
202.8999053955078
 21
3.3259086608886719
 31
0.0
  0
LINE
  8
0
  6
CONTINUOUS
 62
             110
  5
D4
 10
205.8999053955078
 20
3.6955490112304687
 30
0.0
 11
202.8999053955078
 21
3.6955490112304687
 31
0.0
  0
LINE
  8
0
  6
CONTINUOUS
 62
             110
  5
D5
 10
205.8999053955078
 20
3.9231719970703125
 30
0.0
 11
202.8999053955078
 21
3.9231719970703125
 31
0.0
  0
LINE
  8
0
  6
CONTINUOUS
 62
             110
  5
D6
 10
202.8999053955078
 20
-3.999969482421875
 30
0.0
 11
202.8999053955078
 21
4.000030517578125
 31
0.0
  0
LINE
  8
0
  6
CONTINUOUS
 62
             110
  5
D7
 10
205.8999053955078
 20
4.000030517578125
 30
0.0
 11
205.8999053955078
 21
-3.999969482421875
 31
0.0
  0
LINE
  8
0
  6
CONTINUOUS
 62
               3
  5
D8
 10
202.39989255623749
 20
3.500045397856411
 30
0.0
 11
202.89988229743921
 21
4.0000351390581272
 31
0.0
  0
LINE
  8
0
  6
CONTINUOUS
 62
               3
  5
D9
 10
202.89986111140132
 20
-4.0000026952102417
 30
0.0
 11
202.39986083348793
 21
-3.5000019115341274
 31
0.0
  0
LINE
  8
0
  6
CONTINUOUS
 62
               3
  5
DA
 10
206.39987522340942
 20
-3.4999620332700943
 30
0.0
 11
205.89988548220771
 21
-3.9999517744718105
 31
0.0
  0
LINE
  8
0
  6
CONTINUOUS
 62
               3
  5
DB
 10
205.89975450943388
 20
3.999914540179816
 30
0.0
 11
206.39975529310999
 21
3.4999142201195355
 31
0.0
  0
LINE
  8
0
  6
CONTINUOUS
 62
               3
  5
DC
 10
206.3999053955078
 20
3.500030517578125
 30
0.0
 11
206.3999053955078
 21
-3.499969482421875
 31
0.0
  0
LINE
  8
0
  6
CONTINUOUS
 62
               3
  5
DD
 10
205.8999053955078
 20
-3.999969482421875
 30
0.0
 11
202.8999053955078
 21
-3.999969482421875
 31
0.0
  0
LINE
  8
0
  6
CONTINUOUS
 62
               3
  5
DE
 10
205.8999053955078
 20
4.000030517578125
 30
0.0
 11
202.8999053955078
 21
4.000030517578125
 31
0.0
  0
LINE
  8
0
  6
CONTINUOUS
 62
               3
  5
DF
 10
202.3999053955078
 20
3.500030517578125
 30
0.0
 11
202.3999053955078
 21
-3.499969482421875
 31
0.0
  0
LINE
  8
0
  6
CONTINUOUS
 62
               3
  5
E0
 10
202.07573242187499
 20
-1.1999702453613281
 30
0.0
 11
201.65973205566405
 21
-1.1999702453613281
 31
0.0
  0
LINE
  8
0
  6
CONTINUOUS
 62
               3
  5
E1
 10
202.3999053955078
 20
1.2000312805175781
 30
0.0
 11
202.24408264160155
 21
1.2000312805175781
 31
0.0
  0
LINE
  8
0
  6
CONTINUOUS
 62
               3
  5
E2
 10
202.3999053955078
 20
1.500030517578125
 30
0.0
 11
202.31712646484374
 21
1.500030517578125
 31
0.0
  0
LINE
  8
0
  6
CONTINUOUS
 62
               3
  5
E3
 10
202.3999053955078
 20
-1.499969482421875
 30
0.0
 11
202.32269592285155
 21
-1.499969482421875
 31
0.0
  0
LINE
  8
0
  6
CONTINUOUS
 62
               3
  5
E4
 10
110.80001831054687
 20
16.899993896484375
 30
0.0
 11
110.80001831054687
 21
-16.899993896484375
 31
0.0
  0
LINE
  8
0
  6
CONTINUOUS
 62
               3
  5
E5
 10
116.39997100830078
 20
16.899993896484375
 30
0.0
 11
116.39997100830078
 21
-16.899993896484375
 31
0.0
  0
LINE
  8
0
  6
CONTINUOUS
 62
               3
  5
E6
 10
162.39992233021712
 20
10.889408572475531
 30
0.0
 11
159.39991571117662
 21
10.1822975452028
 31
0.0
  0
LINE
  8
0
  6
CONTINUOUS
 62
               3
  5
E7
 10
162.39987436730095
 20
-10.889558102701983
 30
0.0
 11
159.39987032026053
 21
-10.182436236286037
 31
0.0
  0
LINE
  8
0
  6
CONTINUOUS
 62
               3
  5
E8
 10
162.3999053955078
 20
0.0
 30
0.0
 11
152.19990539550781
 21
0.0
 31
0.0
  0
LINE
  8
0
  6
CONTINUOUS
 62
             110
  5
E9
 10
190.8999053955078
 20
-1.5584716796875
 30
0.0
 11
181.8999053955078
 21
-1.5584716796875
 31
0.0
  0
LINE
  8
0
  6
CONTINUOUS
 62
             110
  5
EA
 10
190.8999053955078
 20
-3.1019439697265625
 30
0.0
 11
181.8999053955078
 21
-3.1019439697265625
 31
0.0
  0
LINE
  8
0
  6
CONTINUOUS
 62
             110
  5
EB
 10
190.8999053955078
 20
-4.6155242919921875
 30
0.0
 11
181.8999053955078
 21
-4.6155242919921875
 31
0.0
  0
LINE
  8
0
  6
CONTINUOUS
 62
             110
  5
EC
 10
190.8999053955078
 20
-6.0846710205078125
 30
0.0
 11
181.8999053955078
 21
-6.0846710205078125
 31
0.0
  0
LINE
  8
0
  6
CONTINUOUS
 62
             110
  5
ED
 10
190.8999053955078
 20
-7.495208740234375
 30
0.0
 11
181.8999053955078
 21
-7.495208740234375
 31
0.0
  0
LINE
  8
0
  6
CONTINUOUS
 62
             110
  5
EE
 10
190.8999053955078
 20
-8.8335723876953125
 30
0.0
 11
181.8999053955078
 21
-8.8335723876953125
 31
0.0
  0
LINE
  8
0
  6
CONTINUOUS
 62
             110
  5
EF
 10
190.8999053955078
 20
-10.08685302734375
 30
0.0
 11
181.8999053955078
 21
-10.08685302734375
 31
0.0
  0
LINE
  8
0
  6
CONTINUOUS
 62
             110
  5
F0
 10
190.8999053955078
 20
-11.242996215820313
 30
0.0
 11
181.8999053955078
 21
-11.242996215820313
 31
0.0
  0
LINE
  8
0
  6
CONTINUOUS
 62
             110
  5
F1
 10
190.8999053955078
 20
-12.290863037109375
 30
0.0
 11
181.8999053955078
 21
-12.290863037109375
 31
0.0
  0
LINE
  8
0
  6
CONTINUOUS
 62
             110
  5
F2
 10
190.8999053955078
 20
-13.220367431640625
 30
0.0
 11
181.8999053955078
 21
-13.220367431640625
 31
0.0
  0
LINE
  8
0
  6
CONTINUOUS
 62
             110
  5
F3
 10
190.8999053955078
 20
-14.022552490234375
 30
0.0
 11
181.8999053955078
 21
-14.022552490234375
 31
0.0
  0
LINE
  8
0
  6
CONTINUOUS
 62
             110
  5
F4
 10
190.8999053955078
 20
-14.689682006835938
 30
0.0
 11
181.8999053955078
 21
-14.689682006835938
 31
0.0
  0
LINE
  8
0
  6
CONTINUOUS
 62
             110
  5
F5
 10
190.8999053955078
 20
-15.215347290039063
 30
0.0
 11
181.8999053955078
 21
-15.215347290039063
 31
0.0
  0
LINE
  8
0
  6
CONTINUOUS
 62
             110
  5
F6
 10
190.8999053955078
 20
-15.594482421875
 30
0.0
 11
181.8999053955078
 21
-15.594482421875
 31
0.0
  0
LINE
  8
0
  6
CONTINUOUS
 62
             110
  5
F7
 10
190.8999053955078
 20
-15.823440551757812
 30
0.0
 11
181.8999053955078
 21
-15.823440551757812
 31
0.0
  0
LINE
  8
0
  6
CONTINUOUS
 62
             110
  5
F8
 10
190.8999053955078
 20
1.5584716796875
 30
0.0
 11
181.8999053955078
 21
1.5584716796875
 31
0.0
  0
LINE
  8
0
  6
CONTINUOUS
 62
             110
  5
F9
 10
190.8999053955078
 20
3.1019439697265625
 30
0.0
 11
181.8999053955078
 21
3.1019439697265625
 31
0.0
  0
LINE
  8
0
  6
CONTINUOUS
 62
             110
  5
FA
 10
190.8999053955078
 20
4.6155242919921875
 30
0.0
 11
181.8999053955078
 21
4.6155242919921875
 31
0.0
  0
LINE
  8
0
  6
CONTINUOUS
 62
             110
  5
FB
 10
190.8999053955078
 20
6.0846710205078125
 30
0.0
 11
181.8999053955078
 21
6.0846710205078125
 31
0.0
  0
LINE
  8
0
  6
CONTINUOUS
 62
             110
  5
FC
 10
190.8999053955078
 20
7.495208740234375
 30
0.0
 11
181.8999053955078
 21
7.495208740234375
 31
0.0
  0
LINE
  8
0
  6
CONTINUOUS
 62
             110
  5
FD
 10
190.8999053955078
 20
8.8335723876953125
 30
0.0
 11
181.8999053955078
 21
8.8335723876953125
 31
0.0
  0
LINE
  8
0
  6
CONTINUOUS
 62
             110
  5
FE
 10
190.8999053955078
 20
10.08685302734375
 30
0.0
 11
181.8999053955078
 21
10.08685302734375
 31
0.0
  0
LINE
  8
0
  6
CONTINUOUS
 62
             110
  5
FF
 10
190.8999053955078
 20
11.242996215820313
 30
0.0
 11
181.8999053955078
 21
11.242996215820313
 31
0.0
  0
LINE
  8
0
  6
CONTINUOUS
 62
             110
  5
100
 10
190.8999053955078
 20
12.290863037109375
 30
0.0
 11
181.8999053955078
 21
12.290863037109375
 31
0.0
  0
LINE
  8
0
  6
CONTINUOUS
 62
             110
  5
101
 10
190.8999053955078
 20
13.220367431640625
 30
0.0
 11
181.8999053955078
 21
13.220367431640625
 31
0.0
  0
LINE
  8
0
  6
CONTINUOUS
 62
             110
  5
102
 10
190.8999053955078
 20
14.022552490234375
 30
0.0
 11
181.8999053955078
 21
14.022552490234375
 31
0.0
  0
LINE
  8
0
  6
CONTINUOUS
 62
             110
  5
103
 10
190.8999053955078
 20
14.689682006835938
 30
0.0
 11
181.8999053955078
 21
14.689682006835938
 31
0.0
  0
LINE
  8
0
  6
CONTINUOUS
 62
             110
  5
104
 10
190.8999053955078
 20
15.215347290039063
 30
0.0
 11
181.8999053955078
 21
15.215347290039063
 31
0.0
  0
LINE
  8
0
  6
CONTINUOUS
 62
             110
  5
105
 10
190.8999053955078
 20
15.594482421875
 30
0.0
 11
181.8999053955078
 21
15.594482421875
 31
0.0
  0
LINE
  8
0
  6
CONTINUOUS
 62
             110
  5
106
 10
190.8999053955078
 20
15.823440551757812
 30
0.0
 11
181.8999053955078
 21
15.823440551757812
 31
0.0
  0
LINE
  8
0
  6
CONTINUOUS
 62
               3
  5
107
 10
191.3999053955078
 20
-15.400009155273437
 30
0.0
 11
191.3999053955078
 21
15.400009155273437
 31
0.0
  0
LINE
  8
0
  6
CONTINUOUS
 62
               3
  5
108
 10
190.8999053955078
 20
15.900009155273438
 30
0.0
 11
190.8999053955078
 21
-15.900009155273438
 31
0.0
  0
LINE
  8
0
  6
CONTINUOUS
 62
               3
  5
109
 10
181.8999053955078
 20
-15.900009155273438
 30
0.0
 11
181.8999053955078
 21
15.900009155273438
 31
0.0
  0
LINE
  8
0
  6
CONTINUOUS
 62
               3
  5
10A
 10
181.39993591308593
 20
15.400009155273437
 30
0.0
 11
181.39993591308593
 21
-15.400009155273437
 31
0.0
  0
LINE
  8
0
  6
CONTINUOUS
 62
               3
  5
10B
 10
166.99565429687499
 20
15.399993896484375
 30
0.0
 11
166.99565429687499
 21
-15.399978637695313
 31
0.0
  0
LINE
  8
0
  6
CONTINUOUS
 62
             110
  5
10C
 10
181.8999053955078
 20
0.0
 30
0.0
 11
190.8999053955078
 21
0.0
 31
0.0
  0
LINE
  8
0
  6
CONTINUOUS
 62
               3
  5
10D
 10
199.3999053955078
 20
13.400009155273437
 30
0.0
 11
199.3999053955078
 21
-13.399993896484375
 31
0.0
  0
LINE
  8
0
  6
CONTINUOUS
 62
               3
  5
10E
 10
191.3999053955078
 20
-15.399993896484375
 30
0.0
 11
197.3999053955078
 21
-15.399993896484375
 31
0.0
  0
LINE
  8
0
  6
CONTINUOUS
 62
               3
  5
10F
 10
191.4000012447006
 20
-15.400091833884289
 30
0.0
 11
190.9000095647836
 21
-15.900079678516704
 31
0.0
  0
LINE
  8
0
  6
CONTINUOUS
 62
               3
  5
110
 10
190.89989013671874
 20
-15.899993896484375
 30
0.0
 11
181.8999053955078
 21
-15.899993896484375
 31
0.0
  0
LINE
  8
0
  6
CONTINUOUS
 62
               3
  5
111
 10
181.40003503721613
 20
-15.399896680209395
 30
0.0
 11
181.90001352522899
 21
-15.899876137558977
 31
0.0
  0
LINE
  8
0
  6
CONTINUOUS
 62
               3
  5
112
 10
166.99565429687499
 20
-15.399993896484375
 30
0.0
 11
181.39993591308593
 21
-15.399993896484375
 31
0.0
  0
LINE
  8
0
  6
CONTINUOUS
 62
               3
  5
113
 10
159.39988649333958
 20
-14.400026209131056
 30
0.0
 11
166.99564384992885
 21
-15.400026784909869
 31
0.0
  0
LINE
  8
0
  6
CONTINUOUS
 62
               3
  5
114
 10
135.49998474121094
 20
-13.599990844726563
 30
0.0
 11
159.3999053955078
 21
-13.599990844726563
 31
0.0
  0
LINE
  8
0
  6
CONTINUOUS
 62
               3
  5
115
 10
135.19990539550781
 20
-9.0
 30
0.0
 11
117.19998168945312
 21
-9.0
 31
0.0
  0
LINE
  8
0
  6
CONTINUOUS
 62
               3
  5
116
 10
110.79998779296875
 20
-16.899993896484375
 30
0.0
 11
116.39999389648437
 21
-16.899993896484375
 31
0.0
  0
LINE
  8
0
  6
CONTINUOUS
 62
               3
  5
117
 10
117.19999391064977
 20
-16.099994071926034
 30
0.0
 11
116.39996669429439
 21
-16.900020344160424
 31
0.0
  0
LINE
  8
0
  6
CONTINUOUS
 62
               3
  5
118
 10
109.99999328676114
 20
-16.099957505316922
 30
0.0
 11
110.79999750777444
 21
-16.899963614521255
 31
0.0
  0
LINE
  8
0
  6
CONTINUOUS
 62
               3
  5
119
 10
110.0
 20
16.100021362304688
 30
0.0
 11
110.0
 21
-16.099952697753906
 31
0.0
  0
LINE
  8
0
  6
CONTINUOUS
 62
               3
  5
11A
 10
110.00000921006085
 20
16.09995253020179
 30
0.0
 11
110.80001343107415
 21
16.899958639406123
 31
0.0
  0
LINE
  8
0
  6
CONTINUOUS
 62
               3
  5
11B
 10
110.79998779296875
 20
16.899993896484375
 30
0.0
 11
116.39999389648437
 21
16.899993896484375
 31
0.0
  0
LINE
  8
0
  6
CONTINUOUS
 62
               3
  5
11C
 10
116.39997812004913
 20
16.899994649576911
 30
0.0
 11
117.19998315028715
 21
16.099989349597308
 31
0.0
  0
LINE
  8
0
  6
CONTINUOUS
 62
               3
  5
11D
 10
117.19998168945312
 20
16.100021362304688
 30
0.0
 11
117.19998168945312
 21
-16.099998474121094
 31
0.0
  0
LINE
  8
0
  6
CONTINUOUS
 62
               3
  5
11E
 10
135.19990539550781
 20
9.0
 30
0.0
 11
117.19998168945312
 21
9.0
 31
0.0
  0
LINE
  8
0
  6
CONTINUOUS
 62
               3
  5
11F
 10
135.19990539550781
 20
13.300003051757813
 30
0.0
 11
135.19990539550781
 21
-13.300003051757813
 31
0.0
  0
LINE
  8
0
  6
CONTINUOUS
 62
               3
  5
120
 10
135.49998474121094
 20
13.600006103515625
 30
0.0
 11
159.3999053955078
 21
13.600006103515625
 31
0.0
  0
LINE
  8
0
  6
CONTINUOUS
 62
               3
  5
121
 10
159.39990465394811
 20
14.399897214234329
 30
0.0
 11
166.9956506643511
 21
15.399896296259158
 31
0.0
  0
LINE
  8
0
  6
CONTINUOUS
 62
               3
  5
122
 10
159.3999053955078
 20
14.400009155273437
 30
0.0
 11
159.3999053955078
 21
-14.400001525878906
 31
0.0
  0
LINE
  8
0
  6
CONTINUOUS
 62
               3
  5
123
 10
166.99565429687499
 20
15.400009155273437
 30
0.0
 11
181.39993591308593
 21
15.400009155273437
 31
0.0
  0
LINE
  8
0
  6
CONTINUOUS
 62
               3
  5
124
 10
181.39993769781444
 20
15.400046701698784
 30
0.0
 11
181.89990585983008
 21
15.900014863714432
 31
0.0
  0
LINE
  8
0
  6
CONTINUOUS
 62
               3
  5
125
 10
191.39983232558433
 20
15.399914529184116
 30
0.0
 11
190.89982100519654
 21
15.8999258495719
 31
0.0
  0
LINE
  8
0
  6
CONTINUOUS
 62
               3
  5
126
 10
190.89989013671874
 20
15.900009155273438
 30
0.0
 11
181.8999053955078
 21
15.900009155273438
 31
0.0
  0
LINE
  8
0
  6
CONTINUOUS
 62
               3
  5
127
 10
191.3999053955078
 20
15.400009155273437
 30
0.0
 11
197.3999053955078
 21
15.400009155273437
 31
0.0
  0
LINE
  8
0
  6
CENTER
 62
             110
  5
128
 10
108.25872802734375
 20
-13.5
 30
0.0
 11
118.7493896484375
 21
-13.5
 31
0.0
  0
LINE
  8
0
  6
CENTER
 62
             110
  5
129
 10
108.37033081054687
 20
13.5
 30
0.0
 11
118.63778686523437
 21
13.5
 31
0.0
  0
CIRCLE
  8
0
  6
CONTINUOUS
 62
               3
  5
12A
 10
0.0
 20
0.0
 30
0.0
 40
2.0
  0
CIRCLE
  8
0
  6
CONTINUOUS
 62
               3
  5
12B
 10
0.0
 20
0.0
 30
0.0
 40
3.0
  0
ARC
  8
0
  6
CONTINUOUS
 62
               3
  5
12C
 10
0.0
 20
0.0
 30
0.0
 40
16.100000381469727
 50
3.5610507186132137
 51
176.43895793280879
  0
CIRCLE
  8
0
  6
CONTINUOUS
 62
               3
  5
12D
 10
0.0
 20
13.5
 30
0.0
 40
2.2000000476837158
  0
CIRCLE
  8
0
  6
CONTINUOUS
 62
               3
  5
12E
 10
-11.691337585449219
 20
6.75
 30
0.0
 40
2.2000000476837158
  0
CIRCLE
  8
0
  6
CONTINUOUS
 62
               3
  5
12F
 10
-11.691337585449219
 20
-6.7500076293945313
 30
0.0
 40
2.2000000476837158
  0
CIRCLE
  8
0
  6
CONTINUOUS
 62
               3
  5
130
 10
0.0000076293945313
 20
-13.5
 30
0.0
 40
2.2000000476837158
  0
CIRCLE
  8
0
  6
CONTINUOUS
 62
               3
  5
131
 10
11.691352844238281
 20
-6.75
 30
0.0
 40
2.2000000476837158
  0
CIRCLE
  8
0
  6
CONTINUOUS
 62
               3
  5
132
 10
11.69134521484375
 20
6.75
 30
0.0
 40
2.2000000476837158
  0
CIRCLE
  8
0
  6
CONTINUOUS
 62
               3
  5
133
 10
0.0
 20
0.0
 30
0.0
 40
16.899999618530273
  0
ARC
  8
0
  6
CONTINUOUS
 62
               3
  5
134
 10
0.0
 20
0.0
 30
0.0
 40
16.100000381469727
 50
183.56104206719121
 51
356.43890830025174
  0
CIRCLE
  8
0
  6
CENTER
 62
             110
  5
135
 10
0.0
 20
0.0
 30
0.0
 40
13.5
  0
CIRCLE
  8
0
  6
CONTINUOUS
 62
               3
  5
136
 10
0.0
 20
0.0
 30
0.0
 40
10.699999809265137
  0
CIRCLE
  8
0
  6
CONTINUOUS
 62
               3
  5
137
 10
0.0
 20
0.0
 30
0.0
 40
9.1499996185302734
  0
CIRCLE
  8
0
  6
CONTINUOUS
 62
               3
  5
138
 10
0.0
 20
0.0
 30
0.0
 40
7.5
  0
ARC
  8
0
  6
CONTINUOUS
 62
               3
  5
139
 10
113.54621887207031
 20
4.6641788482666016
 30
0.0
 40
0.8955223560333252
 50
179.99998633962167
 51
181.3976206287247
  0
ARC
  8
0
  6
CONTINUOUS
 62
               3
  5
13A
 10
113.54621887207031
 20
4.6641788482666016
 30
0.0
 40
0.8955223560333252
 50
181.3976206287247
 51
358.6023707198533
  0
ARC
  8
0
  6
CONTINUOUS
 62
               3
  5
13B
 10
113.54621887207031
 20
4.6641788482666016
 30
0.0
 40
0.8955223560333252
 50
0.0000223118003455
 51
179.99998633962167
  0
ARC
  8
0
  6
CONTINUOUS
 62
               3
  5
13C
 10
113.54621887207031
 20
0.2238807678222656
 30
0.0
 40
0.8955223560333252
 50
0.0000223118003455
 51
179.99998633962167
  0
ARC
  8
0
  6
CONTINUOUS
 62
               3
  5
13D
 10
114.38577270507812
 20
-4.6455230712890625
 30
0.0
 40
0.9141790866851807
 50
90.000004325711004
 51
270.00002299504575
  0
ARC
  8
0
  6
CONTINUOUS
 62
               3
  5
13E
 10
114.38577270507812
 20
-4.6455230712890625
 30
0.0
 40
0.9141790866851807
 50
270.00005395826804
 51
90.000004325711004
  0
ARC
  8
0
  6
CONTINUOUS
 62
               3
  5
13F
 10
113.54621887207031
 20
4.6641788482666016
 30
0.0
 40
0.8955223560333252
 50
358.60238802269731
 51
0.0000223118003455
  0
ARC
  8
0
  6
CONTINUOUS
 62
               3
  5
140
 10
113.54621887207031
 20
0.2238807678222656
 30
0.0
 40
0.8955223560333252
 50
179.99998998208773
 51
0.0000186693346746
  0
ARC
  8
0
  6
CONTINUOUS
 62
               3
  5
141
 10
113.54621887207031
 20
3.1343288421630859
 30
0.0
 40
1.7537312507629395
 50
120.69627464452816
 51
59.303791836130706
  0
ARC
  8
0
  6
CONTINUOUS
 62
               3
  5
142
 10
113.54621887207031
 20
0.2238807678222656
 30
0.0
 40
1.7537312507629395
 50
179.99998998208773
 51
0.0000186693346746
  0
ARC
  8
0
  6
CONTINUOUS
 62
             110
  5
143
 10
199.2959014892578
 20
1.8400306701660156
 30
0.0
 40
0.1600000858306885
 50
332.63195974155781
 51
49.664253880309005
  0
ARC
  8
0
  6
CONTINUOUS
 62
             110
  5
144
 10
199.87190551757811
 20
-1.8399696350097656
 30
0.0
 40
0.1599999666213989
 50
180.0
 51
359.77556499282969
  0
ARC
  8
0
  6
CONTINUOUS
 62
             110
  5
145
 10
200.03190917968749
 20
1.8400306701660156
 30
0.0
 40
0.1600000858306885
 50
332.63195974155781
 51
180.0
  0
ARC
  8
0
  6
CONTINUOUS
 62
             110
  5
146
 10
200.6079132080078
 20
-1.8399696350097656
 30
0.0
 40
0.1599999666213989
 50
180.0
 51
359.99993670706465
  0
ARC
  8
0
  6
CONTINUOUS
 62
             110
  5
147
 10
200.76790161132811
 20
1.8400306701660156
 30
0.0
 40
0.1600000858306885
 50
332.63652230792343
 51
180.0
  0
ARC
  8
0
  6
CONTINUOUS
 62
             110
  5
148
 10
201.34390563964843
 20
-1.8399696350097656
 30
0.0
 40
0.1599999666213989
 50
179.99998998208773
 51
0.000237235388115
  0
ARC
  8
0
  6
CONTINUOUS
 62
             110
  5
149
 10
201.5039093017578
 20
1.8400306701660156
 30
0.0
 40
0.1600000858306885
 50
332.63206902458455
 51
180.0
  0
ARC
  8
0
  6
CONTINUOUS
 62
             110
  5
14A
 10
202.07989807128905
 20
-1.8399696350097656
 30
0.0
 40
0.1599999666213989
 50
180.0
 51
359.99985474479462
  0
ARC
  8
0
  6
CONTINUOUS
 62
             110
  5
14B
 10
202.23990173339843
 20
1.8400306701660156
 30
0.0
 40
0.1600000858306885
 50
332.63187777928778
 51
180.0
  0
ARC
  8
0
  6
CONTINUOUS
 62
               3
  5
14C
 10
135.49998474121094
 20
-13.300003051757813
 30
0.0
 40
0.300000011920929
 50
180.0
 51
269.99998201391065
  0
ARC
  8
0
  6
CONTINUOUS
 62
               3
  5
14D
 10
197.3999053955078
 20
-13.399993896484375
 30
0.0
 40
2.0
 50
270.00002663751133
 51
0.0000223118003455
  0
ARC
  8
0
  6
CONTINUOUS
 62
               3
  5
14E
 10
135.49998474121094
 20
13.300003051757813
 30
0.0
 40
0.300000011920929
 50
90.000017986089347
 51
180.0
  0
ARC
  8
0
  6
CONTINUOUS
 62
               3
  5
14F
 10
197.3999053955078
 20
13.400009155273437
 30
0.0
 40
2.0
 50
0.0000359721786855
 51
90.000017986089347
  0
TEXT
  8
0
  6
CONTINUOUS
 62
             110
  5
150
 10
170.99565429687499
 20
-1.4285719394683838
 30
0.0
 40
3.0
  1
0
 50
90.0
 41
1.1428576140176685
  7
MX_NOTE_STANDARD
 72
               1
 11
169.49565429687499
 21
0.0
 31
0.0
 73
               2
  0
TEXT
  8
0
  6
CONTINUOUS
 62
             110
  5
151
 10
170.99565429687499
 20
-14.069434642791748
 30
0.0
 40
3.0
  1
315
 50
90.0
 41
0.7949999511614446
  7
MX_NOTE_STANDARD
 72
               1
 11
169.49565429687499
 21
-10.889434814453125
 31
0.0
 73
               2
  0
TEXT
  8
0
  6
CONTINUOUS
 62
             110
  5
152
 10
170.99565429687499
 20
8.7694501876831055
 30
0.0
 40
3.0
  1
45
 50
90.0
 41
0.706666628519694
  7
MX_NOTE_STANDARD
 72
               1
 11
169.49565429687499
 21
10.889450073242188
 31
0.0
 73
               2
  0
SOLID
  8
0
  6
CONTINUOUS
 62
             110
  5
153
 10
111.79248809814453
 20
-3.208953857421875
 30
0.0
 11
111.79248809814453
 21
-1.5298500061035156
 31
0.0
 12
115.22532653808594
 22
-3.208953857421875
 32
0.0
 13
115.22532653808594
 23
-1.5298500061035156
 33
0.0
  0
DIMENSION
  8
0
  6
CONTINUOUS
 62
             110
  5
160
  2
*D7
 10
60.0
 20
20.0
 30
0.0
 11
50.694214820861816
 21
20.0
 31
0.0
 70
             128
  1
<>
 13
40.0
 23
1.9999961853027344
 33
0.0
 14
60.0
 24
2.2360649108886719
 34
0.0
  3
MXDIMSTYLE
1001
ACAD
1000
DSTYLE
1002
{
1070
              41
1040
2.77
1070
              44
1040
2.2860031127929687
1070
             140
1040
4.1999998092651367
1070
             271
1070
               0
1070
             284
1070
               8
1070
             340
1005
5A
1002
}
  0
DIMENSION
  8
0
  6
CONTINUOUS
 62
             110
  5
16C
  2
*D8
 10
117.19998168945312
 20
-30.000026702880859
 30
0.0
 11
126.89994335174561
 21
-30.000026702880859
 31
0.0
 70
             128
  1
<>
 13
135.19990539550781
 23
-13.300003051757813
 33
0.0
 14
117.19998168945312
 24
-16.099998474121094
 34
0.0
  3
MXDIMSTYLE
1001
ACAD
1000
DSTYLE
1002
{
1070
              41
1040
2.77
1070
              44
1040
2.2860031127929687
1070
              75
1070
               1
1070
             140
1040
4.1999998092651367
1070
             271
1070
               0
1070
             284
1070
               8
1070
             340
1005
6B
1002
}
  0
DIMENSION
  8
0
  6
CONTINUOUS
 62
             110
  5
178
  2
*D9
 10
40.0
 20
-40.000026702880859
 30
0.0
 11
75.6942138671875
 21
-40.000026702880859
 31
0.0
 70
             128
  1
<>
 13
110.0
 23
-11.099952697753906
 33
0.0
 14
40.0
 24
-2.0
 34
0.0
  3
MXDIMSTYLE
1001
ACAD
1000
DSTYLE
1002
{
1070
              41
1040
2.77
1070
              75
1070
               1
1070
             140
1040
4.1999998092651367
1070
             271
1070
               0
1070
             284
1070
               8
1070
             340
1005
5A
1002
}
  0
DIMENSION
  8
0
  6
CONTINUOUS
 62
             110
  5
184
  2
*D10
 10
130.0
 20
-9.0
 30
0.0
 11
130.0
 21
26.406780242919922
 31
0.0
 70
             128
  1
%%c<>
 13
117.19998168945312
 23
9.0
 33
0.0
 14
117.19998168945312
 24
-9.0
 34
0.0
 50
90.0
  3
MXDIMSTYLE
1001
ACAD
1000
DSTYLE
1002
{
1070
              41
1040
2.77
1070
              75
1070
               1
1070
              76
1070
               1
1070
             140
1040
4.1999998092651367
1070
             271
1070
               0
1070
             284
1070
               8
1070
             340
1005
44
1002
}
  0
DIMENSION
  8
0
  6
CONTINUOUS
 62
             110
  5
190
  2
*D11
 10
150.0
 20
-13.599990844726563
 30
0.0
 11
150.0
 21
36.397493362426758
 31
0.0
 70
             128
  1
%%c<>
 13
135.49998474121094
 23
13.600006103515625
 33
0.0
 14
135.49998474121094
 24
-13.599990844726563
 34
0.0
 50
90.0
  3
MXDIMSTYLE
1001
ACAD
1000
DSTYLE
1002
{
1070
              41
1040
2.77
1070
              75
1070
               1
1070
              76
1070
               1
1070
             140
1040
4.1999998092651367
1070
             271
1070
               1
1070
             284
1070
               8
1070
             340
1005
5A
1002
}
  0
DIMENSION
  8
0
  6
CONTINUOUS
 62
             110
  5
19D
  2
*D12
 10
220.0186798095703
 20
-15.899993896484375
 30
0.0
 11
220.0186798095703
 21
0.7040309906005859
 31
0.0
 70
             128
  1
%%c<>
 13
190.89989013671874
 23
15.900009155273438
 33
0.0
 14
190.89989013671874
 24
-15.899993896484375
 34
0.0
 50
90.0
  3
MXDIMSTYLE
1001
ACAD
1000
DSTYLE
1002
{
1070
              41
1040
2.77
1070
              44
1040
2.2859954833984375
1070
             140
1040
4.1999998092651367
1070
             271
1070
               1
1070
             284
1070
               8
1070
             340
1005
6B
1002
}
  0
LINE
  8
0
  6
CONTINUOUS
 62
             110
  5
19E
 10
113.6098143495658
 20
16.899993065513854
 30
0.0
 11
112.66712811058001
 21
19.504650942246769
 31
0.0
  0
LINE
  8
0
  6
CONTINUOUS
 62
             110
  5
19F
 10
113.6098143495658
 20
16.899993065513854
 30
0.0
 11
111.96921263716729
 21
19.252059107196768
 31
0.0
  0
LINE
  8
0
  6
CONTINUOUS
 62
             110
  5
1A0
 10
113.36504358399272
 20
19.757242777296774
 30
0.0
 11
113.6098143495658
 21
16.899993065513854
 31
0.0
  0
LINE
  8
0
  6
CONTINUOUS
 62
               3
  5
1A1
 10
114.29177093505859
 20
-3.7361897606896175
 30
0.0
 11
114.29177093505859
 21
-3.7313439241088271
 31
0.0
  0
LINE
  8
0
  6
CONTINUOUS
 62
               3
  5
1A2
 10
114.29177093505859
 20
-5.5597021493318586
 30
0.0
 11
114.29177093505859
 21
-5.5548563818885075
 31
0.0
  0
LINE
  8
0
  6
CONTINUOUS
 62
               3
  5
1A3
 10
113.79177093505859
 20
-3.9506235823367284
 30
0.0
 11
113.79177093505859
 21
-3.7313436023295199
 31
0.0
  0
LINE
  8
0
  6
CONTINUOUS
 62
               3
  5
1A4
 10
113.79177093505859
 20
-5.5597021033634331
 30
0.0
 11
113.79177093505859
 21
-5.3404225602413966
 31
0.0
  0
LINE
  8
0
  6
CONTINUOUS
 62
               3
  5
1A5
 10
113.29177093505859
 20
-5.5597020573950076
 30
0.0
 11
113.29177093505859
 21
-3.7313432805502127
 31
0.0
  0
LINE
  8
0
  6
CONTINUOUS
 62
               3
  5
1A6
 10
112.79177093505859
 20
-5.559702011426582
 30
0.0
 11
112.79177093505859
 21
-3.7313429587709059
 31
0.0
  0
LINE
  8
0
  6
CONTINUOUS
 62
               3
  5
1A7
 10
112.29177093505859
 20
-5.5597019654581556
 30
0.0
 11
112.29177093505859
 21
-3.7313426369915987
 31
0.0
  0
LINE
  8
0
  6
CONTINUOUS
 62
               3
  5
1A8
 10
111.79248809814453
 20
-4.0000267028808594
 30
0.0
 11
113.73842593486576
 21
-4.0000267028808594
 31
0.0
  0
LINE
  8
0
  6
CONTINUOUS
 62
               3
  5
1A9
 10
111.79248809814453
 20
-4.5000267028808594
 30
0.0
 11
113.48324613521297
 21
-4.5000267028808594
 31
0.0
  0
LINE
  8
0
  6
CONTINUOUS
 62
               3
  5
1AA
 10
111.79248809814453
 20
-5.0000267028808594
 30
0.0
 11
113.54312771593929
 21
-5.0000267028808594
 31
0.0
  0
LINE
  8
0
  6
CONTINUOUS
 62
               3
  5
1AB
 10
111.79248809814453
 20
-5.5000267028808594
 30
0.0
 11
114.06089281014927
 21
-5.5000267028808594
 31
0.0
  0
LINE
  8
0
  6
CONTINUOUS
 62
               3
  5
1AC
 10
115.29177093505859
 20
-4.7675501576461858
 30
0.0
 11
115.29177093505859
 21
-4.5234959849319392
 31
0.0
  0
LINE
  8
0
  6
CONTINUOUS
 62
               3
  5
1AD
 10
114.79177093505859
 20
-5.4646011138376815
 30
0.0
 11
114.79177093505859
 21
-3.8264450287404435
 31
0.0
  0
LINE
  8
0
  6
CONTINUOUS
 62
               3
  5
1AE
 10
114.38577236570831
 20
-4.0000267028808594
 30
0.0
 11
115.03311947529049
 21
-4.0000267028808594
 31
0.0
  0
LINE
  8
0
  6
CONTINUOUS
 62
               3
  5
1AF
 10
114.38577247100854
 20
-4.5000267028808594
 30
0.0
 11
115.28829927494328
 21
-4.5000267028808594
 31
0.0
  0
LINE
  8
0
  6
CONTINUOUS
 62
               3
  5
1B0
 10
114.38577257630875
 20
-5.0000267028808594
 30
0.0
 11
115.22841769421696
 21
-5.0000267028808594
 31
0.0
  0
LINE
  8
0
  6
CONTINUOUS
 62
               3
  5
1B1
 10
114.38577268160897
 20
-5.5000267028808594
 30
0.0
 11
114.71065260000698
 21
-5.5000267028808594
 31
0.0
  0
LINE
  8
0
  6
CONTINUOUS
 62
               3
  5
1B2
 10
115.29177093505859
 20
0.0547024734110164
 30
0.0
 11
115.29177093505859
 21
0.2238814475653468
 31
0.0
  0
LINE
  8
0
  6
CONTINUOUS
 62
               3
  5
1B3
 10
114.79177093505859
 20
-1.010693392885863
 30
0.0
 11
114.79177093505859
 21
0.2238812528581553
 31
0.0
  0
LINE
  8
0
  6
CONTINUOUS
 62
               3
  5
1B4
 10
114.29177093505859
 20
-1.3634835322917509
 30
0.0
 11
114.29177093505859
 21
-0.2722164116994439
 31
0.0
  0
LINE
  8
0
  6
CONTINUOUS
 62
               3
  5
1B5
 10
113.79177093505859
 20
-1.5125746690561883
 30
0.0
 11
113.79177093505859
 21
-0.6373186716327752
 31
0.0
  0
LINE
  8
0
  6
CONTINUOUS
 62
               3
  5
1B6
 10
113.29177093505859
 20
-1.5112934445417332
 30
0.0
 11
113.29177093505859
 21
-0.6347323799375144
 31
0.0
  0
LINE
  8
0
  6
CONTINUOUS
 62
               3
  5
1B7
 10
112.79177093505859
 20
-1.359274818417225
 30
0.0
 11
112.79177093505859
 21
-0.2585802155683492
 31
0.0
  0
LINE
  8
0
  6
CONTINUOUS
 62
               3
  5
1B8
 10
112.29177093505859
 20
-1.0016532681104726
 30
0.0
 11
112.29177093505859
 21
0.2238796895107702
 31
0.0
  0
LINE
  8
0
  6
CONTINUOUS
 62
               3
  5
1B9
 10
114.41329772357045
 20
-0.0000267028808594
 30
0.0
 11
115.28559771075551
 21
-0.0000267028808594
 31
0.0
  0
LINE
  8
0
  6
CONTINUOUS
 62
               3
  5
1BA
 10
111.80684003338511
 20
-0.0000267028808594
 30
0.0
 11
112.67914002057017
 21
-0.0000267028808594
 31
0.0
  0
LINE
  8
0
  6
CONTINUOUS
 62
               3
  5
1BB
 10
114.07339840886559
 20
-0.5000267028808594
 30
0.0
 11
115.14357020279338
 21
-0.5000267028808594
 31
0.0
  0
LINE
  8
0
  6
CONTINUOUS
 62
               3
  5
1BC
 10
111.94886754134724
 20
-0.5000267028808594
 30
0.0
 11
113.01903933527504
 21
-0.5000267028808594
 31
0.0
  0
LINE
  8
0
  6
CONTINUOUS
 62
               3
  5
1BD
 10
112.29018391910935
 20
-1.0000267028808594
 30
0.0
 11
114.80225382503127
 21
-1.0000267028808594
 31
0.0
  0
LINE
  8
0
  6
CONTINUOUS
 62
               3
  5
1BE
 10
113.22416867046115
 20
-1.5000267028808594
 30
0.0
 11
113.86826907367947
 21
-1.5000267028808594
 31
0.0
  0
LINE
  8
0
  6
CONTINUOUS
 62
               3
  5
1BF
 10
114.29177093505859
 20
0.2238810784123321
 30
0.0
 11
114.29177093505859
 21
0.7199779473439755
 31
0.0
  0
LINE
  8
0
  6
CONTINUOUS
 62
               3
  5
1C0
 10
113.79177093505859
 20
0.2238809512564135
 30
0.0
 11
113.79177093505859
 21
1.0850802072773065
 31
0.0
  0
LINE
  8
0
  6
CONTINUOUS
 62
               3
  5
1C1
 10
113.29177093505859
 20
0.223880824100495
 30
0.0
 11
113.29177093505859
 21
1.0824939155820457
 31
0.0
  0
LINE
  8
0
  6
CONTINUOUS
 62
               3
  5
1C2
 10
112.79177093505859
 20
0.2238806969445764
 30
0.0
 11
112.79177093505859
 21
0.7063417512128807
 31
0.0
  0
LINE
  8
0
  6
CONTINUOUS
 62
               3
  5
1C3
 10
113.09940719347959
 20
0.9999732971191406
 30
0.0
 11
113.99303055066103
 21
0.9999732971191406
 31
0.0
  0
LINE
  8
0
  6
CONTINUOUS
 62
               3
  5
1C4
 10
112.69431910952666
 20
0.4999732971191406
 30
0.0
 11
114.39811863461397
 21
0.4999732971191406
 31
0.0
  0
LINE
  8
0
  6
CONTINUOUS
 62
               3
  5
1C5
 10
115.29177093505859
 20
2.9651505477518363
 30
0.0
 11
115.29177093505859
 21
3.3035071365743356
 31
0.0
  0
LINE
  8
0
  6
CONTINUOUS
 62
               3
  5
1C6
 10
114.79177093505859
 20
1.8997546814549571
 30
0.0
 11
114.79177093505859
 21
4.3689030028712148
 31
0.0
  0
LINE
  8
0
  6
CONTINUOUS
 62
               3
  5
1C7
 10
114.29177093505859
 20
1.5469645420490692
 30
0.0
 11
114.29177093505859
 21
4.1680811899144175
 31
0.0
  0
LINE
  8
0
  6
CONTINUOUS
 62
               3
  5
1C8
 10
113.79177093505859
 20
1.3978734052846318
 30
0.0
 11
113.79177093505859
 21
3.802978421309072
 31
0.0
  0
LINE
  8
0
  6
CONTINUOUS
 62
               3
  5
1C9
 10
113.29177093505859
 20
1.3991546297990869
 30
0.0
 11
113.29177093505859
 21
3.8055639962165251
 31
0.0
  0
LINE
  8
0
  6
CONTINUOUS
 62
               3
  5
1CA
 10
112.79177093505859
 20
1.5511732559235951
 30
0.0
 11
112.79177093505859
 21
4.1817135615050063
 31
0.0
  0
LINE
  8
0
  6
CONTINUOUS
 62
               3
  5
1CB
 10
112.29177093505859
 20
1.9087948062303475
 30
0.0
 11
112.29177093505859
 21
4.3598628780958242
 31
0.0
  0
LINE
  8
0
  6
CONTINUOUS
 62
               3
  5
1CC
 10
114.42655799523934
 20
4.4999732971191406
 30
0.0
 11
114.64648634980031
 21
4.4999732971191406
 31
0.0
  0
LINE
  8
0
  6
CONTINUOUS
 62
               3
  5
1CD
 10
112.44595139434031
 20
4.4999732971191406
 30
0.0
 11
112.66587729733956
 21
4.4999732971191406
 31
0.0
  0
LINE
  8
0
  6
CONTINUOUS
 62
               3
  5
1CE
 10
114.14687859794353
 20
3.9999732971191406
 30
0.0
 11
115.07141819593141
 21
3.9999732971191406
 31
0.0
  0
LINE
  8
0
  6
CONTINUOUS
 62
               3
  5
1CF
 10
112.02101954820921
 20
3.9999732971191406
 30
0.0
 11
112.94555669463537
 21
3.9999732971191406
 31
0.0
  0
LINE
  8
0
  6
CONTINUOUS
 62
               3
  5
1D0
 10
111.8310286690717
 20
3.4999732971191406
 30
0.0
 11
115.26140907506893
 21
3.4999732971191406
 31
0.0
  0
LINE
  8
0
  6
CONTINUOUS
 62
               3
  5
1D1
 10
111.79764176841761
 20
2.9999732971191406
 30
0.0
 11
115.29479597572302
 21
2.9999732971191406
 31
0.0
  0
LINE
  8
0
  6
CONTINUOUS
 62
               3
  5
1D2
 10
111.91123681028047
 20
2.4999732971191406
 30
0.0
 11
115.18120093386015
 21
2.4999732971191406
 31
0.0
  0
LINE
  8
0
  6
CONTINUOUS
 62
               3
  5
1D3
 10
112.20875455578722
 20
1.9999732971191406
 30
0.0
 11
114.8836831883534
 21
1.9999732971191406
 31
0.0
  0
LINE
  8
0
  6
CONTINUOUS
 62
               3
  5
1D4
 10
112.91025090724295
 20
1.4999732971191406
 30
0.0
 11
114.18218683689767
 21
1.4999732971191406
 31
0.0
  0
LINE
  8
0
  6
CONTINUOUS
 62
               3
  5
1D5
 10
114.29177093505859
 20
4.6641791588566681
 30
0.0
 11
114.29177093505859
 21
5.1602760277883117
 31
0.0
  0
LINE
  8
0
  6
CONTINUOUS
 62
               3
  5
1D6
 10
113.79177093505859
 20
4.6641790317007494
 30
0.0
 11
113.79177093505859
 21
5.5253782877216429
 31
0.0
  0
LINE
  8
0
  6
CONTINUOUS
 62
               3
  5
1D7
 10
113.29177093505859
 20
4.6641789045448308
 30
0.0
 11
113.29177093505859
 21
5.522791996026382
 31
0.0
  0
LINE
  8
0
  6
CONTINUOUS
 62
               3
  5
1D8
 10
112.79177093505859
 20
4.6641787773889121
 30
0.0
 11
112.79177093505859
 21
5.1466398316572164
 31
0.0
  0
LINE
  8
0
  6
CONTINUOUS
 62
               3
  5
1D9
 10
113.22464783882454
 20
5.4999732971191406
 30
0.0
 11
113.86778990531609
 21
5.4999732971191406
 31
0.0
  0
LINE
  8
0
  6
CONTINUOUS
 62
               3
  5
1DA
 10
112.71603673646675
 20
4.9999732971191406
 30
0.0
 11
114.37640100767388
 21
4.9999732971191406
 31
0.0
  0
ENDSEC
  0
EOF
