  0
SECTION
  2
HEADER
  9
$ACADVER
  1
AC1009
  9
$DWGCODEPAGE
  3
dos932
  9
$INSBASE
 10
0.0
 20
0.0
 30
0.0
  9
$EXTMIN
 10
-64.0
 20
-64.0
 30
0.0
  9
$EXTMAX
 10
525.24368190765381
 20
240.53333311080934
 30
0.0
  9
$LIMMIN
 10
-64.0
 20
-64.0
  9
$LIMMAX
 10
525.24368190765381
 20
240.53333311080934
  9
$ORTHOMODE
 70
               0
  9
$REGENMODE
 70
               1
  9
$FILLMODE
 70
               1
  9
$QTEXTMODE
 70
               0
  9
$MIRRTEXT
 70
               1
  9
$DRAGMODE
 70
               2
  9
$LTSCALE
 40
1.0
  9
$OSMODE
 70
               0
  9
$ATTMODE
 70
               1
  9
$TEXTSIZE
 40
3.2000000476837158
  9
$TRACEWID
 40
0.05
  9
$TEXTSTYLE
  7
MX_NOTE_STANDARD
  9
$CLAYER
  8
0
  9
$CELTYPE
  6
CONTINUOUS
  9
$CECOLOR
 62
             256
  9
$DIMSCALE
 40
1.0
  9
$DIMASZ
 40
2.5
  9
$DIMEXO
 40
2.0
  9
$DIMDLI
 40
3.75
  9
$DIMRND
 40
0.0
  9
$DIMDLE
 40
0.0
  9
$DIMEXE
 40
1.0
  9
$DIMTP
 40
0.0
  9
$DIMTM
 40
0.0
  9
$DIMTXT
 40
4.1655998229980469
  9
$DIMCEN
 40
2.5
  9
$DIMTSZ
 40
0.0
  9
$DIMTOL
 70
               0
  9
$DIMLIM
 70
               0
  9
$DIMTIH
 70
               0
  9
$DIMTOH
 70
               0
  9
$DIMSE1
 70
               0
  9
$DIMSE2
 70
               0
  9
$DIMTAD
 70
               1
  9
$DIMZIN
 70
               8
  9
$DIMBLK
  1

  9
$DIMASO
 70
               1
  9
$DIMSHO
 70
               1
  9
$DIMPOST
  1

  9
$DIMAPOST
  1

  9
$DIMALT
 70
               0
  9
$DIMALTD
 70
               4
  9
$DIMALTF
 40
0.03937007874016
  9
$DIMLFAC
 40
1.0
  9
$DIMTOFL
 70
               1
  9
$DIMTVP
 40
0.0
  9
$DIMTIX
 70
               0
  9
$DIMSOXD
 70
               0
  9
$DIMSAH
 70
               1
  9
$DIMBLK1
  1
_OPEN30
  9
$DIMBLK2
  1
_OPEN30
  9
$DIMSTYLE
  2
MXDIMSTYLE
  9
$DIMCLRD
 70
               0
  9
$DIMCLRE
 70
               0
  9
$DIMCLRT
 70
               0
  9
$DIMTFAC
 40
1.0
  9
$DIMGAP
 40
1.0
  9
$LUNITS
 70
               2
  9
$LUPREC
 70
               4
  9
$AXISMODE
 70
               0
  9
$AXISUNIT
 10
0.0
 20
0.0
  9
$SKETCHINC
 40
0.1
  9
$FILLETRAD
 40
0.0
  9
$AUNITS
 70
               0
  9
$AUPREC
 70
               0
  9
$MENU
  1
acad
  9
$ELEVATION
 40
0.0
  9
$PELEVATION
 40
0.0
  9
$THICKNESS
 40
0.0
  9
$LIMCHECK
 70
               0
  9
$BLIPMODE
 70
               1
  9
$CHAMFERA
 40
0.0
  9
$CHAMFERB
 40
0.0
  9
$SKPOLY
 70
               0
  9
$TDCREATE
 40
2455216.658136574
  9
$TDUPDATE
 40
2455216.658136574
  9
$TDINDWG
 40
0.0000000000
  9
$TDUSRTIMER
 40
0.0000000000
  9
$USRTIMER
 70
               1
  9
$ANGBASE
 50
0.0
  9
$ANGDIR
 70
               0
  9
$PDMODE
 70
               0
  9
$PDSIZE
 40
0.0
  9
$PLINEWID
 40
0.0
  9
$COORDS
 70
               1
  9
$SPLFRAME
 70
               0
  9
$SPLINETYPE
 70
               6
  9
$SPLINESEGS
 70
               8
  9
$ATTDIA
 70
               0
  9
$ATTREQ
 70
               1
  9
$HANDLING
 70
               1
  9
$HANDSEED
  5
3B0
  9
$SURFTAB1
 70
               6
  9
$SURFTAB2
 70
               6
  9
$SURFTYPE
 70
               6
  9
$SURFU
 70
               6
  9
$SURFV
 70
               6
  9
$UCSNAME
  2

  9
$UCSORG
 10
0.0
 20
0.0
 30
0.0
  9
$UCSXDIR
 10
1.0
 20
0.0
 30
0.0
  9
$UCSYDIR
 10
0.0
 20
1.0
 30
0.0
  9
$PUCSNAME
  2

  9
$PUCSORG
 10
0.0
 20
0.0
 30
0.0
  9
$PUCSXDIR
 10
1.0
 20
0.0
 30
0.0
  9
$PUCSYDIR
 10
0.0
 20
1.0
 30
0.0
  9
$USERI1
 70
               0
  9
$USERI2
 70
               0
  9
$USERI3
 70
               0
  9
$USERI4
 70
               0
  9
$USERI5
 70
               0
  9
$USERR1
 40
0.0
  9
$USERR2
 40
0.0
  9
$USERR3
 40
0.0
  9
$USERR4
 40
0.0
  9
$USERR5
 40
0.0
  9
$WORLDVIEW
 70
               1
  9
$SHADEDGE
 70
               3
  9
$SHADEDIF
 70
              70
  9
$TILEMODE
 70
               1
  9
$MAXACTVP
 70
              16
  9
$PINSBASE
 10
0.0
 20
0.0
 30
0.0
  9
$PLIMCHECK
 70
               0
  9
$PEXTMIN
 10
1.0000000000000000E+20
 20
1.0000000000000000E+20
 30
1.0000000000000000E+20
  9
$PEXTMAX
 10
-1.0000000000000000E+20
 20
-1.0000000000000000E+20
 30
-1.0000000000000000E+20
  9
$PLIMMIN
 10
0.0
 20
0.0
  9
$PLIMMAX
 10
12.0
 20
9.0
  9
$UNITMODE
 70
               0
  9
$VISRETAIN
 70
               0
  9
$PLINEGEN
 70
               1
  9
$PSLTSCALE
 70
               0
  9
$TREEDEPTH
 70
            3020
  0
ENDSEC
  0
SECTION
  2
TABLES
  0
TABLE
  2
VPORT
 70
               1
  0
VPORT
  2
*ACTIVE
 70
               0
 10
0.0
 20
0.0
 11
1.0
 21
1.0
 12
230.6218409538269
 22
88.266666555404669
 13
0.0
 23
0.0
 14
1.0
 24
1.0
 15
0.0
 25
0.0
 16
0.0
 26
0.0
 36
1.0
 17
0.0
 27
0.0
 37
0.0
 40
307.57866644191745
 41
1.7320508075688772
 42
50.0
 43
0.0
 44
0.0
 50
0.0
 51
0.0
 71
               0
 72
             100
 73
               1
 74
               1
 75
               0
 76
               0
 77
               0
 78
               0
  0
ENDTAB
  0
TABLE
  2
LTYPE
 70
               4
  0
LTYPE
  2
CONTINUOUS
 70
              64
  3
Solid line
 72
              65
 73
               0
 40
0.0
  0
LTYPE
  2
CENTER
 70
              64
  3
Center ____ _ ____ _ ____ _ ____ _ ____ _ ____
 72
              65
 73
               4
 40
50.800000000000004
 49
31.75
 49
-6.3499999999999996
 49
6.3499999999999996
 49
-6.3499999999999996
  0
LTYPE
  2
PHANTOM
 70
              64
  3
Phantom ______  __  __  ______  __  __  ______
 72
              65
 73
               6
 40
63.500000000000007
 49
31.75
 49
-6.3499999999999996
 49
6.3499999999999996
 49
-6.3499999999999996
 49
6.3499999999999996
 49
-6.3499999999999996
  0
LTYPE
  2
DASHED
 70
              64
  3
Dashed __ __ __ __ __ __ __ __ __ __ __ __ __ _
 72
              65
 73
               2
 40
19.049999999999997
 49
12.699999999999999
 49
-6.3499999999999996
  0
ENDTAB
  0
TABLE
  2
LAYER
 70
               3
  0
LAYER
  2
0
 70
               0
 62
               7
  6
CONTINUOUS
  0
LAYER
  2
DEFPOINTS
 70
               0
 62
               7
  6
CONTINUOUS
  0
LAYER
  2
LY_3
 70
               0
 62
               7
  6
CONTINUOUS
  0
ENDTAB
  0
TABLE
  2
STYLE
 70
               5
  0
STYLE
  2
MX_NOTE_STANDARD
 70
               0
 40
0.0
 41
1.0
 50
0.0
 71
               0
 42
3.2000000476837158
  3
txt.shx
  4
extfont.shx
  0
STYLE
  2
MX_DIMTXSTY_2
 70
               0
 40
0.0
 41
1.3500000000000001
 50
0.0
 71
               0
 42
3.2000000476837158
  3
txt.shx
  4
extfont.shx
  0
STYLE
  2
MX_DIMTXSTY_3
 70
               0
 40
0.0
 41
1.1000000000000001
 50
0.0
 71
               0
 42
3.2000000476837158
  3
txt.shx
  4
extfont.shx
  0
STYLE
  2
MX_DIMTXSTY_4
 70
               0
 40
0.0
 41
1.5
 50
0.0
 71
               0
 42
3.2000000476837158
  3
txt.shx
  4
extfont.shx
  0
STYLE
  2
MX_DIMTXSTY_5
 70
               0
 40
0.0
 41
1.05
 50
0.0
 71
               0
 42
3.2000000476837158
  3
txt.shx
  4
extfont.shx
  0
ENDTAB
  0
TABLE
  2
VIEW
 70
               0
  0
ENDTAB
  0
TABLE
  2
UCS
 70
               0
  0
ENDTAB
  0
TABLE
  2
APPID
 70
               1
  0
APPID
  2
ACAD
 70
               0
  0
ENDTAB
  0
TABLE
  2
DIMSTYLE
 70
               1
  0
DIMSTYLE
  2
MXDIMSTYLE
 70
               0
  3

  4

  5

  6
_OPEN30
  7
_OPEN30
 40
1.0
 41
2.5
 42
2.0
 43
3.75
 44
1.0
 45
0.0
 46
0.0
 47
0.0
 48
0.0
 71
               0
 72
               0
 73
               0
 74
               0
 75
               0
 76
               0
 77
               1
 78
               8
140
4.1655998229980469
141
2.5
142
0.0
143
0.03937007874016
144
1.0
145
0.0
146
1.0
147
1.0
170
               0
171
               4
172
               1
173
               1
174
               0
175
               0
176
               0
177
               0
178
               0
  0
ENDTAB
  0
ENDSEC
  0
SECTION
  2
BLOCKS
  0
BLOCK
  8
0
  5
26
  2
*U0
 70
               1
 10
0.0
 20
0.0
 30
0.0
  3
*U0
  0
LINE
  8
0
  6
CONTINUOUS
 62
             110
  5
27
 10
0.0
 20
0.0
 30
0.0
 11
-1.0
 21
0.0
 31
0.0
  0
LINE
  8
0
  6
CONTINUOUS
 62
             110
  5
28
 10
0.0
 20
0.0
 30
0.0
 11
-1.0
 21
-0.267949
 31
0.0
  0
LINE
  8
0
  6
CONTINUOUS
 62
             110
  5
29
 10
-1.0
 20
0.267949
 30
0.0
 11
0.0
 21
0.0
 31
0.0
  0
ENDBLK
  8
0
  5
2A
  0
BLOCK
  8
0
  6
BYBLOCK
 62
               0
  5
21
  2
_OPEN30
 70
               2
 10
0.0
 20
0.0
 30
0.0
  3
_OPEN30
  0
LINE
  8
0
  6
BYBLOCK
 62
               0
  5
22
 10
-1.0
 20
0.267949
 30
0.0
 11
0.0
 21
0.0
 31
0.0
  0
LINE
  8
0
  6
BYBLOCK
 62
               0
  5
23
 10
0.0
 20
0.0
 30
0.0
 11
-1.0
 21
-0.267949
 31
0.0
  0
LINE
  8
0
  6
BYBLOCK
 62
               0
  5
24
 10
0.0
 20
0.0
 30
0.0
 11
-1.0
 21
0.0
 31
0.0
  0
ENDBLK
  8
0
  6
BYBLOCK
 62
               0
  5
25
  0
BLOCK
  8
0
  6
BYBLOCK
 62
               0
  5
27A
  2
*D2
 70
               1
 10
0.0
 20
0.0
 30
0.0
  3
*D2
  0
LINE
  8
0
  6
CONTINUOUS
 62
             110
  5
27B
 10
80.0
 20
5.5
 30
0.0
 11
80.0
 21
-7.0
 31
0.0
  0
LINE
  8
0
  6
CONTINUOUS
 62
             110
  5
27C
 10
80.0
 20
31.651028633117676
 30
0.0
 11
80.0
 21
5.5
 31
0.0
  0
LINE
  8
0
  6
CONTINUOUS
 62
             110
  5
27D
 10
6.8701391220092773
 20
5.5
 30
0.0
 11
82.28600025177002
 21
5.5
 31
0.0
  0
LINE
  8
0
  6
CONTINUOUS
 62
             110
  5
27E
 10
2.5399999618530273
 20
-7.0
 30
0.0
 11
82.28600025177002
 21
-7.0
 31
0.0
  0
LINE
  8
0
  6
CONTINUOUS
 62
             110
  5
27F
 10
80.0
 20
5.5
 30
0.0
 11
80.0
 21
9.5
 31
0.0
  0
LINE
  8
0
  6
CONTINUOUS
 62
             110
  5
280
 10
80.0
 20
-7.0
 30
0.0
 11
80.0
 21
-11.0
 31
0.0
  0
INSERT
  8
0
  6
CONTINUOUS
 62
             110
  5
281
  2
_OPEN30
 10
80.0
 20
5.5
 30
0.0
 41
5.54
 42
5.54
 50
270.0
 43
5.54
  0
INSERT
  8
0
  6
CONTINUOUS
 62
             110
  5
282
  2
_OPEN30
 10
80.0
 20
-7.0
 30
0.0
 41
5.54
 42
5.54
 50
90.0
 43
5.54
  0
TEXT
  8
0
  6
CONTINUOUS
 62
             110
  5
284
 10
79.0
 20
11.706996434346475
 30
0.0
 40
5.1999998092651367
  1
12.5
 50
90.000000000000014
 41
0.9876543111761901
  7
MX_DIMTXSTY_2
 11
76.400000095367432
 21
11.706996434346475
 31
0.0
 73
               2
  0
POINT
  8
DEFPOINTS
  6
CONTINUOUS
 62
               0
  5
285
 10
4.33013916015625
 20
5.5
 30
0.0
  0
POINT
  8
DEFPOINTS
  6
CONTINUOUS
 62
               0
  5
286
 10
0.0
 20
-7.0
 30
0.0
  0
POINT
  8
DEFPOINTS
  6
CONTINUOUS
 62
               0
  5
287
 10
80.0
 20
-7.0
 30
0.0
  0
ENDBLK
  8
0
  6
BYBLOCK
 62
               0
  5
288
  0
BLOCK
  8
0
  6
BYBLOCK
 62
               0
  5
28B
  2
*D3
 70
               1
 10
0.0
 20
0.0
 30
0.0
  3
*D3
  0
LINE
  8
0
  6
CONTINUOUS
 62
             110
  5
28C
 10
90.0
 20
30.0
 30
0.0
 11
125.0
 21
30.0
 31
0.0
  0
LINE
  8
0
  6
CONTINUOUS
 62
             110
  5
28D
 10
125.0
 20
9.539973258972168
 30
0.0
 11
125.0
 21
32.28600025177002
 31
0.0
  0
INSERT
  8
0
  6
CONTINUOUS
 62
             110
  5
28E
  2
_OPEN30
 10
90.0
 20
30.0
 30
0.0
 41
5.54
 42
5.54
 50
180.0
 43
5.54
  0
INSERT
  8
0
  6
CONTINUOUS
 62
             110
  5
28F
  2
_OPEN30
 10
125.0
 20
30.0
 30
0.0
 41
5.54
 42
5.54
 43
5.54
  0
TEXT
  8
0
  6
CONTINUOUS
 62
             110
  5
290
 10
104.4333332379659
 20
31.0
 30
0.0
 40
5.1999998092651367
  1
35
  7
MX_NOTE_STANDARD
 11
104.4333332379659
 21
33.599999904632568
 31
0.0
 73
               2
  0
POINT
  8
DEFPOINTS
  6
CONTINUOUS
 62
               0
  5
291
 10
90.0
 20
5.4999732971191406
 30
0.0
  0
POINT
  8
DEFPOINTS
  6
CONTINUOUS
 62
               0
  5
292
 10
125.0
 20
6.9999732971191406
 30
0.0
  0
POINT
  8
DEFPOINTS
  6
CONTINUOUS
 62
               0
  5
293
 10
125.0
 20
30.0
 30
0.0
  0
ENDBLK
  8
0
  6
BYBLOCK
 62
               0
  5
294
  0
BLOCK
  8
0
  6
BYBLOCK
 62
               0
  5
297
  2
*D4
 70
               1
 10
0.0
 20
0.0
 30
0.0
  3
*D4
  0
LINE
  8
0
  6
CONTINUOUS
 62
             110
  5
298
 10
90.0
 20
70.0
 30
0.0
 11
140.0
 21
70.0
 31
0.0
  0
INSERT
  8
0
  6
CONTINUOUS
 62
             110
  5
299
  2
_OPEN30
 10
90.0
 20
70.0
 30
0.0
 41
5.54
 42
5.54
 50
180.0
 43
5.54
  0
INSERT
  8
0
  6
CONTINUOUS
 62
             110
  5
29A
  2
_OPEN30
 10
140.0
 20
70.0
 30
0.0
 41
5.54
 42
5.54
 43
5.54
  0
TEXT
  8
0
  6
CONTINUOUS
 62
             110
  5
29B
 10
95.240090283833993
 20
71.0
 30
0.0
 40
5.1999998092651367
  1
50+150ストローク
 41
0.9705882165774349
  7
MX_NOTE_STANDARD
 11
95.240090283833993
 21
73.599999904632568
 31
0.0
 73
               2
  0
POINT
  8
DEFPOINTS
  6
CONTINUOUS
 62
               0
  5
29C
 10
90.0
 20
5.499969482421875
 30
0.0
  0
POINT
  8
DEFPOINTS
  6
CONTINUOUS
 62
               0
  5
29D
 10
140.0
 20
55.949979782104492
 30
0.0
  0
POINT
  8
DEFPOINTS
  6
CONTINUOUS
 62
               0
  5
29E
 10
140.0
 20
70.0
 30
0.0
  0
ENDBLK
  8
0
  6
BYBLOCK
 62
               0
  5
29F
  0
BLOCK
  8
0
  6
BYBLOCK
 62
               0
  5
2A2
  2
*D5
 70
               1
 10
0.0
 20
0.0
 30
0.0
  3
*D5
  0
LINE
  8
0
  6
CONTINUOUS
 62
             110
  5
2A3
 10
140.0
 20
70.0
 30
0.0
 11
465.0
 21
70.0
 31
0.0
  0
LINE
  8
0
  6
CONTINUOUS
 62
             110
  5
2A4
 10
140.0
 20
58.48997974395752
 30
0.0
 11
140.0
 21
72.28600025177002
 31
0.0
  0
INSERT
  8
0
  6
CONTINUOUS
 62
             110
  5
2A5
  2
_OPEN30
 10
140.0
 20
70.0
 30
0.0
 41
5.54
 42
5.54
 50
180.0
 43
5.54
  0
INSERT
  8
0
  6
CONTINUOUS
 62
             110
  5
2A6
  2
_OPEN30
 10
465.0
 20
70.0
 30
0.0
 41
5.54
 42
5.54
 43
5.54
  0
TEXT
  8
0
  6
CONTINUOUS
 62
             110
  5
2A7
 10
297.09141667683917
 20
71.0
 30
0.0
 40
5.1999998092651367
  1
325
  7
MX_NOTE_STANDARD
 11
297.09141667683917
 21
73.599999904632568
 31
0.0
 73
               2
  0
POINT
  8
DEFPOINTS
  6
CONTINUOUS
 62
               0
  5
2A8
 10
140.0
 20
55.949979782104492
 30
0.0
  0
POINT
  8
DEFPOINTS
  6
CONTINUOUS
 62
               0
  5
2A9
 10
465.0
 20
28.999977111816406
 30
0.0
  0
POINT
  8
DEFPOINTS
  6
CONTINUOUS
 62
               0
  5
2AA
 10
465.0
 20
70.0
 30
0.0
  0
ENDBLK
  8
0
  6
BYBLOCK
 62
               0
  5
2AB
  0
BLOCK
  8
0
  6
BYBLOCK
 62
               0
  5
2AE
  2
*D6
 70
               1
 10
0.0
 20
0.0
 30
0.0
  3
*D6
  0
LINE
  8
0
  6
CONTINUOUS
 62
             110
  5
2AF
 10
90.0
 20
80.0
 30
0.0
 11
475.99998474121094
 21
80.0
 31
0.0
  0
LINE
  8
0
  6
CONTINUOUS
 62
             110
  5
2B0
 10
90.0
 20
8.0399694442749023
 30
0.0
 11
90.0
 21
82.28600025177002
 31
0.0
  0
LINE
  8
0
  6
CONTINUOUS
 62
             110
  5
2B1
 10
475.99998474121094
 20
2.5399694442749023
 30
0.0
 11
475.99998474121094
 21
82.28600025177002
 31
0.0
  0
INSERT
  8
0
  6
CONTINUOUS
 62
             110
  5
2B2
  2
_OPEN30
 10
90.0
 20
80.0
 30
0.0
 41
5.54
 42
5.54
 50
180.0
 43
5.54
  0
INSERT
  8
0
  6
CONTINUOUS
 62
             110
  5
2B3
  2
_OPEN30
 10
475.99998474121094
 20
80.0
 30
0.0
 41
5.54
 42
5.54
 43
5.54
  0
TEXT
  8
0
  6
CONTINUOUS
 62
             110
  5
2B4
 10
240.80367989782829
 20
81.0
 30
0.0
 40
5.1999998092651367
  1
536～386（150ストローク）
 41
0.9392264995421839
  7
MX_NOTE_STANDARD
 11
240.80367989782829
 21
83.599999904632568
 31
0.0
 73
               2
  0
POINT
  8
DEFPOINTS
  6
CONTINUOUS
 62
               0
  5
2B5
 10
90.0
 20
5.499969482421875
 30
0.0
  0
POINT
  8
DEFPOINTS
  6
CONTINUOUS
 62
               0
  5
2B6
 10
475.99998474121094
 20
-0.000030517578125
 30
0.0
  0
POINT
  8
DEFPOINTS
  6
CONTINUOUS
 62
               0
  5
2B7
 10
475.99998474121094
 20
80.0
 30
0.0
  0
ENDBLK
  8
0
  6
BYBLOCK
 62
               0
  5
2B8
  0
BLOCK
  8
0
  6
BYBLOCK
 62
               0
  5
2BB
  2
*D7
 70
               1
 10
0.0
 20
0.0
 30
0.0
  3
*D7
  0
LINE
  8
0
  6
CONTINUOUS
 62
             110
  5
2BC
 10
76.86749267578125
 20
153.0
 30
0.0
 11
76.86749267578125
 21
167.0
 31
0.0
  0
LINE
  8
0
  6
CONTINUOUS
 62
             110
  5
2BD
 10
76.86749267578125
 20
167.0
 30
0.0
 11
76.86749267578125
 21
216.63371586799622
 31
0.0
  0
LINE
  8
0
  6
CONTINUOUS
 62
             110
  5
2BE
 10
88.460000038146973
 20
153.0
 30
0.0
 11
74.58149266242981
 21
153.0
 31
0.0
  0
LINE
  8
0
  6
CONTINUOUS
 62
             110
  5
2BF
 10
88.460000038146973
 20
167.0
 30
0.0
 11
74.58149266242981
 21
167.0
 31
0.0
  0
LINE
  8
0
  6
CONTINUOUS
 62
             110
  5
2C0
 10
76.86749267578125
 20
153.0
 30
0.0
 11
76.86749267578125
 21
149.0
 31
0.0
  0
LINE
  8
0
  6
CONTINUOUS
 62
             110
  5
2C1
 10
76.86749267578125
 20
167.0
 30
0.0
 11
76.86749267578125
 21
171.0
 31
0.0
  0
INSERT
  8
0
  6
CONTINUOUS
 62
             110
  5
2C2
  2
_OPEN30
 10
76.86749267578125
 20
153.0
 30
0.0
 41
5.54
 42
5.54
 50
90.0
 43
5.54
  0
INSERT
  8
0
  6
CONTINUOUS
 62
             110
  5
2C3
  2
_OPEN30
 10
76.86749267578125
 20
167.0
 30
0.0
 41
5.54
 42
5.54
 50
270.0
 43
5.54
  0
TEXT
  8
0
  6
CONTINUOUS
 62
             110
  5
2C4
 10
75.86749267578125
 20
193.81048792867236
 30
0.0
 40
5.1999998092651367
  1
%%c14h7
 50
90.0
 41
0.945340822447537
  7
MX_NOTE_STANDARD
 11
73.267492771148682
 21
193.81048792867236
 31
0.0
 73
               2
  0
POINT
  8
DEFPOINTS
  6
CONTINUOUS
 62
               0
  5
2C5
 10
91.0
 20
153.0
 30
0.0
  0
POINT
  8
DEFPOINTS
  6
CONTINUOUS
 62
               0
  5
2C6
 10
91.0
 20
167.0
 30
0.0
  0
POINT
  8
DEFPOINTS
  6
CONTINUOUS
 62
               0
  5
2C7
 10
76.86749267578125
 20
167.0
 30
0.0
  0
ENDBLK
  8
0
  6
BYBLOCK
 62
               0
  5
2C8
  0
BLOCK
  8
0
  6
BYBLOCK
 62
               0
  5
2CB
  2
*D8
 70
               1
 10
0.0
 20
0.0
 30
0.0
  3
*D8
  0
LINE
  8
0
  6
CONTINUOUS
 62
             110
  5
2CC
 10
179.48655700683594
 20
135.69999999999999
 30
0.0
 11
179.48655700683594
 21
184.30000000000001
 31
0.0
  0
LINE
  8
0
  6
CONTINUOUS
 62
             110
  5
2CD
 10
179.48655700683594
 20
184.30000000000001
 30
0.0
 11
179.48655700683594
 21
215.59787244796752
 31
0.0
  0
INSERT
  8
0
  6
CONTINUOUS
 62
             110
  5
2CE
  2
_OPEN30
 10
179.48655700683594
 20
135.69999999999999
 30
0.0
 41
5.54
 42
5.54
 50
270.0
 43
5.54
  0
INSERT
  8
0
  6
CONTINUOUS
 62
             110
  5
2CF
  2
_OPEN30
 10
179.48655700683594
 20
184.30000000000001
 30
0.0
 41
5.54
 42
5.54
 50
90.0
 43
5.54
  0
TEXT
  8
0
  6
CONTINUOUS
 62
             110
  5
2D1
 10
178.48655700683594
 20
190.47795072680179
 30
0.0
 40
5.1999998092651367
  1
%%c48.6
 50
90.0
 41
1.015473873970381
  7
MX_DIMTXSTY_3
 11
175.88655710220337
 21
190.47795072680179
 31
0.0
 73
               2
  0
POINT
  8
DEFPOINTS
  6
CONTINUOUS
 62
               0
  5
2D2
 10
179.48655700683594
 20
135.69999999999999
 30
0.0
  0
POINT
  8
DEFPOINTS
  6
CONTINUOUS
 62
               0
  5
2D3
 10
179.48655700683594
 20
184.30000000000001
 30
0.0
  0
POINT
  8
DEFPOINTS
  6
CONTINUOUS
 62
               0
  5
2D4
 10
179.48655700683594
 20
184.30000000000001
 30
0.0
  0
ENDBLK
  8
0
  6
BYBLOCK
 62
               0
  5
2D5
  0
BLOCK
  8
0
  6
BYBLOCK
 62
               0
  5
2D8
  2
*D9
 70
               1
 10
0.0
 20
0.0
 30
0.0
  3
*D9
  0
LINE
  8
0
  6
CONTINUOUS
 62
             110
  5
2D9
 10
465.0
 20
60.0
 30
0.0
 11
475.99998474121094
 21
60.0
 31
0.0
  0
LINE
  8
0
  6
CONTINUOUS
 62
             110
  5
2DA
 10
465.0
 20
60.0
 30
0.0
 11
461.0
 21
60.0
 31
0.0
  0
LINE
  8
0
  6
CONTINUOUS
 62
             110
  5
2DB
 10
475.99998474121094
 20
60.0
 30
0.0
 11
479.99998474121094
 21
60.0
 31
0.0
  0
INSERT
  8
0
  6
CONTINUOUS
 62
             110
  5
2DC
  2
_OPEN30
 10
465.0
 20
60.0
 30
0.0
 41
5.54
 42
5.54
 43
5.54
  0
INSERT
  8
0
  6
CONTINUOUS
 62
             110
  5
2DD
  2
_OPEN30
 10
475.99998474121094
 20
60.0
 30
0.0
 41
5.54
 42
5.54
 50
180.0
 43
5.54
  0
TEXT
  8
0
  6
CONTINUOUS
 62
             110
  5
2DF
 10
467.43332560857135
 20
61.0
 30
0.0
 40
5.1999998092651367
  1
11
  7
MX_DIMTXSTY_4
 11
467.43332560857135
 21
63.599999904632568
 31
0.0
 73
               2
  0
POINT
  8
DEFPOINTS
  6
CONTINUOUS
 62
               0
  5
2E0
 10
465.0
 20
28.999977111816406
 30
0.0
  0
POINT
  8
DEFPOINTS
  6
CONTINUOUS
 62
               0
  5
2E1
 10
475.99998474121094
 20
-0.0000267028808594
 30
0.0
  0
POINT
  8
DEFPOINTS
  6
CONTINUOUS
 62
               0
  5
2E2
 10
475.99998474121094
 20
60.0
 30
0.0
  0
ENDBLK
  8
0
  6
BYBLOCK
 62
               0
  5
2E3
  0
BLOCK
  8
0
  6
BYBLOCK
 62
               0
  5
2EC
  2
*D10
 70
               1
 10
0.0
 20
0.0
 30
0.0
  3
*D10
  0
LINE
  8
0
  6
CONTINUOUS
 62
             110
  5
2ED
 10
133.3074951171875
 20
152.0
 30
0.0
 11
133.3074951171875
 21
168.0
 31
0.0
  0
LINE
  8
0
  6
CONTINUOUS
 62
             110
  5
2EE
 10
133.3074951171875
 20
168.0
 30
0.0
 11
133.3074951171875
 21
187.72847032546997
 31
0.0
  0
LINE
  8
0
  6
CONTINUOUS
 62
             110
  5
2EF
 10
133.3074951171875
 20
152.0
 30
0.0
 11
133.3074951171875
 21
148.0
 31
0.0
  0
LINE
  8
0
  6
CONTINUOUS
 62
             110
  5
2F0
 10
133.3074951171875
 20
168.0
 30
0.0
 11
133.3074951171875
 21
172.0
 31
0.0
  0
INSERT
  8
0
  6
CONTINUOUS
 62
             110
  5
2F1
  2
_OPEN30
 10
133.3074951171875
 20
152.0
 30
0.0
 41
5.54
 42
5.54
 50
90.0
 43
5.54
  0
INSERT
  8
0
  6
CONTINUOUS
 62
             110
  5
2F2
  2
_OPEN30
 10
133.3074951171875
 20
168.0
 30
0.0
 41
5.54
 42
5.54
 50
270.0
 43
5.54
  0
TEXT
  8
0
  6
CONTINUOUS
 62
             110
  5
2F4
 10
132.3074951171875
 20
173.00982677529029
 30
0.0
 40
5.1999998092651367
  1
%%c16
 50
90.0
 41
1.0169491268580966
  7
MX_DIMTXSTY_5
 11
129.70749521255493
 21
173.00982677529029
 31
0.0
 73
               2
  0
POINT
  8
DEFPOINTS
  6
CONTINUOUS
 62
               0
  5
2F5
 10
140.0
 20
152.0
 30
0.0
  0
POINT
  8
DEFPOINTS
  6
CONTINUOUS
 62
               0
  5
2F6
 10
140.0
 20
168.0
 30
0.0
  0
POINT
  8
DEFPOINTS
  6
CONTINUOUS
 62
               0
  5
2F7
 10
133.3074951171875
 20
168.0
 30
0.0
  0
ENDBLK
  8
0
  6
BYBLOCK
 62
               0
  5
2F8
  0
BLOCK
  8
0
  6
BYBLOCK
 62
               0
  5
30B
  2
*D11
 70
               1
 10
0.0
 20
0.0
 30
0.0
  3
*D11
  0
LINE
  8
0
  6
CONTINUOUS
 62
             110
  5
30C
 10
465.0
 20
70.0
 30
0.0
 11
488.99998474121094
 21
70.0
 31
0.0
  0
LINE
  8
0
  6
CONTINUOUS
 62
             110
  5
30D
 10
488.99998474121094
 20
70.0
 30
0.0
 11
504.25512599945068
 21
70.0
 31
0.0
  0
LINE
  8
0
  6
CONTINUOUS
 62
             110
  5
30E
 10
465.0
 20
30.539969444274902
 30
0.0
 11
465.0
 21
72.28600025177002
 31
0.0
  0
LINE
  8
0
  6
CONTINUOUS
 62
             110
  5
30F
 10
488.99998474121094
 20
29.039969444274902
 30
0.0
 11
488.99998474121094
 21
72.28600025177002
 31
0.0
  0
INSERT
  8
0
  6
CONTINUOUS
 62
             110
  5
310
  2
_OPEN30
 10
465.0
 20
70.0
 30
0.0
 41
5.54
 42
5.54
 50
180.0
 43
5.54
  0
INSERT
  8
0
  6
CONTINUOUS
 62
             110
  5
311
  2
_OPEN30
 10
488.99998474121094
 20
70.0
 30
0.0
 41
5.54
 42
5.54
 43
5.54
  0
TEXT
  8
0
  6
CONTINUOUS
 62
             110
  5
312
 10
494.72179301579791
 20
71.0
 30
0.0
 40
5.1999998092651367
  1
24
  7
MX_NOTE_STANDARD
 11
494.72179301579791
 21
73.599999904632568
 31
0.0
 73
               2
  0
POINT
  8
DEFPOINTS
  6
CONTINUOUS
 62
               0
  5
313
 10
465.0
 20
27.999969482421875
 30
0.0
  0
POINT
  8
DEFPOINTS
  6
CONTINUOUS
 62
               0
  5
314
 10
488.99998474121094
 20
26.499969482421875
 30
0.0
  0
POINT
  8
DEFPOINTS
  6
CONTINUOUS
 62
               0
  5
315
 10
488.99998474121094
 20
70.0
 30
0.0
  0
ENDBLK
  8
0
  6
BYBLOCK
 62
               0
  5
316
  0
BLOCK
  8
0
  6
BYBLOCK
 62
               0
  5
319
  2
*D12
 70
               1
 10
0.0
 20
0.0
 30
0.0
  3
*D12
  0
LINE
  8
0
  6
CONTINUOUS
 62
             110
  5
31A
 10
510.0
 20
21.499972962487391
 30
0.0
 11
510.0
 21
-0.0000270375126126
 31
0.0
  0
LINE
  8
0
  6
CONTINUOUS
 62
             110
  5
31B
 10
497.83414363861084
 20
21.499972962487391
 30
0.0
 11
512.2860107421875
 21
21.499972962487391
 31
0.0
  0
LINE
  8
0
  6
CONTINUOUS
 62
             110
  5
31C
 10
484.41690731048584
 20
-0.0000270375126126
 30
0.0
 11
512.2860107421875
 21
-0.0000270375126126
 31
0.0
  0
INSERT
  8
0
  6
CONTINUOUS
 62
             110
  5
31D
  2
_OPEN30
 10
510.0
 20
21.499972962487391
 30
0.0
 41
5.54
 42
5.54
 50
90.0
 43
5.54
  0
INSERT
  8
0
  6
CONTINUOUS
 62
             110
  5
31E
  2
_OPEN30
 10
510.0
 20
-0.0000270375126126
 30
0.0
 41
5.54
 42
5.54
 50
270.0
 43
5.54
  0
TEXT
  8
0
  6
CONTINUOUS
 62
             110
  5
31F
 10
509.0
 20
2.4569693968338666
 30
0.0
 40
5.1999998092651367
  1
21.5
 50
90.000000000000014
 41
0.9876543111761901
  7
MX_DIMTXSTY_2
 11
506.40000009536743
 21
2.4569693968338662
 31
0.0
 73
               2
  0
POINT
  8
DEFPOINTS
  6
CONTINUOUS
 62
               0
  5
320
 10
495.29414367675781
 20
21.499972962487391
 30
0.0
  0
POINT
  8
DEFPOINTS
  6
CONTINUOUS
 62
               0
  5
321
 10
481.87690734863281
 20
-0.0000270375126126
 30
0.0
  0
POINT
  8
DEFPOINTS
  6
CONTINUOUS
 62
               0
  5
322
 10
510.0
 20
-0.0000270375126126
 30
0.0
  0
ENDBLK
  8
0
  6
BYBLOCK
 62
               0
  5
323
  0
BLOCK
  8
0
  6
BYBLOCK
 62
               0
  5
326
  2
*D13
 70
               1
 10
0.0
 20
0.0
 30
0.0
  3
*D13
  0
LINE
  8
0
  6
CONTINUOUS
 62
             110
  5
327
 10
520.0
 20
30.499972962487391
 30
0.0
 11
520.0
 21
-30.500027037512609
 31
0.0
  0
LINE
  8
0
  6
CONTINUOUS
 62
             110
  5
328
 10
461.54000377655029
 20
30.499972962487391
 30
0.0
 11
522.2860107421875
 21
30.499972962487391
 31
0.0
  0
LINE
  8
0
  6
CONTINUOUS
 62
             110
  5
329
 10
461.54000377655029
 20
-30.500027037512609
 30
0.0
 11
522.2860107421875
 21
-30.500027037512609
 31
0.0
  0
INSERT
  8
0
  6
CONTINUOUS
 62
             110
  5
32A
  2
_OPEN30
 10
520.0
 20
30.499972962487391
 30
0.0
 41
5.54
 42
5.54
 50
90.0
 43
5.54
  0
INSERT
  8
0
  6
CONTINUOUS
 62
             110
  5
32B
  2
_OPEN30
 10
520.0
 20
-30.500027037512609
 30
0.0
 41
5.54
 42
5.54
 50
270.0
 43
5.54
  0
TEXT
  8
0
  6
CONTINUOUS
 62
             110
  5
32C
 10
519.0
 20
-5.6305353452301201
 30
0.0
 40
5.1999998092651367
  1
%%c61
 50
90.000000000000014
 41
1.0169491268580966
  7
MX_DIMTXSTY_5
 11
516.40000009536743
 21
-5.6305353452301201
 31
0.0
 73
               2
  0
POINT
  8
DEFPOINTS
  6
CONTINUOUS
 62
               0
  5
32D
 10
459.00000381469727
 20
30.499972962487391
 30
0.0
  0
POINT
  8
DEFPOINTS
  6
CONTINUOUS
 62
               0
  5
32E
 10
459.00000381469727
 20
-30.500027037512609
 30
0.0
  0
POINT
  8
DEFPOINTS
  6
CONTINUOUS
 62
               0
  5
32F
 10
520.0
 20
-30.500027037512609
 30
0.0
  0
ENDBLK
  8
0
  6
BYBLOCK
 62
               0
  5
330
  0
ENDSEC
  0
SECTION
  2
ENTITIES
  0
INSERT
  8
LY_3
  6
BYBLOCK
  5
2B
  2
*U0
 10
147.4097105026226
 20
-15.000349307909119
 30
0.0
 41
5.54
 42
5.54
 50
51.933998315571458
 43
5.54
  0
INSERT
  8
LY_3
  6
BYBLOCK
  5
2C
  2
*U0
 10
151.81522457430435
 20
-11.713937812259474
 30
0.0
 41
5.54
 42
5.54
 50
126.35911880545616
 43
5.54
  0
INSERT
  8
LY_3
  6
BYBLOCK
  5
2D
  2
*U0
 10
166.88937561264129
 20
15.94165347321109
 30
0.0
 41
5.54
 42
5.54
 50
235.8407621453205
 43
5.54
  0
INSERT
  8
LY_3
  6
BYBLOCK
  5
2E
  2
*U0
 10
148.75000762939453
 20
216.75
 30
0.0
 41
5.54
 42
5.54
 50
229.66687754231882
 43
5.54
  0
INSERT
  8
LY_3
  6
BYBLOCK
  5
2F
  2
*U0
 10
292.25
 20
184.30000000000001
 30
0.0
 41
5.54
 42
5.54
 50
284.9120343035342
 43
5.54
  0
INSERT
  8
LY_3
  6
BYBLOCK
  5
30
  2
*U0
 10
322.40813685720696
 20
154.28365229545579
 30
0.0
 41
5.54
 42
5.54
 50
120.21132380541893
 43
5.54
  0
INSERT
  8
LY_3
  6
BYBLOCK
  5
31
  2
*U0
 10
399.81561236251946
 20
161.40662135945786
 30
0.0
 41
5.54
 42
5.54
 50
286.11322350664739
 43
5.54
  0
INSERT
  8
LY_3
  6
BYBLOCK
  5
32
  2
*U0
 10
449.0
 20
190.5
 30
0.0
 41
5.54
 42
5.54
 50
295.68814343564731
 43
5.54
  0
INSERT
  8
LY_3
  6
BYBLOCK
  5
33
  2
*U0
 10
421.67513578581344
 20
135.08364742435879
 30
0.0
 41
5.54
 42
5.54
 50
118.44292512102059
 43
5.54
  0
INSERT
  8
LY_3
  6
BYBLOCK
  5
34
  2
*U0
 10
476.99999237060547
 20
165.0
 30
0.0
 41
5.54
 42
5.54
 50
249.62355381082452
 43
5.54
  0
LINE
  8
LY_3
  6
CENTER
 62
             110
  5
36
 10
88.0
 20
-0.0000270375126092
 30
0.0
 11
481.87690734863281
 21
-0.0000270375126092
 31
0.0
  0
LINE
  8
LY_3
  6
CONTINUOUS
 62
               3
  5
37
 10
90.0
 20
5.4999729624873908
 30
0.0
 11
90.0
 21
-6.0000270375126092
 31
0.0
  0
LINE
  8
LY_3
  6
CONTINUOUS
 62
               3
  5
38
 10
125.0
 20
6.9999729624873908
 30
0.0
 11
125.0
 21
-7.0000270375126092
 31
0.0
  0
LINE
  8
LY_3
  6
CONTINUOUS
 62
               3
  5
39
 10
125.99998474121094
 20
7.9999729624873908
 30
0.0
 11
198.53229331970215
 21
7.9999729624873908
 31
0.0
  0
LINE
  8
LY_3
  6
CONTINUOUS
 62
               3
  5
3A
 10
126.0
 20
-8.0000270375126092
 30
0.0
 11
191.01882171630859
 21
-8.0000270375126092
 31
0.0
  0
LINE
  8
LY_3
  6
CONTINUOUS
 62
               3
  5
3B
 10
91.0
 20
-7.0000270375126092
 30
0.0
 11
125.0
 21
-7.0000270375126092
 31
0.0
  0
LINE
  8
LY_3
  6
CONTINUOUS
 62
               3
  5
3C
 10
90.000097683215699
 20
-5.999931918454422
 30
0.0
 11
91.000093350008683
 21
-6.9999275852474057
 31
0.0
  0
LINE
  8
LY_3
  6
CONTINUOUS
 62
               3
  5
3D
 10
125.00003924730663
 20
6.999960630330861
 30
0.0
 11
126.00002572612357
 21
7.9999546955068581
 31
0.0
  0
LINE
  8
LY_3
  6
CONTINUOUS
 62
               3
  5
3E
 10
125.00003773251092
 20
-6.9999977176021275
 30
0.0
 11
126.00003879410042
 21
-7.9999987791916283
 31
0.0
  0
LINE
  8
LY_3
  6
CONTINUOUS
 62
               3
  5
3F
 10
91.0
 20
5.4999729624873908
 30
0.0
 11
91.0
 21
-7.0000270375126092
 31
0.0
  0
LINE
  8
LY_3
  6
CONTINUOUS
 62
               3
  5
40
 10
90.0
 20
5.4999729624873908
 30
0.0
 11
125.0
 21
5.4999729624873908
 31
0.0
  0
LINE
  8
LY_3
  6
CONTINUOUS
 62
               3
  5
41
 10
126.00001525878906
 20
7.9999729624873908
 30
0.0
 11
126.00001525878906
 21
-8.0000270375126092
 31
0.0
  0
LINE
  8
LY_3
  6
CONTINUOUS
 62
               3
  5
42
 10
140.80000305175781
 20
56.749976777184656
 30
0.0
 11
156.70001220703125
 21
56.749976777184656
 31
0.0
  0
LINE
  8
LY_3
  6
CONTINUOUS
 62
               3
  5
43
 10
140.79998779296875
 20
-56.750027037512609
 30
0.0
 11
156.69999694824219
 21
-56.750027037512609
 31
0.0
  0
LINE
  8
LY_3
  6
CONTINUOUS
 62
               3
  5
44
 10
140.59999084472656
 20
-38.600017882239172
 30
0.0
 11
140.59999084472656
 21
-8.0000270375126092
 31
0.0
  0
LINE
  8
LY_3
  6
CONTINUOUS
 62
               3
  5
45
 10
141.19999694824219
 20
-38.547527647864172
 30
0.0
 11
141.19999694824219
 21
-31.900020933996984
 31
0.0
  0
LINE
  8
LY_3
  6
CONTINUOUS
 62
               3
  5
46
 10
145.5
 20
-31.900020933996984
 30
0.0
 11
145.5
 21
-8.0000270375126092
 31
0.0
  0
LINE
  8
LY_3
  6
CONTINUOUS
 62
               3
  5
47
 10
141.19999694824219
 20
-31.900020933996984
 30
0.0
 11
145.49998474121094
 21
-31.900020933996984
 31
0.0
  0
LINE
  8
LY_3
  6
CONTINUOUS
 62
               3
  5
48
 10
141.19999694824219
 20
31.899974488366297
 30
0.0
 11
145.50001525878906
 21
31.899974488366297
 31
0.0
  0
LINE
  8
LY_3
  6
CONTINUOUS
 62
               3
  5
49
 10
140.80005448039174
 20
-56.750005247481113
 30
0.0
 11
140.00005484494932
 21
-55.950005342298937
 31
0.0
  0
LINE
  8
LY_3
  6
CONTINUOUS
 62
               3
  5
4A
 10
139.99985522064367
 20
55.950134489309448
 30
0.0
 11
140.79984973102842
 21
56.750128729956259
 31
0.0
  0
LINE
  8
LY_3
  6
CONTINUOUS
 62
               3
  5
4B
 10
140.00001525878906
 20
41.84997525130575
 30
0.0
 11
157.50000762939453
 21
41.84997525130575
 31
0.0
  0
LINE
  8
LY_3
  6
CONTINUOUS
 62
               3
  5
4C
 10
140.00001525878906
 20
50.34997525130575
 30
0.0
 11
157.50000762939453
 21
50.34997525130575
 31
0.0
  0
LINE
  8
LY_3
  6
CONTINUOUS
 62
               3
  5
4D
 10
157.49996552042808
 20
55.949954092536018
 30
0.0
 11
156.69996237838109
 21
56.749961348142051
 31
0.0
  0
LINE
  8
LY_3
  6
CONTINUOUS
 62
               3
  5
4E
 10
156.70000068783179
 20
-56.74999983581688
 30
0.0
 11
157.50000598781139
 21
-55.949994805578854
 31
0.0
  0
LINE
  8
LY_3
  6
CENTER
 62
             110
  5
4F
 10
132.74998474121094
 20
-46.100017882239172
 30
0.0
 11
164.74999237060547
 21
-46.100017882239172
 31
0.0
  0
LINE
  8
LY_3
  6
CENTER
 62
             110
  5
50
 10
132.75001525878906
 20
46.09997525130575
 30
0.0
 11
164.75000762939453
 21
46.09997525130575
 31
0.0
  0
LINE
  8
LY_3
  6
CONTINUOUS
 62
               3
  5
51
 10
140.60018306810093
 20
-38.599959672163322
 30
0.0
 11
141.46078820503863
 21
-40.964454922554296
 31
0.0
  0
LINE
  8
LY_3
  6
CONTINUOUS
 62
               3
  5
52
 10
140.599986301748
 20
-38.600044120406949
 30
0.0
 11
141.19998925116511
 21
-38.547549935643531
 31
0.0
  0
LINE
  8
LY_3
  6
CONTINUOUS
 62
               3
  5
53
 10
140.6001871895055
 20
38.599913259404047
 30
0.0
 11
141.46079315133193
 21
40.964408209835483
 31
0.0
  0
LINE
  8
LY_3
  6
CONTINUOUS
 62
               3
  5
54
 10
140.60000083417893
 20
38.599996949746298
 30
0.0
 11
141.20000374769646
 21
38.547502585485006
 31
0.0
  0
LINE
  8
LY_3
  6
CONTINUOUS
 62
               3
  5
55
 10
140.0
 20
-55.950023985754797
 30
0.0
 11
140.0
 21
-8.0000270375126092
 31
0.0
  0
LINE
  8
LY_3
  6
CONTINUOUS
 62
               3
  5
56
 10
141.19999694824219
 20
-31.900020933996984
 30
0.0
 11
141.19999694824219
 21
-8.0000270375126092
 31
0.0
  0
LINE
  8
LY_3
  6
CONTINUOUS
 62
               3
  5
57
 10
141.19999694824219
 20
31.899974488366297
 30
0.0
 11
141.19999694824219
 21
38.54748501693075
 31
0.0
  0
LINE
  8
LY_3
  6
CONTINUOUS
 62
               3
  5
58
 10
157.5
 20
-55.949993468176672
 30
0.0
 11
157.5
 21
-35.000027037512609
 31
0.0
  0
LINE
  8
LY_3
  6
CONTINUOUS
 62
               3
  5
59
 10
140.00001525878906
 20
41.299976014245203
 30
0.0
 11
141.22569274902344
 21
41.299976014245203
 31
0.0
  0
LINE
  8
LY_3
  6
CONTINUOUS
 62
               3
  5
5A
 10
139.99998474121094
 20
-41.30002245987589
 30
0.0
 11
141.22567749023437
 21
-41.30002245987589
 31
0.0
  0
LINE
  8
LY_3
  6
CONTINUOUS
 62
               3
  5
5B
 10
153.0
 20
12.999972962487391
 30
0.0
 11
154.5
 21
12.999972962487391
 31
0.0
  0
LINE
  8
LY_3
  6
CONTINUOUS
 62
               3
  5
5C
 10
148.0
 20
15.69997754012411
 30
0.0
 11
148.15000915527344
 21
15.69997754012411
 31
0.0
  0
LINE
  8
LY_3
  6
CONTINUOUS
 62
               3
  5
5D
 10
145.5
 20
14.999972962487391
 30
0.0
 11
146.80000305175781
 21
14.999972962487391
 31
0.0
  0
LINE
  8
LY_3
  6
CONTINUOUS
 62
               3
  5
5E
 10
148.15000915527344
 20
14.999972962487391
 30
0.0
 11
148.15000915527344
 21
15.69997754012411
 31
0.0
  0
LINE
  8
LY_3
  6
CONTINUOUS
 62
               3
  5
5F
 10
145.5
 20
-15.000027037512609
 30
0.0
 11
146.80000305175781
 21
-15.000027037512609
 31
0.0
  0
LINE
  8
LY_3
  6
CONTINUOUS
 62
               3
  5
60
 10
148.0
 20
-15.700023985754797
 30
0.0
 11
148.15000915527344
 21
-15.700023985754797
 31
0.0
  0
LINE
  8
LY_3
  6
CONTINUOUS
 62
               3
  5
61
 10
148.15000915527344
 20
-15.000027037512609
 30
0.0
 11
148.15000915527344
 21
-15.700023985754797
 31
0.0
  0
LINE
  8
LY_3
  6
CONTINUOUS
 62
               3
  5
62
 10
153.0
 20
-13.000027037512609
 30
0.0
 11
154.5
 21
-13.000027037512609
 31
0.0
  0
LINE
  8
LY_3
  6
CONTINUOUS
 62
               3
  5
63
 10
140.0
 20
7.9999729624873908
 30
0.0
 11
140.0
 21
55.94997754012411
 31
0.0
  0
LINE
  8
LY_3
  6
CONTINUOUS
 62
               3
  5
64
 10
140.59999084472656
 20
7.9999729624873908
 30
0.0
 11
140.59999084472656
 21
38.59997525130575
 31
0.0
  0
LINE
  8
LY_3
  6
CONTINUOUS
 62
               3
  5
65
 10
141.19999694824219
 20
7.9999729624873908
 30
0.0
 11
141.19999694824219
 21
31.899974488366297
 31
0.0
  0
LINE
  8
LY_3
  6
CONTINUOUS
 62
               3
  5
66
 10
145.5
 20
7.9999729624873908
 30
0.0
 11
145.5
 21
31.899974488366297
 31
0.0
  0
LINE
  8
LY_3
  6
CONTINUOUS
 62
               3
  5
67
 10
157.5
 20
34.999972962487391
 30
0.0
 11
157.5
 21
55.9500118723995
 31
0.0
  0
LINE
  8
LY_3
  6
CONTINUOUS
 62
               3
  5
68
 10
146.80000305175781
 20
15.69997754012411
 30
0.0
 11
146.80000305175781
 21
7.9999729624873908
 31
0.0
  0
LINE
  8
LY_3
  6
CONTINUOUS
 62
               3
  5
69
 10
146.80000305175781
 20
15.69997754012411
 30
0.0
 11
148.0
 21
15.69997754012411
 31
0.0
  0
LINE
  8
LY_3
  6
CONTINUOUS
 62
               3
  5
6A
 10
148.0
 20
15.69997754012411
 30
0.0
 11
148.0
 21
7.9999729624873908
 31
0.0
  0
LINE
  8
LY_3
  6
CONTINUOUS
 62
               3
  5
6B
 10
148.0
 20
14.999972962487391
 30
0.0
 11
148.0
 21
7.9999729624873908
 31
0.0
  0
LINE
  8
LY_3
  6
CONTINUOUS
 62
               3
  5
6C
 10
148.0
 20
14.999972962487391
 30
0.0
 11
153.0
 21
14.999972962487391
 31
0.0
  0
LINE
  8
LY_3
  6
CONTINUOUS
 62
               3
  5
6D
 10
153.0
 20
14.999972962487391
 30
0.0
 11
153.0
 21
7.9999729624873908
 31
0.0
  0
LINE
  8
LY_3
  6
CONTINUOUS
 62
             110
  5
6E
 10
153.00001508384685
 20
14.999977063506094
 30
0.0
 11
148.2455085194988
 21
8.3436681659570695
 31
0.0
  0
LINE
  8
LY_3
  6
CONTINUOUS
 62
             110
  5
6F
 10
148.00002194395847
 20
14.999979159787927
 30
0.0
 11
152.75451963931528
 21
8.3436826788260987
 31
0.0
  0
LINE
  8
LY_3
  6
CONTINUOUS
 62
               3
  5
70
 10
149.0
 20
7.9999729624873908
 30
0.0
 11
152.0
 21
7.9999729624873908
 31
0.0
  0
LINE
  8
LY_3
  6
CONTINUOUS
 62
               3
  5
71
 10
146.80000305175781
 20
-8.0000270375126092
 30
0.0
 11
146.80000305175781
 21
-15.700023985754797
 31
0.0
  0
LINE
  8
LY_3
  6
CONTINUOUS
 62
               3
  5
72
 10
148.0
 20
-8.0000270375126092
 30
0.0
 11
148.0
 21
-15.000027037512609
 31
0.0
  0
LINE
  8
LY_3
  6
CONTINUOUS
 62
               3
  5
73
 10
146.80000305175781
 20
-15.700023985754797
 30
0.0
 11
148.0
 21
-15.700023985754797
 31
0.0
  0
LINE
  8
LY_3
  6
CONTINUOUS
 62
               3
  5
74
 10
148.0
 20
-8.0000270375126092
 30
0.0
 11
148.0
 21
-15.700023985754797
 31
0.0
  0
LINE
  8
LY_3
  6
CONTINUOUS
 62
               3
  5
75
 10
148.0
 20
-15.000027037512609
 30
0.0
 11
153.0
 21
-15.000027037512609
 31
0.0
  0
LINE
  8
LY_3
  6
CONTINUOUS
 62
             110
  5
76
 10
147.99999695836084
 20
-15.000052790030566
 30
0.0
 11
152.75451239170013
 21
-8.3437314758943444
 31
0.0
  0
LINE
  8
LY_3
  6
CONTINUOUS
 62
               3
  5
77
 10
149.0
 20
-8.0000270375126092
 30
0.0
 11
152.0
 21
-8.0000270375126092
 31
0.0
  0
LINE
  8
LY_3
  6
CONTINUOUS
 62
             110
  5
78
 10
148.24551876039777
 20
-8.3436866975935118
 30
0.0
 11
153.00001423850676
 21
-14.999980074408541
 31
0.0
  0
LINE
  8
LY_3
  6
CONTINUOUS
 62
               3
  5
79
 10
153.0
 20
-8.0000270375126092
 30
0.0
 11
153.0
 21
-15.000027037512609
 31
0.0
  0
LINE
  8
LY_3
  6
CONTINUOUS
 62
               3
  5
7A
 10
154.5
 20
-8.0000270375126092
 30
0.0
 11
154.5
 21
-14.000027037512609
 31
0.0
  0
LINE
  8
LY_3
  6
CONTINUOUS
 62
               3
  5
7B
 10
154.5
 20
-14.000027037512609
 30
0.0
 11
155.5
 21
-14.000027037512609
 31
0.0
  0
LINE
  8
LY_3
  6
CONTINUOUS
 62
               3
  5
7C
 10
155.5
 20
-14.000027037512609
 30
0.0
 11
155.5
 21
-18.000027037512609
 31
0.0
  0
LINE
  8
LY_3
  6
CONTINUOUS
 62
               3
  5
7D
 10
155.5
 20
-18.000027037512609
 30
0.0
 11
156.69999694824219
 21
-18.000027037512609
 31
0.0
  0
LINE
  8
LY_3
  6
CONTINUOUS
 62
               3
  5
7E
 10
158.69999694824219
 20
-18.000027037512609
 30
0.0
 11
159.5
 21
-18.000027037512609
 31
0.0
  0
LINE
  8
LY_3
  6
CONTINUOUS
 62
               3
  5
7F
 10
159.5
 20
-8.0000270375126092
 30
0.0
 11
159.5
 21
-18.000027037512609
 31
0.0
  0
LINE
  8
LY_3
  6
CONTINUOUS
 62
               3
  5
80
 10
154.5
 20
-12.000027037512609
 30
0.0
 11
159.5
 21
-12.000027037512609
 31
0.0
  0
LINE
  8
LY_3
  6
CONTINUOUS
 62
               3
  5
81
 10
154.5
 20
13.999972962487391
 30
0.0
 11
154.5
 21
7.9999729624873908
 31
0.0
  0
LINE
  8
LY_3
  6
CONTINUOUS
 62
               3
  5
82
 10
154.5
 20
11.999972962487391
 30
0.0
 11
159.5
 21
11.999972962487391
 31
0.0
  0
LINE
  8
LY_3
  6
CONTINUOUS
 62
               3
  5
83
 10
154.5
 20
13.999972962487391
 30
0.0
 11
155.5
 21
13.999972962487391
 31
0.0
  0
LINE
  8
LY_3
  6
CONTINUOUS
 62
               3
  5
84
 10
155.5
 20
17.999972962487391
 30
0.0
 11
155.5
 21
13.999972962487391
 31
0.0
  0
LINE
  8
LY_3
  6
CONTINUOUS
 62
               3
  5
85
 10
155.5
 20
17.999972962487391
 30
0.0
 11
156.69999694824219
 21
17.999972962487391
 31
0.0
  0
LINE
  8
LY_3
  6
CONTINUOUS
 62
               3
  5
86
 10
158.69999694824219
 20
17.999972962487391
 30
0.0
 11
159.5
 21
17.999972962487391
 31
0.0
  0
LINE
  8
LY_3
  6
CONTINUOUS
 62
               3
  5
87
 10
159.5
 20
17.999972962487391
 30
0.0
 11
159.5
 21
7.9999729624873908
 31
0.0
  0
LINE
  8
LY_3
  6
CONTINUOUS
 62
               3
  5
88
 10
155.5
 20
23.999976777184656
 30
0.0
 11
155.5
 21
23.499972962487391
 31
0.0
  0
LINE
  8
LY_3
  6
CONTINUOUS
 62
               3
  5
89
 10
155.5
 20
-23.500019408118078
 30
0.0
 11
155.5
 21
-24.000027037512609
 31
0.0
  0
LINE
  8
LY_3
  6
CONTINUOUS
 62
               3
  5
8A
 10
155.5
 20
28.399974488366297
 30
0.0
 11
155.5
 21
17.999972962487391
 31
0.0
  0
LINE
  8
LY_3
  6
CONTINUOUS
 62
               3
  5
8B
 10
158.99998474121094
 20
24.299974869836028
 30
0.0
 11
419.0
 21
24.299974869836028
 31
0.0
  0
LINE
  8
LY_3
  6
CONTINUOUS
 62
               3
  5
8C
 10
158.99998474121094
 20
21.299976014245203
 30
0.0
 11
195.01307106018066
 21
21.299976014245203
 31
0.0
  0
LINE
  8
LY_3
  6
CONTINUOUS
 62
               3
  5
8D
 10
155.5
 20
-28.400020933996984
 30
0.0
 11
155.5
 21
-18.000027037512609
 31
0.0
  0
LINE
  8
LY_3
  6
CONTINUOUS
 62
               3
  5
8E
 10
158.99998474121094
 20
-24.300025130163981
 30
0.0
 11
419.0
 21
-24.300025130163981
 31
0.0
  0
LINE
  8
LY_3
  6
CONTINUOUS
 62
               3
  5
8F
 10
158.99998474121094
 20
-21.30002245987589
 30
0.0
 11
192.98970985412598
 21
-21.30002245987589
 31
0.0
  0
LINE
  8
LY_3
  6
CENTER
 62
             110
  5
90
 10
0.0
 20
64.000007629394531
 30
0.0
 11
0.0
 21
-64.0
 31
0.0
  0
LINE
  8
LY_3
  6
CENTER
 62
             110
  5
91
 10
-64.0
 20
0.0
 30
0.0
 11
63.999984741210938
 21
0.0
 31
0.0
  0
LINE
  8
LY_3
  6
CENTER
 62
             110
  5
92
 10
33.351670730869955
 20
13.815617132482657
 30
0.0
 11
51.829235004563088
 21
21.469268612336236
 31
0.0
  0
LINE
  8
LY_3
  6
CENTER
 62
             110
  5
93
 10
13.815278291511049
 20
33.351866500696815
 30
0.0
 11
21.468952653631504
 21
51.829470682055216
 31
0.0
  0
LINE
  8
LY_3
  6
CENTER
 62
             110
  5
94
 10
-13.815119021886858
 20
33.351975673131165
 30
0.0
 11
-21.468775270104743
 21
51.829538754733221
 31
0.0
  0
LINE
  8
LY_3
  6
CENTER
 62
             110
  5
95
 10
-33.352299484055493
 20
13.814394510836337
 30
0.0
 11
-51.829847276283999
 21
21.46804670790425
 31
0.0
  0
LINE
  8
LY_3
  6
CENTER
 62
             110
  5
96
 10
-33.352128124197179
 20
-13.81463818304087
 30
0.0
 11
-51.829719400366002
 21
-21.468304917736305
 31
0.0
  0
LINE
  8
LY_3
  6
CENTER
 62
             110
  5
97
 10
-13.816157128456325
 20
-33.351550634847626
 30
0.0
 11
-21.469828631523342
 21
-51.829140718923554
 31
0.0
  0
LINE
  8
LY_3
  6
CENTER
 62
             110
  5
98
 10
13.812624715367036
 20
-33.352965472031428
 30
0.0
 11
21.466290026878312
 21
-51.830558821373415
 31
0.0
  0
LINE
  8
LY_3
  6
CENTER
 62
             110
  5
99
 10
33.351320081027552
 20
-13.816477348437729
 30
0.0
 11
51.828908973010584
 21
-21.470150043597641
 31
0.0
  0
LINE
  8
LY_3
  6
CONTINUOUS
 62
               3
  5
9A
 10
1.0
 20
56.741191864013672
 30
0.0
 11
1.0
 21
41.287891387939453
 31
0.0
  0
LINE
  8
LY_3
  6
CONTINUOUS
 62
               3
  5
9B
 10
-1.0
 20
56.741191864013672
 30
0.0
 11
-1.0
 21
41.287891387939453
 31
0.0
  0
LINE
  8
LY_3
  6
CONTINUOUS
 62
               3
  5
9C
 10
-1.0
 20
-41.287887573242188
 30
0.0
 11
-1.0
 21
-56.741180419921875
 31
0.0
  0
LINE
  8
LY_3
  6
CONTINUOUS
 62
               3
  5
9D
 10
1.0
 20
-41.287887573242188
 30
0.0
 11
1.0
 21
-56.741180419921875
 31
0.0
  0
LINE
  8
LY_3
  6
CONTINUOUS
 62
               3
  5
9E
 10
-4.3737549166844474
 20
-14.348189461266884
 30
0.0
 11
-3.29311043424741
 21
-12.0307405022495
 31
0.0
  0
LINE
  8
LY_3
  6
CONTINUOUS
 62
               3
  5
9F
 10
3.2927583964420819
 20
-12.030866849124095
 30
0.0
 11
4.3734028788791193
 21
-14.348315808141479
 31
0.0
  0
LINE
  8
LY_3
  6
CONTINUOUS
 62
               3
  5
A0
 10
-4.33013916015625
 20
5.5
 30
0.0
 11
4.33013916015625
 21
5.5
 31
0.0
  0
LINE
  8
LY_3
  6
CENTER
 62
             110
  5
A1
 10
88.0
 20
160.0
 30
0.0
 11
507.93540954589844
 21
160.0
 31
0.0
  0
LINE
  8
LY_3
  6
CONTINUOUS
 62
               3
  5
A2
 10
90.0
 20
166.0
 30
0.0
 11
90.0
 21
154.0
 31
0.0
  0
LINE
  8
LY_3
  6
CONTINUOUS
 62
               3
  5
A3
 10
125.0
 20
167.0
 30
0.0
 11
125.0
 21
153.0
 31
0.0
  0
LINE
  8
LY_3
  6
CONTINUOUS
 62
               3
  5
A4
 10
91.0
 20
153.0
 30
0.0
 11
125.0
 21
153.0
 31
0.0
  0
LINE
  8
LY_3
  6
CONTINUOUS
 62
               3
  5
A5
 10
90.000027550860977
 20
154.00001799490201
 30
0.0
 11
91.000028612450478
 21
153.00001693331251
 31
0.0
  0
LINE
  8
LY_3
  6
CONTINUOUS
 62
               3
  5
A6
 10
125.00008566978158
 20
166.99992403408578
 30
0.0
 11
126.00007754337457
 21
167.99992349407876
 31
0.0
  0
LINE
  8
LY_3
  6
CONTINUOUS
 62
               3
  5
A7
 10
124.99999187674052
 20
153.0000304203038
 30
0.0
 11
125.99999293833002
 21
152.0000293587143
 31
0.0
  0
LINE
  8
LY_3
  6
CONTINUOUS
 62
               3
  5
A8
 10
91.0
 20
167.0
 30
0.0
 11
91.0
 21
153.0
 31
0.0
  0
LINE
  8
LY_3
  6
CONTINUOUS
 62
               3
  5
A9
 10
126.00001525878906
 20
168.0
 30
0.0
 11
126.00001525878906
 21
152.0
 31
0.0
  0
LINE
  8
LY_3
  6
CONTINUOUS
 62
               3
  5
AA
 10
140.80000305175781
 20
216.75
 30
0.0
 11
156.70001220703125
 21
216.75
 31
0.0
  0
LINE
  8
LY_3
  6
CONTINUOUS
 62
               3
  5
AB
 10
140.79998779296875
 20
103.25
 30
0.0
 11
156.69999694824219
 21
103.25
 31
0.0
  0
LINE
  8
LY_3
  6
CONTINUOUS
 62
               3
  5
AC
 10
140.80003299590453
 20
103.24996624507139
 30
0.0
 11
140.00003875525772
 21
104.04996075545614
 31
0.0
  0
LINE
  8
LY_3
  6
CONTINUOUS
 62
               3
  5
AD
 10
139.99964222092967
 20
215.95039999830442
 30
0.0
 11
140.79963673131442
 21
216.75039423895123
 31
0.0
  0
LINE
  8
LY_3
  6
CONTINUOUS
 62
               3
  5
AE
 10
157.50004653814631
 20
215.95006452604503
 30
0.0
 11
156.70004339609932
 21
216.75007178165106
 31
0.0
  0
LINE
  8
LY_3
  6
CONTINUOUS
 62
               3
  5
AF
 10
156.70004394090552
 20
103.24998784111426
 30
0.0
 11
157.50004924088512
 21
104.04999287135229
 31
0.0
  0
LINE
  8
LY_3
  6
CENTER
 62
             110
  5
B0
 10
132.74998474121094
 20
113.90000915527344
 30
0.0
 11
164.74999237060547
 21
113.90000915527344
 31
0.0
  0
LINE
  8
LY_3
  6
CENTER
 62
             110
  5
B1
 10
132.75001525878906
 20
206.09999084472656
 30
0.0
 11
164.75000762939453
 21
206.09999084472656
 31
0.0
  0
LINE
  8
LY_3
  6
CONTINUOUS
 62
               3
  5
B2
 10
140.0
 20
104.04998779296875
 30
0.0
 11
140.0
 21
215.94999694824219
 31
0.0
  0
LINE
  8
LY_3
  6
CONTINUOUS
 62
               3
  5
B3
 10
157.5
 20
104.04994964599609
 30
0.0
 11
157.5
 21
215.95002746582031
 31
0.0
  0
LINE
  8
LY_3
  6
CONTINUOUS
 62
               3
  5
B4
 10
165.5
 20
184.30000000000001
 30
0.0
 11
419.0
 21
184.30000000000001
 31
0.0
  0
LINE
  8
LY_3
  6
CONTINUOUS
 62
               3
  5
B5
 10
165.5
 20
135.69999999999999
 30
0.0
 11
419.0
 21
135.69999999999999
 31
0.0
  0
LINE
  8
LY_3
  6
CONTINUOUS
 62
               3
  5
B6
 10
431.0
 20
187.0
 30
0.0
 11
432.0
 21
187.0
 31
0.0
  0
LINE
  8
LY_3
  6
CONTINUOUS
 62
               3
  5
B7
 10
419.0
 20
185.95013427734375
 30
0.0
 11
419.0
 21
134.04989624023437
 31
0.0
  0
LINE
  8
LY_3
  6
CONTINUOUS
 62
               3
  5
B8
 10
419.00003509167516
 20
185.95024712248846
 30
0.0
 11
431.00003471309981
 21
187.00011095886498
 31
0.0
  0
LINE
  8
LY_3
  6
CONTINUOUS
 62
               3
  5
B9
 10
419.00002802397785
 20
134.04972130805163
 30
0.0
 11
431.0000276454025
 21
132.99985738192663
 31
0.0
  0
LINE
  8
LY_3
  6
CONTINUOUS
 62
               3
  5
BA
 10
431.0
 20
133.0
 30
0.0
 11
432.0
 21
133.0
 31
0.0
  0
LINE
  8
LY_3
  6
CONTINUOUS
 62
               3
  5
BB
 10
399.0
 20
164.0
 30
0.0
 11
399.0
 21
156.0
 31
0.0
  0
LINE
  8
LY_3
  6
CONTINUOUS
 62
               3
  5
BC
 10
401.0
 20
164.0
 30
0.0
 11
401.0
 21
156.0
 31
0.0
  0
LINE
  8
LY_3
  6
CONTINUOUS
 62
             110
  5
BD
 10
400.0
 20
164.0
 30
0.0
 11
400.0
 21
156.0
 31
0.0
  0
LINE
  8
LY_3
  6
CONTINUOUS
 62
               3
  5
BE
 10
244.0
 20
156.0
 30
0.0
 11
406.0
 21
156.0
 31
0.0
  0
LINE
  8
LY_3
  6
CONTINUOUS
 62
               3
  5
BF
 10
244.0
 20
164.0
 30
0.0
 11
406.0
 21
164.0
 31
0.0
  0
LINE
  8
LY_3
  6
CONTINUOUS
 62
               3
  5
C0
 10
126.00001525878906
 20
168.0
 30
0.0
 11
140.0
 21
168.0
 31
0.0
  0
LINE
  8
LY_3
  6
CONTINUOUS
 62
               3
  5
C1
 10
126.00001525878906
 20
152.0
 30
0.0
 11
140.0
 21
152.0
 31
0.0
  0
LINE
  8
LY_3
  6
CONTINUOUS
 62
               3
  5
C2
 10
91.0
 20
167.0
 30
0.0
 11
125.0
 21
167.0
 31
0.0
  0
LINE
  8
LY_3
  6
CONTINUOUS
 62
               3
  5
C3
 10
90.000121959800026
 20
165.99986619268225
 30
0.0
 11
91.00011762659301
 21
166.99986185947523
 31
0.0
  0
LINE
  8
LY_3
  6
CONTINUOUS
 62
               3
  5
C4
 10
91.0
 20
154.0
 30
0.0
 11
125.0
 21
154.0
 31
0.0
  0
LINE
  8
LY_3
  6
CONTINUOUS
 62
               3
  5
C5
 10
91.0
 20
166.0
 30
0.0
 11
125.0
 21
166.0
 31
0.0
  0
LINE
  8
LY_3
  6
CONTINUOUS
 62
             110
  5
C6
 10
90.999937189238608
 20
154.00019091385957
 30
0.0
 11
124.99993703000246
 21
166.00019047840988
 31
0.0
  0
LINE
  8
LY_3
  6
CONTINUOUS
 62
             110
  5
C7
 10
125.0000189284051
 20
154.00005712739812
 30
0.0
 11
91.000019087641249
 21
166.00005669194843
 31
0.0
  0
LINE
  8
LY_3
  6
CONTINUOUS
 62
             110
  5
C8
 10
400.0
 20
156.0
 30
0.0
 11
400.0
 21
152.0
 31
0.0
  0
LINE
  8
LY_3
  6
CONTINUOUS
 62
             110
  5
C9
 10
399.0
 20
156.0
 30
0.0
 11
399.0
 21
154.0
 31
0.0
  0
LINE
  8
LY_3
  6
CONTINUOUS
 62
             110
  5
CA
 10
398.0
 20
156.0
 30
0.0
 11
398.0
 21
154.0
 31
0.0
  0
LINE
  8
LY_3
  6
CONTINUOUS
 62
             110
  5
CB
 10
397.0
 20
156.0
 30
0.0
 11
397.0
 21
154.0
 31
0.0
  0
LINE
  8
LY_3
  6
CONTINUOUS
 62
             110
  5
CC
 10
396.0
 20
156.0
 30
0.0
 11
396.0
 21
154.0
 31
0.0
  0
LINE
  8
LY_3
  6
CONTINUOUS
 62
             110
  5
CD
 10
395.0
 20
156.0
 30
0.0
 11
395.0
 21
153.0
 31
0.0
  0
LINE
  8
LY_3
  6
CONTINUOUS
 62
             110
  5
CE
 10
394.0
 20
156.0
 30
0.0
 11
394.0
 21
154.0
 31
0.0
  0
LINE
  8
LY_3
  6
CONTINUOUS
 62
             110
  5
CF
 10
393.0
 20
156.0
 30
0.0
 11
393.0
 21
154.0
 31
0.0
  0
LINE
  8
LY_3
  6
CONTINUOUS
 62
             110
  5
D0
 10
392.0
 20
156.0
 30
0.0
 11
392.0
 21
154.0
 31
0.0
  0
LINE
  8
LY_3
  6
CONTINUOUS
 62
             110
  5
D1
 10
391.0
 20
156.0
 30
0.0
 11
391.0
 21
154.0
 31
0.0
  0
LINE
  8
LY_3
  6
CONTINUOUS
 62
             110
  5
D2
 10
390.0
 20
156.0
 30
0.0
 11
390.0
 21
152.0
 31
0.0
  0
LINE
  8
LY_3
  6
CONTINUOUS
 62
             110
  5
D3
 10
389.0
 20
156.0
 30
0.0
 11
389.0
 21
154.0
 31
0.0
  0
LINE
  8
LY_3
  6
CONTINUOUS
 62
             110
  5
D4
 10
388.0
 20
156.0
 30
0.0
 11
388.0
 21
154.0
 31
0.0
  0
LINE
  8
LY_3
  6
CONTINUOUS
 62
             110
  5
D5
 10
387.0
 20
156.0
 30
0.0
 11
387.0
 21
154.0
 31
0.0
  0
LINE
  8
LY_3
  6
CONTINUOUS
 62
             110
  5
D6
 10
386.0
 20
156.0
 30
0.0
 11
386.0
 21
154.0
 31
0.0
  0
LINE
  8
LY_3
  6
CONTINUOUS
 62
             110
  5
D7
 10
385.0
 20
156.0
 30
0.0
 11
385.0
 21
153.0
 31
0.0
  0
LINE
  8
LY_3
  6
CONTINUOUS
 62
             110
  5
D8
 10
384.0
 20
156.0
 30
0.0
 11
384.0
 21
154.0
 31
0.0
  0
LINE
  8
LY_3
  6
CONTINUOUS
 62
             110
  5
D9
 10
383.0
 20
156.0
 30
0.0
 11
383.0
 21
154.0
 31
0.0
  0
LINE
  8
LY_3
  6
CONTINUOUS
 62
             110
  5
DA
 10
382.0
 20
156.0
 30
0.0
 11
382.0
 21
154.0
 31
0.0
  0
LINE
  8
LY_3
  6
CONTINUOUS
 62
             110
  5
DB
 10
381.0
 20
156.0
 30
0.0
 11
381.0
 21
154.0
 31
0.0
  0
LINE
  8
LY_3
  6
CONTINUOUS
 62
             110
  5
DC
 10
380.0
 20
156.0
 30
0.0
 11
380.0
 21
152.0
 31
0.0
  0
LINE
  8
LY_3
  6
CONTINUOUS
 62
             110
  5
DD
 10
379.0
 20
156.0
 30
0.0
 11
379.0
 21
154.0
 31
0.0
  0
LINE
  8
LY_3
  6
CONTINUOUS
 62
             110
  5
DE
 10
378.0
 20
156.0
 30
0.0
 11
378.0
 21
154.0
 31
0.0
  0
LINE
  8
LY_3
  6
CONTINUOUS
 62
             110
  5
DF
 10
377.0
 20
156.0
 30
0.0
 11
377.0
 21
154.0
 31
0.0
  0
LINE
  8
LY_3
  6
CONTINUOUS
 62
             110
  5
E0
 10
376.0
 20
156.0
 30
0.0
 11
376.0
 21
154.0
 31
0.0
  0
LINE
  8
LY_3
  6
CONTINUOUS
 62
             110
  5
E1
 10
375.0
 20
156.0
 30
0.0
 11
375.0
 21
153.0
 31
0.0
  0
LINE
  8
LY_3
  6
CONTINUOUS
 62
             110
  5
E2
 10
374.0
 20
156.0
 30
0.0
 11
374.0
 21
154.0
 31
0.0
  0
LINE
  8
LY_3
  6
CONTINUOUS
 62
             110
  5
E3
 10
373.0
 20
156.0
 30
0.0
 11
373.0
 21
154.0
 31
0.0
  0
LINE
  8
LY_3
  6
CONTINUOUS
 62
             110
  5
E4
 10
372.0
 20
156.0
 30
0.0
 11
372.0
 21
154.0
 31
0.0
  0
LINE
  8
LY_3
  6
CONTINUOUS
 62
             110
  5
E5
 10
371.0
 20
156.0
 30
0.0
 11
371.0
 21
154.0
 31
0.0
  0
LINE
  8
LY_3
  6
CONTINUOUS
 62
             110
  5
E6
 10
370.0
 20
156.0
 30
0.0
 11
370.0
 21
152.0
 31
0.0
  0
LINE
  8
LY_3
  6
CONTINUOUS
 62
             110
  5
E7
 10
369.0
 20
156.0
 30
0.0
 11
369.0
 21
154.0
 31
0.0
  0
LINE
  8
LY_3
  6
CONTINUOUS
 62
             110
  5
E8
 10
368.0
 20
156.0
 30
0.0
 11
368.0
 21
154.0
 31
0.0
  0
LINE
  8
LY_3
  6
CONTINUOUS
 62
             110
  5
E9
 10
367.0
 20
156.0
 30
0.0
 11
367.0
 21
154.0
 31
0.0
  0
LINE
  8
LY_3
  6
CONTINUOUS
 62
             110
  5
EA
 10
366.0
 20
156.0
 30
0.0
 11
366.0
 21
154.0
 31
0.0
  0
LINE
  8
LY_3
  6
CONTINUOUS
 62
             110
  5
EB
 10
365.0
 20
156.0
 30
0.0
 11
365.0
 21
153.0
 31
0.0
  0
LINE
  8
LY_3
  6
CONTINUOUS
 62
             110
  5
EC
 10
364.0
 20
156.0
 30
0.0
 11
364.0
 21
154.0
 31
0.0
  0
LINE
  8
LY_3
  6
CONTINUOUS
 62
             110
  5
ED
 10
363.0
 20
156.0
 30
0.0
 11
363.0
 21
154.0
 31
0.0
  0
LINE
  8
LY_3
  6
CONTINUOUS
 62
             110
  5
EE
 10
362.0
 20
156.0
 30
0.0
 11
362.0
 21
154.0
 31
0.0
  0
LINE
  8
LY_3
  6
CONTINUOUS
 62
             110
  5
EF
 10
361.0
 20
156.0
 30
0.0
 11
361.0
 21
154.0
 31
0.0
  0
LINE
  8
LY_3
  6
CONTINUOUS
 62
             110
  5
F0
 10
360.0
 20
156.0
 30
0.0
 11
360.0
 21
152.0
 31
0.0
  0
LINE
  8
LY_3
  6
CONTINUOUS
 62
             110
  5
F1
 10
359.0
 20
156.0
 30
0.0
 11
359.0
 21
154.0
 31
0.0
  0
LINE
  8
LY_3
  6
CONTINUOUS
 62
             110
  5
F2
 10
358.0
 20
156.0
 30
0.0
 11
358.0
 21
154.0
 31
0.0
  0
LINE
  8
LY_3
  6
CONTINUOUS
 62
             110
  5
F3
 10
357.0
 20
156.0
 30
0.0
 11
357.0
 21
154.0
 31
0.0
  0
LINE
  8
LY_3
  6
CONTINUOUS
 62
             110
  5
F4
 10
356.0
 20
156.0
 30
0.0
 11
356.0
 21
154.0
 31
0.0
  0
LINE
  8
LY_3
  6
CONTINUOUS
 62
             110
  5
F5
 10
355.0
 20
156.0
 30
0.0
 11
355.0
 21
153.0
 31
0.0
  0
LINE
  8
LY_3
  6
CONTINUOUS
 62
             110
  5
F6
 10
354.0
 20
156.0
 30
0.0
 11
354.0
 21
154.0
 31
0.0
  0
LINE
  8
LY_3
  6
CONTINUOUS
 62
             110
  5
F7
 10
353.0
 20
156.0
 30
0.0
 11
353.0
 21
154.0
 31
0.0
  0
LINE
  8
LY_3
  6
CONTINUOUS
 62
             110
  5
F8
 10
352.0
 20
156.0
 30
0.0
 11
352.0
 21
154.0
 31
0.0
  0
LINE
  8
LY_3
  6
CONTINUOUS
 62
             110
  5
F9
 10
351.0
 20
156.0
 30
0.0
 11
351.0
 21
154.0
 31
0.0
  0
LINE
  8
LY_3
  6
CONTINUOUS
 62
             110
  5
FA
 10
350.0
 20
156.0
 30
0.0
 11
350.0
 21
152.0
 31
0.0
  0
LINE
  8
LY_3
  6
CONTINUOUS
 62
             110
  5
FB
 10
349.0
 20
156.0
 30
0.0
 11
349.0
 21
154.0
 31
0.0
  0
LINE
  8
LY_3
  6
CONTINUOUS
 62
             110
  5
FC
 10
348.0
 20
156.0
 30
0.0
 11
348.0
 21
154.0
 31
0.0
  0
LINE
  8
LY_3
  6
CONTINUOUS
 62
             110
  5
FD
 10
347.0
 20
156.0
 30
0.0
 11
347.0
 21
154.0
 31
0.0
  0
LINE
  8
LY_3
  6
CONTINUOUS
 62
             110
  5
FE
 10
346.0
 20
156.0
 30
0.0
 11
346.0
 21
154.0
 31
0.0
  0
LINE
  8
LY_3
  6
CONTINUOUS
 62
             110
  5
FF
 10
345.0
 20
156.0
 30
0.0
 11
345.0
 21
153.0
 31
0.0
  0
LINE
  8
LY_3
  6
CONTINUOUS
 62
             110
  5
100
 10
344.0
 20
156.0
 30
0.0
 11
344.0
 21
154.0
 31
0.0
  0
LINE
  8
LY_3
  6
CONTINUOUS
 62
             110
  5
101
 10
343.0
 20
156.0
 30
0.0
 11
343.0
 21
154.0
 31
0.0
  0
LINE
  8
LY_3
  6
CONTINUOUS
 62
             110
  5
102
 10
342.0
 20
156.0
 30
0.0
 11
342.0
 21
154.0
 31
0.0
  0
LINE
  8
LY_3
  6
CONTINUOUS
 62
             110
  5
103
 10
341.0
 20
156.0
 30
0.0
 11
341.0
 21
154.0
 31
0.0
  0
LINE
  8
LY_3
  6
CONTINUOUS
 62
             110
  5
104
 10
340.0
 20
156.0
 30
0.0
 11
340.0
 21
152.0
 31
0.0
  0
LINE
  8
LY_3
  6
CONTINUOUS
 62
             110
  5
105
 10
339.0
 20
156.0
 30
0.0
 11
339.0
 21
154.0
 31
0.0
  0
LINE
  8
LY_3
  6
CONTINUOUS
 62
             110
  5
106
 10
338.0
 20
156.0
 30
0.0
 11
338.0
 21
154.0
 31
0.0
  0
LINE
  8
LY_3
  6
CONTINUOUS
 62
             110
  5
107
 10
337.0
 20
156.0
 30
0.0
 11
337.0
 21
154.0
 31
0.0
  0
LINE
  8
LY_3
  6
CONTINUOUS
 62
             110
  5
108
 10
336.0
 20
156.0
 30
0.0
 11
336.0
 21
154.0
 31
0.0
  0
LINE
  8
LY_3
  6
CONTINUOUS
 62
             110
  5
109
 10
335.0
 20
156.0
 30
0.0
 11
335.0
 21
153.0
 31
0.0
  0
LINE
  8
LY_3
  6
CONTINUOUS
 62
             110
  5
10A
 10
334.0
 20
156.0
 30
0.0
 11
334.0
 21
154.0
 31
0.0
  0
LINE
  8
LY_3
  6
CONTINUOUS
 62
             110
  5
10B
 10
333.0
 20
156.0
 30
0.0
 11
333.0
 21
154.0
 31
0.0
  0
LINE
  8
LY_3
  6
CONTINUOUS
 62
             110
  5
10C
 10
332.0
 20
156.0
 30
0.0
 11
332.0
 21
154.0
 31
0.0
  0
LINE
  8
LY_3
  6
CONTINUOUS
 62
             110
  5
10D
 10
331.0
 20
156.0
 30
0.0
 11
331.0
 21
154.0
 31
0.0
  0
LINE
  8
LY_3
  6
CONTINUOUS
 62
             110
  5
10E
 10
330.0
 20
156.0
 30
0.0
 11
330.0
 21
152.0
 31
0.0
  0
LINE
  8
LY_3
  6
CONTINUOUS
 62
             110
  5
10F
 10
329.0
 20
156.0
 30
0.0
 11
329.0
 21
154.0
 31
0.0
  0
LINE
  8
LY_3
  6
CONTINUOUS
 62
             110
  5
110
 10
328.0
 20
156.0
 30
0.0
 11
328.0
 21
154.0
 31
0.0
  0
LINE
  8
LY_3
  6
CONTINUOUS
 62
             110
  5
111
 10
327.0
 20
156.0
 30
0.0
 11
327.0
 21
154.0
 31
0.0
  0
LINE
  8
LY_3
  6
CONTINUOUS
 62
             110
  5
112
 10
326.0
 20
156.0
 30
0.0
 11
326.0
 21
154.0
 31
0.0
  0
LINE
  8
LY_3
  6
CONTINUOUS
 62
             110
  5
113
 10
325.0
 20
156.0
 30
0.0
 11
325.0
 21
153.0
 31
0.0
  0
LINE
  8
LY_3
  6
CONTINUOUS
 62
             110
  5
114
 10
324.0
 20
156.0
 30
0.0
 11
324.0
 21
154.0
 31
0.0
  0
LINE
  8
LY_3
  6
CONTINUOUS
 62
             110
  5
115
 10
323.0
 20
156.0
 30
0.0
 11
323.0
 21
154.0
 31
0.0
  0
LINE
  8
LY_3
  6
CONTINUOUS
 62
             110
  5
116
 10
322.0
 20
156.0
 30
0.0
 11
322.0
 21
154.0
 31
0.0
  0
LINE
  8
LY_3
  6
CONTINUOUS
 62
             110
  5
117
 10
321.0
 20
156.0
 30
0.0
 11
321.0
 21
154.0
 31
0.0
  0
LINE
  8
LY_3
  6
CONTINUOUS
 62
             110
  5
118
 10
320.0
 20
156.0
 30
0.0
 11
320.0
 21
152.0
 31
0.0
  0
LINE
  8
LY_3
  6
CONTINUOUS
 62
             110
  5
119
 10
319.0
 20
156.0
 30
0.0
 11
319.0
 21
154.0
 31
0.0
  0
LINE
  8
LY_3
  6
CONTINUOUS
 62
             110
  5
11A
 10
318.0
 20
156.0
 30
0.0
 11
318.0
 21
154.0
 31
0.0
  0
LINE
  8
LY_3
  6
CONTINUOUS
 62
             110
  5
11B
 10
317.0
 20
156.0
 30
0.0
 11
317.0
 21
154.0
 31
0.0
  0
LINE
  8
LY_3
  6
CONTINUOUS
 62
             110
  5
11C
 10
316.0
 20
156.0
 30
0.0
 11
316.0
 21
154.0
 31
0.0
  0
LINE
  8
LY_3
  6
CONTINUOUS
 62
             110
  5
11D
 10
315.0
 20
156.0
 30
0.0
 11
315.0
 21
153.0
 31
0.0
  0
LINE
  8
LY_3
  6
CONTINUOUS
 62
             110
  5
11E
 10
314.0
 20
156.0
 30
0.0
 11
314.0
 21
154.0
 31
0.0
  0
LINE
  8
LY_3
  6
CONTINUOUS
 62
             110
  5
11F
 10
313.0
 20
156.0
 30
0.0
 11
313.0
 21
154.0
 31
0.0
  0
LINE
  8
LY_3
  6
CONTINUOUS
 62
             110
  5
120
 10
312.0
 20
156.0
 30
0.0
 11
312.0
 21
154.0
 31
0.0
  0
LINE
  8
LY_3
  6
CONTINUOUS
 62
             110
  5
121
 10
311.0
 20
156.0
 30
0.0
 11
311.0
 21
154.0
 31
0.0
  0
LINE
  8
LY_3
  6
CONTINUOUS
 62
             110
  5
122
 10
310.0
 20
156.0
 30
0.0
 11
310.0
 21
152.0
 31
0.0
  0
LINE
  8
LY_3
  6
CONTINUOUS
 62
             110
  5
123
 10
309.0
 20
156.0
 30
0.0
 11
309.0
 21
154.0
 31
0.0
  0
LINE
  8
LY_3
  6
CONTINUOUS
 62
             110
  5
124
 10
308.0
 20
156.0
 30
0.0
 11
308.0
 21
154.0
 31
0.0
  0
LINE
  8
LY_3
  6
CONTINUOUS
 62
             110
  5
125
 10
307.0
 20
156.0
 30
0.0
 11
307.0
 21
154.0
 31
0.0
  0
LINE
  8
LY_3
  6
CONTINUOUS
 62
             110
  5
126
 10
306.0
 20
156.0
 30
0.0
 11
306.0
 21
154.0
 31
0.0
  0
LINE
  8
LY_3
  6
CONTINUOUS
 62
             110
  5
127
 10
305.0
 20
156.0
 30
0.0
 11
305.0
 21
153.0
 31
0.0
  0
LINE
  8
LY_3
  6
CONTINUOUS
 62
             110
  5
128
 10
304.0
 20
156.0
 30
0.0
 11
304.0
 21
154.0
 31
0.0
  0
LINE
  8
LY_3
  6
CONTINUOUS
 62
             110
  5
129
 10
303.0
 20
156.0
 30
0.0
 11
303.0
 21
154.0
 31
0.0
  0
LINE
  8
LY_3
  6
CONTINUOUS
 62
             110
  5
12A
 10
302.0
 20
156.0
 30
0.0
 11
302.0
 21
154.0
 31
0.0
  0
LINE
  8
LY_3
  6
CONTINUOUS
 62
             110
  5
12B
 10
301.0
 20
156.0
 30
0.0
 11
301.0
 21
154.0
 31
0.0
  0
LINE
  8
LY_3
  6
CONTINUOUS
 62
             110
  5
12C
 10
300.0
 20
156.0
 30
0.0
 11
300.0
 21
152.0
 31
0.0
  0
LINE
  8
LY_3
  6
CONTINUOUS
 62
             110
  5
12D
 10
299.0
 20
156.0
 30
0.0
 11
299.0
 21
154.0
 31
0.0
  0
LINE
  8
LY_3
  6
CONTINUOUS
 62
             110
  5
12E
 10
298.0
 20
156.0
 30
0.0
 11
298.0
 21
154.0
 31
0.0
  0
LINE
  8
LY_3
  6
CONTINUOUS
 62
             110
  5
12F
 10
297.0
 20
156.0
 30
0.0
 11
297.0
 21
154.0
 31
0.0
  0
LINE
  8
LY_3
  6
CONTINUOUS
 62
             110
  5
130
 10
296.0
 20
156.0
 30
0.0
 11
296.0
 21
154.0
 31
0.0
  0
LINE
  8
LY_3
  6
CONTINUOUS
 62
             110
  5
131
 10
295.0
 20
156.0
 30
0.0
 11
295.0
 21
153.0
 31
0.0
  0
LINE
  8
LY_3
  6
CONTINUOUS
 62
             110
  5
132
 10
294.0
 20
156.0
 30
0.0
 11
294.0
 21
154.0
 31
0.0
  0
LINE
  8
LY_3
  6
CONTINUOUS
 62
             110
  5
133
 10
293.0
 20
156.0
 30
0.0
 11
293.0
 21
154.0
 31
0.0
  0
LINE
  8
LY_3
  6
CONTINUOUS
 62
             110
  5
134
 10
292.0
 20
156.0
 30
0.0
 11
292.0
 21
154.0
 31
0.0
  0
LINE
  8
LY_3
  6
CONTINUOUS
 62
             110
  5
135
 10
291.0
 20
156.0
 30
0.0
 11
291.0
 21
154.0
 31
0.0
  0
LINE
  8
LY_3
  6
CONTINUOUS
 62
             110
  5
136
 10
290.0
 20
156.0
 30
0.0
 11
290.0
 21
152.0
 31
0.0
  0
LINE
  8
LY_3
  6
CONTINUOUS
 62
             110
  5
137
 10
289.0
 20
156.0
 30
0.0
 11
289.0
 21
154.0
 31
0.0
  0
LINE
  8
LY_3
  6
CONTINUOUS
 62
             110
  5
138
 10
288.0
 20
156.0
 30
0.0
 11
288.0
 21
154.0
 31
0.0
  0
LINE
  8
LY_3
  6
CONTINUOUS
 62
             110
  5
139
 10
287.0
 20
156.0
 30
0.0
 11
287.0
 21
154.0
 31
0.0
  0
LINE
  8
LY_3
  6
CONTINUOUS
 62
             110
  5
13A
 10
286.0
 20
156.0
 30
0.0
 11
286.0
 21
154.0
 31
0.0
  0
LINE
  8
LY_3
  6
CONTINUOUS
 62
             110
  5
13B
 10
285.0
 20
156.0
 30
0.0
 11
285.0
 21
153.0
 31
0.0
  0
LINE
  8
LY_3
  6
CONTINUOUS
 62
             110
  5
13C
 10
284.0
 20
156.0
 30
0.0
 11
284.0
 21
154.0
 31
0.0
  0
LINE
  8
LY_3
  6
CONTINUOUS
 62
             110
  5
13D
 10
283.0
 20
156.0
 30
0.0
 11
283.0
 21
154.0
 31
0.0
  0
LINE
  8
LY_3
  6
CONTINUOUS
 62
             110
  5
13E
 10
282.0
 20
156.0
 30
0.0
 11
282.0
 21
154.0
 31
0.0
  0
LINE
  8
LY_3
  6
CONTINUOUS
 62
             110
  5
13F
 10
281.0
 20
156.0
 30
0.0
 11
281.0
 21
154.0
 31
0.0
  0
LINE
  8
LY_3
  6
CONTINUOUS
 62
             110
  5
140
 10
280.0
 20
156.0
 30
0.0
 11
280.0
 21
151.98603820800781
 31
0.0
  0
LINE
  8
LY_3
  6
CONTINUOUS
 62
             110
  5
141
 10
279.0
 20
156.0
 30
0.0
 11
279.0
 21
154.0
 31
0.0
  0
LINE
  8
LY_3
  6
CONTINUOUS
 62
             110
  5
142
 10
278.0
 20
156.0
 30
0.0
 11
278.0
 21
154.0
 31
0.0
  0
LINE
  8
LY_3
  6
CONTINUOUS
 62
             110
  5
143
 10
277.0
 20
156.0
 30
0.0
 11
277.0
 21
154.0
 31
0.0
  0
LINE
  8
LY_3
  6
CONTINUOUS
 62
             110
  5
144
 10
276.0
 20
156.0
 30
0.0
 11
276.0
 21
154.0
 31
0.0
  0
LINE
  8
LY_3
  6
CONTINUOUS
 62
             110
  5
145
 10
275.0
 20
156.0
 30
0.0
 11
275.0
 21
153.0
 31
0.0
  0
LINE
  8
LY_3
  6
CONTINUOUS
 62
             110
  5
146
 10
274.0
 20
156.0
 30
0.0
 11
274.0
 21
154.0
 31
0.0
  0
LINE
  8
LY_3
  6
CONTINUOUS
 62
             110
  5
147
 10
273.0
 20
156.0
 30
0.0
 11
273.0
 21
154.0
 31
0.0
  0
LINE
  8
LY_3
  6
CONTINUOUS
 62
             110
  5
148
 10
272.0
 20
156.0
 30
0.0
 11
272.0
 21
154.0
 31
0.0
  0
LINE
  8
LY_3
  6
CONTINUOUS
 62
             110
  5
149
 10
271.0
 20
156.0
 30
0.0
 11
271.0
 21
154.0
 31
0.0
  0
LINE
  8
LY_3
  6
CONTINUOUS
 62
             110
  5
14A
 10
270.0
 20
156.0
 30
0.0
 11
270.0
 21
152.0
 31
0.0
  0
LINE
  8
LY_3
  6
CONTINUOUS
 62
             110
  5
14B
 10
269.0
 20
156.0
 30
0.0
 11
269.0
 21
154.0
 31
0.0
  0
LINE
  8
LY_3
  6
CONTINUOUS
 62
             110
  5
14C
 10
268.0
 20
156.0
 30
0.0
 11
268.0
 21
154.0
 31
0.0
  0
LINE
  8
LY_3
  6
CONTINUOUS
 62
             110
  5
14D
 10
267.0
 20
156.0
 30
0.0
 11
267.0
 21
154.0
 31
0.0
  0
LINE
  8
LY_3
  6
CONTINUOUS
 62
             110
  5
14E
 10
266.0
 20
156.0
 30
0.0
 11
266.0
 21
154.0
 31
0.0
  0
LINE
  8
LY_3
  6
CONTINUOUS
 62
             110
  5
14F
 10
265.0
 20
156.0
 30
0.0
 11
265.0
 21
153.0
 31
0.0
  0
LINE
  8
LY_3
  6
CONTINUOUS
 62
             110
  5
150
 10
264.0
 20
156.0
 30
0.0
 11
264.0
 21
154.0
 31
0.0
  0
LINE
  8
LY_3
  6
CONTINUOUS
 62
             110
  5
151
 10
263.0
 20
156.0
 30
0.0
 11
263.0
 21
154.0
 31
0.0
  0
LINE
  8
LY_3
  6
CONTINUOUS
 62
             110
  5
152
 10
262.0
 20
156.0
 30
0.0
 11
262.0
 21
154.0
 31
0.0
  0
LINE
  8
LY_3
  6
CONTINUOUS
 62
             110
  5
153
 10
261.0
 20
156.0
 30
0.0
 11
261.0
 21
154.0
 31
0.0
  0
LINE
  8
LY_3
  6
CONTINUOUS
 62
             110
  5
154
 10
260.0
 20
156.0
 30
0.0
 11
260.0
 21
152.0
 31
0.0
  0
LINE
  8
LY_3
  6
CONTINUOUS
 62
             110
  5
155
 10
259.0
 20
156.0
 30
0.0
 11
259.0
 21
154.0
 31
0.0
  0
LINE
  8
LY_3
  6
CONTINUOUS
 62
             110
  5
156
 10
258.0
 20
156.0
 30
0.0
 11
258.0
 21
154.0
 31
0.0
  0
LINE
  8
LY_3
  6
CONTINUOUS
 62
             110
  5
157
 10
257.0
 20
156.0
 30
0.0
 11
257.0
 21
154.0
 31
0.0
  0
LINE
  8
LY_3
  6
CONTINUOUS
 62
             110
  5
158
 10
256.0
 20
156.0
 30
0.0
 11
256.0
 21
154.0
 31
0.0
  0
LINE
  8
LY_3
  6
CONTINUOUS
 62
             110
  5
159
 10
255.0
 20
156.0
 30
0.0
 11
255.0
 21
153.0
 31
0.0
  0
LINE
  8
LY_3
  6
CONTINUOUS
 62
             110
  5
15A
 10
254.0
 20
156.0
 30
0.0
 11
254.0
 21
154.0
 31
0.0
  0
LINE
  8
LY_3
  6
CONTINUOUS
 62
             110
  5
15B
 10
253.0
 20
156.0
 30
0.0
 11
253.0
 21
154.0
 31
0.0
  0
LINE
  8
LY_3
  6
CONTINUOUS
 62
             110
  5
15C
 10
252.0
 20
156.0
 30
0.0
 11
252.0
 21
154.0
 31
0.0
  0
LINE
  8
LY_3
  6
CONTINUOUS
 62
             110
  5
15D
 10
251.0
 20
156.0
 30
0.0
 11
251.0
 21
154.0
 31
0.0
  0
LINE
  8
LY_3
  6
CONTINUOUS
 62
             110
  5
15E
 10
250.0
 20
156.0
 30
0.0
 11
250.0
 21
152.0
 31
0.0
  0
LINE
  8
LY_3
  6
CONTINUOUS
 62
             110
  5
15F
 10
419.0
 20
184.77915954589844
 30
0.0
 11
423.0
 21
184.77915954589844
 31
0.0
  0
LINE
  8
LY_3
  6
CONTINUOUS
 62
             110
  5
160
 10
419.0
 20
175.41618347167969
 30
0.0
 11
423.0
 21
175.41618347167969
 31
0.0
  0
LINE
  8
LY_3
  6
CONTINUOUS
 62
             110
  5
161
 10
419.0
 20
144.58985900878906
 30
0.0
 11
423.0
 21
144.58985900878906
 31
0.0
  0
LINE
  8
LY_3
  6
CONTINUOUS
 62
             110
  5
162
 10
419.0
 20
135.21888732910156
 30
0.0
 11
423.0
 21
135.21888732910156
 31
0.0
  0
LINE
  8
LY_3
  6
CONTINUOUS
 62
             110
  5
163
 10
419.0
 20
160.0
 30
0.0
 11
423.0
 21
160.0
 31
0.0
  0
LINE
  8
LY_3
  6
CONTINUOUS
 62
               3
  5
164
 10
415.0
 20
160.0
 30
0.0
 11
418.0
 21
160.0
 31
0.0
  0
LINE
  8
LY_3
  6
CONTINUOUS
 62
               3
  5
165
 10
406.8125
 20
161.5
 30
0.0
 11
407.1875
 21
161.5
 31
0.0
  0
LINE
  8
LY_3
  6
CONTINUOUS
 62
               3
  5
166
 10
406.8125
 20
158.5
 30
0.0
 11
407.1875
 21
158.5
 31
0.0
  0
LINE
  8
LY_3
  6
CONTINUOUS
 62
               3
  5
167
 10
408.5
 20
160.1875
 30
0.0
 11
408.5
 21
159.8125
 31
0.0
  0
LINE
  8
LY_3
  6
CONTINUOUS
 62
               3
  5
168
 10
405.5
 20
160.1875
 30
0.0
 11
405.5
 21
159.8125
 31
0.0
  0
LINE
  8
LY_3
  6
CONTINUOUS
 62
               3
  5
169
 10
407.1875
 20
161.5
 30
0.0
 11
407.1875
 21
160.80953979492187
 31
0.0
  0
LINE
  8
LY_3
  6
CONTINUOUS
 62
               3
  5
16A
 10
406.8125
 20
161.5
 30
0.0
 11
406.8125
 21
160.80953979492187
 31
0.0
  0
LINE
  8
LY_3
  6
CONTINUOUS
 62
               3
  5
16B
 10
405.5
 20
159.8125
 30
0.0
 11
406.19046020507812
 21
159.8125
 31
0.0
  0
LINE
  8
LY_3
  6
CONTINUOUS
 62
               3
  5
16C
 10
405.5
 20
160.1875
 30
0.0
 11
406.19046020507812
 21
160.1875
 31
0.0
  0
LINE
  8
LY_3
  6
CONTINUOUS
 62
               3
  5
16D
 10
406.8125
 20
159.19046020507812
 30
0.0
 11
406.8125
 21
158.5
 31
0.0
  0
LINE
  8
LY_3
  6
CONTINUOUS
 62
               3
  5
16E
 10
407.1875
 20
159.19046020507812
 30
0.0
 11
407.1875
 21
158.5
 31
0.0
  0
LINE
  8
LY_3
  6
CONTINUOUS
 62
               3
  5
16F
 10
407.80953979492187
 20
159.8125
 30
0.0
 11
408.5
 21
159.8125
 31
0.0
  0
LINE
  8
LY_3
  6
CONTINUOUS
 62
               3
  5
170
 10
407.80953979492187
 20
160.1875
 30
0.0
 11
408.5
 21
160.1875
 31
0.0
  0
LINE
  8
LY_3
  6
CONTINUOUS
 62
               3
  5
171
 10
159.5
 20
-16.000004149329015
 30
0.0
 11
159.5
 21
-18.000027037512609
 31
0.0
  0
LINE
  8
LY_3
  6
CONTINUOUS
 62
               3
  5
172
 10
159.5
 20
17.999972962487391
 30
0.0
 11
159.5
 21
15.999972962487391
 31
0.0
  0
LINE
  8
LY_3
  6
PHANTOM
 62
             110
  5
174
 10
170.5
 20
17.999972962487391
 30
0.0
 11
196.71125221252441
 21
17.999972962487391
 31
0.0
  0
LINE
  8
LY_3
  6
PHANTOM
 62
             110
  5
175
 10
170.50000762939453
 20
-18.000027037512609
 30
0.0
 11
191.3093090057373
 21
-18.000027037512609
 31
0.0
  0
LINE
  8
LY_3
  6
PHANTOM
 62
             110
  5
176
 10
169.5
 20
10.999972962487391
 30
0.0
 11
198.61851119995117
 21
10.999972962487391
 31
0.0
  0
LINE
  8
LY_3
  6
PHANTOM
 62
             110
  5
177
 10
169.50000762939453
 20
-11.000019408118078
 30
0.0
 11
190.23053741455078
 21
-11.000019408118078
 31
0.0
  0
LINE
  8
LY_3
  6
CONTINUOUS
 62
               3
  5
178
 10
162.5
 20
17.999972962487391
 30
0.0
 11
162.5
 21
15.999972962487391
 31
0.0
  0
LINE
  8
LY_3
  6
CONTINUOUS
 62
               3
  5
179
 10
159.49994007563805
 20
15.999925327537426
 30
0.0
 11
160.9999355576058
 21
13.999931401250819
 31
0.0
  0
LINE
  8
LY_3
  6
CONTINUOUS
 62
               3
  5
17A
 10
160.9999530336957
 20
14.000009993785966
 30
0.0
 11
162.49995309330035
 21
16.000010023588288
 31
0.0
  0
LINE
  8
LY_3
  6
CONTINUOUS
 62
               3
  5
17B
 10
161.0
 20
13.999972962487391
 30
0.0
 11
161.0
 21
10.999972962487391
 31
0.0
  0
LINE
  8
LY_3
  6
CONTINUOUS
 62
               3
  5
17C
 10
162.50009645685191
 20
17.999998697851197
 30
0.0
 11
163.5000966080695
 21
10.999998903733513
 31
0.0
  0
LINE
  8
LY_3
  6
CONTINUOUS
 62
               3
  5
17D
 10
163.50011167979892
 20
10.99997519577505
 30
0.0
 11
164.50011183101651
 21
17.999974989892735
 31
0.0
  0
LINE
  8
LY_3
  6
CONTINUOUS
 62
               3
  5
17E
 10
164.50008615514025
 20
17.999999287906803
 30
0.0
 11
165.50008630635784
 21
10.999999493789119
 31
0.0
  0
LINE
  8
LY_3
  6
CONTINUOUS
 62
               3
  5
17F
 10
165.50010569392452
 20
10.999977842597218
 30
0.0
 11
166.50010584514212
 21
17.999977636714902
 31
0.0
  0
LINE
  8
LY_3
  6
CONTINUOUS
 62
               3
  5
180
 10
166.50011901180051
 20
17.999994483167029
 30
0.0
 11
167.5001191630181
 21
10.999994689049345
 31
0.0
  0
LINE
  8
LY_3
  6
CONTINUOUS
 62
               3
  5
181
 10
167.50007651042461
 20
10.999952975957967
 30
0.0
 11
168.5000766616422
 21
17.999952770075652
 31
0.0
  0
LINE
  8
LY_3
  6
CONTINUOUS
 62
               3
  5
182
 10
168.50007849922872
 20
17.999990757384694
 30
0.0
 11
169.50007811096657
 21
10.999994739624526
 31
0.0
  0
LINE
  8
LY_3
  6
CONTINUOUS
 62
               3
  5
183
 10
169.50008886685873
 20
10.999976123006263
 30
0.0
 11
170.50008793911684
 21
17.999968364408915
 31
0.0
  0
LINE
  8
LY_3
  6
CONTINUOUS
 62
               3
  5
184
 10
159.49990924579839
 20
-15.999965416375233
 30
0.0
 11
160.99991298896754
 21
-13.999958687008927
 31
0.0
  0
LINE
  8
LY_3
  6
CONTINUOUS
 62
               3
  5
185
 10
161.0
 20
-14.000019408118078
 30
0.0
 11
161.0
 21
-11.000019408118078
 31
0.0
  0
LINE
  8
LY_3
  6
CONTINUOUS
 62
               3
  5
186
 10
160.99989812588819
 20
-14.000087576868964
 30
0.0
 11
162.49989818549284
 21
-16.000087606671286
 31
0.0
  0
LINE
  8
LY_3
  6
CONTINUOUS
 62
               3
  5
187
 10
162.49993090859289
 20
-18.000024918169402
 30
0.0
 11
163.49993279626005
 21
-11.000009597152257
 31
0.0
  0
LINE
  8
LY_3
  6
CONTINUOUS
 62
               3
  5
188
 10
162.5
 20
-18.000027037512609
 30
0.0
 11
162.5
 21
-16.000019408118078
 31
0.0
  0
LINE
  8
LY_3
  6
CONTINUOUS
 62
               3
  5
189
 10
163.50013392048811
 20
-11.000001731203383
 30
0.0
 11
164.50013396633858
 21
-18.000001525321068
 31
0.0
  0
LINE
  8
LY_3
  6
CONTINUOUS
 62
               3
  5
18A
 10
164.49987485226075
 20
-18.000022675959372
 30
0.0
 11
165.49987566096888
 21
-11.000014907657715
 31
0.0
  0
LINE
  8
LY_3
  6
CONTINUOUS
 62
               3
  5
18B
 10
165.50010041693702
 20
-11.000000631171019
 30
0.0
 11
166.50010154174686
 21
-18.000007978003737
 31
0.0
  0
LINE
  8
LY_3
  6
CONTINUOUS
 62
               3
  5
18C
 10
166.50011651652835
 20
-18.000048445096752
 30
0.0
 11
167.50011872029756
 21
-11.000033545549002
 31
0.0
  0
LINE
  8
LY_3
  6
CONTINUOUS
 62
               3
  5
18D
 10
167.49990862321067
 20
-11.000039026140769
 30
0.0
 11
168.49990953728604
 21
-18.000046794442426
 31
0.0
  0
LINE
  8
LY_3
  6
CONTINUOUS
 62
               3
  5
18E
 10
168.50010513164295
 20
-18.000029584382446
 30
0.0
 11
169.5001062564528
 21
-11.000022237549729
 31
0.0
  0
LINE
  8
LY_3
  6
CONTINUOUS
 62
               3
  5
18F
 10
169.49989411102831
 20
-11.000035304573544
 30
0.0
 11
170.49989502510368
 21
-18.000043072875201
 31
0.0
  0
LINE
  8
LY_3
  6
CONTINUOUS
 62
               3
  5
190
 10
140.80003356933594
 20
216.75
 30
0.0
 11
140.80003356933594
 21
103.25
 31
0.0
  0
LINE
  8
LY_3
  6
CONTINUOUS
 62
               3
  5
191
 10
156.70004272460937
 20
216.75
 30
0.0
 11
156.70004272460937
 21
103.25
 31
0.0
  0
LINE
  8
LY_3
  6
CONTINUOUS
 62
               3
  5
192
 10
465.0
 20
-28.000027037512609
 30
0.0
 11
465.0
 21
27.999972962487391
 31
0.0
  0
LINE
  8
LY_3
  6
CONTINUOUS
 62
               3
  5
193
 10
467.5
 20
8.9860722056514533
 30
0.0
 11
467.5
 21
-8.9861262806766717
 31
0.0
  0
LINE
  8
LY_3
  6
CONTINUOUS
 62
               3
  5
194
 10
466.550048828125
 20
10.949969910729578
 30
0.0
 11
465.0
 21
10.949969910729578
 31
0.0
  0
LINE
  8
LY_3
  6
CONTINUOUS
 62
               3
  5
195
 10
466.550048828125
 20
-10.950023985754797
 30
0.0
 11
465.0
 21
-10.950023985754797
 31
0.0
  0
LINE
  8
LY_3
  6
CONTINUOUS
 62
             110
  5
196
 10
466.47056579589844
 20
-6.0000270375126092
 30
0.0
 11
465.0
 21
-6.0000270375126092
 31
0.0
  0
LINE
  8
LY_3
  6
CONTINUOUS
 62
               3
  5
197
 10
466.47056579589844
 20
5.9999729624873908
 30
0.0
 11
465.0
 21
5.9999729624873908
 31
0.0
  0
LINE
  8
LY_3
  6
CENTER
 62
             110
  5
198
 10
452.0421142578125
 20
21.499972962487391
 30
0.0
 11
495.29414367675781
 21
21.499972962487391
 31
0.0
  0
LINE
  8
LY_3
  6
CONTINUOUS
 62
               3
  5
199
 10
465.0
 20
26.499972962487391
 30
0.0
 11
488.99998474121094
 21
26.499972962487391
 31
0.0
  0
LINE
  8
LY_3
  6
CONTINUOUS
 62
               3
  5
19A
 10
465.0
 20
16.499972962487391
 30
0.0
 11
488.99998474121094
 21
16.499972962487391
 31
0.0
  0
LINE
  8
LY_3
  6
CONTINUOUS
 62
               3
  5
19B
 10
488.99998474121094
 20
26.499972962487391
 30
0.0
 11
488.99998474121094
 21
16.499972962487391
 31
0.0
  0
LINE
  8
LY_3
  6
CONTINUOUS
 62
               3
  5
19C
 10
431.99980374790766
 20
130.99981327988735
 30
0.0
 11
432.99980582102262
 21
129.99981314552952
 31
0.0
  0
LINE
  8
LY_3
  6
CENTER
 62
             110
  5
19D
 10
436.0
 20
155.53599548339844
 30
0.0
 11
436.0
 21
164.80082702636719
 31
0.0
  0
LINE
  8
LY_3
  6
CONTINUOUS
 62
               3
  5
19E
 10
433.0
 20
130.0
 30
0.0
 11
438.5
 21
130.0
 31
0.0
  0
LINE
  8
LY_3
  6
CONTINUOUS
 62
               3
  5
19F
 10
439.0
 20
129.5
 30
0.0
 11
459.0
 21
129.5
 31
0.0
  0
LINE
  8
LY_3
  6
CONTINUOUS
 62
               3
  5
1A0
 10
459.50002546762425
 20
130.00002014282472
 30
0.0
 11
459.00001410508867
 21
129.50000882243694
 31
0.0
  0
LINE
  8
LY_3
  6
CONTINUOUS
 62
               3
  5
1A1
 10
459.5
 20
130.0
 30
0.0
 11
463.0
 21
130.0
 31
0.0
  0
LINE
  8
LY_3
  6
CONTINUOUS
 62
               3
  5
1A2
 10
465.0
 20
155.0
 30
0.0
 11
488.99998474121094
 21
155.0
 31
0.0
  0
LINE
  8
LY_3
  6
CONTINUOUS
 62
               3
  5
1A3
 10
488.99998474121094
 20
155.0
 30
0.0
 11
488.99998474121094
 21
165.0
 31
0.0
  0
LINE
  8
LY_3
  6
CONTINUOUS
 62
               3
  5
1A4
 10
465.0
 20
165.0
 30
0.0
 11
488.99998474121094
 21
165.0
 31
0.0
  0
LINE
  8
LY_3
  6
CONTINUOUS
 62
               3
  5
1A5
 10
466.550048828125
 20
149.05000305175781
 30
0.0
 11
465.0
 21
149.05000305175781
 31
0.0
  0
LINE
  8
LY_3
  6
CONTINUOUS
 62
               3
  5
1A6
 10
467.5
 20
151.01390075683594
 30
0.0
 11
467.5
 21
155.0
 31
0.0
  0
LINE
  8
LY_3
  6
CONTINUOUS
 62
               3
  5
1A7
 10
465.0
 20
188.0
 30
0.0
 11
465.0
 21
132.0
 31
0.0
  0
LINE
  8
LY_3
  6
CONTINUOUS
 62
               3
  5
1A8
 10
459.5
 20
190.0
 30
0.0
 11
463.0
 21
190.0
 31
0.0
  0
LINE
  8
LY_3
  6
CONTINUOUS
 62
               3
  5
1A9
 10
439.0
 20
190.5
 30
0.0
 11
459.0
 21
190.5
 31
0.0
  0
LINE
  8
LY_3
  6
CONTINUOUS
 62
               3
  5
1AA
 10
459.49999313575699
 20
189.99999618036077
 30
0.0
 11
458.99999526021384
 21
190.49999401375726
 31
0.0
  0
LINE
  8
LY_3
  6
CONTINUOUS
 62
               3
  5
1AB
 10
433.0
 20
190.0
 30
0.0
 11
438.5
 21
190.0
 31
0.0
  0
LINE
  8
LY_3
  6
CONTINUOUS
 62
               3
  5
1AC
 10
432.0
 20
189.0
 30
0.0
 11
432.0
 21
130.99960327148437
 31
0.0
  0
LINE
  8
LY_3
  6
CONTINUOUS
 62
               3
  5
1AD
 10
431.99999282725821
 20
188.99999247242476
 30
0.0
 11
432.99999582760483
 21
189.99999159525714
 31
0.0
  0
LINE
  8
LY_3
  6
CONTINUOUS
 62
               3
  5
1AE
 10
438.5
 20
190.0
 30
0.0
 11
438.5
 21
130.0
 31
0.0
  0
LINE
  8
LY_3
  6
CONTINUOUS
 62
               3
  5
1AF
 10
439.0
 20
190.5
 30
0.0
 11
439.0
 21
129.5
 31
0.0
  0
LINE
  8
LY_3
  6
CONTINUOUS
 62
               3
  5
1B0
 10
459.0
 20
190.5
 30
0.0
 11
459.0
 21
129.5
 31
0.0
  0
LINE
  8
LY_3
  6
CONTINUOUS
 62
               3
  5
1B1
 10
459.5
 20
190.0
 30
0.0
 11
459.5
 21
130.0
 31
0.0
  0
LINE
  8
LY_3
  6
CONTINUOUS
 62
               3
  5
1B2
 10
439.00000420556671
 20
190.50000530911336
 30
0.0
 11
438.49999288517893
 21
189.99999394657777
 31
0.0
  0
LINE
  8
LY_3
  6
CONTINUOUS
 62
             110
  5
1B3
 10
439.0
 20
189.5
 30
0.0
 11
459.0
 21
189.5
 31
0.0
  0
LINE
  8
LY_3
  6
CONTINUOUS
 62
             110
  5
1B4
 10
439.0
 20
188.5
 30
0.0
 11
459.0
 21
188.5
 31
0.0
  0
LINE
  8
LY_3
  6
CONTINUOUS
 62
             110
  5
1B5
 10
439.0
 20
187.5
 30
0.0
 11
459.0
 21
187.5
 31
0.0
  0
LINE
  8
LY_3
  6
CONTINUOUS
 62
             110
  5
1B6
 10
439.0
 20
186.5
 30
0.0
 11
459.0
 21
186.5
 31
0.0
  0
LINE
  8
LY_3
  6
CONTINUOUS
 62
             110
  5
1B7
 10
439.0
 20
185.5
 30
0.0
 11
459.0
 21
185.5
 31
0.0
  0
LINE
  8
LY_3
  6
CONTINUOUS
 62
               3
  5
1B8
 10
466.550048828125
 20
170.94999694824219
 30
0.0
 11
465.0
 21
170.94999694824219
 31
0.0
  0
LINE
  8
LY_3
  6
CONTINUOUS
 62
               3
  5
1B9
 10
467.5
 20
165.0
 30
0.0
 11
467.5
 21
168.98609924316406
 31
0.0
  0
LINE
  8
LY_3
  6
CONTINUOUS
 62
               3
  5
1BA
 10
155.5
 20
34.999972962487391
 30
0.0
 11
155.5
 21
31.599971436608485
 31
0.0
  0
LINE
  8
LY_3
  6
CONTINUOUS
 62
               3
  5
1BB
 10
155.5
 20
-35.000027037512609
 30
0.0
 11
155.5
 21
-31.600033141028234
 31
0.0
  0
LINE
  8
LY_3
  6
CONTINUOUS
 62
               3
  5
1BC
 10
155.5
 20
-24.000027037512609
 30
0.0
 11
156.99998474121094
 21
-24.000027037512609
 31
0.0
  0
LINE
  8
LY_3
  6
CONTINUOUS
 62
               3
  5
1BD
 10
155.5
 20
23.999972962487391
 30
0.0
 11
156.99998474121094
 21
23.999972962487391
 31
0.0
  0
LINE
  8
LY_3
  6
CONTINUOUS
 62
               3
  5
1BE
 10
159.00011420532684
 20
23.499870902668249
 30
0.0
 11
159.50011857148894
 21
23.999867640242542
 31
0.0
  0
LINE
  8
LY_3
  6
CONTINUOUS
 62
               3
  5
1BF
 10
158.99998474121094
 20
24.299974869836028
 30
0.0
 11
158.99998474121094
 21
19.312801026452235
 31
0.0
  0
LINE
  8
LY_3
  6
CONTINUOUS
 62
               3
  5
1C0
 10
157.49998474121094
 20
22.649974488366297
 30
0.0
 11
158.99998474121094
 21
22.649974488366297
 31
0.0
  0
LINE
  8
LY_3
  6
CONTINUOUS
 62
               3
  5
1C1
 10
157.49998474121094
 20
23.499972962487391
 30
0.0
 11
157.49998474121094
 21
19.689242982018641
 31
0.0
  0
LINE
  8
LY_3
  6
CONTINUOUS
 62
               3
  5
1C2
 10
165.5
 20
34.499972962487391
 30
0.0
 11
165.5
 21
24.299974869836028
 31
0.0
  0
LINE
  8
LY_3
  6
CONTINUOUS
 62
               3
  5
1C3
 10
159.00011394753869
 20
-23.499929117653551
 30
0.0
 11
159.5001183137008
 21
-23.999925855227843
 31
0.0
  0
LINE
  8
LY_3
  6
CONTINUOUS
 62
               3
  5
1C4
 10
158.99998474121094
 20
-24.300025130163981
 30
0.0
 11
158.99998474121094
 21
-19.312855101477453
 31
0.0
  0
LINE
  8
LY_3
  6
CONTINUOUS
 62
               3
  5
1C5
 10
157.49998474121094
 20
-22.650028563391515
 30
0.0
 11
158.99998474121094
 21
-22.650028563391515
 31
0.0
  0
LINE
  8
LY_3
  6
CONTINUOUS
 62
               3
  5
1C6
 10
157.49998474121094
 20
-23.500027037512609
 30
0.0
 11
157.49998474121094
 21
-19.689297057043859
 31
0.0
  0
LINE
  8
LY_3
  6
CENTER
 62
             110
  5
1C7
 10
147.62480163574219
 20
29.999972962487391
 30
0.0
 11
168.21372985839844
 21
29.999972962487391
 31
0.0
  0
LINE
  8
LY_3
  6
CONTINUOUS
 62
               3
  5
1C8
 10
161.10000610351562
 20
33.999972962487391
 30
0.0
 11
165.5
 21
33.999972962487391
 31
0.0
  0
LINE
  8
LY_3
  6
CONTINUOUS
 62
               3
  5
1C9
 10
161.10000610351562
 20
25.999972962487391
 30
0.0
 11
165.5
 21
25.999972962487391
 31
0.0
  0
LINE
  8
LY_3
  6
CONTINUOUS
 62
               3
  5
1CA
 10
161.10000610351562
 20
33.999972962487391
 30
0.0
 11
161.10000610351562
 21
25.999972962487391
 31
0.0
  0
LINE
  8
LY_3
  6
CONTINUOUS
 62
               3
  5
1CB
 10
155.5
 20
27.749972962487391
 30
0.0
 11
161.10000610351562
 21
27.749972962487391
 31
0.0
  0
LINE
  8
LY_3
  6
CONTINUOUS
 62
               3
  5
1CC
 10
155.5
 20
32.249972962487391
 30
0.0
 11
161.10000610351562
 21
32.249972962487391
 31
0.0
  0
LINE
  8
LY_3
  6
CONTINUOUS
 62
               3
  5
1CD
 10
155.5
 20
34.999972962487391
 30
0.0
 11
165.0
 21
34.999972962487391
 31
0.0
  0
LINE
  8
LY_3
  6
CONTINUOUS
 62
               3
  5
1CE
 10
164.80000305175781
 20
33.499972962487391
 30
0.0
 11
161.10000610351562
 21
33.499972962487391
 31
0.0
  0
LINE
  8
LY_3
  6
CONTINUOUS
 62
               3
  5
1CF
 10
160.89999389648437
 20
31.999972962487391
 30
0.0
 11
151.89999389648438
 21
31.999972962487391
 31
0.0
  0
LINE
  8
LY_3
  6
CONTINUOUS
 62
               3
  5
1D0
 10
160.89999389648437
 20
27.999972962487391
 30
0.0
 11
151.89999389648438
 21
27.999972962487391
 31
0.0
  0
LINE
  8
LY_3
  6
CONTINUOUS
 62
               3
  5
1D1
 10
165.10000610351562
 20
27.019588135827235
 30
0.0
 11
165.10000610351562
 21
32.980357789147547
 31
0.0
  0
LINE
  8
LY_3
  6
CONTINUOUS
 62
               3
  5
1D2
 10
164.80000305175781
 20
26.499972962487391
 30
0.0
 11
161.10000610351562
 21
26.499972962487391
 31
0.0
  0
LINE
  8
LY_3
  6
CONTINUOUS
 62
               3
  5
1D3
 10
160.20718383789063
 20
27.999972962487391
 30
0.0
 11
160.20718383789063
 21
31.999972962487391
 31
0.0
  0
LINE
  8
LY_3
  6
CONTINUOUS
 62
             110
  5
1D4
 10
160.20718383789063
 20
28.399974488366297
 30
0.0
 11
151.5
 21
28.399974488366297
 31
0.0
  0
LINE
  8
LY_3
  6
CONTINUOUS
 62
             110
  5
1D5
 10
160.20718383789063
 20
31.599971436608485
 30
0.0
 11
151.49998474121094
 21
31.599971436608485
 31
0.0
  0
LINE
  8
LY_3
  6
CONTINUOUS
 62
             110
  5
1D6
 10
160.20716721529561
 20
28.399971969471153
 30
0.0
 11
160.89999012110411
 21
27.999970348224451
 31
0.0
  0
LINE
  8
LY_3
  6
CONTINUOUS
 62
             110
  5
1D7
 10
160.20717976192469
 20
31.599974352463164
 30
0.0
 11
160.90000281078488
 21
31.999975759132326
 31
0.0
  0
LINE
  8
LY_3
  6
CONTINUOUS
 62
               3
  5
1D8
 10
151.90000278237085
 20
27.999973224513496
 30
0.0
 11
151.10000294462361
 21
28.799972927390854
 31
0.0
  0
LINE
  8
LY_3
  6
CONTINUOUS
 62
               3
  5
1D9
 10
151.90000056939459
 20
31.999979477358011
 30
0.0
 11
151.10000585670639
 21
31.199985371580169
 31
0.0
  0
LINE
  8
LY_3
  6
CONTINUOUS
 62
               3
  5
1DA
 10
151.89999389648438
 20
27.999972962487391
 30
0.0
 11
151.89999389648438
 21
31.999972962487391
 31
0.0
  0
LINE
  8
LY_3
  6
CONTINUOUS
 62
               3
  5
1DB
 10
164.80000305175781
 20
26.499972962487391
 30
0.0
 11
164.80000305175781
 21
33.499972962487391
 31
0.0
  0
LINE
  8
LY_3
  6
CONTINUOUS
 62
               3
  5
1DC
 10
164.79999293665276
 20
26.499973103735897
 30
0.0
 11
165.09999609570002
 21
27.019593550953573
 31
0.0
  0
LINE
  8
LY_3
  6
CONTINUOUS
 62
               3
  5
1DD
 10
164.80000122476676
 20
33.499968246953159
 30
0.0
 11
165.10000056911539
 21
32.980354406983935
 31
0.0
  0
LINE
  8
LY_3
  6
CONTINUOUS
 62
               3
  5
1DE
 10
151.10000610351562
 20
28.799968384850672
 30
0.0
 11
151.10000610351562
 21
31.19997754012411
 31
0.0
  0
LINE
  8
LY_3
  6
CONTINUOUS
 62
             110
  5
1DF
 10
151.89999389648438
 20
31.999972962487391
 30
0.0
 11
150.5
 21
31.999972962487391
 31
0.0
  0
LINE
  8
LY_3
  6
CONTINUOUS
 62
             110
  5
1E0
 10
151.49998474121094
 20
31.599971436608485
 30
0.0
 11
149.5
 21
31.599971436608485
 31
0.0
  0
LINE
  8
LY_3
  6
CONTINUOUS
 62
             110
  5
1E1
 10
151.49998474121094
 20
28.399974488366297
 30
0.0
 11
149.5
 21
28.399974488366297
 31
0.0
  0
LINE
  8
LY_3
  6
CONTINUOUS
 62
             110
  5
1E2
 10
151.89999389648438
 20
27.999972962487391
 30
0.0
 11
150.5
 21
27.999972962487391
 31
0.0
  0
LINE
  8
LY_3
  6
CONTINUOUS
 62
               3
  5
1E3
 10
150.5
 20
31.999972962487391
 30
0.0
 11
150.5
 21
27.999972962487391
 31
0.0
  0
LINE
  8
LY_3
  6
CONTINUOUS
 62
               3
  5
1E4
 10
149.5
 20
31.599971436608485
 30
0.0
 11
149.5
 21
28.399974488366297
 31
0.0
  0
LINE
  8
LY_3
  6
CONTINUOUS
 62
               3
  5
1E5
 10
148.57624314454006
 20
29.999972730645823
 30
0.0
 11
149.50000451233791
 21
31.599974325023823
 31
0.0
  0
LINE
  8
LY_3
  6
CONTINUOUS
 62
               3
  5
1E6
 10
148.5762442622754
 20
29.999973142901638
 30
0.0
 11
149.50000360351532
 21
28.399975058624875
 31
0.0
  0
LINE
  8
LY_3
  6
CONTINUOUS
 62
               3
  5
1E7
 10
165.00000793913966
 20
34.999976332615006
 30
0.0
 11
165.5000030751379
 21
34.499981154470333
 31
0.0
  0
LINE
  8
LY_3
  6
CONTINUOUS
 62
               3
  5
1E8
 10
148.57624461990326
 20
-30.000025861187169
 30
0.0
 11
149.50000408035248
 21
-31.600024151940488
 31
0.0
  0
LINE
  8
LY_3
  6
CONTINUOUS
 62
               3
  5
1E9
 10
148.57623436584691
 20
-30.000031322412724
 30
0.0
 11
149.50000145569066
 21
-28.400019817160683
 31
0.0
  0
LINE
  8
LY_3
  6
CONTINUOUS
 62
               3
  5
1EA
 10
165.5
 20
-34.500027037512609
 30
0.0
 11
165.5
 21
-24.300025130163981
 31
0.0
  0
LINE
  8
LY_3
  6
CONTINUOUS
 62
               3
  5
1EB
 10
165.00000127991007
 20
-35.000028470887173
 30
0.0
 11
165.50000181070482
 21
-34.500027897945529
 31
0.0
  0
LINE
  8
LY_3
  6
CONTINUOUS
 62
               3
  5
1EC
 10
149.5
 20
-31.600033141028234
 30
0.0
 11
149.5
 21
-28.400020933996984
 31
0.0
  0
LINE
  8
LY_3
  6
CENTER
 62
             110
  5
1ED
 10
147.62480163574219
 20
-30.000027037512609
 30
0.0
 11
168.21372985839844
 21
-30.000027037512609
 31
0.0
  0
LINE
  8
LY_3
  6
CONTINUOUS
 62
               3
  5
1EE
 10
161.10000610351562
 20
-34.000027037512609
 30
0.0
 11
165.5
 21
-34.000027037512609
 31
0.0
  0
LINE
  8
LY_3
  6
CONTINUOUS
 62
               3
  5
1EF
 10
161.10000610351562
 20
-26.000027037512609
 30
0.0
 11
165.5
 21
-26.000027037512609
 31
0.0
  0
LINE
  8
LY_3
  6
CONTINUOUS
 62
               3
  5
1F0
 10
161.10000610351562
 20
-34.000027037512609
 30
0.0
 11
161.10000610351562
 21
-26.000027037512609
 31
0.0
  0
LINE
  8
LY_3
  6
CONTINUOUS
 62
               3
  5
1F1
 10
155.5
 20
-27.750027037512609
 30
0.0
 11
161.10000610351562
 21
-27.750027037512609
 31
0.0
  0
LINE
  8
LY_3
  6
CONTINUOUS
 62
               3
  5
1F2
 10
155.5
 20
-32.250027037512609
 30
0.0
 11
161.10000610351562
 21
-32.250027037512609
 31
0.0
  0
LINE
  8
LY_3
  6
CONTINUOUS
 62
               3
  5
1F3
 10
155.5
 20
-35.000027037512609
 30
0.0
 11
165.0
 21
-35.000027037512609
 31
0.0
  0
LINE
  8
LY_3
  6
CONTINUOUS
 62
               3
  5
1F4
 10
164.80000305175781
 20
-33.500027037512609
 30
0.0
 11
161.10000610351562
 21
-33.500027037512609
 31
0.0
  0
LINE
  8
LY_3
  6
CONTINUOUS
 62
               3
  5
1F5
 10
160.89999389648437
 20
-32.000027037512609
 30
0.0
 11
151.89999389648438
 21
-32.000027037512609
 31
0.0
  0
LINE
  8
LY_3
  6
CONTINUOUS
 62
               3
  5
1F6
 10
160.89999389648437
 20
-28.000027037512609
 30
0.0
 11
151.89999389648438
 21
-28.000027037512609
 31
0.0
  0
LINE
  8
LY_3
  6
CONTINUOUS
 62
               3
  5
1F7
 10
165.10000610351562
 20
-27.019642210852453
 30
0.0
 11
165.10000610351562
 21
-32.980419493567297
 31
0.0
  0
LINE
  8
LY_3
  6
CONTINUOUS
 62
               3
  5
1F8
 10
164.80000305175781
 20
-26.500027037512609
 30
0.0
 11
161.10000610351562
 21
-26.500027037512609
 31
0.0
  0
LINE
  8
LY_3
  6
CONTINUOUS
 62
               3
  5
1F9
 10
160.20718383789063
 20
-28.000027037512609
 30
0.0
 11
160.20718383789063
 21
-32.000027037512609
 31
0.0
  0
LINE
  8
LY_3
  6
CONTINUOUS
 62
             110
  5
1FA
 10
160.20718383789063
 20
-28.400020933996984
 30
0.0
 11
151.5
 21
-28.400020933996984
 31
0.0
  0
LINE
  8
LY_3
  6
CONTINUOUS
 62
             110
  5
1FB
 10
160.20718383789063
 20
-31.600033141028234
 30
0.0
 11
151.49998474121094
 21
-31.600033141028234
 31
0.0
  0
LINE
  8
LY_3
  6
CONTINUOUS
 62
             110
  5
1FC
 10
160.20718547477736
 20
-28.4000176235254
 30
0.0
 11
160.90000838058586
 21
-28.000016002278699
 31
0.0
  0
LINE
  8
LY_3
  6
CONTINUOUS
 62
             110
  5
1FD
 10
160.20717620306795
 20
-31.60003295910326
 30
0.0
 11
160.89999927773769
 21
-32.000034380673583
 31
0.0
  0
LINE
  8
LY_3
  6
CONTINUOUS
 62
               3
  5
1FE
 10
151.90000126513769
 20
-28.000030673315905
 30
0.0
 11
151.09999603259348
 21
-28.800035770989325
 31
0.0
  0
LINE
  8
LY_3
  6
CONTINUOUS
 62
               3
  5
1FF
 10
151.89998244600656
 20
-32.000041056549549
 30
0.0
 11
151.09998233851957
 21
-31.200041555977009
 31
0.0
  0
LINE
  8
LY_3
  6
CONTINUOUS
 62
               3
  5
200
 10
151.89999389648438
 20
-28.000027037512609
 30
0.0
 11
151.89999389648438
 21
-32.000027037512609
 31
0.0
  0
LINE
  8
LY_3
  6
CONTINUOUS
 62
               3
  5
201
 10
164.80000305175781
 20
-26.500027037512609
 30
0.0
 11
164.80000305175781
 21
-33.500027037512609
 31
0.0
  0
LINE
  8
LY_3
  6
CONTINUOUS
 62
               3
  5
202
 10
164.79999179271613
 20
-26.500028830463407
 30
0.0
 11
165.09999113706476
 21
-27.019642670432631
 31
0.0
  0
LINE
  8
LY_3
  6
CONTINUOUS
 62
               3
  5
203
 10
164.79999564423031
 20
-33.50002656090146
 30
0.0
 11
165.09999880327757
 21
-32.980406113683784
 31
0.0
  0
LINE
  8
LY_3
  6
CONTINUOUS
 62
               3
  5
204
 10
151.10000610351562
 20
-28.800030089270422
 30
0.0
 11
151.10000610351562
 21
-31.200023985754797
 31
0.0
  0
LINE
  8
LY_3
  6
CONTINUOUS
 62
             110
  5
205
 10
151.89999389648438
 20
-32.000027037512609
 30
0.0
 11
150.5
 21
-32.000027037512609
 31
0.0
  0
LINE
  8
LY_3
  6
CONTINUOUS
 62
             110
  5
206
 10
151.49998474121094
 20
-31.600033141028234
 30
0.0
 11
149.5
 21
-31.600033141028234
 31
0.0
  0
LINE
  8
LY_3
  6
CONTINUOUS
 62
             110
  5
207
 10
151.49998474121094
 20
-28.400020933996984
 30
0.0
 11
149.5
 21
-28.400020933996984
 31
0.0
  0
LINE
  8
LY_3
  6
CONTINUOUS
 62
             110
  5
208
 10
151.89999389648438
 20
-28.000027037512609
 30
0.0
 11
150.5
 21
-28.000027037512609
 31
0.0
  0
LINE
  8
LY_3
  6
CONTINUOUS
 62
               3
  5
209
 10
150.5
 20
-32.000027037512609
 30
0.0
 11
150.5
 21
-28.000027037512609
 31
0.0
  0
LINE
  8
LY_3
  6
CONTINUOUS
 62
               3
  5
20A
 10
157.5
 20
125.0
 30
0.0
 11
165.0
 21
125.0
 31
0.0
  0
LINE
  8
LY_3
  6
CONTINUOUS
 62
               3
  5
20B
 10
165.00000799972986
 20
124.99999564459858
 30
0.0
 11
165.50000313572809
 21
125.49999082274326
 31
0.0
  0
LINE
  8
LY_3
  6
CONTINUOUS
 62
               3
  5
20C
 10
165.5
 20
125.5
 30
0.0
 11
165.5
 21
194.5
 31
0.0
  0
LINE
  8
LY_3
  6
CONTINUOUS
 62
               3
  5
20D
 10
157.5
 20
195.0
 30
0.0
 11
165.0
 21
195.0
 31
0.0
  0
LINE
  8
LY_3
  6
CONTINUOUS
 62
               3
  5
20E
 10
165.00000526541771
 20
195.00000719159652
 30
0.0
 11
165.50000579621246
 21
194.50000661865488
 31
0.0
  0
LINE
  8
LY_3
  6
CONTINUOUS
 62
               3
  5
20F
 10
165.0000114440918
 20
195.0
 30
0.0
 11
165.0000114440918
 21
125.0
 31
0.0
  0
ARC
  8
LY_3
  6
CONTINUOUS
 62
               3
  5
210
 10
141.22567749023437
 20
-41.05002245987589
 30
0.0
 40
0.25
 50
270.00001798608935
 51
20.000323852171416
  0
ARC
  8
LY_3
  6
CONTINUOUS
 62
               3
  5
211
 10
141.22569274902344
 20
41.049976014245203
 30
0.0
 40
0.25
 50
339.99967614782861
 51
89.999982013910653
  0
ARC
  8
LY_3
  6
CONTINUOUS
 62
               3
  5
212
 10
152.0
 20
8.9999729624873908
 30
0.0
 40
1.0
 50
270.00001798608935
 51
0.0
  0
ARC
  8
LY_3
  6
CONTINUOUS
 62
               3
  5
213
 10
149.0
 20
8.9999729624873908
 30
0.0
 40
1.0
 50
179.99998133066532
 51
270.00001798608935
  0
ARC
  8
LY_3
  6
CONTINUOUS
 62
               3
  5
214
 10
149.0
 20
-9.0000270375126092
 30
0.0
 40
1.0
 50
89.999982013910653
 51
179.99996402782131
  0
ARC
  8
LY_3
  6
CONTINUOUS
 62
               3
  5
215
 10
152.0
 20
-9.0000270375126092
 30
0.0
 40
1.0
 50
0.0
 51
89.999982013910653
  0
ARC
  8
LY_3
  6
CONTINUOUS
 62
               3
  5
216
 10
157.69999694824219
 20
-18.000027037512609
 30
0.0
 40
1.0
 50
359.99994535848663
 51
179.99996402782131
  0
ARC
  8
LY_3
  6
CONTINUOUS
 62
               3
  5
217
 10
157.69999694824219
 20
17.999972962487391
 30
0.0
 40
1.0
 50
179.99996402782131
 51
0.0000100179126691
  0
CIRCLE
  8
LY_3
  6
CONTINUOUS
 62
               3
  5
218
 10
0.0
 20
0.0
 30
0.0
 40
31.899999618530273
  0
CIRCLE
  8
LY_3
  6
CONTINUOUS
 62
               3
  5
219
 10
0.0
 20
0.0
 30
0.0
 40
38.599998474121094
  0
CIRCLE
  8
LY_3
  6
CONTINUOUS
 62
               3
  5
21A
 10
0.0
 20
0.0
 30
0.0
 40
41.299999237060547
  0
CIRCLE
  8
LY_3
  6
CENTER
 62
             110
  5
21B
 10
0.0
 20
0.0
 30
0.0
 40
46.099998474121094
  0
ARC
  8
LY_3
  6
CONTINUOUS
 62
               3
  5
21C
 10
0.0
 20
0.0
 30
0.0
 40
55.950000762939453
 50
91.024127898819046
 51
268.97585479833691
  0
CIRCLE
  8
LY_3
  6
CONTINUOUS
 62
               3
  5
21D
 10
0.0
 20
0.0
 30
0.0
 40
56.75
  0
CIRCLE
  8
LY_3
  6
CONTINUOUS
 62
               3
  5
21E
 10
17.6417236328125
 20
42.590839385986328
 30
0.0
 40
4.25
  0
CIRCLE
  8
LY_3
  6
CONTINUOUS
 62
               3
  5
21F
 10
-17.6417236328125
 20
42.590854644775391
 30
0.0
 40
4.25
  0
CIRCLE
  8
LY_3
  6
CONTINUOUS
 62
               3
  5
220
 10
-42.59088134765625
 20
17.641708374023438
 30
0.0
 40
4.25
  0
CIRCLE
  8
LY_3
  6
CONTINUOUS
 62
               3
  5
221
 10
-42.59088134765625
 20
-17.641693115234375
 30
0.0
 40
4.25
  0
CIRCLE
  8
LY_3
  6
CONTINUOUS
 62
               3
  5
222
 10
-17.6417236328125
 20
-42.590835571289063
 30
0.0
 40
4.25
  0
CIRCLE
  8
LY_3
  6
CONTINUOUS
 62
               3
  5
223
 10
17.64166259765625
 20
-42.590850830078125
 30
0.0
 40
4.25
  0
CIRCLE
  8
LY_3
  6
CONTINUOUS
 62
               3
  5
224
 10
42.590835571289063
 20
-17.641708374023438
 30
0.0
 40
4.25
  0
CIRCLE
  8
LY_3
  6
CONTINUOUS
 62
               3
  5
225
 10
42.590835571289063
 20
17.641693115234375
 30
0.0
 40
4.25
  0
ARC
  8
LY_3
  6
CONTINUOUS
 62
               3
  5
226
 10
0.0
 20
0.0
 30
0.0
 40
55.950000762939453
 50
271.02410922948445
 51
88.975890770515619
  0
CIRCLE
  8
LY_3
  6
CONTINUOUS
 62
               3
  5
227
 10
0.0
 20
0.0
 30
0.0
 40
15.0
  0
ARC
  8
LY_3
  6
CONTINUOUS
 62
               3
  5
228
 10
0.0
 20
-0.75
 30
0.0
 40
13.449999809265137
 50
312.57453368669229
 51
227.42543717131821
  0
CIRCLE
  8
LY_3
  6
CONTINUOUS
 62
               3
  5
229
 10
-5.6419677734375
 20
-12.099212646484375
 30
0.0
 40
1.0
  0
CIRCLE
  8
LY_3
  6
CONTINUOUS
 62
               3
  5
22A
 10
5.6419677734375
 20
-12.099212646484375
 30
0.0
 40
1.0
  0
ARC
  8
LY_3
  6
CONTINUOUS
 62
               3
  5
22B
 10
-5.6419677734375
 20
-12.099212646484375
 30
0.0
 40
2.3499999046325684
 50
1.6686390131745044
 51
139.05776108601387
  0
ARC
  8
LY_3
  6
CONTINUOUS
 62
               3
  5
22C
 10
5.6419677734375
 20
-12.099212646484375
 30
0.0
 40
2.3499999046325684
 50
40.942257583320803
 51
178.33137613434388
  0
ARC
  8
LY_3
  6
CONTINUOUS
 62
               3
  5
22D
 10
-8.30462646484375
 20
-9.789276123046875
 30
0.0
 40
1.1749999523162842
 50
227.42545447416222
 51
319.05776973743588
  0
ARC
  8
LY_3
  6
CONTINUOUS
 62
               3
  5
22E
 10
8.30462646484375
 20
-9.789276123046875
 30
0.0
 40
1.1749999523162842
 50
220.94221159322944
 51
312.57452344140853
  0
CIRCLE
  8
LY_3
  6
CONTINUOUS
 62
               3
  5
22F
 10
0.0
 20
0.0
 30
0.0
 40
8.0
  0
ARC
  8
LY_3
  6
CONTINUOUS
 62
               3
  5
230
 10
0.0
 20
7.0
 30
0.0
 40
2.5
 50
14.477514851569147
 51
165.52250381776554
  0
ARC
  8
LY_3
  6
CONTINUOUS
 62
               3
  5
231
 10
-7.0
 20
0.0
 30
0.0
 40
2.5
 50
104.47751052585815
 51
255.52251315243285
  0
ARC
  8
LY_3
  6
CONTINUOUS
 62
               3
  5
232
 10
0.0
 20
-7.0
 30
0.0
 40
2.5
 50
194.47752350299115
 51
345.52251246918752
  0
ARC
  8
LY_3
  6
CONTINUOUS
 62
               3
  5
233
 10
7.0
 20
0.0
 30
0.0
 40
2.5
 50
284.47751917728016
 51
75.522508143476529
  0
ARC
  8
LY_3
  6
CONTINUOUS
 62
               3
  5
234
 10
0.0
 20
0.0
 30
0.0
 40
7.0
 50
0.0
 51
51.786808475738496
  0
ARC
  8
LY_3
  6
CONTINUOUS
 62
               3
  5
235
 10
0.0
 20
0.0
 30
0.0
 40
7.0
 50
128.21321019359618
 51
0.0000100179126691
  0
ARC
  8
LY_3
  6
CONTINUOUS
 62
               3
  5
236
 10
0.0
 20
0.0
 30
0.0
 40
6.0
 50
113.55650532915175
 51
66.443489207149753
  0
ARC
  8
LY_3
  6
CONTINUOUS
 62
               3
  5
237
 10
406.0
 20
160.0
 30
0.0
 40
4.0
 50
0.0
 51
89.999982013910653
  0
ARC
  8
LY_3
  6
CONTINUOUS
 62
               3
  5
238
 10
406.0
 20
160.0
 30
0.0
 40
4.0
 50
270.00001798608935
 51
0.0
  0
ARC
  8
LY_3
  6
CONTINUOUS
 62
               3
  5
239
 10
244.0
 20
160.0
 30
0.0
 40
4.0
 50
89.999982013910653
 51
270.00000068324533
  0
ARC
  8
LY_3
  6
CONTINUOUS
 62
               3
  5
23A
 10
406.19046020507812
 20
160.80953979492187
 30
0.0
 40
0.622045636177063
 50
270.00001798608935
 51
0.0
  0
ARC
  8
LY_3
  6
CONTINUOUS
 62
               3
  5
23B
 10
406.19046020507812
 20
159.19046020507812
 30
0.0
 40
0.622045636177063
 50
0.0
 51
89.999982013910653
  0
ARC
  8
LY_3
  6
CONTINUOUS
 62
               3
  5
23C
 10
407.80953979492187
 20
159.19046020507812
 30
0.0
 40
0.622045636177063
 50
89.999982013910653
 51
179.99996402782131
  0
ARC
  8
LY_3
  6
CONTINUOUS
 62
               3
  5
23D
 10
407.80953979492187
 20
160.80953979492187
 30
0.0
 40
0.622045636177063
 50
179.99998133066532
 51
270.00001798608935
  0
CIRCLE
  8
LY_3
  6
CONTINUOUS
 62
               3
  5
23E
 10
407.0
 20
160.0
 30
0.0
 40
2.7999999523162842
  0
ARC
  8
LY_3
  6
CONTINUOUS
 62
               3
  5
23F
 10
468.0
 20
-0.0000270375126092
 30
0.0
 40
8.0
 50
273.18474395076953
 51
86.815201407717112
  0
ARC
  8
LY_3
  6
CONTINUOUS
 62
               3
  5
240
 10
463.78627014160156
 20
-8.4750331410282342
 30
0.0
 40
3.7100000381469727
 50
318.15515682352412
 51
43.158169025558863
  0
ARC
  8
LY_3
  6
CONTINUOUS
 62
               3
  5
241
 10
463.78627014160156
 20
8.4749790660030158
 30
0.0
 40
3.7100000381469727
 50
316.8418378046303
 51
41.844843176475884
  0
ARC
  8
LY_3
  6
CONTINUOUS
 62
               3
  5
242
 10
449.5
 20
-0.0000270375126092
 30
0.0
 40
18.0
 50
340.52878187452552
 51
19.471161776413851
  0
ARC
  8
LY_3
  6
CONTINUOUS
 62
               3
  5
243
 10
468.5
 20
-8.9861262806766717
 30
0.0
 40
1.0
 50
93.184687488023329
 51
179.99996402782131
  0
ARC
  8
LY_3
  6
CONTINUOUS
 62
               3
  5
244
 10
468.5
 20
8.9860722056514533
 30
0.0
 40
1.0
 50
179.99996402782131
 51
266.81524739780849
  0
ARC
  8
LY_3
  6
CONTINUOUS
 62
               3
  5
245
 10
463.0
 20
27.999972962487391
 30
0.0
 40
2.0
 50
0.0
 51
90.000002504478161
  0
ARC
  8
LY_3
  6
CONTINUOUS
 62
               3
  5
246
 10
463.0
 20
132.0
 30
0.0
 40
2.0
 50
269.99999749552182
 51
0.0
  0
ARC
  8
LY_3
  6
CONTINUOUS
 62
               3
  5
247
 10
463.78627014160156
 20
151.52499389648437
 30
0.0
 40
3.7100000381469727
 50
318.15515682352412
 51
43.158162195369691
  0
ARC
  8
LY_3
  6
CONTINUOUS
 62
               3
  5
248
 10
468.5
 20
151.01390075683594
 30
0.0
 40
1.0
 50
93.18475578991503
 51
180.00003232971301
  0
ARC
  8
LY_3
  6
CONTINUOUS
 62
               3
  5
249
 10
468.0
 20
160.0
 30
0.0
 40
8.0
 50
273.1847985922829
 51
321.31781103190139
  0
ARC
  8
LY_3
  6
CONTINUOUS
 62
               3
  5
24A
 10
468.5
 20
168.98609924316406
 30
0.0
 40
1.0
 50
180.00003597217869
 51
266.81531251197669
  0
ARC
  8
LY_3
  6
CONTINUOUS
 62
               3
  5
24B
 10
463.78627014160156
 20
168.47500610351562
 30
0.0
 40
3.7100000381469727
 50
316.84183097444117
 51
41.844843176475884
  0
ARC
  8
LY_3
  6
CONTINUOUS
 62
               3
  5
24C
 10
449.5
 20
160.0
 30
0.0
 40
18.0
 50
340.52883822358615
 51
343.87237974684746
  0
ARC
  8
LY_3
  6
CONTINUOUS
 62
               3
  5
24D
 10
463.0
 20
188.0
 30
0.0
 40
2.0
 50
0.0
 51
90.000002504478161
  0
CIRCLE
  8
LY_3
  6
CONTINUOUS
 62
               3
  5
24E
 10
436.0
 20
160.0
 30
0.0
 40
1.1999969482421875
  0
CIRCLE
  8
LY_3
  6
CONTINUOUS
 62
               3
  5
24F
 10
436.0
 20
160.0
 30
0.0
 40
1.5
  0
ARC
  8
LY_3
  6
CONTINUOUS
 62
               3
  5
250
 10
449.5
 20
160.0
 30
0.0
 40
18.0
 50
16.127620253152529
 51
19.471218125474504
  0
ARC
  8
LY_3
  6
CONTINUOUS
 62
               3
  5
251
 10
468.0
 20
160.0
 30
0.0
 40
8.0
 50
38.682188968098593
 51
86.81525604923047
  0
ARC
  8
LY_3
  6
CONTINUOUS
 62
               3
  5
252
 10
156.99998474121094
 20
23.499972962487391
 30
0.0
 40
0.5
 50
0.0
 51
90.000002504478161
  0
ARC
  8
LY_3
  6
CONTINUOUS
 62
               3
  5
253
 10
156.99998474121094
 20
-23.500027037512609
 30
0.0
 40
0.5
 50
269.99999749552182
 51
0.0
  0
ARC
  8
LY_3
  6
CONTINUOUS
 62
               3
  5
254
 10
160.89999389648437
 20
27.799976014245203
 30
0.0
 40
0.2000000029802322
 50
359.99998133066634
 51
90.000016164856504
  0
ARC
  8
LY_3
  6
CONTINUOUS
 62
               3
  5
255
 10
160.89999389648437
 20
32.199969910729578
 30
0.0
 40
0.2000000029802322
 50
269.9999838351435
 51
359.99996402782193
  0
ARC
  8
LY_3
  6
CONTINUOUS
 62
               3
  5
256
 10
160.89999389648437
 20
-32.200023985754797
 30
0.0
 40
0.2000000029802322
 50
0.0000359721780749
 51
90.000016164856504
  0
ARC
  8
LY_3
  6
CONTINUOUS
 62
               3
  5
257
 10
160.89999389648437
 20
-27.800030089270422
 30
0.0
 40
0.2000000029802322
 50
269.9999838351435
 51
0.0000186693336568
  0
CIRCLE
  8
LY_3
  6
CENTER
 62
             110
  5
258
 10
0.0
 20
0.0
 30
0.0
 40
30.0
  0
CIRCLE
  8
LY_3
  6
DASHED
 62
             110
  5
25A
 10
30.0
 20
0.0
 30
0.0
 40
2.0
  0
CIRCLE
  8
LY_3
  6
DASHED
 62
             110
  5
25B
 10
30.0
 20
0.0
 30
0.0
 40
1.6000000238418579
  0
CIRCLE
  8
LY_3
  6
DASHED
 62
             110
  5
25C
 10
0.0
 20
30.0
 30
0.0
 40
1.6000000238418579
  0
CIRCLE
  8
LY_3
  6
DASHED
 62
             110
  5
25D
 10
0.0
 20
30.0
 30
0.0
 40
2.0
  0
CIRCLE
  8
LY_3
  6
DASHED
 62
             110
  5
25E
 10
-30.0
 20
0.0
 30
0.0
 40
1.6000000238418579
  0
CIRCLE
  8
LY_3
  6
DASHED
 62
             110
  5
25F
 10
-30.0
 20
0.0
 30
0.0
 40
2.0
  0
CIRCLE
  8
LY_3
  6
DASHED
 62
             110
  5
260
 10
0.0
 20
-30.0
 30
0.0
 40
1.6000000238418579
  0
CIRCLE
  8
LY_3
  6
DASHED
 62
             110
  5
261
 10
0.0
 20
-30.0
 30
0.0
 40
2.0
  0
POLYLINE
  8
LY_3
  6
CONTINUOUS
 62
             110
  5
262
 66
               1
 10
0.0
 20
0.0
 30
0.0
  0
VERTEX
  8
LY_3
  6
CONTINUOUS
 62
             110
  5
359
 10
193.30770202655793
 20
24.000763332097293
 30
0.0
  0
VERTEX
  8
LY_3
  6
CONTINUOUS
 62
             110
  5
35A
 10
193.9773137353877
 20
22.989518303537359
 30
0.0
  0
VERTEX
  8
LY_3
  6
CONTINUOUS
 62
             110
  5
35B
 10
194.62331679480374
 20
21.955915586027501
 30
0.0
  0
VERTEX
  8
LY_3
  6
CONTINUOUS
 62
             110
  5
35C
 10
195.24043175007063
 20
20.902424480327181
 30
0.0
  0
VERTEX
  8
LY_3
  6
CONTINUOUS
 62
             110
  5
35D
 10
195.82337914645282
 20
19.831514287195848
 30
0.0
  0
VERTEX
  8
LY_3
  6
CONTINUOUS
 62
             110
  5
35E
 10
196.36687952921486
 20
18.745654307392961
 30
0.0
  0
VERTEX
  8
LY_3
  6
CONTINUOUS
 62
             110
  5
35F
 10
196.86565344362123
 20
17.647313841677974
 30
0.0
  0
VERTEX
  8
LY_3
  6
CONTINUOUS
 62
             110
  5
360
 10
197.31442143493646
 20
16.538962190810345
 30
0.0
  0
VERTEX
  8
LY_3
  6
CONTINUOUS
 62
             110
  5
361
 10
197.70790404842506
 20
15.423068655549532
 30
0.0
  0
VERTEX
  8
LY_3
  6
CONTINUOUS
 62
             110
  5
362
 10
198.04082182935153
 20
14.302102536654985
 30
0.0
  0
VERTEX
  8
LY_3
  6
CONTINUOUS
 62
             110
  5
363
 10
198.30789532298036
 20
13.178533134886163
 30
0.0
  0
VERTEX
  8
LY_3
  6
CONTINUOUS
 62
             110
  5
364
 10
198.50384507457608
 20
12.054829751002522
 30
0.0
  0
VERTEX
  8
LY_3
  6
CONTINUOUS
 62
             110
  5
365
 10
198.62339162940319
 20
10.933461685763515
 30
0.0
  0
VERTEX
  8
LY_3
  6
CONTINUOUS
 62
             110
  5
366
 10
198.66125553272622
 20
9.8168982399286016
 30
0.0
  0
VERTEX
  8
LY_3
  6
CONTINUOUS
 62
             110
  5
367
 10
198.61215732980963
 20
8.7076087142572334
 30
0.0
  0
VERTEX
  8
LY_3
  6
CONTINUOUS
 62
             110
  5
368
 10
198.47081756591797
 20
7.6080624095088751
 30
0.0
  0
VERTEX
  8
LY_3
  6
CONTINUOUS
 62
             110
  5
369
 10
198.17520495491104
 20
6.2982053366722521
 30
0.0
  0
VERTEX
  8
LY_3
  6
CONTINUOUS
 62
             110
  5
36A
 10
197.75762294962121
 20
5.0040580621228017
 30
0.0
  0
VERTEX
  8
LY_3
  6
CONTINUOUS
 62
             110
  5
36B
 10
197.23776911915957
 20
3.7235894943548682
 30
0.0
  0
VERTEX
  8
LY_3
  6
CONTINUOUS
 62
             110
  5
36C
 10
196.63534103263723
 20
2.4547685418627907
 30
0.0
  0
VERTEX
  8
LY_3
  6
CONTINUOUS
 62
             110
  5
36D
 10
195.97003625916523
 20
1.1955641131409109
 30
0.0
  0
VERTEX
  8
LY_3
  6
CONTINUOUS
 62
             110
  5
36E
 10
195.2615523678547
 20
-0.0560548833164285
 30
0.0
  0
VERTEX
  8
LY_3
  6
CONTINUOUS
 62
             110
  5
36F
 10
194.52958692781672
 20
-1.3021195390148872
 30
0.0
  0
VERTEX
  8
LY_3
  6
CONTINUOUS
 62
             110
  5
370
 10
193.79383750816237
 20
-2.5446609454601212
 30
0.0
  0
VERTEX
  8
LY_3
  6
CONTINUOUS
 62
             110
  5
371
 10
193.07400167800276
 20
-3.785710194157792
 30
0.0
  0
VERTEX
  8
LY_3
  6
CONTINUOUS
 62
             110
  5
372
 10
192.38977700644895
 20
-5.0272983766135582
 30
0.0
  0
VERTEX
  8
LY_3
  6
CONTINUOUS
 62
             110
  5
373
 10
191.76086106261207
 20
-6.2714565843330732
 30
0.0
  0
VERTEX
  8
LY_3
  6
CONTINUOUS
 62
             110
  5
374
 10
191.20695141560316
 20
-7.5202159088219993
 30
0.0
  0
VERTEX
  8
LY_3
  6
CONTINUOUS
 62
             110
  5
375
 10
190.74774563453332
 20
-8.7756074415859935
 30
0.0
  0
VERTEX
  8
LY_3
  6
CONTINUOUS
 62
             110
  5
376
 10
190.40294128851366
 20
-10.03966227413072
 30
0.0
  0
VERTEX
  8
LY_3
  6
CONTINUOUS
 62
             110
  5
377
 10
190.19223594665527
 20
-11.314411497961828
 30
0.0
  0
VERTEX
  8
LY_3
  6
CONTINUOUS
 62
             110
  5
378
 10
190.13306486586978
 20
-12.227458931718328
 30
0.0
  0
VERTEX
  8
LY_3
  6
CONTINUOUS
 62
             110
  5
379
 10
190.14803432009859
 20
-13.145433623219919
 30
0.0
  0
VERTEX
  8
LY_3
  6
CONTINUOUS
 62
             110
  5
37A
 10
190.23363057366018
 20
-14.066837536781584
 30
0.0
  0
VERTEX
  8
LY_3
  6
CONTINUOUS
 62
             110
  5
37B
 10
190.38633989087302
 20
-14.990172636718313
 30
0.0
  0
VERTEX
  8
LY_3
  6
CONTINUOUS
 62
             110
  5
37C
 10
190.6026485360556
 20
-15.913940887345092
 30
0.0
  0
VERTEX
  8
LY_3
  6
CONTINUOUS
 62
             110
  5
37D
 10
190.87904277352632
 20
-16.836644252976903
 30
0.0
  0
VERTEX
  8
LY_3
  6
CONTINUOUS
 62
             110
  5
37E
 10
191.21200886760371
 20
-17.756784697928737
 30
0.0
  0
VERTEX
  8
LY_3
  6
CONTINUOUS
 62
             110
  5
37F
 10
191.59803308260624
 20
-18.672864186515582
 30
0.0
  0
VERTEX
  8
LY_3
  6
CONTINUOUS
 62
             110
  5
380
 10
192.03360168285232
 20
-19.583384683052415
 30
0.0
  0
VERTEX
  8
LY_3
  6
CONTINUOUS
 62
             110
  5
381
 10
192.51520093266049
 20
-20.486848151854229
 30
0.0
  0
VERTEX
  8
LY_3
  6
CONTINUOUS
 62
             110
  5
382
 10
193.03931709634915
 20
-21.38175655723601
 30
0.0
  0
VERTEX
  8
LY_3
  6
CONTINUOUS
 62
             110
  5
383
 10
193.60243643823679
 20
-22.266611863512743
 30
0.0
  0
VERTEX
  8
LY_3
  6
CONTINUOUS
 62
             110
  5
384
 10
194.20104522264191
 20
-23.139916034999416
 30
0.0
  0
VERTEX
  8
LY_3
  6
CONTINUOUS
 62
             110
  5
385
 10
194.83162971388293
 20
-24.000171036011011
 30
0.0
  0
SEQEND
  8
LY_3
  6
CONTINUOUS
 62
             110
  5
386
  0
TEXT
  8
LY_3
  6
CONTINUOUS
 62
             110
  5
263
 10
398.47618985176086
 20
147.39999997615814
 30
0.0
 40
3.2000000476837158
  1
0
 41
1.1428576526187644
  7
MX_NOTE_STANDARD
 72
               1
 11
400.0
 21
149.0
 31
0.0
 73
               2
  0
TEXT
  8
LY_3
  6
CONTINUOUS
 62
             110
  5
264
 10
386.79999995231628
 20
147.39999997615814
 30
0.0
 40
3.2000000476837158
  1
10
 41
1.3333333333333337
  7
MX_NOTE_STANDARD
 72
               1
 11
390.0
 21
149.0
 31
0.0
 73
               2
  0
TEXT
  8
LY_3
  6
CONTINUOUS
 62
             110
  5
265
 10
376.79999995231628
 20
147.39999997615814
 30
0.0
 40
3.2000000476837158
  1
20
 41
1.0909091027315001
  7
MX_NOTE_STANDARD
 72
               1
 11
380.0
 21
149.0
 31
0.0
 73
               2
  0
TEXT
  8
LY_3
  6
CONTINUOUS
 62
             110
  5
266
 10
366.79999995231628
 20
147.39999997615814
 30
0.0
 40
3.2000000476837158
  1
30
 41
1.0909091027315001
  7
MX_NOTE_STANDARD
 72
               1
 11
370.0
 21
149.0
 31
0.0
 73
               2
  0
TEXT
  8
LY_3
  6
CONTINUOUS
 62
             110
  5
267
 10
356.79999995231628
 20
147.39999997615814
 30
0.0
 40
3.2000000476837158
  1
40
 41
1.0909091027315001
  7
MX_NOTE_STANDARD
 72
               1
 11
360.0
 21
149.0
 31
0.0
 73
               2
  0
TEXT
  8
LY_3
  6
CONTINUOUS
 62
             110
  5
268
 10
346.79999995231628
 20
147.39999997615814
 30
0.0
 40
3.2000000476837158
  1
50
 41
1.0909091027315001
  7
MX_NOTE_STANDARD
 72
               1
 11
350.0
 21
149.0
 31
0.0
 73
               2
  0
TEXT
  8
LY_3
  6
CONTINUOUS
 62
             110
  5
269
 10
336.79999995231628
 20
147.39999997615814
 30
0.0
 40
3.2000000476837158
  1
60
 41
1.0909091027315001
  7
MX_NOTE_STANDARD
 72
               1
 11
340.0
 21
149.0
 31
0.0
 73
               2
  0
TEXT
  8
LY_3
  6
CONTINUOUS
 62
             110
  5
26A
 10
326.79999995231628
 20
147.39999997615814
 30
0.0
 40
3.2000000476837158
  1
70
 41
1.0909091027315001
  7
MX_NOTE_STANDARD
 72
               1
 11
330.0
 21
149.0
 31
0.0
 73
               2
  0
TEXT
  8
LY_3
  6
CONTINUOUS
 62
             110
  5
26B
 10
316.79999995231628
 20
147.39999997615814
 30
0.0
 40
3.2000000476837158
  1
80
 41
1.0909091027315001
  7
MX_NOTE_STANDARD
 72
               1
 11
320.0
 21
149.0
 31
0.0
 73
               2
  0
TEXT
  8
LY_3
  6
CONTINUOUS
 62
             110
  5
26C
 10
306.79999995231628
 20
147.39999997615814
 30
0.0
 40
3.2000000476837158
  1
90
 41
1.0909091027315001
  7
MX_NOTE_STANDARD
 72
               1
 11
310.0
 21
149.0
 31
0.0
 73
               2
  0
TEXT
  8
LY_3
  6
CONTINUOUS
 62
             110
  5
26D
 10
295.19999992847443
 20
147.39999997615814
 30
0.0
 40
3.2000000476837158
  1
100
 41
1.285714296662078
  7
MX_NOTE_STANDARD
 72
               1
 11
300.0
 21
149.0
 31
0.0
 73
               2
  0
TEXT
  8
LY_3
  6
CONTINUOUS
 62
             110
  5
26E
 10
285.19999992847443
 20
147.39999997615814
 30
0.0
 40
3.2000000476837158
  1
110
 41
1.3846153719185372
  7
MX_NOTE_STANDARD
 72
               1
 11
290.0
 21
149.0
 31
0.0
 73
               2
  0
TEXT
  8
LY_3
  6
CONTINUOUS
 62
             110
  5
26F
 10
275.19999992847443
 20
147.39999997615814
 30
0.0
 40
3.2000000476837158
  1
120
 41
1.1999999999999997
  7
MX_NOTE_STANDARD
 72
               1
 11
280.0
 21
149.0
 31
0.0
 73
               2
  0
TEXT
  8
LY_3
  6
CONTINUOUS
 62
             110
  5
270
 10
265.19999992847443
 20
147.39999997615814
 30
0.0
 40
3.2000000476837158
  1
130
 41
1.1999999999999997
  7
MX_NOTE_STANDARD
 72
               1
 11
270.0
 21
149.0
 31
0.0
 73
               2
  0
TEXT
  8
LY_3
  6
CONTINUOUS
 62
             110
  5
271
 10
255.19999992847443
 20
147.39999997615814
 30
0.0
 40
3.2000000476837158
  1
140
 41
1.1999999999999997
  7
MX_NOTE_STANDARD
 72
               1
 11
260.0
 21
149.0
 31
0.0
 73
               2
  0
TEXT
  8
LY_3
  6
CONTINUOUS
 62
             110
  5
272
 10
245.19999992847443
 20
147.39999997615814
 30
0.0
 40
3.2000000476837158
  1
150
 41
1.1999999999999997
  7
MX_NOTE_STANDARD
 72
               1
 11
250.0
 21
149.0
 31
0.0
 73
               2
  0
TEXT
  8
LY_3
  6
CONTINUOUS
 62
             110
  5
273
 10
427.60000002384186
 20
133.69507718086243
 30
0.0
 40
3.2000000476837158
  1
2
 50
90.0
 41
0.9523813544757621
  7
MX_NOTE_STANDARD
 72
               1
 11
426.0
 21
135.21888732910156
 31
0.0
 73
               2
  0
TEXT
  8
LY_3
  6
CONTINUOUS
 62
             110
  5
274
 10
427.60000002384186
 20
158.47618985176086
 30
0.0
 40
3.2000000476837158
  1
0
 50
90.0
 41
1.1428576526187644
  7
MX_NOTE_STANDARD
 72
               1
 11
426.0
 21
160.0
 31
0.0
 73
               2
  0
TEXT
  8
LY_3
  6
CONTINUOUS
 62
             110
  5
275
 10
427.60000002384186
 20
143.06604886054993
 30
0.0
 40
3.2000000476837158
  1
1
 50
90.0
 41
1.4999999552965175
  7
MX_NOTE_STANDARD
 72
               1
 11
426.0
 21
144.58985900878906
 31
0.0
 73
               2
  0
TEXT
  8
LY_3
  6
CONTINUOUS
 62
             110
  5
276
 10
427.60000002384186
 20
173.89237332344055
 30
0.0
 40
3.2000000476837158
  1
9
 50
90.0
 41
0.9523813544757621
  7
MX_NOTE_STANDARD
 72
               1
 11
426.0
 21
175.41618347167969
 31
0.0
 73
               2
  0
TEXT
  8
LY_3
  6
CONTINUOUS
 62
             110
  5
277
 10
427.60000002384186
 20
183.2553493976593
 30
0.0
 40
3.2000000476837158
  1
8
 50
90.0
 41
0.9523813544757621
  7
MX_NOTE_STANDARD
 72
               1
 11
426.0
 21
184.77915954589844
 31
0.0
 73
               2
  0
TEXT
  8
LY_3
  6
CONTINUOUS
 62
             110
  5
278
 10
414.25
 20
158.33333253860474
 30
0.0
 40
3.5
  1
0
 50
90.0
 41
1.1428576866785689
  7
MX_NOTE_STANDARD
 72
               1
 11
412.5
 21
160.0
 31
0.0
 73
               2
  0
DIMENSION
  8
LY_3
  6
CONTINUOUS
 62
             110
  5
289
  2
*D2
 10
80.0
 20
-7.0
 30
0.0
 11
80.0
 21
21.251029014587402
 31
0.0
 70
             128
  1
<>
 13
4.33013916015625
 23
5.5
 33
0.0
 14
0.0
 24
-7.0
 34
0.0
 50
90.0
  3
MXDIMSTYLE
1001
ACAD
1000
DSTYLE
1002
{
1070
              41
1040
5.54
1070
              42
1040
2.5399999618530273
1070
              44
1040
2.2860002517700195
1070
             140
1040
5.1999998092651367
1070
             271
1070
               4
1070
             284
1070
               8
1070
             340
1005
283
1002
}
  0
DIMENSION
  8
LY_3
  6
CONTINUOUS
 62
             110
  5
295
  2
*D3
 10
125.0
 20
30.0
 30
0.0
 11
108.76666641235352
 21
30.0
 31
0.0
 70
             128
  1
<>
 13
90.0
 23
5.4999732971191406
 33
0.0
 14
125.0
 24
6.9999732971191406
 34
0.0
  3
MXDIMSTYLE
1001
ACAD
1000
DSTYLE
1002
{
1070
              41
1040
5.54
1070
              42
1040
2.5399999618530273
1070
              44
1040
2.2860002517700195
1070
              75
1070
               1
1070
             140
1040
5.1999998092651367
1070
             271
1070
               4
1070
             284
1070
               8
1002
}
  0
DIMENSION
  8
LY_3
  6
CONTINUOUS
 62
             110
  5
2A0
  2
*D4
 10
140.0
 20
70.0
 30
0.0
 11
122.9989128112793
 21
70.0
 31
0.0
 70
             128
  1
<>
 13
90.0
 23
5.499969482421875
 33
0.0
 14
140.0
 24
55.949979782104492
 34
0.0
  3
MXDIMSTYLE
1001
ACAD
1000
DSTYLE
1002
{
1070
              41
1040
5.54
1070
              75
1070
               1
1070
              76
1070
               1
1070
             140
1040
5.1999998092651367
1070
             271
1070
               4
1070
             284
1070
               8
1002
}
  0
DIMENSION
  8
LY_3
  6
CONTINUOUS
 62
             110
  5
2AC
  2
*D5
 10
465.0
 20
70.0
 30
0.0
 11
304.02474975585937
 21
70.0
 31
0.0
 70
             128
  1
<>
 13
140.0
 23
55.949979782104492
 33
0.0
 14
465.0
 24
28.999977111816406
 34
0.0
  3
MXDIMSTYLE
1001
ACAD
1000
DSTYLE
1002
{
1070
              41
1040
5.54
1070
              42
1040
2.5399999618530273
1070
              44
1040
2.2860002517700195
1070
              76
1070
               1
1070
             140
1040
5.1999998092651367
1070
             271
1070
               4
1070
             284
1070
               8
1002
}
  0
DIMENSION
  8
LY_3
  6
CONTINUOUS
 62
             110
  5
2B9
  2
*D6
 10
475.99998474121094
 20
80.0
 30
0.0
 11
284.18968200683594
 21
80.0
 31
0.0
 70
             128
  1
536～<>
 13
90.0
 23
5.499969482421875
 33
0.0
 14
475.99998474121094
 24
-0.000030517578125
 34
0.0
  3
MXDIMSTYLE
1001
ACAD
1000
DSTYLE
1002
{
1070
              41
1040
5.54
1070
              42
1040
2.5399999618530273
1070
              44
1040
2.2860002517700195
1070
             140
1040
5.1999998092651367
1070
             271
1070
               4
1070
             284
1070
               8
1002
}
  0
DIMENSION
  8
LY_3
  6
CONTINUOUS
 62
             110
  5
2C9
  2
*D7
 10
76.86749267578125
 20
167.0
 30
0.0
 11
76.86749267578125
 21
204.81245422363281
 31
0.0
 70
             128
  1
%%c<>
 13
91.0
 23
153.0
 33
0.0
 14
91.0
 24
167.0
 34
0.0
 50
90.0
  3
MXDIMSTYLE
1001
ACAD
1000
DSTYLE
1002
{
1070
              41
1040
5.54
1070
              42
1040
2.5399999618530273
1070
              44
1040
2.2860000133514404
1070
             140
1040
5.1999998092651367
1070
             271
1070
               4
1070
             284
1070
               8
1002
}
  0
DIMENSION
  8
LY_3
  6
CONTINUOUS
 62
             110
  5
2D6
  2
*D8
 10
179.48655700683594
 20
184.30000000000001
 30
0.0
 11
179.48655700683594
 21
202.59787292480468
 31
0.0
 70
             128
  1
%%c<>
 13
179.48655700683594
 23
135.69999999999999
 33
0.0
 14
179.48655700683594
 24
184.30000000000001
 34
0.0
 50
90.0
  3
MXDIMSTYLE
1001
ACAD
1000
DSTYLE
1002
{
1070
              41
1040
5.54
1070
              75
1070
               1
1070
              76
1070
               1
1070
             140
1040
5.1999998092651367
1070
             271
1070
               4
1070
             284
1070
               8
1070
             340
1005
2D0
1002
}
  0
DIMENSION
  8
LY_3
  6
CONTINUOUS
 62
             110
  5
2E4
  2
*D9
 10
475.99998474121094
 20
60.0
 30
0.0
 11
471.76665878295898
 21
60.0
 31
0.0
 70
             128
  1
<>
 13
465.0
 23
28.999977111816406
 33
0.0
 14
475.99998474121094
 24
-0.0000267028808594
 34
0.0
  3
MXDIMSTYLE
1001
ACAD
1000
DSTYLE
1002
{
1070
              41
1040
5.54
1070
              75
1070
               1
1070
              76
1070
               1
1070
             140
1040
5.1999998092651367
1070
             271
1070
               4
1070
             284
1070
               8
1070
             340
1005
2DE
1002
}
  0
TEXT
  8
LY_3
  6
CONTINUOUS
 62
             110
  5
2E5
 10
95.695978568245977
 20
-46.699999809265137
 30
0.0
 40
5.1999998092651367
  1
Ｃ型止め輪
 41
0.7812499211957835
  7
MX_NOTE_STANDARD
 11
95.695978568245977
 21
-44.099999904632568
 31
0.0
 73
               2
  0
POLYLINE
  8
LY_3
  6
CONTINUOUS
 62
             110
  5
2E6
 66
               1
 10
0.0
 20
0.0
 30
0.0
  0
VERTEX
  8
LY_3
  6
CONTINUOUS
 62
             110
  5
387
 10
147.4097105026226
 20
-15.000349307909119
 30
0.0
  0
VERTEX
  8
LY_3
  6
CONTINUOUS
 62
             110
  5
388
 10
120.0
 20
-50.0
 30
0.0
  0
VERTEX
  8
LY_3
  6
CONTINUOUS
 62
             110
  5
389
 10
95.018895328044891
 20
-50.0
 30
0.0
  0
SEQEND
  8
LY_3
  6
CONTINUOUS
 62
             110
  5
38A
  0
TEXT
  8
LY_3
  6
CONTINUOUS
 62
             110
  5
2E7
 10
184.50847409789762
 20
-46.699999809265137
 30
0.0
 40
5.1999998092651367
  1
軸受（ポリイミド）
 41
0.7812499211957835
  7
MX_NOTE_STANDARD
 11
184.50847409789762
 21
-44.099999904632568
 31
0.0
 73
               2
  0
POLYLINE
  8
LY_3
  6
CONTINUOUS
 62
             110
  5
2E8
 66
               1
 10
0.0
 20
0.0
 30
0.0
  0
VERTEX
  8
LY_3
  6
CONTINUOUS
 62
             110
  5
38B
 10
151.81522457430435
 20
-11.713937812259474
 30
0.0
  0
VERTEX
  8
LY_3
  6
CONTINUOUS
 62
             110
  5
38C
 10
180.0
 20
-50.0
 30
0.0
  0
VERTEX
  8
LY_3
  6
CONTINUOUS
 62
             110
  5
38D
 10
227.70639085769653
 20
-50.0
 30
0.0
  0
SEQEND
  8
LY_3
  6
CONTINUOUS
 62
             110
  5
38E
  0
TEXT
  8
LY_3
  6
CONTINUOUS
 62
             110
  5
2E9
 10
191.52890162294111
 20
53.300000190734863
 30
0.0
 40
5.1999998092651367
  1
ベロ－ズ（ＳＵＳ３１６Ｌ）
 41
0.7812499211957835
  7
MX_NOTE_STANDARD
 11
191.52890162294111
 21
55.900000095367432
 31
0.0
 73
               2
  0
POLYLINE
  8
LY_3
  6
CONTINUOUS
 62
             110
  5
2EA
 66
               1
 10
0.0
 20
0.0
 30
0.0
  0
VERTEX
  8
LY_3
  6
CONTINUOUS
 62
             110
  5
38F
 10
166.88937561264129
 20
15.94165347321109
 30
0.0
  0
VERTEX
  8
LY_3
  6
CONTINUOUS
 62
             110
  5
390
 10
190.0
 20
50.0
 30
0.0
  0
VERTEX
  8
LY_3
  6
CONTINUOUS
 62
             110
  5
391
 10
254.22681838274002
 20
50.0
 30
0.0
  0
SEQEND
  8
LY_3
  6
CONTINUOUS
 62
             110
  5
392
  0
DIMENSION
  8
LY_3
  6
CONTINUOUS
 62
             110
  5
2F9
  2
*D10
 10
133.3074951171875
 20
168.0
 30
0.0
 11
133.3074951171875
 21
179.92847061157227
 31
0.0
 70
             128
  1
%%c<>
 13
140.0
 23
152.0
 33
0.0
 14
140.0
 24
168.0
 34
0.0
 50
90.0
  3
MXDIMSTYLE
1001
ACAD
1000
DSTYLE
1002
{
1070
              41
1040
5.54
1070
              75
1070
               1
1070
              76
1070
               1
1070
             140
1040
5.1999998092651367
1070
             271
1070
               4
1070
             284
1070
               8
1070
             340
1005
2F3
1002
}
  0
TEXT
  8
LY_3
  6
CONTINUOUS
 62
             110
  5
2FA
 10
161.77020512645444
 20
233.30000019073486
 30
0.0
 40
5.1999998092651367
  1
ＣＦ１１４
 41
0.7812499211957835
  7
MX_NOTE_STANDARD
 11
161.77020512645444
 21
235.90000009536743
 31
0.0
 73
               2
  0
POLYLINE
  8
LY_3
  6
CONTINUOUS
 62
             110
  5
2FB
 66
               1
 10
0.0
 20
0.0
 30
0.0
  0
VERTEX
  8
LY_3
  6
CONTINUOUS
 62
             110
  5
393
 10
148.75000762939453
 20
216.75
 30
0.0
  0
VERTEX
  8
LY_3
  6
CONTINUOUS
 62
             110
  5
394
 10
160.0
 20
230.0
 30
0.0
  0
VERTEX
  8
LY_3
  6
CONTINUOUS
 62
             110
  5
395
 10
185.46812188625336
 20
230.0
 30
0.0
  0
SEQEND
  8
LY_3
  6
CONTINUOUS
 62
             110
  5
396
  0
TEXT
  8
LY_3
  6
CONTINUOUS
 62
             110
  5
2FC
 10
266.00088904922205
 20
233.60000019073487
 30
0.0
 40
5.1999998092651367
  1
本体
 41
0.7812499211957835
  7
MX_NOTE_STANDARD
 11
266.00088904922205
 21
236.20000009536744
 31
0.0
 73
               2
  0
POLYLINE
  8
LY_3
  6
CONTINUOUS
 62
             110
  5
2FD
 66
               1
 10
0.0
 20
0.0
 30
0.0
  0
VERTEX
  8
LY_3
  6
CONTINUOUS
 62
             110
  5
397
 10
292.25
 20
184.30000000000001
 30
0.0
  0
VERTEX
  8
LY_3
  6
CONTINUOUS
 62
             110
  5
398
 10
280.0
 20
230.30000000000001
 30
0.0
  0
VERTEX
  8
LY_3
  6
CONTINUOUS
 62
             110
  5
399
 10
265.323805809021
 20
230.30000000000001
 30
0.0
  0
SEQEND
  8
LY_3
  6
CONTINUOUS
 62
             110
  5
39A
  0
TEXT
  8
LY_3
  6
CONTINUOUS
 62
             110
  5
2FE
 10
365.79025762955581
 20
124.25276769708285
 30
0.0
 40
5.1999998092651367
  1
ピッチ
 41
0.7812499211957835
  7
MX_NOTE_STANDARD
 11
365.79025762955581
 21
126.85276760171541
 31
0.0
 73
               2
  0
TEXT
  8
LY_3
  6
CONTINUOUS
 62
             110
  5
2FF
 10
360.57671604256899
 20
123.60276760171541
 30
0.0
 40
2.5999999046325684
  1
ｍｍ
 41
0.7812499976119945
  7
MX_NOTE_STANDARD
 11
360.57671604256899
 21
124.9027675540317
 31
0.0
 73
               2
  0
TEXT
  8
LY_3
  6
CONTINUOUS
 62
             110
  5
300
 10
346.29025762955581
 20
124.25276769708285
 30
0.0
 40
5.1999998092651367
  1
目盛１
 41
0.7812499211957835
  7
MX_NOTE_STANDARD
 11
346.29025762955581
 21
126.85276760171541
 31
0.0
 73
               2
  0
POLYLINE
  8
LY_3
  6
CONTINUOUS
 62
             110
  5
301
 66
               1
 10
0.0
 20
0.0
 30
0.0
  0
VERTEX
  8
LY_3
  6
CONTINUOUS
 62
             110
  5
39B
 10
322.40813685720696
 20
154.28365229545579
 30
0.0
  0
VERTEX
  8
LY_3
  6
CONTINUOUS
 62
             110
  5
39C
 10
341.81599492882924
 20
120.95276750634798
 30
0.0
  0
VERTEX
  8
LY_3
  6
CONTINUOUS
 62
             110
  5
39D
 10
379.73817438935475
 20
120.95276750634798
 30
0.0
  0
SEQEND
  8
LY_3
  6
CONTINUOUS
 62
             110
  5
39E
  0
TEXT
  8
LY_3
  6
CONTINUOUS
 62
             110
  5
302
 10
344.8284282547732
 20
233.30000019073486
 30
0.0
 40
5.1999998092651367
  1
インジケ－タ－
 41
0.7812499211957835
  7
MX_NOTE_STANDARD
 11
344.8284282547732
 21
235.90000009536743
 31
0.0
 73
               2
  0
POLYLINE
  8
LY_3
  6
CONTINUOUS
 62
             110
  5
303
 66
               1
 10
0.0
 20
0.0
 30
0.0
  0
VERTEX
  8
LY_3
  6
CONTINUOUS
 62
             110
  5
39F
 10
399.81561236251946
 20
161.40662135945786
 30
0.0
  0
VERTEX
  8
LY_3
  6
CONTINUOUS
 62
             110
  5
3A0
 10
380.0
 20
230.0
 30
0.0
  0
VERTEX
  8
LY_3
  6
CONTINUOUS
 62
             110
  5
3A1
 10
344.15134501457214
 20
230.0
 30
0.0
  0
SEQEND
  8
LY_3
  6
CONTINUOUS
 62
             110
  5
3A2
  0
TEXT
  8
LY_3
  6
CONTINUOUS
 62
             110
  5
304
 10
409.92060409610468
 20
233.30000019073486
 30
0.0
 40
5.1999998092651367
  1
ハンドル
 41
0.7812499211957835
  7
MX_NOTE_STANDARD
 11
409.92060409610468
 21
235.90000009536743
 31
0.0
 73
               2
  0
POLYLINE
  8
LY_3
  6
CONTINUOUS
 62
             110
  5
305
 66
               1
 10
0.0
 20
0.0
 30
0.0
  0
VERTEX
  8
LY_3
  6
CONTINUOUS
 62
             110
  5
3A3
 10
449.0
 20
190.5
 30
0.0
  0
VERTEX
  8
LY_3
  6
CONTINUOUS
 62
             110
  5
3A4
 10
430.0
 20
230.0
 30
0.0
  0
VERTEX
  8
LY_3
  6
CONTINUOUS
 62
             110
  5
3A5
 10
409.24352085590363
 20
230.0
 30
0.0
  0
SEQEND
  8
LY_3
  6
CONTINUOUS
 62
             110
  5
3A6
  0
TEXT
  8
LY_3
  6
CONTINUOUS
 62
             110
  5
306
 10
436.31482434553692
 20
116.40969350341084
 30
0.0
 40
5.1999998092651367
  1
目盛リング１０分割
 41
0.7812499211957835
  7
MX_NOTE_STANDARD
 11
436.31482434553692
 21
119.0096934080434
 31
0.0
 73
               2
  0
POLYLINE
  8
LY_3
  6
CONTINUOUS
 62
             110
  5
307
 66
               1
 10
0.0
 20
0.0
 30
0.0
  0
VERTEX
  8
LY_3
  6
CONTINUOUS
 62
             110
  5
3A7
 10
421.67513578581344
 20
135.08364742435879
 30
0.0
  0
VERTEX
  8
LY_3
  6
CONTINUOUS
 62
             110
  5
3A8
 10
433.57769252516619
 20
113.10969331267597
 30
0.0
  0
VERTEX
  8
LY_3
  6
CONTINUOUS
 62
             110
  5
3A9
 10
479.51274110533586
 20
113.10969331267597
 30
0.0
  0
SEQEND
  8
LY_3
  6
CONTINUOUS
 62
             110
  5
3AA
  0
TEXT
  8
LY_3
  6
CONTINUOUS
 62
             110
  5
308
 10
491.79576514785487
 20
203.30000019073486
 30
0.0
 40
5.1999998092651367
  1
グリップカラ－
 41
0.7812499211957835
  7
MX_NOTE_STANDARD
 11
491.79576514785487
 21
205.90000009536743
 31
0.0
 73
               2
  0
POLYLINE
  8
LY_3
  6
CONTINUOUS
 62
             110
  5
309
 66
               1
 10
0.0
 20
0.0
 30
0.0
  0
VERTEX
  8
LY_3
  6
CONTINUOUS
 62
             110
  5
3AB
 10
476.99999237060547
 20
165.0
 30
0.0
  0
VERTEX
  8
LY_3
  6
CONTINUOUS
 62
             110
  5
3AC
 10
490.0
 20
200.0
 30
0.0
  0
VERTEX
  8
LY_3
  6
CONTINUOUS
 62
             110
  5
3AD
 10
525.24368190765381
 20
200.0
 30
0.0
  0
SEQEND
  8
LY_3
  6
CONTINUOUS
 62
             110
  5
3AE
  0
DIMENSION
  8
LY_3
  6
CONTINUOUS
 62
             110
  5
317
  2
*D11
 10
488.99998474121094
 20
70.0
 30
0.0
 11
499.05512619018555
 21
70.0
 31
0.0
 70
             128
  1
<>
 13
465.0
 23
27.999969482421875
 33
0.0
 14
488.99998474121094
 24
26.499969482421875
 34
0.0
  3
MXDIMSTYLE
1001
ACAD
1000
DSTYLE
1002
{
1070
              41
1040
5.54
1070
              42
1040
2.5399999618530273
1070
              44
1040
2.2860002517700195
1070
             140
1040
5.1999998092651367
1070
             271
1070
               4
1070
             284
1070
               8
1002
}
  0
DIMENSION
  8
LY_3
  6
CONTINUOUS
 62
             110
  5
324
  2
*D12
 10
510.0
 20
-0.0000270375126126
 30
0.0
 11
510.0
 21
12.001001977074793
 31
0.0
 70
             128
  1
<>
 13
495.29414367675781
 23
21.499972962487391
 33
0.0
 14
481.87690734863281
 24
-0.0000270375126126
 34
0.0
 50
90.0
  3
MXDIMSTYLE
1001
ACAD
1000
DSTYLE
1002
{
1070
              41
1040
5.54
1070
              42
1040
2.5399999618530273
1070
              44
1040
2.2860107421875
1070
             140
1040
5.1999998092651367
1070
             271
1070
               4
1070
             284
1070
               8
1070
             340
1005
283
1002
}
  0
DIMENSION
  8
LY_3
  6
CONTINUOUS
 62
             110
  5
331
  2
*D13
 10
520.0
 20
-30.500027037512609
 30
0.0
 11
520.0
 21
1.2881084910518439
 31
0.0
 70
             128
  1
%%c<>
 13
459.00000381469727
 23
30.499972962487391
 33
0.0
 14
459.00000381469727
 24
-30.500027037512609
 34
0.0
 50
90.0
  3
MXDIMSTYLE
1001
ACAD
1000
DSTYLE
1002
{
1070
              41
1040
5.54
1070
              42
1040
2.5399999618530273
1070
              44
1040
2.2860107421875
1070
             140
1040
5.1999998092651367
1070
             271
1070
               4
1070
             284
1070
               8
1070
             340
1005
2F3
1002
}
  0
LINE
  8
LY_3
  6
CONTINUOUS
 62
               3
  5
332
 10
459.5
 20
-30.000027037512609
 30
0.0
 11
463.0
 21
-30.000027037512609
 31
0.0
  0
ARC
  8
LY_3
  6
CONTINUOUS
 62
               3
  5
333
 10
463.0
 20
-28.000027037512609
 30
0.0
 40
2.0
 50
269.99999749552182
 51
0.0
  0
LINE
  8
LY_3
  6
CONTINUOUS
 62
               3
  5
334
 10
439.0
 20
-30.500027037512609
 30
0.0
 11
459.0
 21
-30.500027037512609
 31
0.0
  0
LINE
  8
LY_3
  6
CONTINUOUS
 62
               3
  5
335
 10
459.0
 20
30.499972962487391
 30
0.0
 11
459.0
 21
-30.500027037512609
 31
0.0
  0
LINE
  8
LY_3
  6
CONTINUOUS
 62
               3
  5
336
 10
459.5
 20
29.999972962487391
 30
0.0
 11
459.5
 21
-30.000027037512609
 31
0.0
  0
LINE
  8
LY_3
  6
CONTINUOUS
 62
               3
  5
337
 10
459.50002546762425
 20
-30.000006894687886
 30
0.0
 11
459.00001410508867
 21
-30.50001821507567
 31
0.0
  0
LINE
  8
LY_3
  6
CONTINUOUS
 62
               3
  5
338
 10
433.0
 20
-30.000027037512609
 30
0.0
 11
438.5
 21
-30.000027037512609
 31
0.0
  0
LINE
  8
LY_3
  6
CONTINUOUS
 62
               3
  5
339
 10
438.5
 20
29.999972962487391
 30
0.0
 11
438.5
 21
-30.000027037512609
 31
0.0
  0
LINE
  8
LY_3
  6
CONTINUOUS
 62
               3
  5
33A
 10
432.0
 20
28.999972962487391
 30
0.0
 11
432.0
 21
-29.000423766028234
 31
0.0
  0
LINE
  8
LY_3
  6
CONTINUOUS
 62
               3
  5
33B
 10
431.99980374790766
 20
-29.000213757625261
 30
0.0
 11
432.99980582102262
 21
-30.000213891983094
 31
0.0
  0
LINE
  8
LY_3
  6
CONTINUOUS
 62
               3
  5
33C
 10
419.00002802397785
 20
-25.950305729460979
 30
0.0
 11
431.0000276454025
 21
-27.000169655585978
 31
0.0
  0
TEXT
  8
LY_3
  6
CONTINUOUS
 62
             110
  5
33D
 10
427.60000002384186
 20
-26.304949856650182
 30
0.0
 40
3.2000000476837158
  1
4
 50
90.0
 41
0.9523813544757621
  7
MX_NOTE_STANDARD
 72
               1
 11
426.0
 21
-24.781139708411047
 31
0.0
 73
               2
  0
LINE
  8
LY_3
  6
CONTINUOUS
 62
               3
  5
33E
 10
431.0
 20
-27.000027037512609
 30
0.0
 11
432.0
 21
-27.000027037512609
 31
0.0
  0
LINE
  8
LY_3
  6
CONTINUOUS
 62
             110
  5
33F
 10
419.0
 20
-24.781139708411047
 30
0.0
 11
423.0
 21
-24.781139708411047
 31
0.0
  0
LINE
  8
LY_3
  6
CONTINUOUS
 62
               3
  5
340
 10
419.0
 20
25.950107239831141
 30
0.0
 11
419.0
 21
-25.950130797278234
 31
0.0
  0
TEXT
  8
LY_3
  6
CONTINUOUS
 62
             110
  5
341
 10
427.60000002384186
 20
-16.933978176962682
 30
0.0
 40
3.2000000476837158
  1
3
 50
90.0
 41
0.9523813544757621
  7
MX_NOTE_STANDARD
 72
               1
 11
426.0
 21
-15.410168028723547
 31
0.0
 73
               2
  0
LINE
  8
LY_3
  6
CONTINUOUS
 62
             110
  5
342
 10
419.0
 20
-15.410168028723547
 30
0.0
 11
423.0
 21
-15.410168028723547
 31
0.0
  0
LINE
  8
LY_3
  6
CONTINUOUS
 62
             110
  5
343
 10
419.0
 20
-0.0000270375126092
 30
0.0
 11
423.0
 21
-0.0000270375126092
 31
0.0
  0
TEXT
  8
LY_3
  6
CONTINUOUS
 62
             110
  5
344
 10
427.60000002384186
 20
-1.523837185751745
 30
0.0
 40
3.2000000476837158
  1
2
 50
90.0
 41
0.9523813544757621
  7
MX_NOTE_STANDARD
 72
               1
 11
426.0
 21
-0.0000270375126092
 31
0.0
 73
               2
  0
LINE
  8
LY_3
  6
CONTINUOUS
 62
               3
  5
345
 10
419.00003509167516
 20
25.950220084975854
 30
0.0
 11
431.00003471309981
 21
27.00008392135237
 31
0.0
  0
LINE
  8
LY_3
  6
CONTINUOUS
 62
             110
  5
346
 10
419.0
 20
24.779132508385828
 30
0.0
 11
423.0
 21
24.779132508385828
 31
0.0
  0
LINE
  8
LY_3
  6
CONTINUOUS
 62
             110
  5
347
 10
419.0
 20
15.416156434167078
 30
0.0
 11
423.0
 21
15.416156434167078
 31
0.0
  0
TEXT
  8
LY_3
  6
CONTINUOUS
 62
             110
  5
348
 10
427.60000002384186
 20
23.255322360146693
 30
0.0
 40
3.2000000476837158
  1
0
 50
90.0
 41
1.1428576526187644
  7
MX_NOTE_STANDARD
 72
               1
 11
426.0
 21
24.779132508385828
 31
0.0
 73
               2
  0
TEXT
  8
LY_3
  6
CONTINUOUS
 62
             110
  5
349
 10
427.60000002384186
 20
13.892346285927943
 30
0.0
 40
3.2000000476837158
  1
1
 50
90.0
 41
1.4999999552965175
  7
MX_NOTE_STANDARD
 72
               1
 11
426.0
 21
15.416156434167078
 31
0.0
 73
               2
  0
LINE
  8
LY_3
  6
CONTINUOUS
 62
               3
  5
34A
 10
433.0
 20
29.999972962487391
 30
0.0
 11
438.5
 21
29.999972962487391
 31
0.0
  0
LINE
  8
LY_3
  6
CONTINUOUS
 62
               3
  5
34B
 10
431.99999282725821
 20
28.999965434912156
 30
0.0
 11
432.99999582760483
 21
29.999964557744534
 31
0.0
  0
LINE
  8
LY_3
  6
CONTINUOUS
 62
               3
  5
34C
 10
431.0
 20
26.999972962487391
 30
0.0
 11
432.0
 21
26.999972962487391
 31
0.0
  0
LINE
  8
LY_3
  6
CONTINUOUS
 62
               3
  5
34D
 10
439.0
 20
30.499972962487391
 30
0.0
 11
459.0
 21
30.499972962487391
 31
0.0
  0
LINE
  8
LY_3
  6
CONTINUOUS
 62
               3
  5
34E
 10
439.0
 20
30.499972962487391
 30
0.0
 11
439.0
 21
-30.500027037512609
 31
0.0
  0
LINE
  8
LY_3
  6
CONTINUOUS
 62
             110
  5
34F
 10
439.0
 20
29.499972962487391
 30
0.0
 11
459.0
 21
29.499972962487391
 31
0.0
  0
LINE
  8
LY_3
  6
CONTINUOUS
 62
             110
  5
350
 10
439.0
 20
28.499972962487391
 30
0.0
 11
459.0
 21
28.499972962487391
 31
0.0
  0
LINE
  8
LY_3
  6
CONTINUOUS
 62
             110
  5
351
 10
439.0
 20
27.499972962487391
 30
0.0
 11
459.0
 21
27.499972962487391
 31
0.0
  0
LINE
  8
LY_3
  6
CONTINUOUS
 62
             110
  5
352
 10
439.0
 20
26.499972962487391
 30
0.0
 11
459.0
 21
26.499972962487391
 31
0.0
  0
LINE
  8
LY_3
  6
CONTINUOUS
 62
             110
  5
353
 10
439.0
 20
25.499972962487391
 30
0.0
 11
459.0
 21
25.499972962487391
 31
0.0
  0
LINE
  8
LY_3
  6
CONTINUOUS
 62
               3
  5
354
 10
439.00000420556671
 20
30.499978271600753
 30
0.0
 11
438.49999288517893
 21
29.999966909065165
 31
0.0
  0
LINE
  8
LY_3
  6
CONTINUOUS
 62
               3
  5
355
 10
459.5
 20
29.999972962487391
 30
0.0
 11
463.0
 21
29.999972962487391
 31
0.0
  0
LINE
  8
LY_3
  6
CONTINUOUS
 62
               3
  5
356
 10
459.49999313575699
 20
29.999969142848158
 30
0.0
 11
458.99999526021384
 21
30.49996697624465
 31
0.0
  0
LINE
  8
LY_3
  6
CONTINUOUS
 62
               3
  5
357
 10
438.5
 20
-30.000027037512609
 30
0.0
 11
439.0
 21
-30.500027037512609
 31
0.0
  0
ENDSEC
  0
EOF
