  0
SECTION
  2
HEADER
  9
$ACADVER
  1
AC1015
  9
$ACADMAINTVER
 70
     6
  9
$DWGCODEPAGE
  3
ANSI_932
  9
$INSBASE
 10
0.0
 20
0.0
 30
0.0
  9
$EXTMIN
 10
-67.695251
 20
-131.0
 30
0.0
  9
$EXTMAX
 10
641.0
 20
87.5
 30
0.0
  9
$LIMMIN
 10
-67.695251
 20
-131.0
  9
$LIMMAX
 10
641.0
 20
87.5
  9
$ORTHOMODE
 70
     0
  9
$REGENMODE
 70
     1
  9
$FILLMODE
 70
     1
  9
$QTEXTMODE
 70
     0
  9
$MIRRTEXT
 70
     1
  9
$LTSCALE
 40
1.0
  9
$ATTMODE
 70
     1
  9
$TEXTSIZE
 40
3.2
  9
$TRACEWID
 40
0.05
  9
$TEXTSTYLE
  7
MX_NOTE_STANDARD
  9
$CLAYER
  8
0
  9
$CELTYPE
  6
CONTINUOUS
  9
$CECOLOR
 62
   256
  9
$CELTSCALE
 40
1.0
  9
$DISPSILH
 70
     0
  9
$DIMSCALE
 40
1.0
  9
$DIMASZ
 40
2.5
  9
$DIMEXO
 40
2.0
  9
$DIMDLI
 40
3.75
  9
$DIMRND
 40
0.0
  9
$DIMDLE
 40
0.0
  9
$DIMEXE
 40
1.0
  9
$DIMTP
 40
0.0
  9
$DIMTM
 40
0.0
  9
$DIMTXT
 40
4.1656
  9
$DIMCEN
 40
2.5
  9
$DIMTSZ
 40
0.0
  9
$DIMTOL
 70
     0
  9
$DIMLIM
 70
     0
  9
$DIMTIH
 70
     0
  9
$DIMTOH
 70
     0
  9
$DIMSE1
 70
     0
  9
$DIMSE2
 70
     0
  9
$DIMTAD
 70
     1
  9
$DIMZIN
 70
     8
  9
$DIMBLK
  1

  9
$DIMASO
 70
     1
  9
$DIMSHO
 70
     1
  9
$DIMPOST
  1

  9
$DIMAPOST
  1

  9
$DIMALT
 70
     0
  9
$DIMALTD
 70
     4
  9
$DIMALTF
 40
0.03937
  9
$DIMLFAC
 40
1.0
  9
$DIMTOFL
 70
     1
  9
$DIMTVP
 40
0.0
  9
$DIMTIX
 70
     0
  9
$DIMSOXD
 70
     0
  9
$DIMSAH
 70
     1
  9
$DIMBLK1
  1
_OPEN30
  9
$DIMBLK2
  1
_OPEN30
  9
$DIMSTYLE
  2
MXDIMSTYLE
  9
$DIMCLRD
 70
     0
  9
$DIMCLRE
 70
     0
  9
$DIMCLRT
 70
     0
  9
$DIMTFAC
 40
1.0
  9
$DIMGAP
 40
1.0
  9
$DIMJUST
 70
     0
  9
$DIMSD1
 70
     0
  9
$DIMSD2
 70
     0
  9
$DIMTOLJ
 70
     0
  9
$DIMTZIN
 70
     0
  9
$DIMALTZ
 70
     0
  9
$DIMALTTZ
 70
     0
  9
$DIMUPT
 70
     0
  9
$DIMDEC
 70
     2
  9
$DIMTDEC
 70
     2
  9
$DIMALTU
 70
     2
  9
$DIMALTTD
 70
     4
  9
$DIMTXSTY
  7
MX_NOTE_STANDARD
  9
$DIMAUNIT
 70
     0
  9
$DIMADEC
 70
     0
  9
$DIMALTRND
 40
0.0
  9
$DIMAZIN
 70
     0
  9
$DIMDSEP
 70
    46
  9
$DIMATFIT
 70
     3
  9
$DIMFRAC
 70
     0
  9
$DIMLDRBLK
  1
_OPEN30
  9
$DIMLUNIT
 70
     2
  9
$DIMLWD
 70
    -2
  9
$DIMLWE
 70
    -2
  9
$DIMTMOVE
 70
     0
  9
$LUNITS
 70
     2
  9
$LUPREC
 70
     4
  9
$SKETCHINC
 40
0.1
  9
$FILLETRAD
 40
0.0
  9
$AUNITS
 70
     0
  9
$AUPREC
 70
     0
  9
$MENU
  1
acad
  9
$ELEVATION
 40
0.0
  9
$PELEVATION
 40
0.0
  9
$THICKNESS
 40
0.0
  9
$LIMCHECK
 70
     0
  9
$CHAMFERA
 40
0.0
  9
$CHAMFERB
 40
0.0
  9
$CHAMFERC
 40
0.0
  9
$CHAMFERD
 40
0.0
  9
$SKPOLY
 70
     0
  9
$TDCREATE
 40
2456119.569027778
  9
$TDUCREATE
 40
0.000000000
  9
$TDUPDATE
 40
2456119.569027778
  9
$TDUUPDATE
 40
0.000000000
  9
$TDINDWG
 40
0.0000000000
  9
$TDUSRTIMER
 40
0.0000000000
  9
$USRTIMER
 70
     1
  9
$ANGBASE
 50
0.0
  9
$ANGDIR
 70
     0
  9
$PDMODE
 70
     0
  9
$PDSIZE
 40
0.0
  9
$PLINEWID
 40
0.0
  9
$SPLFRAME
 70
     0
  9
$SPLINETYPE
 70
     6
  9
$SPLINESEGS
 70
     8
  9
$HANDSEED
  5
21F
  9
$SURFTAB1
 70
     6
  9
$SURFTAB2
 70
     6
  9
$SURFTYPE
 70
     6
  9
$SURFU
 70
     6
  9
$SURFV
 70
     6
  9
$UCSBASE
  2

  9
$UCSNAME
  2

  9
$UCSORG
 10
0.0
 20
0.0
 30
0.0
  9
$UCSXDIR
 10
1.0
 20
0.0
 30
0.0
  9
$UCSYDIR
 10
0.0
 20
1.0
 30
0.0
  9
$UCSORTHOREF
  2

  9
$UCSORTHOVIEW
 70
     0
  9
$UCSORGTOP
 10
0.0
 20
0.0
 30
0.0
  9
$UCSORGBOTTOM
 10
0.0
 20
0.0
 30
0.0
  9
$UCSORGLEFT
 10
0.0
 20
0.0
 30
0.0
  9
$UCSORGRIGHT
 10
0.0
 20
0.0
 30
0.0
  9
$UCSORGFRONT
 10
0.0
 20
0.0
 30
0.0
  9
$UCSORGBACK
 10
0.0
 20
0.0
 30
0.0
  9
$PUCSBASE
  2

  9
$PUCSNAME
  2

  9
$PUCSORG
 10
0.0
 20
0.0
 30
0.0
  9
$PUCSXDIR
 10
1.0
 20
0.0
 30
0.0
  9
$PUCSYDIR
 10
0.0
 20
1.0
 30
0.0
  9
$PUCSORTHOREF
  2

  9
$PUCSORTHOVIEW
 70
     0
  9
$PUCSORGTOP
 10
0.0
 20
0.0
 30
0.0
  9
$PUCSORGBOTTOM
 10
0.0
 20
0.0
 30
0.0
  9
$PUCSORGLEFT
 10
0.0
 20
0.0
 30
0.0
  9
$PUCSORGRIGHT
 10
0.0
 20
0.0
 30
0.0
  9
$PUCSORGFRONT
 10
0.0
 20
0.0
 30
0.0
  9
$PUCSORGBACK
 10
0.0
 20
0.0
 30
0.0
  9
$USERI1
 70
     0
  9
$USERI2
 70
     0
  9
$USERI3
 70
     0
  9
$USERI4
 70
     0
  9
$USERI5
 70
     0
  9
$USERR1
 40
0.0
  9
$USERR2
 40
0.0
  9
$USERR3
 40
0.0
  9
$USERR4
 40
0.0
  9
$USERR5
 40
0.0
  9
$WORLDVIEW
 70
     1
  9
$SHADEDGE
 70
     3
  9
$SHADEDIF
 70
    70
  9
$TILEMODE
 70
     1
  9
$MAXACTVP
 70
    16
  9
$PINSBASE
 10
0.0
 20
0.0
 30
0.0
  9
$PLIMCHECK
 70
     0
  9
$PEXTMIN
 10
1.000000E+20
 20
1.000000E+20
 30
1.000000E+20
  9
$PEXTMAX
 10
-1.000000E+20
 20
-1.000000E+20
 30
-1.000000E+20
  9
$PLIMMIN
 10
0.0
 20
0.0
  9
$PLIMMAX
 10
12.0
 20
9.0
  9
$UNITMODE
 70
     0
  9
$VISRETAIN
 70
     0
  9
$PLINEGEN
 70
     1
  9
$PSLTSCALE
 70
     0
  9
$TREEDEPTH
 70
  3020
  9
$CMLSTYLE
  2
Standard
  9
$CMLJUST
 70
     0
  9
$CMLSCALE
 40
1.0
  9
$PROXYGRAPHICS
 70
     0
  9
$MEASUREMENT
 70
     1
  9
$CELWEIGHT
370
     0
  9
$ENDCAPS
280
     0
  9
$JOINSTYLE
280
     0
  9
$LWDISPLAY
290
     0
  9
$INSUNITS
 70
     0
  9
$HYPERLINKBASE
  1

  9
$STYLESHEET
  1

  9
$XEDIT
290
     1
  9
$CEPSNTYPE
380
     0
  9
$PSTYLEMODE
290
     1
  9
$FINGERPRINTGUID
  2

  9
$VERSIONGUID
  2

  9
$EXTNAMES
290
     1
  9
$PSVPSCALE
 40
0.0
  0
ENDSEC
  0
SECTION
  2
CLASSES
  0
CLASS
  1
LWPOLYLINE
  2
AcDbPolyline
  3
AutoCAD 2000
 90
        0
280
     0
281
     1
  0
CLASS
  1
IMAGE
  2
AcDbRasterImage
  3
ISM
 90
      127
280
     0
281
     1
  0
CLASS
  1
OLE2FRAME
  2
AcDbOle2Frame
  3
AutoCAD 2000
 90
        0
280
     0
281
     1
  0
CLASS
  1
HATCH
  2
AcDbHatch
  3
AutoCAD 2000
 90
        0
280
     0
281
     1
  0
CLASS
  1
DICTIONARYVAR
  2
AcDbDictionaryVar
  3
AutoCAD 2000
 90
        0
280
     0
281
     0
  0
CLASS
  1
RASTERVARIABLES
  2
AcDbRasterVariables
  3
ISM
 90
        0
280
     0
281
     0
  0
CLASS
  1
IMAGEDEF
  2
AcDbRasterImageDef
  3
ISM
 90
        0
280
     0
281
     0
  0
CLASS
  1
IMAGEDEF_REACTOR
  2
AcDbRasterImageDefReactor
  3
ISM
 90
        1
280
     0
281
     0
  0
CLASS
  1
IDBUFFER
  2
AcDbIdBuffer
  3
AutoCAD 2000
 90
        0
280
     0
281
     0
  0
CLASS
  1
SPATIAL_FILTER
  2
AcDbSpatialFilter
  3
AutoCAD 2000
 90
        0
280
     0
281
     0
  0
CLASS
  1
XRECORD
  2
AcDbXrecord
  3
AutoCAD 2000
 90
        0
280
     0
281
     0
  0
CLASS
  1
SORTENTSTABLE
  2
AcDbSortentsTable
  3
AutoCAD 2000
 90
        0
280
     0
281
     0
  0
CLASS
  1
LAYER_INDEX
  2
AcDbLayerIndex
  3
AutoCAD 2000
 90
        0
280
     0
281
     0
  0
CLASS
  1
SPATIAL_INDEX
  2
AcDbSpatialIndex
  3
AutoCAD 2000
 90
        0
280
     0
281
     0
  0
CLASS
  1
OBJECT_PTR
  2
CAseDLPNTableRecord
  3
"ASE-LPNTableRecord"
 90
        1
280
     0
281
     0
  0
CLASS
  1
LAYOUT
  2
AcDbLayout
  3
AutoCAD 2000
 90
        0
280
     0
281
     0
  0
CLASS
  1
PLOTSETTINGS
  2
AcDbPlotSettings
  3
AutoCAD 2000
 90
        0
280
     0
281
     0
  0
CLASS
  1
ACDBDICTIONARYWDFLT
  2
AcDbDictionaryWithDefault
  3
AutoCAD 2000
 90
        0
280
     0
281
     0
  0
CLASS
  1
ACDBPLACEHOLDER
  2
AcDbPlaceHolder
  3
AutoCAD 2000
 90
        0
280
     0
281
     0
  0
ENDSEC
  0
SECTION
  2
TABLES
  0
TABLE
  2
VPORT
  5
7
100
AcDbSymbolTable
 70
     1
  0
VPORT
  5
15
100
AcDbSymbolTableRecord
100
AcDbViewportTableRecord
  2
*ACTIVE
 70
     0
 10
0.0
 20
0.0
 11
1.0
 21
1.0
 12
286.652374
 22
-21.75
 13
0.0
 23
0.0
 14
1.0
 24
1.0
 15
0.0
 25
0.0
 16
0.0
 26
0.0
 36
1.0
 17
0.0
 27
0.0
 37
0.0
 40
220.685
 41
1.732051
 42
50.0
 43
0.0
 44
0.0
 50
0.0
 51
0.0
 71
     0
 72
   100
 73
     1
 74
     1
 75
     0
 76
     0
 77
     0
 78
     0
281
     0
 65
     0
110
0.0
120
0.0
130
0.0
111
1.0
121
0.0
131
0.0
112
0.0
122
1.0
132
0.0
345
0
346
0
 79
     0
146
0.0
  0
ENDTAB
  0
TABLE
  2
LTYPE
  5
4
100
AcDbSymbolTable
 70
     5
  0
LTYPE
  5
11
100
AcDbSymbolTableRecord
100
AcDbLinetypeTableRecord
  2
BYBLOCK
 70
    64
  3

 72
    65
 73
     0
 40
0.0
  0
LTYPE
  5
12
100
AcDbSymbolTableRecord
100
AcDbLinetypeTableRecord
  2
BYLAYER
 70
    64
  3

 72
    65
 73
     0
 40
0.0
  0
LTYPE
  5
13
100
AcDbSymbolTableRecord
100
AcDbLinetypeTableRecord
  2
CONTINUOUS
 70
    64
  3
Solid line
 72
    65
 73
     0
 40
0.0
  0
LTYPE
  5
AB
100
AcDbSymbolTableRecord
100
AcDbLinetypeTableRecord
  2
CENTER
 70
    64
  3
Center ____ _ ____ _ ____ _ ____ _ ____ _ ____
 72
    65
 73
     4
 40
50.8
 49
31.75
 74
     0
 49
-6.35
 74
     0
 49
6.35
 74
     0
 49
-6.35
 74
     0
  0
LTYPE
  5
B1
100
AcDbSymbolTableRecord
100
AcDbLinetypeTableRecord
  2
DASHED
 70
    64
  3
Dashed __ __ __ __ __ __ __ __ __ __ __ __ __ _
 72
    65
 73
     2
 40
19.05
 49
12.7
 74
     0
 49
-6.35
 74
     0
  0
ENDTAB
  0
TABLE
  2
LAYER
  5
2
100
AcDbSymbolTable
 70
     3
  0
LAYER
  5
14
100
AcDbSymbolTableRecord
100
AcDbLayerTableRecord
  2
0
 70
     0
 62
     7
  6
CONTINUOUS
290
     1
370
    -3
390
1D
  0
LAYER
  5
23
100
AcDbSymbolTableRecord
100
AcDbLayerTableRecord
  2
DEFPOINTS
 70
     0
 62
     7
  6
CONTINUOUS
290
     0
370
    -3
390
1D
  0
LAYER
  5
24
100
AcDbSymbolTableRecord
100
AcDbLayerTableRecord
  2
LY_3
 70
     0
 62
     7
  6
CONTINUOUS
290
     1
370
    -3
390
1D
  0
ENDTAB
  0
TABLE
  2
STYLE
  5
3
100
AcDbSymbolTable
 70
     1
  0
STYLE
  5
17
100
AcDbSymbolTableRecord
100
AcDbTextStyleTableRecord
  2
MX_NOTE_STANDARD
 70
     0
 40
0.0
 41
1.0
 50
0.0
 71
     0
 42
3.2
  3
txt.shx
  4
extfont.shx
  0
ENDTAB
  0
TABLE
  2
VIEW
  5
5
100
AcDbSymbolTable
 70
     0
  0
ENDTAB
  0
TABLE
  2
UCS
  5
6
100
AcDbSymbolTable
 70
     0
  0
ENDTAB
  0
TABLE
  2
APPID
  5
8
100
AcDbSymbolTable
 70
     1
  0
APPID
  5
16
100
AcDbSymbolTableRecord
100
AcDbRegAppTableRecord
  2
ACAD
 70
     0
  0
ENDTAB
  0
TABLE
  2
DIMSTYLE
  5
9
100
AcDbSymbolTable
 70
     1
100
AcDbDimStyleTable
 71
     0
  0
DIMSTYLE
105
18
100
AcDbSymbolTableRecord
100
AcDbDimStyleTableRecord
  2
MXDIMSTYLE
 70
     0
  3

  4

 40
1.0
 41
2.5
 42
2.0
 43
3.75
 44
1.0
 45
0.0
 46
0.0
 47
0.0
 48
0.0
 71
     0
 72
     0
 73
     0
 74
     0
 75
     0
 76
     0
 77
     1
 78
     8
 79
     0
140
4.1656
141
2.5
142
0.0
143
0.03937
144
1.0
145
0.0
146
1.0
147
1.0
148
0.0
170
     0
171
     4
172
     1
173
     1
174
     0
175
     0
176
     0
177
     0
178
     0
179
     0
271
     2
272
     2
273
     2
274
     4
275
     0
276
     0
277
     2
278
    46
279
     0
280
     0
281
     0
282
     0
283
     0
284
     0
285
     0
286
     0
288
     0
289
     3
340
17
341
26
342
0
343
26
344
26
371
    -2
372
    -2
  0
ENDTAB
  0
TABLE
  2
BLOCK_RECORD
  5
1
100
AcDbSymbolTable
 70
     3
  0
BLOCK_RECORD
  5
A
100
AcDbSymbolTableRecord
100
AcDbBlockTableRecord
  2
*MODEL_SPACE
340
20
  0
BLOCK_RECORD
  5
B
100
AcDbSymbolTableRecord
100
AcDbBlockTableRecord
  2
*PAPER_SPACE
340
21
  0
BLOCK_RECORD
  5
25
100
AcDbSymbolTableRecord
100
AcDbBlockTableRecord
  2
*U0
340
0
102
{BLKREFS
331
41
331
42
331
43
331
44
102
}
  0
BLOCK_RECORD
  5
26
100
AcDbSymbolTableRecord
100
AcDbBlockTableRecord
  2
_OPEN30
340
0
102
{BLKREFS
331
39
331
3A
102
}
  0
BLOCK_RECORD
  5
31
100
AcDbSymbolTableRecord
100
AcDbBlockTableRecord
  2
*D2
340
0
  0
ENDTAB
  0
ENDSEC
  0
SECTION
  2
BLOCKS
  0
BLOCK
  5
D
100
AcDbEntity
  8
0
390
0
100
AcDbBlockBegin
  2
*MODEL_SPACE
 70
     0
 10
0.0
 20
0.0
 30
0.0
  3
*MODEL_SPACE
  1

  0
ENDBLK
  5
E
100
AcDbEntity
  8
0
390
0
100
AcDbBlockEnd
  0
BLOCK
  5
F
100
AcDbEntity
 67
     1
  8
0
390
0
100
AcDbBlockBegin
  2
*PAPER_SPACE
 70
     0
 10
0.0
 20
0.0
 30
0.0
  3
*PAPER_SPACE
  1

  0
ENDBLK
  5
10
100
AcDbEntity
 67
     1
  8
0
390
0
100
AcDbBlockEnd
  0
BLOCK
  5
2C
100
AcDbEntity
  8
0
370
    -2
390
0
100
AcDbBlockBegin
  2
*U0
 70
     1
 10
0.0
 20
0.0
 30
0.0
  3
*U0
  1

  0
LINE
  5
2D
100
AcDbEntity
  8
0
390
0
  6
CONTINUOUS
 62
   110
100
AcDbLine
 10
-1.0
 20
0.267949
 30
0.0
 11
0.0
 21
0.0
 31
0.0
  0
LINE
  5
2E
100
AcDbEntity
  8
0
390
0
  6
CONTINUOUS
 62
   110
100
AcDbLine
 10
0.0
 20
0.0
 30
0.0
 11
-1.0
 21
-0.267949
 31
0.0
  0
LINE
  5
2F
100
AcDbEntity
  8
0
390
0
  6
CONTINUOUS
 62
   110
100
AcDbLine
 10
0.0
 20
0.0
 30
0.0
 11
-1.0
 21
0.0
 31
0.0
  0
ENDBLK
  5
30
100
AcDbEntity
  8
0
370
    -2
390
0
100
AcDbBlockEnd
  0
BLOCK
  5
27
100
AcDbEntity
  8
0
370
    -2
390
0
  6
ByBlock
 62
     0
100
AcDbBlockBegin
  2
_OPEN30
 70
     2
 10
0.0
 20
0.0
 30
0.0
  3
_OPEN30
  1

  0
LINE
  5
28
100
AcDbEntity
  8
0
370
    -2
390
0
  6
ByBlock
 62
     0
100
AcDbLine
 10
-1.0
 20
0.267949
 30
0.0
 11
0.0
 21
0.0
 31
0.0
  0
LINE
  5
29
100
AcDbEntity
  8
0
370
    -2
390
0
  6
ByBlock
 62
     0
100
AcDbLine
 10
0.0
 20
0.0
 30
0.0
 11
-1.0
 21
-0.267949
 31
0.0
  0
LINE
  5
2A
100
AcDbEntity
  8
0
370
    -2
390
0
  6
ByBlock
 62
     0
100
AcDbLine
 10
0.0
 20
0.0
 30
0.0
 11
-1.0
 21
0.0
 31
0.0
  0
ENDBLK
  5
2B
100
AcDbEntity
  8
0
370
    -2
390
0
  6
ByBlock
 62
     0
100
AcDbBlockEnd
  0
BLOCK
  5
32
100
AcDbEntity
  8
0
370
    -2
390
0
  6
ByBlock
 62
     0
100
AcDbBlockBegin
  2
*D2
 70
     1
 10
0.0
 20
0.0
 30
0.0
  3
*D2
  1

  0
LINE
  5
33
100
AcDbEntity
  8
0
390
0
  6
CONTINUOUS
 62
   110
100
AcDbLine
 10
-7.0
 20
80.0
 30
0.0
 11
7.0
 21
80.0
 31
0.0
  0
LINE
  5
34
100
AcDbEntity
  8
0
390
0
  6
CONTINUOUS
 62
   110
100
AcDbLine
 10
7.0
 20
80.0
 30
0.0
 11
37.055946
 21
80.0
 31
0.0
  0
LINE
  5
35
100
AcDbEntity
  8
0
390
0
  6
CONTINUOUS
 62
   110
100
AcDbLine
 10
-7.0
 20
2.0
 30
0.0
 11
-7.0
 21
81.0
 31
0.0
  0
LINE
  5
36
100
AcDbEntity
  8
0
390
0
  6
CONTINUOUS
 62
   110
100
AcDbLine
 10
7.0
 20
2.0
 30
0.0
 11
7.0
 21
81.0
 31
0.0
  0
LINE
  5
37
100
AcDbEntity
  8
0
390
0
  6
CONTINUOUS
 62
   110
100
AcDbLine
 10
-7.0
 20
80.0
 30
0.0
 11
-11.0
 21
80.0
 31
0.0
  0
LINE
  5
38
100
AcDbEntity
  8
0
390
0
  6
CONTINUOUS
 62
   110
100
AcDbLine
 10
7.0
 20
80.0
 30
0.0
 11
11.0
 21
80.0
 31
0.0
  0
INSERT
  5
39
100
AcDbEntity
  8
0
390
0
  6
CONTINUOUS
 62
   110
100
AcDbBlockReference
  2
_OPEN30
 10
-7.0
 20
80.0
 30
0.0
 41
2.77
 42
2.77
 43
2.77
  0
INSERT
  5
3A
100
AcDbEntity
  8
0
390
0
  6
CONTINUOUS
 62
   110
100
AcDbBlockReference
  2
_OPEN30
 10
7.0
 20
80.0
 30
0.0
 41
2.77
 42
2.77
 43
2.77
 50
180.0
  0
MTEXT
  5
3B
100
AcDbEntity
  8
0
390
0
  6
CONTINUOUS
 62
   110
100
AcDbMText
 10
24.868446
 20
83.6
 30
0.0
 40
5.2
 41
0.0
 71
     5
 72
     1
  1
\A1;\U+220514ｈ7
 73
     1
 44
0.9
  0
POINT
  5
3C
100
AcDbEntity
  8
DEFPOINTS
390
0
  6
CONTINUOUS
 62
     0
100
AcDbPoint
 10
-7.0
 20
0.0
 30
0.0
  0
POINT
  5
3D
100
AcDbEntity
  8
DEFPOINTS
390
0
  6
CONTINUOUS
 62
     0
100
AcDbPoint
 10
7.0
 20
0.0
 30
0.0
  0
POINT
  5
3E
100
AcDbEntity
  8
DEFPOINTS
390
0
  6
CONTINUOUS
 62
     0
100
AcDbPoint
 10
7.0
 20
80.0
 30
0.0
  0
ENDBLK
  5
3F
100
AcDbEntity
  8
0
370
    -2
390
0
  6
ByBlock
 62
     0
100
AcDbBlockEnd
  0
ENDSEC
  0
SECTION
  2
ENTITIES
  0
DIMENSION
  5
40
100
AcDbEntity
  8
0
390
0
  6
CONTINUOUS
 62
   110
100
AcDbDimension
  2
*D2
 10
7.0
 20
80.0
 30
0.0
 11
24.868446
 21
80.0
 31
0.0
 70
   128
 71
     5
 72
     1
 41
0.9
 42
14.0
  1
\A1;\U+2205<>ｈ7
  3
MXDIMSTYLE
100
AcDbAlignedDimension
 13
-7.0
 23
0.0
 33
0.0
 14
7.0
 24
0.0
 34
0.0
100
AcDbRotatedDimension
1001
ACAD
1000
DSTYLE
1002
{
1070
    41
1040
2.77
1070
   140
1040
5.2
1070
   284
1070
     8
1002
}
  0
INSERT
  5
41
100
AcDbEntity
  8
LY_3
390
0
  6
ByBlock
100
AcDbBlockReference
  2
*U0
 10
373.5
 20
-99.499997
 30
0.0
 41
2.77
 42
2.77
 43
2.77
 50
107.592422
  0
INSERT
  5
42
100
AcDbEntity
  8
LY_3
390
0
  6
ByBlock
100
AcDbBlockReference
  2
*U0
 10
439.0
 20
52.999999
 30
0.0
 41
2.77
 42
2.77
 43
2.77
 50
297.89727
  0
INSERT
  5
43
100
AcDbEntity
  8
LY_3
390
0
  6
ByBlock
100
AcDbBlockReference
  2
*U0
 10
256.608921
 20
48.201599
 30
0.0
 41
2.77
 42
2.77
 43
2.77
 50
307.304971
  0
INSERT
  5
44
100
AcDbEntity
  8
LY_3
390
0
  6
ByBlock
100
AcDbBlockReference
  2
*U0
 10
148.750008
 20
56.749999
 30
0.0
 41
2.77
 42
2.77
 43
2.77
 50
303.439891
  0
LINE
  5
45
100
AcDbEntity
  8
LY_3
390
0
  6
CONTINUOUS
 62
   110
100
AcDbLine
 10
125.0
 20
-40.0
 30
0.0
 11
90.0
 21
-40.0
 31
0.0
  0
LINE
  5
46
100
AcDbEntity
  8
LY_3
390
0
  6
CONTINUOUS
 62
   110
100
AcDbLine
 10
125.0
 20
-9.0
 30
0.0
 11
125.0
 21
-41.0
 31
0.0
  0
LINE
  5
47
100
AcDbEntity
  8
LY_3
390
0
  6
CONTINUOUS
 62
   110
100
AcDbLine
 10
90.0
 20
-8.0
 30
0.0
 11
90.0
 21
-41.0
 31
0.0
  0
MTEXT
  5
48
100
AcDbEntity
  8
LY_3
390
0
  6
CONTINUOUS
 62
   110
100
AcDbMText
 10
104.25
 20
-33.8
 30
0.0
 40
5.2
 41
0.0
 71
     1
 72
     1
  1
\W0.938;\A1;35
 73
     1
 44
1.0
  0
LINE
  5
49
100
AcDbEntity
  8
LY_3
390
0
  6
CONTINUOUS
 62
   110
100
AcDbLine
 10
122.23
 20
-39.257781
 30
0.0
 11
125.0
 21
-40.0
 31
0.0
  0
LINE
  5
4A
100
AcDbEntity
  8
LY_3
390
0
  6
CONTINUOUS
 62
   110
100
AcDbLine
 10
125.0
 20
-40.0
 30
0.0
 11
122.23
 21
-40.742219
 31
0.0
  0
LINE
  5
4B
100
AcDbEntity
  8
LY_3
390
0
  6
CONTINUOUS
 62
   110
100
AcDbLine
 10
125.0
 20
-40.0
 30
0.0
 11
122.23
 21
-40.0
 31
0.0
  0
LINE
  5
4C
100
AcDbEntity
  8
LY_3
390
0
  6
CONTINUOUS
 62
   110
100
AcDbLine
 10
92.77
 20
-40.742219
 30
0.0
 11
90.0
 21
-40.0
 31
0.0
  0
LINE
  5
4D
100
AcDbEntity
  8
LY_3
390
0
  6
CONTINUOUS
 62
   110
100
AcDbLine
 10
90.0
 20
-40.0
 30
0.0
 11
92.77
 21
-39.257781
 31
0.0
  0
LINE
  5
4E
100
AcDbEntity
  8
LY_3
390
0
  6
CONTINUOUS
 62
   110
100
AcDbLine
 10
90.0
 20
-40.0
 30
0.0
 11
92.77
 21
-40.0
 31
0.0
  0
LINE
  5
4F
100
AcDbEntity
  8
LY_3
390
0
  6
CONTINUOUS
 62
   110
100
AcDbLine
 10
630.0
 20
0.0
 30
0.0
 11
630.0
 21
-100.999997
 31
0.0
  0
LINE
  5
50
100
AcDbEntity
  8
LY_3
390
0
  6
CONTINUOUS
 62
   110
100
AcDbLine
 10
480.0
 20
0.0
 30
0.0
 11
631.0
 21
0.0
 31
0.0
  0
MTEXT
  5
51
100
AcDbEntity
  8
LY_3
390
0
  6
CONTINUOUS
 62
   110
100
AcDbMText
 10
623.8
 20
-56.081732
 30
0.0
 40
5.2
 41
0.0
 71
     1
 72
     1
  1
\W0.999;\A1;101
 11
0.0
 21
1.0
 31
0.0
 73
     1
 44
1.0
  0
LINE
  5
52
100
AcDbEntity
  8
LY_3
390
0
  6
CONTINUOUS
 62
   110
100
AcDbLine
 10
629.257781
 20
-2.77
 30
0.0
 11
630.0
 21
0.0
 31
0.0
  0
LINE
  5
53
100
AcDbEntity
  8
LY_3
390
0
  6
CONTINUOUS
 62
   110
100
AcDbLine
 10
630.0
 20
0.0
 30
0.0
 11
630.742219
 21
-2.77
 31
0.0
  0
LINE
  5
54
100
AcDbEntity
  8
LY_3
390
0
  6
CONTINUOUS
 62
   110
100
AcDbLine
 10
630.0
 20
0.0
 30
0.0
 11
630.0
 21
-2.77
 31
0.0
  0
LINE
  5
55
100
AcDbEntity
  8
LY_3
390
0
  6
CONTINUOUS
 62
   110
100
AcDbLine
 10
630.742219
 20
-98.229997
 30
0.0
 11
630.0
 21
-100.999997
 31
0.0
  0
LINE
  5
56
100
AcDbEntity
  8
LY_3
390
0
  6
CONTINUOUS
 62
   110
100
AcDbLine
 10
630.0
 20
-100.999997
 30
0.0
 11
629.257781
 21
-98.229997
 31
0.0
  0
LINE
  5
57
100
AcDbEntity
  8
LY_3
390
0
  6
CONTINUOUS
 62
   110
100
AcDbLine
 10
630.0
 20
-100.999997
 30
0.0
 11
630.0
 21
-98.229997
 31
0.0
  0
LINE
  5
58
100
AcDbEntity
  8
LY_3
390
0
  6
CONTINUOUS
 62
   110
100
AcDbLine
 10
640.0
 20
58.999999
 30
0.0
 11
640.0
 21
-100.999997
 31
0.0
  0
LINE
  5
59
100
AcDbEntity
  8
LY_3
390
0
  6
CONTINUOUS
 62
   110
100
AcDbLine
 10
512.999985
 20
58.999999
 30
0.0
 11
641.0
 21
58.999999
 31
0.0
  0
LINE
  5
5A
100
AcDbEntity
  8
LY_3
390
0
  6
CONTINUOUS
 62
   110
100
AcDbLine
 10
512.999985
 20
-100.999997
 30
0.0
 11
641.0
 21
-100.999997
 31
0.0
  0
MTEXT
  5
5B
100
AcDbEntity
  8
LY_3
390
0
  6
CONTINUOUS
 62
   110
100
AcDbMText
 10
633.8
 20
-26.539777
 30
0.0
 40
5.2
 41
0.0
 71
     1
 72
     1
  1
\W1.023;\A1;160
 11
0.0
 21
1.0
 31
0.0
 73
     1
 44
1.0
  0
LINE
  5
5C
100
AcDbEntity
  8
LY_3
390
0
  6
CONTINUOUS
 62
   110
100
AcDbLine
 10
639.257781
 20
56.229999
 30
0.0
 11
640.0
 21
58.999999
 31
0.0
  0
LINE
  5
5D
100
AcDbEntity
  8
LY_3
390
0
  6
CONTINUOUS
 62
   110
100
AcDbLine
 10
640.0
 20
58.999999
 30
0.0
 11
640.742219
 21
56.229999
 31
0.0
  0
LINE
  5
5E
100
AcDbEntity
  8
LY_3
390
0
  6
CONTINUOUS
 62
   110
100
AcDbLine
 10
640.0
 20
58.999999
 30
0.0
 11
640.0
 21
56.229999
 31
0.0
  0
LINE
  5
5F
100
AcDbEntity
  8
LY_3
390
0
  6
CONTINUOUS
 62
   110
100
AcDbLine
 10
640.742219
 20
-98.229997
 30
0.0
 11
640.0
 21
-100.999997
 31
0.0
  0
LINE
  5
60
100
AcDbEntity
  8
LY_3
390
0
  6
CONTINUOUS
 62
   110
100
AcDbLine
 10
640.0
 20
-100.999997
 30
0.0
 11
639.257781
 21
-98.229997
 31
0.0
  0
LINE
  5
61
100
AcDbEntity
  8
LY_3
390
0
  6
CONTINUOUS
 62
   110
100
AcDbLine
 10
640.0
 20
-100.999997
 30
0.0
 11
640.0
 21
-98.229997
 31
0.0
  0
LINE
  5
62
100
AcDbEntity
  8
LY_3
390
0
  6
CONTINUOUS
 62
   110
100
AcDbLine
 10
280.0
 20
23.999999
 30
0.0
 11
280.0
 21
-24.000001
 31
0.0
  0
MTEXT
  5
63
100
AcDbEntity
  8
LY_3
390
0
  6
CONTINUOUS
 62
   110
100
AcDbMText
 10
273.8
 20
7.887557
 30
0.0
 40
5.2
 41
0.0
 71
     1
 72
     1
  1
\T0.977;\W1.018;\A1;\U+220548
 11
0.0
 21
1.0
 31
0.0
 73
     1
 44
1.0
  0
LINE
  5
64
100
AcDbEntity
  8
LY_3
390
0
  6
CONTINUOUS
 62
   110
100
AcDbLine
 10
279.257781
 20
21.229999
 30
0.0
 11
280.0
 21
23.999999
 31
0.0
  0
LINE
  5
65
100
AcDbEntity
  8
LY_3
390
0
  6
CONTINUOUS
 62
   110
100
AcDbLine
 10
280.0
 20
23.999999
 30
0.0
 11
280.742219
 21
21.229999
 31
0.0
  0
LINE
  5
66
100
AcDbEntity
  8
LY_3
390
0
  6
CONTINUOUS
 62
   110
100
AcDbLine
 10
280.0
 20
23.999999
 30
0.0
 11
280.0
 21
21.229999
 31
0.0
  0
LINE
  5
67
100
AcDbEntity
  8
LY_3
390
0
  6
CONTINUOUS
 62
   110
100
AcDbLine
 10
280.742219
 20
-21.230001
 30
0.0
 11
280.0
 21
-24.000001
 31
0.0
  0
LINE
  5
68
100
AcDbEntity
  8
LY_3
390
0
  6
CONTINUOUS
 62
   110
100
AcDbLine
 10
280.0
 20
-24.000001
 30
0.0
 11
279.257781
 21
-21.230001
 31
0.0
  0
LINE
  5
69
100
AcDbEntity
  8
LY_3
390
0
  6
CONTINUOUS
 62
   110
100
AcDbLine
 10
280.0
 20
-24.000001
 30
0.0
 11
280.0
 21
-21.230001
 31
0.0
  0
LINE
  5
6A
100
AcDbEntity
  8
LY_3
390
0
  6
CONTINUOUS
 62
   110
100
AcDbLine
 10
604.999985
 20
-130.0
 30
0.0
 11
140.0
 21
-130.0
 31
0.0
  0
LINE
  5
6B
100
AcDbEntity
  8
LY_3
390
0
  6
CONTINUOUS
 62
   110
100
AcDbLine
 10
604.999985
 20
21.0
 30
0.0
 11
604.999985
 21
-131.0
 31
0.0
  0
MTEXT
  5
6C
100
AcDbEntity
  8
LY_3
390
0
  6
CONTINUOUS
 62
   110
100
AcDbMText
 10
366.812485
 20
-123.8
 30
0.0
 40
5.2
 41
0.0
 71
     1
 72
     1
  1
\W0.938;\A1;465
 73
     1
 44
1.0
  0
LINE
  5
6D
100
AcDbEntity
  8
LY_3
390
0
  6
CONTINUOUS
 62
   110
100
AcDbLine
 10
602.229985
 20
-129.257781
 30
0.0
 11
604.999985
 21
-130.0
 31
0.0
  0
LINE
  5
6E
100
AcDbEntity
  8
LY_3
390
0
  6
CONTINUOUS
 62
   110
100
AcDbLine
 10
604.999985
 20
-130.0
 30
0.0
 11
602.229985
 21
-130.742219
 31
0.0
  0
LINE
  5
6F
100
AcDbEntity
  8
LY_3
390
0
  6
CONTINUOUS
 62
   110
100
AcDbLine
 10
604.999985
 20
-130.0
 30
0.0
 11
602.229985
 21
-130.0
 31
0.0
  0
LINE
  5
70
100
AcDbEntity
  8
LY_3
390
0
  6
CONTINUOUS
 62
   110
100
AcDbLine
 10
142.77
 20
-130.742219
 30
0.0
 11
140.0
 21
-130.0
 31
0.0
  0
LINE
  5
71
100
AcDbEntity
  8
LY_3
390
0
  6
CONTINUOUS
 62
   110
100
AcDbLine
 10
140.0
 20
-130.0
 30
0.0
 11
142.77
 21
-129.257781
 31
0.0
  0
LINE
  5
72
100
AcDbEntity
  8
LY_3
390
0
  6
CONTINUOUS
 62
   110
100
AcDbLine
 10
140.0
 20
-130.0
 30
0.0
 11
142.77
 21
-130.0
 31
0.0
  0
LINE
  5
73
100
AcDbEntity
  8
LY_3
390
0
  6
CONTINUOUS
 62
   110
100
AcDbLine
 10
140.0
 20
-130.0
 30
0.0
 11
90.0
 21
-130.0
 31
0.0
  0
LINE
  5
74
100
AcDbEntity
  8
LY_3
390
0
  6
CONTINUOUS
 62
   110
100
AcDbLine
 10
140.0
 20
-57.950012
 30
0.0
 11
140.0
 21
-131.0
 31
0.0
  0
LINE
  5
75
100
AcDbEntity
  8
LY_3
390
0
  6
CONTINUOUS
 62
   110
100
AcDbLine
 10
90.0
 20
-8.0
 30
0.0
 11
90.0
 21
-131.0
 31
0.0
  0
MTEXT
  5
76
100
AcDbEntity
  8
LY_3
390
0
  6
CONTINUOUS
 62
   110
100
AcDbMText
 10
92.305491
 20
-123.8
 30
0.0
 40
5.2
 41
0.0
 71
     1
 72
     1
  1
\T0.985;\W1.026;\A1;50+150ストローク
 73
     1
 44
1.0
  0
LINE
  5
77
100
AcDbEntity
  8
LY_3
390
0
  6
CONTINUOUS
 62
   110
100
AcDbLine
 10
137.23
 20
-129.257781
 30
0.0
 11
140.0
 21
-130.0
 31
0.0
  0
LINE
  5
78
100
AcDbEntity
  8
LY_3
390
0
  6
CONTINUOUS
 62
   110
100
AcDbLine
 10
140.0
 20
-130.0
 30
0.0
 11
137.23
 21
-130.742219
 31
0.0
  0
LINE
  5
79
100
AcDbEntity
  8
LY_3
390
0
  6
CONTINUOUS
 62
   110
100
AcDbLine
 10
140.0
 20
-130.0
 30
0.0
 11
137.23
 21
-130.0
 31
0.0
  0
LINE
  5
7A
100
AcDbEntity
  8
LY_3
390
0
  6
CONTINUOUS
 62
   110
100
AcDbLine
 10
92.77
 20
-130.742219
 30
0.0
 11
90.0
 21
-130.0
 31
0.0
  0
LINE
  5
7B
100
AcDbEntity
  8
LY_3
390
0
  6
CONTINUOUS
 62
   110
100
AcDbLine
 10
90.0
 20
-130.0
 30
0.0
 11
92.77
 21
-129.257781
 31
0.0
  0
LINE
  5
7C
100
AcDbEntity
  8
LY_3
390
0
  6
CONTINUOUS
 62
   110
100
AcDbLine
 10
90.0
 20
-130.0
 30
0.0
 11
92.77
 21
-130.0
 31
0.0
  0
LWPOLYLINE
  5
7D
100
AcDbEntity
  8
LY_3
390
0
  6
CONTINUOUS
 62
   110
100
AcDbPolyline
 90
        3
 70
     0
 10
373.5
 20
-99.499997
 10
380.0
 20
-120.0
 10
402.00589
 20
-120.0
  0
MTEXT
  5
7E
100
AcDbEntity
  8
LY_3
390
0
  6
CONTINUOUS
 62
   110
100
AcDbMText
 10
383.182973
 20
-112.5
 30
0.0
 40
5.2
 41
0.0
 71
     1
 72
     1
  1
\W0.781;\A1;モーター
 73
     1
 44
1.0
  0
LWPOLYLINE
  5
7F
100
AcDbEntity
  8
LY_3
390
0
  6
CONTINUOUS
 62
   110
100
AcDbPolyline
 90
        3
 70
     0
 10
439.0
 20
52.999999
 10
430.0
 20
70.0
 10
385.522013
 20
70.0
  0
MTEXT
  5
80
100
AcDbEntity
  8
LY_3
390
0
  6
CONTINUOUS
 62
   110
100
AcDbMText
 10
386.199096
 20
77.5
 30
0.0
 40
5.2
 41
0.0
 71
     1
 72
     1
  1
\W0.781;\A1;ポテンショメーター
 73
     1
 44
1.0
  0
LWPOLYLINE
  5
81
100
AcDbEntity
  8
LY_3
390
0
  6
CONTINUOUS
 62
   110
100
AcDbPolyline
 90
        3
 70
     0
 10
256.608921
 20
48.201599
 10
240.0
 20
70.0
 10
197.530593
 20
70.0
  0
MTEXT
  5
82
100
AcDbEntity
  8
LY_3
390
0
  6
CONTINUOUS
 62
   110
100
AcDbMText
 10
198.207676
 20
77.5
 30
0.0
 40
5.2
 41
0.0
 71
     1
 72
     1
  1
\W0.781;\A1;マイクロスイッチ
 73
     1
 44
1.0
  0
LINE
  5
83
100
AcDbEntity
  8
LY_3
390
0
  6
CONTINUOUS
 62
   110
100
AcDbLine
 10
-6.0
 20
80.0
 30
0.0
 11
-10.0
 21
80.0
 31
0.0
  0
LINE
  5
84
100
AcDbEntity
  8
LY_3
390
0
  6
CONTINUOUS
 62
   110
100
AcDbLine
 10
6.0
 20
80.0
 30
0.0
 11
10.0
 21
80.0
 31
0.0
  0
LINE
  5
85
100
AcDbEntity
  8
LY_3
390
0
  6
CONTINUOUS
 62
   110
100
AcDbLine
 10
-6.0
 20
80.0
 30
0.0
 11
-8.77
 21
80.0
 31
0.0
  0
LINE
  5
86
100
AcDbEntity
  8
LY_3
390
0
  6
CONTINUOUS
 62
   110
100
AcDbLine
 10
6.0
 20
80.0
 30
0.0
 11
8.77
 21
80.0
 31
0.0
  0
LWPOLYLINE
  5
87
100
AcDbEntity
  8
LY_3
390
0
  6
CONTINUOUS
 62
   110
100
AcDbPolyline
 90
        3
 70
     0
 10
148.750008
 20
56.749999
 10
140.0
 20
70.0
 10
113.52507
 20
70.0
  0
MTEXT
  5
88
100
AcDbEntity
  8
LY_3
390
0
  6
CONTINUOUS
 62
   110
100
AcDbMText
 10
114.46257
 20
77.5
 30
0.0
 40
5.2
 41
0.0
 71
     1
 72
     1
  1
\W1.082;\A1;CF114
 73
     1
 44
1.0
  0
LINE
  5
89
100
AcDbEntity
  8
LY_3
390
0
  6
CONTINUOUS
 62
   110
100
AcDbLine
 10
130.0
 20
-8.0
 30
0.0
 11
130.0
 21
8.0
 31
0.0
  0
LINE
  5
8A
100
AcDbEntity
  8
LY_3
390
0
  6
CONTINUOUS
 62
   110
100
AcDbLine
 10
130.0
 20
8.0
 30
0.0
 11
130.0
 21
37.762054
 31
0.0
  0
LINE
  5
8B
100
AcDbEntity
  8
LY_3
390
0
  6
CONTINUOUS
 62
   110
100
AcDbLine
 10
130.0
 20
-8.0
 30
0.0
 11
130.0
 21
-12.0
 31
0.0
  0
LINE
  5
8C
100
AcDbEntity
  8
LY_3
390
0
  6
CONTINUOUS
 62
   110
100
AcDbLine
 10
130.0
 20
8.0
 30
0.0
 11
130.0
 21
12.0
 31
0.0
  0
MTEXT
  5
8D
100
AcDbEntity
  8
LY_3
390
0
  6
CONTINUOUS
 62
   110
100
AcDbMText
 10
123.8
 20
14.231733
 30
0.0
 40
5.2
 41
0.0
 71
     1
 72
     1
  1
\W0.975;\A1;\U+220516g6
 11
0.0
 21
1.0
 31
0.0
 73
     1
 44
1.0
  0
LINE
  5
8E
100
AcDbEntity
  8
LY_3
390
0
  6
CONTINUOUS
 62
   110
100
AcDbLine
 10
129.257781
 20
-10.77
 30
0.0
 11
130.0
 21
-8.0
 31
0.0
  0
LINE
  5
8F
100
AcDbEntity
  8
LY_3
390
0
  6
CONTINUOUS
 62
   110
100
AcDbLine
 10
130.0
 20
-8.0
 30
0.0
 11
130.742219
 21
-10.77
 31
0.0
  0
LINE
  5
90
100
AcDbEntity
  8
LY_3
390
0
  6
CONTINUOUS
 62
   110
100
AcDbLine
 10
130.0
 20
-8.0
 30
0.0
 11
130.0
 21
-10.77
 31
0.0
  0
LINE
  5
91
100
AcDbEntity
  8
LY_3
390
0
  6
CONTINUOUS
 62
   110
100
AcDbLine
 10
130.742219
 20
10.77
 30
0.0
 11
130.0
 21
8.0
 31
0.0
  0
LINE
  5
92
100
AcDbEntity
  8
LY_3
390
0
  6
CONTINUOUS
 62
   110
100
AcDbLine
 10
130.0
 20
8.0
 30
0.0
 11
129.257781
 21
10.77
 31
0.0
  0
LINE
  5
93
100
AcDbEntity
  8
LY_3
390
0
  6
CONTINUOUS
 62
   110
100
AcDbLine
 10
130.0
 20
8.0
 30
0.0
 11
130.0
 21
10.77
 31
0.0
  0
LINE
  5
94
100
AcDbEntity
  8
LY_3
390
0
  6
CONTINUOUS
 62
   110
100
AcDbLine
 10
80.0
 20
-7.0
 30
0.0
 11
80.0
 21
5.5
 31
0.0
  0
LINE
  5
95
100
AcDbEntity
  8
LY_3
390
0
  6
CONTINUOUS
 62
   110
100
AcDbLine
 10
80.0
 20
5.5
 30
0.0
 11
80.0
 21
30.222088
 31
0.0
  0
LINE
  5
96
100
AcDbEntity
  8
LY_3
390
0
  6
CONTINUOUS
 62
   110
100
AcDbLine
 10
89.0
 20
-7.0
 30
0.0
 11
79.0
 21
-7.0
 31
0.0
  0
LINE
  5
97
100
AcDbEntity
  8
LY_3
390
0
  6
CONTINUOUS
 62
   110
100
AcDbLine
 10
88.0
 20
5.5
 30
0.0
 11
79.0
 21
5.5
 31
0.0
  0
LINE
  5
98
100
AcDbEntity
  8
LY_3
390
0
  6
CONTINUOUS
 62
   110
100
AcDbLine
 10
80.0
 20
-7.0
 30
0.0
 11
80.0
 21
-11.0
 31
0.0
  0
LINE
  5
99
100
AcDbEntity
  8
LY_3
390
0
  6
CONTINUOUS
 62
   110
100
AcDbLine
 10
80.0
 20
5.5
 30
0.0
 11
80.0
 21
9.5
 31
0.0
  0
MTEXT
  5
9A
100
AcDbEntity
  8
LY_3
390
0
  6
CONTINUOUS
 62
   110
100
AcDbMText
 10
73.8
 20
11.588754
 30
0.0
 40
5.2
 41
0.0
 71
     1
 72
     1
  1
\A1;12.5
 11
0.0
 21
1.0
 31
0.0
 73
     1
 44
1.0
  0
LINE
  5
9B
100
AcDbEntity
  8
LY_3
390
0
  6
CONTINUOUS
 62
   110
100
AcDbLine
 10
79.257781
 20
-9.77
 30
0.0
 11
80.0
 21
-7.0
 31
0.0
  0
LINE
  5
9C
100
AcDbEntity
  8
LY_3
390
0
  6
CONTINUOUS
 62
   110
100
AcDbLine
 10
80.0
 20
-7.0
 30
0.0
 11
80.742219
 21
-9.77
 31
0.0
  0
LINE
  5
9D
100
AcDbEntity
  8
LY_3
390
0
  6
CONTINUOUS
 62
   110
100
AcDbLine
 10
80.0
 20
-7.0
 30
0.0
 11
80.0
 21
-9.77
 31
0.0
  0
LINE
  5
9E
100
AcDbEntity
  8
LY_3
390
0
  6
CONTINUOUS
 62
   110
100
AcDbLine
 10
80.742219
 20
8.27
 30
0.0
 11
80.0
 21
5.5
 31
0.0
  0
LINE
  5
9F
100
AcDbEntity
  8
LY_3
390
0
  6
CONTINUOUS
 62
   110
100
AcDbLine
 10
80.0
 20
5.5
 30
0.0
 11
79.257781
 21
8.27
 31
0.0
  0
LINE
  5
A0
100
AcDbEntity
  8
LY_3
390
0
  6
CONTINUOUS
 62
   110
100
AcDbLine
 10
80.0
 20
5.5
 30
0.0
 11
80.0
 21
8.27
 31
0.0
  0
LINE
  5
A1
100
AcDbEntity
  8
LY_3
390
0
  6
CONTINUOUS
 62
     3
100
AcDbLine
 10
407.0
 20
39.999999
 30
0.0
 11
412.0
 21
39.999999
 31
0.0
  0
LINE
  5
A2
100
AcDbEntity
  8
LY_3
390
0
  6
CONTINUOUS
 62
     3
100
AcDbLine
 10
407.0
 20
45.999999
 30
0.0
 11
412.0
 21
45.999999
 31
0.0
  0
MTEXT
  5
A3
100
AcDbEntity
  8
LY_3
390
0
  6
CONTINUOUS
 62
   110
100
AcDbMText
 10
257.408928
 20
48.001611
 30
0.0
 40
5.2
 41
0.0
 71
     2
 72
     1
  1
\W0.833;\A1;形ＳＳ－
 73
     1
 44
1.0
  0
CIRCLE
  5
A4
100
AcDbEntity
  8
LY_3
390
0
  6
CONTINUOUS
 62
     3
100
AcDbCircle
 10
42.59082
 20
17.641693
 30
0.0
 40
4.25
  0
CIRCLE
  5
A5
100
AcDbEntity
  8
LY_3
390
0
  6
CONTINUOUS
 62
     3
100
AcDbCircle
 10
42.59082
 20
-17.641717
 30
0.0
 40
4.25
  0
CIRCLE
  5
A6
100
AcDbEntity
  8
LY_3
390
0
  6
CONTINUOUS
 62
     3
100
AcDbCircle
 10
17.641663
 20
-42.590855
 30
0.0
 40
4.25
  0
CIRCLE
  5
A7
100
AcDbEntity
  8
LY_3
390
0
  6
CONTINUOUS
 62
     3
100
AcDbCircle
 10
-17.641724
 20
-42.59084
 30
0.0
 40
4.25
  0
CIRCLE
  5
A8
100
AcDbEntity
  8
LY_3
390
0
  6
CONTINUOUS
 62
     3
100
AcDbCircle
 10
-42.590881
 20
-17.641701
 30
0.0
 40
4.25
  0
CIRCLE
  5
A9
100
AcDbEntity
  8
LY_3
390
0
  6
CONTINUOUS
 62
     3
100
AcDbCircle
 10
-42.590881
 20
17.641708
 30
0.0
 40
4.25
  0
CIRCLE
  5
AA
100
AcDbEntity
  8
LY_3
390
0
  6
CONTINUOUS
 62
     3
100
AcDbCircle
 10
-17.641724
 20
42.59085
 30
0.0
 40
4.25
  0
CIRCLE
  5
AC
100
AcDbEntity
  8
LY_3
390
0
  6
CENTER
 62
   110
100
AcDbCircle
 10
0.0
 20
0.0
 30
0.0
 40
46.099998
  0
CIRCLE
  5
AD
100
AcDbEntity
  8
LY_3
390
0
  6
CONTINUOUS
 62
     3
100
AcDbCircle
 10
17.641724
 20
42.590835
 30
0.0
 40
4.25
  0
ARC
  5
AE
100
AcDbEntity
  8
LY_3
390
0
  6
CONTINUOUS
 62
     3
100
AcDbCircle
 10
0.0
 20
0.0
 30
0.0
 40
55.950001
100
AcDbArc
 50
271.024109
 51
88.975891
  0
ARC
  5
AF
100
AcDbEntity
  8
LY_3
390
0
  6
CONTINUOUS
 62
     3
100
AcDbCircle
 10
0.0
 20
0.0
 30
0.0
 40
55.950001
100
AcDbArc
 50
91.024128
 51
268.975855
  0
CIRCLE
  5
B0
100
AcDbEntity
  8
LY_3
390
0
  6
CONTINUOUS
 62
     3
100
AcDbCircle
 10
0.0
 20
0.0
 30
0.0
 40
56.75
  0
CIRCLE
  5
B2
100
AcDbEntity
  8
LY_3
390
0
  6
DASHED
 62
   110
100
AcDbCircle
 10
0.0
 20
-30.000001
 30
0.0
 40
2.0
  0
CIRCLE
  5
B3
100
AcDbEntity
  8
LY_3
390
0
  6
DASHED
 62
   110
100
AcDbCircle
 10
0.0
 20
-30.000001
 30
0.0
 40
1.6
  0
CIRCLE
  5
B4
100
AcDbEntity
  8
LY_3
390
0
  6
DASHED
 62
   110
100
AcDbCircle
 10
-30.0
 20
0.0
 30
0.0
 40
2.0
  0
CIRCLE
  5
B5
100
AcDbEntity
  8
LY_3
390
0
  6
DASHED
 62
   110
100
AcDbCircle
 10
-30.0
 20
0.0
 30
0.0
 40
1.6
  0
CIRCLE
  5
B6
100
AcDbEntity
  8
LY_3
390
0
  6
DASHED
 62
   110
100
AcDbCircle
 10
0.0
 20
30.000001
 30
0.0
 40
2.0
  0
CIRCLE
  5
B7
100
AcDbEntity
  8
LY_3
390
0
  6
DASHED
 62
   110
100
AcDbCircle
 10
0.0
 20
30.000001
 30
0.0
 40
1.6
  0
CIRCLE
  5
B8
100
AcDbEntity
  8
LY_3
390
0
  6
DASHED
 62
   110
100
AcDbCircle
 10
30.0
 20
0.0
 30
0.0
 40
1.6
  0
CIRCLE
  5
B9
100
AcDbEntity
  8
LY_3
390
0
  6
DASHED
 62
   110
100
AcDbCircle
 10
30.0
 20
0.0
 30
0.0
 40
2.0
  0
CIRCLE
  5
BA
100
AcDbEntity
  8
LY_3
390
0
  6
CENTER
 62
   110
100
AcDbCircle
 10
0.0
 20
0.0
 30
0.0
 40
30.0
  0
ARC
  5
BB
100
AcDbEntity
  8
LY_3
390
0
  6
CONTINUOUS
 62
     3
100
AcDbCircle
 10
0.0
 20
0.0
 30
0.0
 40
6.0
100
AcDbArc
 50
113.556505
 51
66.443489
  0
ARC
  5
BC
100
AcDbEntity
  8
LY_3
390
0
  6
CONTINUOUS
 62
     3
100
AcDbCircle
 10
0.0
 20
0.0
 30
0.0
 40
7.0
100
AcDbArc
 50
128.21321
 51
51.786808
  0
ARC
  5
BD
100
AcDbEntity
  8
LY_3
390
0
  6
CONTINUOUS
 62
     3
100
AcDbCircle
 10
7.0
 20
0.0
 30
0.0
 40
2.5
100
AcDbArc
 50
284.477519
 51
75.522508
  0
ARC
  5
BE
100
AcDbEntity
  8
LY_3
390
0
  6
CONTINUOUS
 62
     3
100
AcDbCircle
 10
0.0
 20
-7.0
 30
0.0
 40
2.5
100
AcDbArc
 50
194.477524
 51
345.522512
  0
ARC
  5
BF
100
AcDbEntity
  8
LY_3
390
0
  6
CONTINUOUS
 62
     3
100
AcDbCircle
 10
-7.0
 20
0.0
 30
0.0
 40
2.5
100
AcDbArc
 50
104.477511
 51
255.522513
  0
ARC
  5
C0
100
AcDbEntity
  8
LY_3
390
0
  6
CONTINUOUS
 62
     3
100
AcDbCircle
 10
0.0
 20
7.0
 30
0.0
 40
2.5
100
AcDbArc
 50
14.477515
 51
165.522504
  0
CIRCLE
  5
C1
100
AcDbEntity
  8
LY_3
390
0
  6
CONTINUOUS
 62
     3
100
AcDbCircle
 10
0.0
 20
0.0
 30
0.0
 40
8.0
  0
ARC
  5
C2
100
AcDbEntity
  8
LY_3
390
0
  6
CONTINUOUS
 62
     3
100
AcDbCircle
 10
8.304626
 20
-9.789283
 30
0.0
 40
1.175
100
AcDbArc
 50
220.942212
 51
312.574523
  0
ARC
  5
C3
100
AcDbEntity
  8
LY_3
390
0
  6
CONTINUOUS
 62
     3
100
AcDbCircle
 10
-8.304626
 20
-9.789283
 30
0.0
 40
1.175
100
AcDbArc
 50
227.425454
 51
319.05777
  0
ARC
  5
C4
100
AcDbEntity
  8
LY_3
390
0
  6
CONTINUOUS
 62
     3
100
AcDbCircle
 10
5.641968
 20
-12.099212
 30
0.0
 40
2.35
100
AcDbArc
 50
40.942258
 51
178.331376
  0
ARC
  5
C5
100
AcDbEntity
  8
LY_3
390
0
  6
CONTINUOUS
 62
     3
100
AcDbCircle
 10
-5.641968
 20
-12.099212
 30
0.0
 40
2.35
100
AcDbArc
 50
1.668639
 51
139.057761
  0
CIRCLE
  5
C6
100
AcDbEntity
  8
LY_3
390
0
  6
CONTINUOUS
 62
     3
100
AcDbCircle
 10
5.641968
 20
-12.099212
 30
0.0
 40
1.0
  0
CIRCLE
  5
C7
100
AcDbEntity
  8
LY_3
390
0
  6
CONTINUOUS
 62
     3
100
AcDbCircle
 10
-5.641968
 20
-12.099212
 30
0.0
 40
1.0
  0
ARC
  5
C8
100
AcDbEntity
  8
LY_3
390
0
  6
CONTINUOUS
 62
     3
100
AcDbCircle
 10
0.0
 20
-0.75
 30
0.0
 40
13.45
100
AcDbArc
 50
312.574534
 51
227.425437
  0
CIRCLE
  5
C9
100
AcDbEntity
  8
LY_3
390
0
  6
CONTINUOUS
 62
     3
100
AcDbCircle
 10
0.0
 20
0.0
 30
0.0
 40
15.0
  0
CIRCLE
  5
CA
100
AcDbEntity
  8
LY_3
390
0
  6
CONTINUOUS
 62
     3
100
AcDbCircle
 10
0.0
 20
0.0
 30
0.0
 40
41.299999
  0
CIRCLE
  5
CB
100
AcDbEntity
  8
LY_3
390
0
  6
CONTINUOUS
 62
     3
100
AcDbCircle
 10
0.0
 20
0.0
 30
0.0
 40
38.599998
  0
CIRCLE
  5
CC
100
AcDbEntity
  8
LY_3
390
0
  6
CONTINUOUS
 62
     3
100
AcDbCircle
 10
0.0
 20
0.0
 30
0.0
 40
31.9
  0
ARC
  5
CD
100
AcDbEntity
  8
LY_3
390
0
  6
CONTINUOUS
 62
     3
100
AcDbCircle
 10
513.967773
 20
27.699996
 30
0.0
 40
0.5
100
AcDbArc
 50
270.000018
 51
329.262182
  0
ARC
  5
CE
100
AcDbEntity
  8
LY_3
390
0
  6
CONTINUOUS
 62
     3
100
AcDbCircle
 10
510.099945
 20
29.999999
 30
0.0
 40
5.0
100
AcDbArc
 50
329.262182
 51
30.737873
  0
ARC
  5
CF
100
AcDbEntity
  8
LY_3
390
0
  6
CONTINUOUS
 62
     3
100
AcDbCircle
 10
513.967773
 20
32.300003
 30
0.0
 40
0.5
100
AcDbArc
 50
30.737859
 51
90.000023
  0
ARC
  5
D0
100
AcDbEntity
  8
LY_3
390
0
  6
CONTINUOUS
 62
     3
100
AcDbCircle
 10
513.967773
 20
48.699996
 30
0.0
 40
0.5
100
AcDbArc
 50
270.000018
 51
329.262182
  0
ARC
  5
D1
100
AcDbEntity
  8
LY_3
390
0
  6
CONTINUOUS
 62
     3
100
AcDbCircle
 10
510.099945
 20
50.999999
 30
0.0
 40
5.0
100
AcDbArc
 50
329.262182
 51
30.737873
  0
ARC
  5
D2
100
AcDbEntity
  8
LY_3
390
0
  6
CONTINUOUS
 62
     3
100
AcDbCircle
 10
513.967773
 20
53.300003
 30
0.0
 40
0.5
100
AcDbArc
 50
30.737859
 51
90.000023
  0
ARC
  5
D3
100
AcDbEntity
  8
LY_3
390
0
  6
CONTINUOUS
 62
     3
100
AcDbCircle
 10
454.499985
 20
-101.499997
 30
0.0
 40
1.5
100
AcDbArc
 50
179.999981
 51
269.999963
  0
ARC
  5
D4
100
AcDbEntity
  8
LY_3
390
0
  6
CONTINUOUS
 62
     3
100
AcDbCircle
 10
462.499985
 20
-101.499997
 30
0.0
 40
1.5
100
AcDbArc
 50
269.999963
 51
359.999945
  0
ARC
  5
D5
100
AcDbEntity
  8
LY_3
390
0
  6
DASHED
 62
   110
100
AcDbCircle
 10
397.491104
 20
36.101623
 30
0.0
 40
1.2
100
AcDbArc
 50
114.157944
 51
355.142024
  0
ARC
  5
D6
100
AcDbEntity
  8
LY_3
390
0
  6
DASHED
 62
   110
100
AcDbCircle
 10
397.491104
 20
36.101623
 30
0.0
 40
1.5
100
AcDbArc
 50
109.11122
 51
356.115272
  0
ARC
  5
D7
100
AcDbEntity
  8
LY_3
390
0
  6
CONTINUOUS
 62
     3
100
AcDbCircle
 10
392.491058
 20
47.1016
 30
0.0
 40
3.2
100
AcDbArc
 50
56.251006
 51
123.74893
  0
ARC
  5
D8
100
AcDbEntity
  8
LY_3
390
0
  6
CONTINUOUS
 62
     3
100
AcDbCircle
 10
390.991058
 20
49.346595
 30
0.0
 40
0.5
100
AcDbArc
 50
123.74893
 51
179.999978
  0
ARC
  5
D9
100
AcDbEntity
  8
LY_3
390
0
  6
CONTINUOUS
 62
     3
100
AcDbCircle
 10
393.991074
 20
49.346595
 30
0.0
 40
0.5
100
AcDbArc
 50
359.999959
 51
56.251006
  0
ARC
  5
DA
100
AcDbEntity
  8
LY_3
390
0
  6
CONTINUOUS
 62
     3
100
AcDbCircle
 10
402.491104
 20
47.1016
 30
0.0
 40
3.2
100
AcDbArc
 50
64.924459
 51
115.07556
  0
ARC
  5
DB
100
AcDbEntity
  8
LY_3
390
0
  6
CONTINUOUS
 62
     3
100
AcDbCircle
 10
251.508904
 20
47.1016
 30
0.0
 40
3.2
100
AcDbArc
 50
56.251034
 51
123.748958
  0
CIRCLE
  5
DC
100
AcDbEntity
  8
LY_3
390
0
  6
CONTINUOUS
 62
   110
100
AcDbCircle
 10
261.408936
 20
45.401611
 30
0.0
 40
0.25
  0
CIRCLE
  5
DD
100
AcDbEntity
  8
LY_3
390
0
  6
DASHED
 62
   110
100
AcDbCircle
 10
256.508904
 20
36.101623
 30
0.0
 40
1.2
  0
CIRCLE
  5
DE
100
AcDbEntity
  8
LY_3
390
0
  6
DASHED
 62
   110
100
AcDbCircle
 10
256.508904
 20
36.101623
 30
0.0
 40
1.5
  0
ARC
  5
DF
100
AcDbEntity
  8
LY_3
390
0
  6
CONTINUOUS
 62
     3
100
AcDbCircle
 10
253.008904
 20
49.346591
 30
0.0
 40
0.5
100
AcDbArc
 50
359.999986
 51
56.251034
  0
ARC
  5
E0
100
AcDbEntity
  8
LY_3
390
0
  6
CONTINUOUS
 62
     3
100
AcDbCircle
 10
250.008904
 20
49.346591
 30
0.0
 40
0.5
100
AcDbArc
 50
123.748958
 51
180.000005
  0
ARC
  5
E1
100
AcDbEntity
  8
LY_3
390
0
  6
CONTINUOUS
 62
     3
100
AcDbCircle
 10
261.508942
 20
47.1016
 30
0.0
 40
3.2
100
AcDbArc
 50
56.251034
 51
123.748958
  0
ARC
  5
E2
100
AcDbEntity
  8
LY_3
390
0
  6
CONTINUOUS
 62
     3
100
AcDbCircle
 10
263.008942
 20
49.346595
 30
0.0
 40
0.5
100
AcDbArc
 50
359.999986
 51
56.251034
  0
ARC
  5
E3
100
AcDbEntity
  8
LY_3
390
0
  6
CONTINUOUS
 62
     3
100
AcDbCircle
 10
260.008934
 20
49.346595
 30
0.0
 40
0.5
100
AcDbArc
 50
123.748958
 51
180.000005
  0
CIRCLE
  5
E4
100
AcDbEntity
  8
LY_3
390
0
  6
CONTINUOUS
 62
     3
100
AcDbCircle
 10
439.5
 20
36.999999
 30
0.0
 40
2.8
  0
ARC
  5
E5
100
AcDbEntity
  8
LY_3
390
0
  6
CONTINUOUS
 62
     3
100
AcDbCircle
 10
440.309555
 20
37.809547
 30
0.0
 40
0.622046
100
AcDbArc
 50
179.999978
 51
270.000028
  0
ARC
  5
E6
100
AcDbEntity
  8
LY_3
390
0
  6
CONTINUOUS
 62
     3
100
AcDbCircle
 10
440.309555
 20
36.190452
 30
0.0
 40
0.622046
100
AcDbArc
 50
89.999982
 51
179.999964
  0
ARC
  5
E7
100
AcDbEntity
  8
LY_3
390
0
  6
CONTINUOUS
 62
     3
100
AcDbCircle
 10
438.690445
 20
36.190452
 30
0.0
 40
0.622046
100
AcDbArc
 50
0.0
 51
89.999982
  0
ARC
  5
E8
100
AcDbEntity
  8
LY_3
390
0
  6
CONTINUOUS
 62
     3
100
AcDbCircle
 10
438.690445
 20
37.809547
 30
0.0
 40
0.622046
100
AcDbArc
 50
270.000018
 51
0.0
  0
CIRCLE
  5
E9
100
AcDbEntity
  8
LY_3
390
0
  6
CONTINUOUS
 62
     3
100
AcDbCircle
 10
439.5
 20
48.999999
 30
0.0
 40
2.8
  0
ARC
  5
EA
100
AcDbEntity
  8
LY_3
390
0
  6
CONTINUOUS
 62
     3
100
AcDbCircle
 10
440.309555
 20
49.809547
 30
0.0
 40
0.622046
100
AcDbArc
 50
179.999978
 51
270.000028
  0
ARC
  5
EB
100
AcDbEntity
  8
LY_3
390
0
  6
CONTINUOUS
 62
     3
100
AcDbCircle
 10
440.309555
 20
48.190452
 30
0.0
 40
0.622046
100
AcDbArc
 50
89.999982
 51
179.999964
  0
ARC
  5
EC
100
AcDbEntity
  8
LY_3
390
0
  6
CONTINUOUS
 62
     3
100
AcDbCircle
 10
438.690445
 20
48.190452
 30
0.0
 40
0.622046
100
AcDbArc
 50
0.0
 51
89.999982
  0
ARC
  5
ED
100
AcDbEntity
  8
LY_3
390
0
  6
CONTINUOUS
 62
     3
100
AcDbCircle
 10
438.690445
 20
49.809547
 30
0.0
 40
0.622046
100
AcDbArc
 50
270.000018
 51
0.0
  0
ARC
  5
EE
100
AcDbEntity
  8
LY_3
390
0
  6
CONTINUOUS
 62
     3
100
AcDbCircle
 10
462.5
 20
59.499999
 30
0.0
 40
1.5
100
AcDbArc
 50
0.0
 51
89.999982
  0
ARC
  5
EF
100
AcDbEntity
  8
LY_3
390
0
  6
CONTINUOUS
 62
     3
100
AcDbCircle
 10
454.5
 20
59.499999
 30
0.0
 40
1.5
100
AcDbArc
 50
89.999982
 51
179.999964
  0
LINE
  5
F0
100
AcDbEntity
  8
LY_3
390
0
  6
CENTER
 62
   110
100
AcDbLine
 10
33.351738
 20
13.815468
 30
0.0
 11
51.829288
 21
21.469114
 31
0.0
  0
LINE
  5
F1
100
AcDbEntity
  8
LY_3
390
0
  6
CENTER
 62
   110
100
AcDbLine
 10
33.351586
 20
-13.815832
 30
0.0
 11
51.829146
 21
-21.469493
 31
0.0
  0
LINE
  5
F2
100
AcDbEntity
  8
LY_3
390
0
  6
CONTINUOUS
 62
     3
100
AcDbLine
 10
-1.0
 20
-41.287892
 30
0.0
 11
-1.0
 21
-56.741185
 31
0.0
  0
LINE
  5
F3
100
AcDbEntity
  8
LY_3
390
0
  6
CONTINUOUS
 62
     3
100
AcDbLine
 10
1.0
 20
-41.287892
 30
0.0
 11
1.0
 21
-56.741185
 31
0.0
  0
LINE
  5
F4
100
AcDbEntity
  8
LY_3
390
0
  6
CENTER
 62
   110
100
AcDbLine
 10
13.813361
 20
-33.352637
 30
0.0
 11
21.467023
 21
-51.830223
 31
0.0
  0
LINE
  5
F5
100
AcDbEntity
  8
LY_3
390
0
  6
CENTER
 62
   110
100
AcDbLine
 10
-13.815795
 20
-33.351694
 30
0.0
 11
-21.469466
 21
-51.829284
 31
0.0
  0
LINE
  5
F6
100
AcDbEntity
  8
LY_3
390
0
  6
CENTER
 62
   110
100
AcDbLine
 10
-33.352131
 20
-13.814701
 30
0.0
 11
-51.829722
 21
-21.468367
 31
0.0
  0
LINE
  5
F7
100
AcDbEntity
  8
LY_3
390
0
  6
CENTER
 62
   110
100
AcDbLine
 10
-33.352231
 20
13.814579
 30
0.0
 11
-51.829821
 21
21.468249
 31
0.0
  0
LINE
  5
F8
100
AcDbEntity
  8
LY_3
390
0
  6
CENTER
 62
   110
100
AcDbLine
 10
-13.815052
 20
33.351971
 30
0.0
 11
-21.468714
 21
51.829548
 31
0.0
  0
LINE
  5
F9
100
AcDbEntity
  8
LY_3
390
0
  6
CENTER
 62
   110
100
AcDbLine
 10
13.81517
 20
33.351904
 30
0.0
 11
21.468844
 21
51.829508
 31
0.0
  0
LINE
  5
FA
100
AcDbEntity
  8
LY_3
390
0
  6
CONTINUOUS
 62
     3
100
AcDbLine
 10
1.0
 20
56.741188
 30
0.0
 11
1.0
 21
41.287887
 31
0.0
  0
LINE
  5
FB
100
AcDbEntity
  8
LY_3
390
0
  6
CONTINUOUS
 62
     3
100
AcDbLine
 10
-1.0
 20
56.741188
 30
0.0
 11
-1.0
 21
41.287887
 31
0.0
  0
LINE
  5
FC
100
AcDbEntity
  8
LY_3
390
0
  6
CONTINUOUS
 62
     3
100
AcDbLine
 10
-4.330139
 20
5.5
 30
0.0
 11
4.330139
 21
5.5
 31
0.0
  0
LINE
  5
FD
100
AcDbEntity
  8
LY_3
390
0
  6
CONTINUOUS
 62
     3
100
AcDbLine
 10
3.292733
 20
-12.030849
 30
0.0
 11
4.373378
 21
-14.348298
 31
0.0
  0
LINE
  5
FE
100
AcDbEntity
  8
LY_3
390
0
  6
CONTINUOUS
 62
     3
100
AcDbLine
 10
-4.373725
 20
-14.34821
 30
0.0
 11
-3.293081
 21
-12.030761
 31
0.0
  0
LINE
  5
FF
100
AcDbEntity
  8
LY_3
390
0
  6
CENTER
 62
   110
100
AcDbLine
 10
-67.695251
 20
0.0
 30
0.0
 11
64.020218
 21
0.0
 31
0.0
  0
LINE
  5
100
100
AcDbEntity
  8
LY_3
390
0
  6
CENTER
 62
   110
100
AcDbLine
 10
0.0
 20
67.781948
 30
0.0
 11
0.0
 21
-67.323254
 31
0.0
  0
LINE
  5
101
100
AcDbEntity
  8
LY_3
390
0
  6
CONTINUOUS
 62
     3
100
AcDbLine
 10
157.5
 20
-55.949978
 30
0.0
 11
157.5
 21
55.950035
 31
0.0
  0
LINE
  5
102
100
AcDbEntity
  8
LY_3
390
0
  6
CONTINUOUS
 62
     3
100
AcDbLine
 10
157.5
 20
-35.000001
 30
0.0
 11
165.0
 21
-35.000001
 31
0.0
  0
LINE
  5
103
100
AcDbEntity
  8
LY_3
390
0
  6
CENTER
 62
   110
100
AcDbLine
 10
145.811768
 20
-30.000001
 30
0.0
 11
168.21373
 21
-30.000001
 31
0.0
  0
LINE
  5
104
100
AcDbEntity
  8
LY_3
390
0
  6
CONTINUOUS
 62
     3
100
AcDbLine
 10
164.999998
 20
-35.000004
 30
0.0
 11
165.499998
 21
-34.500003
 31
0.0
  0
LINE
  5
105
100
AcDbEntity
  8
LY_3
390
0
  6
CONTINUOUS
 62
     3
100
AcDbLine
 10
165.5
 20
-34.500001
 30
0.0
 11
165.5
 21
34.499999
 31
0.0
  0
LINE
  5
106
100
AcDbEntity
  8
LY_3
390
0
  6
CONTINUOUS
 62
     3
100
AcDbLine
 10
165.000003
 20
35.000007
 30
0.0
 11
165.500004
 21
34.500006
 31
0.0
  0
LINE
  5
107
100
AcDbEntity
  8
LY_3
390
0
  6
CONTINUOUS
 62
     3
100
AcDbLine
 10
157.5
 20
34.999999
 30
0.0
 11
165.0
 21
34.999999
 31
0.0
  0
LINE
  5
108
100
AcDbEntity
  8
LY_3
390
0
  6
CENTER
 62
   110
100
AcDbLine
 10
145.802673
 20
29.999999
 30
0.0
 11
168.21373
 21
29.999999
 31
0.0
  0
LINE
  5
109
100
AcDbEntity
  8
LY_3
390
0
  6
CONTINUOUS
 62
     3
100
AcDbLine
 10
512.699951
 20
27.050003
 30
0.0
 11
512.699951
 21
32.949996
 31
0.0
  0
LINE
  5
10A
100
AcDbEntity
  8
LY_3
390
0
  6
CONTINUOUS
 62
     3
100
AcDbLine
 10
513.967773
 20
27.199996
 30
0.0
 11
512.699951
 21
27.199996
 31
0.0
  0
LINE
  5
10B
100
AcDbEntity
  8
LY_3
390
0
  6
CONTINUOUS
 62
     3
100
AcDbLine
 10
513.967773
 20
32.800003
 30
0.0
 11
512.699951
 21
32.800003
 31
0.0
  0
LINE
  5
10C
100
AcDbEntity
  8
LY_3
390
0
  6
CONTINUOUS
 62
     3
100
AcDbLine
 10
512.699951
 20
27.050003
 30
0.0
 11
511.999954
 21
27.050003
 31
0.0
  0
LINE
  5
10D
100
AcDbEntity
  8
LY_3
390
0
  6
CONTINUOUS
 62
     3
100
AcDbLine
 10
512.699951
 20
32.949996
 30
0.0
 11
511.999954
 21
32.949996
 31
0.0
  0
LINE
  5
10E
100
AcDbEntity
  8
LY_3
390
0
  6
CONTINUOUS
 62
     3
100
AcDbLine
 10
512.699951
 20
48.050003
 30
0.0
 11
512.699951
 21
53.949996
 31
0.0
  0
LINE
  5
10F
100
AcDbEntity
  8
LY_3
390
0
  6
CONTINUOUS
 62
     3
100
AcDbLine
 10
513.967773
 20
48.199996
 30
0.0
 11
512.699951
 21
48.199996
 31
0.0
  0
LINE
  5
110
100
AcDbEntity
  8
LY_3
390
0
  6
CONTINUOUS
 62
     3
100
AcDbLine
 10
513.967773
 20
53.800003
 30
0.0
 11
512.699951
 21
53.800003
 31
0.0
  0
LINE
  5
111
100
AcDbEntity
  8
LY_3
390
0
  6
CONTINUOUS
 62
     3
100
AcDbLine
 10
512.699951
 20
48.050003
 30
0.0
 11
511.999954
 21
48.050003
 31
0.0
  0
LINE
  5
112
100
AcDbEntity
  8
LY_3
390
0
  6
CONTINUOUS
 62
     3
100
AcDbLine
 10
512.699951
 20
53.949996
 30
0.0
 11
511.999954
 21
53.949996
 31
0.0
  0
LINE
  5
113
100
AcDbEntity
  8
LY_3
390
0
  6
CENTER
 62
   110
100
AcDbLine
 10
509.561264
 20
29.999999
 30
0.0
 11
515.861984
 21
29.999999
 31
0.0
  0
LINE
  5
114
100
AcDbEntity
  8
LY_3
390
0
  6
CENTER
 62
   110
100
AcDbLine
 10
509.41301
 20
50.999999
 30
0.0
 11
515.936111
 21
50.999999
 31
0.0
  0
LINE
  5
115
100
AcDbEntity
  8
LY_3
390
0
  6
CONTINUOUS
 62
     3
100
AcDbLine
 10
511.999954
 20
57.999999
 30
0.0
 11
511.999954
 21
22.999999
 31
0.0
  0
LINE
  5
116
100
AcDbEntity
  8
LY_3
390
0
  6
CONTINUOUS
 62
     3
100
AcDbLine
 10
232.0
 20
38.999999
 30
0.0
 11
246.508904
 21
38.999999
 31
0.0
  0
LINE
  5
117
100
AcDbEntity
  8
LY_3
390
0
  6
CONTINUOUS
 62
     3
100
AcDbLine
 10
232.0
 20
32.999999
 30
0.0
 11
246.508904
 21
32.999999
 31
0.0
  0
LINE
  5
118
100
AcDbEntity
  8
LY_3
390
0
  6
CONTINUOUS
 62
     3
100
AcDbLine
 10
232.0
 20
23.999999
 30
0.0
 11
440.999992
 21
23.999999
 31
0.0
  0
LINE
  5
119
100
AcDbEntity
  8
LY_3
390
0
  6
CONTINUOUS
 62
     3
100
AcDbLine
 10
232.0
 20
-24.000001
 30
0.0
 11
441.0
 21
-24.000001
 31
0.0
  0
LINE
  5
11A
100
AcDbEntity
  8
LY_3
390
0
  6
CONTINUOUS
 62
     3
100
AcDbLine
 10
232.0
 20
43.826698
 30
0.0
 11
232.0
 21
-29.000001
 31
0.0
  0
LINE
  5
11B
100
AcDbEntity
  8
LY_3
390
0
  6
CONTINUOUS
 62
     3
100
AcDbLine
 10
224.0
 20
43.826698
 30
0.0
 11
224.0
 21
-29.000001
 31
0.0
  0
LINE
  5
11C
100
AcDbEntity
  8
LY_3
390
0
  6
CONTINUOUS
 62
     3
100
AcDbLine
 10
224.0
 20
-29.000001
 30
0.0
 11
232.0
 21
-29.000001
 31
0.0
  0
LINE
  5
11D
100
AcDbEntity
  8
LY_3
390
0
  6
CONTINUOUS
 62
     3
100
AcDbLine
 10
224.0
 20
43.826698
 30
0.0
 11
232.0
 21
43.826698
 31
0.0
  0
LINE
  5
11E
100
AcDbEntity
  8
LY_3
390
0
  6
CONTINUOUS
 62
     3
100
AcDbLine
 10
445.5
 20
47.2
 30
0.0
 11
446.5
 21
47.2
 31
0.0
  0
LINE
  5
11F
100
AcDbEntity
  8
LY_3
390
0
  6
CONTINUOUS
 62
     3
100
AcDbLine
 10
445.5
 20
52.799999
 30
0.0
 11
445.5
 21
47.2
 31
0.0
  0
LINE
  5
120
100
AcDbEntity
  8
LY_3
390
0
  6
CONTINUOUS
 62
     3
100
AcDbLine
 10
446.49997
 20
36.000035
 30
0.0
 11
445.49997
 21
36.577386
 31
0.0
  0
LINE
  5
121
100
AcDbEntity
  8
LY_3
390
0
  6
CONTINUOUS
 62
     3
100
AcDbLine
 10
446.500001
 20
35.422702
 30
0.0
 11
445.500007
 21
36.000049
 31
0.0
  0
LINE
  5
122
100
AcDbEntity
  8
LY_3
390
0
  6
CONTINUOUS
 62
     3
100
AcDbLine
 10
445.5
 20
38.799999
 30
0.0
 11
446.5
 21
38.799999
 31
0.0
  0
LINE
  5
123
100
AcDbEntity
  8
LY_3
390
0
  6
CONTINUOUS
 62
     3
100
AcDbLine
 10
445.5
 20
33.2
 30
0.0
 11
446.5
 21
33.2
 31
0.0
  0
LINE
  5
124
100
AcDbEntity
  8
LY_3
390
0
  6
CONTINUOUS
 62
     3
100
AcDbLine
 10
445.5
 20
38.799999
 30
0.0
 11
445.5
 21
33.2
 31
0.0
  0
LINE
  5
125
100
AcDbEntity
  8
LY_3
390
0
  6
CONTINUOUS
 62
     3
100
AcDbLine
 10
442.499984
 20
52.403686
 30
0.0
 11
442.69999
 21
52.750094
 31
0.0
  0
LINE
  5
126
100
AcDbEntity
  8
LY_3
390
0
  6
CONTINUOUS
 62
     3
100
AcDbLine
 10
442.499812
 20
47.596312
 30
0.0
 11
442.699816
 21
47.249892
 31
0.0
  0
LINE
  5
127
100
AcDbEntity
  8
LY_3
390
0
  6
CONTINUOUS
 62
     3
100
AcDbLine
 10
442.699997
 20
47.249999
 30
0.0
 11
442.699997
 21
52.749999
 31
0.0
  0
LINE
  5
128
100
AcDbEntity
  8
LY_3
390
0
  6
CONTINUOUS
 62
     3
100
AcDbLine
 10
442.699997
 20
52.749999
 30
0.0
 11
445.5
 21
52.749999
 31
0.0
  0
LINE
  5
129
100
AcDbEntity
  8
LY_3
390
0
  6
CONTINUOUS
 62
     3
100
AcDbLine
 10
442.699997
 20
47.249999
 30
0.0
 11
445.5
 21
47.249999
 31
0.0
  0
LINE
  5
12A
100
AcDbEntity
  8
LY_3
390
0
  6
CONTINUOUS
 62
     3
100
AcDbLine
 10
442.5
 20
47.596408
 30
0.0
 11
442.5
 21
52.403587
 31
0.0
  0
LINE
  5
12B
100
AcDbEntity
  8
LY_3
390
0
  6
CONTINUOUS
 62
     3
100
AcDbLine
 10
442.499968
 20
38.403669
 30
0.0
 11
442.699965
 21
38.750083
 31
0.0
  0
LINE
  5
12C
100
AcDbEntity
  8
LY_3
390
0
  6
CONTINUOUS
 62
     3
100
AcDbLine
 10
442.499841
 20
33.596327
 30
0.0
 11
442.699853
 21
33.249895
 31
0.0
  0
LINE
  5
12D
100
AcDbEntity
  8
LY_3
390
0
  6
CONTINUOUS
 62
     3
100
AcDbLine
 10
442.699997
 20
33.249999
 30
0.0
 11
442.699997
 21
38.749999
 31
0.0
  0
LINE
  5
12E
100
AcDbEntity
  8
LY_3
390
0
  6
CONTINUOUS
 62
     3
100
AcDbLine
 10
442.699997
 20
38.749999
 30
0.0
 11
445.5
 21
38.749999
 31
0.0
  0
LINE
  5
12F
100
AcDbEntity
  8
LY_3
390
0
  6
CONTINUOUS
 62
     3
100
AcDbLine
 10
442.699997
 20
33.249999
 30
0.0
 11
445.5
 21
33.249999
 31
0.0
  0
LINE
  5
130
100
AcDbEntity
  8
LY_3
390
0
  6
CONTINUOUS
 62
     3
100
AcDbLine
 10
442.5
 20
33.596408
 30
0.0
 11
442.5
 21
38.403591
 31
0.0
  0
LINE
  5
131
100
AcDbEntity
  8
LY_3
390
0
  6
CONTINUOUS
 62
     3
100
AcDbLine
 10
446.500002
 20
50.000018
 30
0.0
 11
445.500015
 21
50.577361
 31
0.0
  0
LINE
  5
132
100
AcDbEntity
  8
LY_3
390
0
  6
CONTINUOUS
 62
     3
100
AcDbLine
 10
445.5
 20
52.799999
 30
0.0
 11
446.5
 21
52.799999
 31
0.0
  0
LINE
  5
133
100
AcDbEntity
  8
LY_3
390
0
  6
CONTINUOUS
 62
     3
100
AcDbLine
 10
446.500016
 20
49.422667
 30
0.0
 11
445.500008
 21
50.000021
 31
0.0
  0
LINE
  5
134
100
AcDbEntity
  8
LY_3
390
0
  6
CONTINUOUS
 62
     3
100
AcDbLine
 10
397.0
 20
49.999999
 30
0.0
 11
407.0
 21
49.999999
 31
0.0
  0
LINE
  5
135
100
AcDbEntity
  8
LY_3
390
0
  6
CONTINUOUS
 62
     3
100
AcDbLine
 10
397.0
 20
35.999999
 30
0.0
 11
404.0
 21
35.999999
 31
0.0
  0
LINE
  5
136
100
AcDbEntity
  8
LY_3
390
0
  6
CONTINUOUS
 62
     3
100
AcDbLine
 10
397.0
 20
35.999999
 30
0.0
 11
397.0
 21
49.999999
 31
0.0
  0
LINE
  5
137
100
AcDbEntity
  8
LY_3
390
0
  6
CONTINUOUS
 62
     3
100
AcDbLine
 10
407.0
 20
23.999999
 30
0.0
 11
407.0
 21
49.999999
 31
0.0
  0
LINE
  5
138
100
AcDbEntity
  8
LY_3
390
0
  6
CONTINUOUS
 62
     3
100
AcDbLine
 10
404.0
 20
35.999999
 30
0.0
 11
404.0
 21
23.999999
 31
0.0
  0
LINE
  5
139
100
AcDbEntity
  8
LY_3
390
0
  6
CENTER
 62
   110
100
AcDbLine
 10
407.0
 20
35.999999
 30
0.0
 11
413.433998
 21
35.999999
 31
0.0
  0
LINE
  5
13A
100
AcDbEntity
  8
LY_3
390
0
  6
CONTINUOUS
 62
     3
100
AcDbLine
 10
452.999985
 20
-101.499997
 30
0.0
 11
452.999985
 21
-100.999997
 31
0.0
  0
LINE
  5
13B
100
AcDbEntity
  8
LY_3
390
0
  6
CONTINUOUS
 62
     3
100
AcDbLine
 10
454.499985
 20
-102.999997
 30
0.0
 11
462.499985
 21
-102.999997
 31
0.0
  0
LINE
  5
13C
100
AcDbEntity
  8
LY_3
390
0
  6
CONTINUOUS
 62
     3
100
AcDbLine
 10
463.999985
 20
-101.499997
 30
0.0
 11
463.999985
 21
-100.999997
 31
0.0
  0
LINE
  5
13D
100
AcDbEntity
  8
LY_3
390
0
  6
CENTER
 62
   110
100
AcDbLine
 10
458.499985
 20
-96.999997
 30
0.0
 11
458.499985
 21
-103.999997
 31
0.0
  0
LINE
  5
13E
100
AcDbEntity
  8
LY_3
390
0
  6
CONTINUOUS
 62
     3
100
AcDbLine
 10
446.5
 20
-100.999997
 30
0.0
 11
510.999985
 21
-100.999997
 31
0.0
  0
LINE
  5
13F
100
AcDbEntity
  8
LY_3
390
0
  6
CONTINUOUS
 62
     3
100
AcDbLine
 10
407.491104
 20
32.999999
 30
0.0
 11
412.0
 21
32.999999
 31
0.0
  0
LINE
  5
140
100
AcDbEntity
  8
LY_3
390
0
  6
CONTINUOUS
 62
     3
100
AcDbLine
 10
407.491104
 20
38.999999
 30
0.0
 11
412.0
 21
38.999999
 31
0.0
  0
LINE
  5
141
100
AcDbEntity
  8
LY_3
390
0
  6
CONTINUOUS
 62
     3
100
AcDbLine
 10
404.0
 20
29.601623
 30
0.0
 11
387.491074
 21
29.601623
 31
0.0
  0
LINE
  5
142
100
AcDbEntity
  8
LY_3
390
0
  6
CONTINUOUS
 62
     3
100
AcDbLine
 10
407.0
 20
48.201599
 30
0.0
 11
407.291092
 21
48.201599
 31
0.0
  0
LINE
  5
143
100
AcDbEntity
  8
LY_3
390
0
  6
CONTINUOUS
 62
     3
100
AcDbLine
 10
407.0
 20
47.301605
 30
0.0
 11
408.891098
 21
47.301605
 31
0.0
  0
LINE
  5
144
100
AcDbEntity
  8
LY_3
390
0
  6
CONTINUOUS
 62
     3
100
AcDbLine
 10
390.491058
 20
49.346595
 30
0.0
 11
390.491058
 21
48.701599
 31
0.0
  0
LINE
  5
145
100
AcDbEntity
  8
LY_3
390
0
  6
CONTINUOUS
 62
     3
100
AcDbLine
 10
394.491074
 20
49.346595
 30
0.0
 11
394.491074
 21
48.701599
 31
0.0
  0
LINE
  5
146
100
AcDbEntity
  8
LY_3
390
0
  6
CENTER
 62
   110
100
AcDbLine
 10
397.491104
 20
38.648937
 30
0.0
 11
397.491104
 21
33.601623
 31
0.0
  0
LINE
  5
147
100
AcDbEntity
  8
LY_3
390
0
  6
CONTINUOUS
 62
     3
100
AcDbLine
 10
392.635479
 20
48.201598
 30
0.0
 11
392.924149
 21
48.701597
 31
0.0
  0
LINE
  5
148
100
AcDbEntity
  8
LY_3
390
0
  6
CONTINUOUS
 62
     3
100
AcDbLine
 10
392.058279
 20
48.201488
 30
0.0
 11
392.346942
 21
48.701491
 31
0.0
  0
LINE
  5
149
100
AcDbEntity
  8
LY_3
390
0
  6
CONTINUOUS
 62
     3
100
AcDbLine
 10
390.291077
 20
48.701599
 30
0.0
 11
390.291077
 21
48.201599
 31
0.0
  0
LINE
  5
14A
100
AcDbEntity
  8
LY_3
390
0
  6
CONTINUOUS
 62
     3
100
AcDbLine
 10
394.691086
 20
48.701599
 30
0.0
 11
394.691086
 21
48.201599
 31
0.0
  0
LINE
  5
14B
100
AcDbEntity
  8
LY_3
390
0
  6
DASHED
 62
     3
100
AcDbLine
 10
391.441071
 20
48.701599
 30
0.0
 11
391.441071
 21
48.201599
 31
0.0
  0
LINE
  5
14C
100
AcDbEntity
  8
LY_3
390
0
  6
DASHED
 62
     3
100
AcDbLine
 10
393.541092
 20
48.701599
 30
0.0
 11
393.541092
 21
48.201599
 31
0.0
  0
LINE
  5
14D
100
AcDbEntity
  8
LY_3
390
0
  6
CONTINUOUS
 62
     3
100
AcDbLine
 10
394.691086
 20
48.701599
 30
0.0
 11
390.291077
 21
48.701599
 31
0.0
  0
LINE
  5
14E
100
AcDbEntity
  8
LY_3
390
0
  6
CENTER
 62
   110
100
AcDbLine
 10
407.09108
 20
45.437095
 30
0.0
 11
407.09108
 21
48.401611
 31
0.0
  0
LINE
  5
14F
100
AcDbEntity
  8
LY_3
390
0
  6
CONTINUOUS
 62
     3
100
AcDbLine
 10
408.291092
 20
47.301605
 30
0.0
 11
408.291092
 21
47.601623
 31
0.0
  0
LINE
  5
150
100
AcDbEntity
  8
LY_3
390
0
  6
CONTINUOUS
 62
     3
100
AcDbLine
 10
407.0
 20
47.601623
 30
0.0
 11
408.291092
 21
47.601623
 31
0.0
  0
LINE
  5
151
100
AcDbEntity
  8
LY_3
390
0
  6
CONTINUOUS
 62
     3
100
AcDbLine
 10
408.891098
 20
47.301605
 30
0.0
 11
408.891098
 21
47.001617
 31
0.0
  0
LINE
  5
152
100
AcDbEntity
  8
LY_3
390
0
  6
CONTINUOUS
 62
     3
100
AcDbLine
 10
407.0
 20
47.001617
 30
0.0
 11
408.991074
 21
47.001617
 31
0.0
  0
LINE
  5
153
100
AcDbEntity
  8
LY_3
390
0
  6
CONTINUOUS
 62
     3
100
AcDbLine
 10
409.491383
 20
46.501944
 30
0.0
 11
408.991384
 21
47.001947
 31
0.0
  0
LINE
  5
154
100
AcDbEntity
  8
LY_3
390
0
  6
CONTINUOUS
 62
     3
100
AcDbLine
 10
409.491104
 20
45.999999
 30
0.0
 11
409.491104
 21
46.501617
 31
0.0
  0
LINE
  5
155
100
AcDbEntity
  8
LY_3
390
0
  6
CONTINUOUS
 62
     3
100
AcDbLine
 10
396.59108
 20
47.301605
 30
0.0
 11
396.59108
 21
48.201599
 31
0.0
  0
LINE
  5
156
100
AcDbEntity
  8
LY_3
390
0
  6
CONTINUOUS
 62
     3
100
AcDbLine
 10
407.291092
 20
47.601623
 30
0.0
 11
407.291092
 21
48.201599
 31
0.0
  0
LINE
  5
157
100
AcDbEntity
  8
LY_3
390
0
  6
CONTINUOUS
 62
     3
100
AcDbLine
 10
390.198792
 20
47.301605
 30
0.0
 11
390.198792
 21
45.999999
 31
0.0
  0
LINE
  5
158
100
AcDbEntity
  8
LY_3
390
0
  6
CONTINUOUS
 62
     3
100
AcDbLine
 10
390.198792
 20
47.301605
 30
0.0
 11
397.0
 21
47.301605
 31
0.0
  0
LINE
  5
159
100
AcDbEntity
  8
LY_3
390
0
  6
CONTINUOUS
 62
     3
100
AcDbLine
 10
387.491074
 20
48.201599
 30
0.0
 11
387.491074
 21
45.491012
 31
0.0
  0
LINE
  5
15A
100
AcDbEntity
  8
LY_3
390
0
  6
CONTINUOUS
 62
     3
100
AcDbLine
 10
387.491074
 20
48.201599
 30
0.0
 11
397.0
 21
48.201599
 31
0.0
  0
LINE
  5
15B
100
AcDbEntity
  8
LY_3
390
0
  6
CENTER
 62
   110
100
AcDbLine
 10
392.491058
 20
51.004005
 30
0.0
 11
392.491058
 21
46.639442
 31
0.0
  0
LINE
  5
15C
100
AcDbEntity
  8
LY_3
390
0
  6
CENTER
 62
   110
100
AcDbLine
 10
402.491104
 20
51.004005
 30
0.0
 11
402.491104
 21
49.289367
 31
0.0
  0
LINE
  5
15D
100
AcDbEntity
  8
LY_3
390
0
  6
CONTINUOUS
 62
     3
100
AcDbLine
 10
407.491104
 20
29.601623
 30
0.0
 11
407.0
 21
29.601623
 31
0.0
  0
LINE
  5
15E
100
AcDbEntity
  8
LY_3
390
0
  6
CONTINUOUS
 62
     3
100
AcDbLine
 10
387.491074
 20
40.508865
 30
0.0
 11
387.491074
 21
29.601623
 31
0.0
  0
LINE
  5
15F
100
AcDbEntity
  8
LY_3
390
0
  6
CONTINUOUS
 62
     3
100
AcDbLine
 10
407.491104
 20
39.999999
 30
0.0
 11
407.491104
 21
29.601623
 31
0.0
  0
LINE
  5
160
100
AcDbEntity
  8
LY_3
390
0
  6
CONTINUOUS
 62
     3
100
AcDbLine
 10
222.5
 20
38.999999
 30
0.0
 11
222.5
 21
32.999999
 31
0.0
  0
LINE
  5
161
100
AcDbEntity
  8
LY_3
390
0
  6
CONTINUOUS
 62
     3
100
AcDbLine
 10
221.500014
 20
33.999995
 30
0.0
 11
222.500016
 21
32.999994
 31
0.0
  0
LINE
  5
162
100
AcDbEntity
  8
LY_3
390
0
  6
CONTINUOUS
 62
     3
100
AcDbLine
 10
221.500072
 20
37.999947
 30
0.0
 11
222.500074
 21
38.999948
 31
0.0
  0
LINE
  5
163
100
AcDbEntity
  8
LY_3
390
0
  6
CONTINUOUS
 62
     3
100
AcDbLine
 10
221.5
 20
37.999999
 30
0.0
 11
221.5
 21
33.999999
 31
0.0
  0
LINE
  5
164
100
AcDbEntity
  8
LY_3
390
0
  6
CONTINUOUS
 62
     3
100
AcDbLine
 10
266.508926
 20
38.999999
 30
0.0
 11
387.491074
 21
38.999999
 31
0.0
  0
LINE
  5
165
100
AcDbEntity
  8
LY_3
390
0
  6
CONTINUOUS
 62
     3
100
AcDbLine
 10
266.508926
 20
32.999999
 30
0.0
 11
387.491074
 21
32.999999
 31
0.0
  0
LINE
  5
166
100
AcDbEntity
  8
LY_3
390
0
  6
CONTINUOUS
 62
     3
100
AcDbLine
 10
263.508942
 20
49.346595
 30
0.0
 11
263.508942
 21
48.701599
 31
0.0
  0
LINE
  5
167
100
AcDbEntity
  8
LY_3
390
0
  6
CONTINUOUS
 62
     3
100
AcDbLine
 10
259.508934
 20
49.346595
 30
0.0
 11
259.508934
 21
48.701599
 31
0.0
  0
LINE
  5
168
100
AcDbEntity
  8
LY_3
390
0
  6
CONTINUOUS
 62
     3
100
AcDbLine
 10
253.508904
 20
49.346595
 30
0.0
 11
253.508904
 21
48.701599
 31
0.0
  0
LINE
  5
169
100
AcDbEntity
  8
LY_3
390
0
  6
CONTINUOUS
 62
     3
100
AcDbLine
 10
249.508904
 20
49.346595
 30
0.0
 11
249.508904
 21
48.701599
 31
0.0
  0
LINE
  5
16A
100
AcDbEntity
  8
LY_3
390
0
  6
CENTER
 62
   110
100
AcDbLine
 10
256.508904
 20
38.648937
 30
0.0
 11
256.508904
 21
33.601623
 31
0.0
  0
LINE
  5
16B
100
AcDbEntity
  8
LY_3
390
0
  6
CONTINUOUS
 62
     3
100
AcDbLine
 10
261.364484
 20
48.201589
 30
0.0
 11
261.075814
 21
48.701579
 31
0.0
  0
LINE
  5
16C
100
AcDbEntity
  8
LY_3
390
0
  6
CONTINUOUS
 62
     3
100
AcDbLine
 10
261.941749
 20
48.2015
 30
0.0
 11
261.653075
 21
48.701505
 31
0.0
  0
LINE
  5
16D
100
AcDbEntity
  8
LY_3
390
0
  6
CONTINUOUS
 62
     3
100
AcDbLine
 10
263.708923
 20
48.701599
 30
0.0
 11
263.708923
 21
48.201599
 31
0.0
  0
LINE
  5
16E
100
AcDbEntity
  8
LY_3
390
0
  6
CONTINUOUS
 62
     3
100
AcDbLine
 10
259.308922
 20
48.701599
 30
0.0
 11
259.308922
 21
48.201599
 31
0.0
  0
LINE
  5
16F
100
AcDbEntity
  8
LY_3
390
0
  6
DASHED
 62
     3
100
AcDbLine
 10
262.558929
 20
48.701599
 30
0.0
 11
262.558929
 21
48.201599
 31
0.0
  0
LINE
  5
170
100
AcDbEntity
  8
LY_3
390
0
  6
DASHED
 62
     3
100
AcDbLine
 10
260.458916
 20
48.701599
 30
0.0
 11
260.458916
 21
48.201599
 31
0.0
  0
LINE
  5
171
100
AcDbEntity
  8
LY_3
390
0
  6
CONTINUOUS
 62
     3
100
AcDbLine
 10
259.308922
 20
48.701599
 30
0.0
 11
263.708923
 21
48.701599
 31
0.0
  0
LINE
  5
172
100
AcDbEntity
  8
LY_3
390
0
  6
CONTINUOUS
 62
     3
100
AcDbLine
 10
251.364475
 20
48.201565
 30
0.0
 11
251.075794
 21
48.701575
 31
0.0
  0
LINE
  5
173
100
AcDbEntity
  8
LY_3
390
0
  6
CONTINUOUS
 62
     3
100
AcDbLine
 10
251.941824
 20
48.201567
 30
0.0
 11
251.653152
 21
48.701564
 31
0.0
  0
LINE
  5
174
100
AcDbEntity
  8
LY_3
390
0
  6
CONTINUOUS
 62
     3
100
AcDbLine
 10
253.708916
 20
48.701599
 30
0.0
 11
253.708916
 21
48.201599
 31
0.0
  0
LINE
  5
175
100
AcDbEntity
  8
LY_3
390
0
  6
CONTINUOUS
 62
     3
100
AcDbLine
 10
249.308922
 20
48.701599
 30
0.0
 11
249.308922
 21
48.201599
 31
0.0
  0
LINE
  5
176
100
AcDbEntity
  8
LY_3
390
0
  6
DASHED
 62
     3
100
AcDbLine
 10
252.558922
 20
48.701599
 30
0.0
 11
252.558922
 21
48.201599
 31
0.0
  0
LINE
  5
177
100
AcDbEntity
  8
LY_3
390
0
  6
DASHED
 62
     3
100
AcDbLine
 10
250.458916
 20
48.701599
 30
0.0
 11
250.458916
 21
48.201599
 31
0.0
  0
LINE
  5
178
100
AcDbEntity
  8
LY_3
390
0
  6
CONTINUOUS
 62
     3
100
AcDbLine
 10
249.308922
 20
48.701599
 30
0.0
 11
253.708916
 21
48.701599
 31
0.0
  0
LINE
  5
179
100
AcDbEntity
  8
LY_3
390
0
  6
CENTER
 62
   110
100
AcDbLine
 10
246.908928
 20
42.401611
 30
0.0
 11
246.908928
 21
48.401611
 31
0.0
  0
LINE
  5
17A
100
AcDbEntity
  8
LY_3
390
0
  6
CONTINUOUS
 62
     3
100
AcDbLine
 10
248.10891
 20
43.201599
 30
0.0
 11
248.10891
 21
43.501617
 31
0.0
  0
LINE
  5
17B
100
AcDbEntity
  8
LY_3
390
0
  6
CONTINUOUS
 62
     3
100
AcDbLine
 10
248.10891
 20
43.201599
 30
0.0
 11
245.708916
 21
43.201599
 31
0.0
  0
LINE
  5
17C
100
AcDbEntity
  8
LY_3
390
0
  6
CONTINUOUS
 62
     3
100
AcDbLine
 10
245.708916
 20
43.201599
 30
0.0
 11
245.708916
 21
43.501617
 31
0.0
  0
LINE
  5
17D
100
AcDbEntity
  8
LY_3
390
0
  6
CONTINUOUS
 62
     3
100
AcDbLine
 10
245.708916
 20
47.301605
 30
0.0
 11
245.708916
 21
47.601623
 31
0.0
  0
LINE
  5
17E
100
AcDbEntity
  8
LY_3
390
0
  6
CONTINUOUS
 62
     3
100
AcDbLine
 10
248.10891
 20
47.301605
 30
0.0
 11
248.10891
 21
47.601623
 31
0.0
  0
LINE
  5
17F
100
AcDbEntity
  8
LY_3
390
0
  6
CONTINUOUS
 62
     3
100
AcDbLine
 10
248.10891
 20
47.601623
 30
0.0
 11
245.708916
 21
47.601623
 31
0.0
  0
LINE
  5
180
100
AcDbEntity
  8
LY_3
390
0
  6
CONTINUOUS
 62
     3
100
AcDbLine
 10
248.708916
 20
47.001617
 30
0.0
 11
248.708916
 21
47.301605
 31
0.0
  0
LINE
  5
181
100
AcDbEntity
  8
LY_3
390
0
  6
CONTINUOUS
 62
     3
100
AcDbLine
 10
245.10891
 20
47.301605
 30
0.0
 11
245.10891
 21
47.001617
 31
0.0
  0
LINE
  5
182
100
AcDbEntity
  8
LY_3
390
0
  6
CONTINUOUS
 62
     3
100
AcDbLine
 10
248.808922
 20
47.001617
 30
0.0
 11
245.008934
 21
47.001617
 31
0.0
  0
LINE
  5
183
100
AcDbEntity
  8
LY_3
390
0
  6
CONTINUOUS
 62
     3
100
AcDbLine
 10
244.50873
 20
46.501867
 30
0.0
 11
245.00873
 21
47.001868
 31
0.0
  0
LINE
  5
184
100
AcDbEntity
  8
LY_3
390
0
  6
CONTINUOUS
 62
     3
100
AcDbLine
 10
244.508904
 20
44.301605
 30
0.0
 11
244.508904
 21
46.501617
 31
0.0
  0
LINE
  5
185
100
AcDbEntity
  8
LY_3
390
0
  6
CONTINUOUS
 62
     3
100
AcDbLine
 10
245.008585
 20
43.801274
 30
0.0
 11
244.508585
 21
44.301275
 31
0.0
  0
LINE
  5
186
100
AcDbEntity
  8
LY_3
390
0
  6
CONTINUOUS
 62
     3
100
AcDbLine
 10
245.10891
 20
43.801605
 30
0.0
 11
245.10891
 21
43.501617
 31
0.0
  0
LINE
  5
187
100
AcDbEntity
  8
LY_3
390
0
  6
CONTINUOUS
 62
     3
100
AcDbLine
 10
248.708916
 20
43.801605
 30
0.0
 11
248.708916
 21
43.501617
 31
0.0
  0
LINE
  5
188
100
AcDbEntity
  8
LY_3
390
0
  6
CONTINUOUS
 62
     3
100
AcDbLine
 10
248.808922
 20
43.801605
 30
0.0
 11
245.008904
 21
43.801605
 31
0.0
  0
LINE
  5
189
100
AcDbEntity
  8
LY_3
390
0
  6
CONTINUOUS
 62
     3
100
AcDbLine
 10
249.309016
 20
44.301495
 30
0.0
 11
248.809028
 21
43.801504
 31
0.0
  0
LINE
  5
18A
100
AcDbEntity
  8
LY_3
390
0
  6
CONTINUOUS
 62
     3
100
AcDbLine
 10
249.308922
 20
44.301605
 30
0.0
 11
249.308922
 21
46.501617
 31
0.0
  0
LINE
  5
18B
100
AcDbEntity
  8
LY_3
390
0
  6
CONTINUOUS
 62
     3
100
AcDbLine
 10
249.308792
 20
46.501488
 30
0.0
 11
248.808805
 21
47.00148
 31
0.0
  0
LINE
  5
18C
100
AcDbEntity
  8
LY_3
390
0
  6
CONTINUOUS
 62
     3
100
AcDbLine
 10
256.708916
 20
47.301605
 30
0.0
 11
256.708916
 21
48.201599
 31
0.0
  0
LINE
  5
18D
100
AcDbEntity
  8
LY_3
390
0
  6
CONTINUOUS
 62
     3
100
AcDbLine
 10
257.408928
 20
47.301605
 30
0.0
 11
257.408928
 21
48.201599
 31
0.0
  0
LINE
  5
18E
100
AcDbEntity
  8
LY_3
390
0
  6
CONTINUOUS
 62
     3
100
AcDbLine
 10
246.708916
 20
47.601623
 30
0.0
 11
246.708916
 21
48.201599
 31
0.0
  0
LINE
  5
18F
100
AcDbEntity
  8
LY_3
390
0
  6
CONTINUOUS
 62
     3
100
AcDbLine
 10
263.801208
 20
47.301605
 30
0.0
 11
263.801208
 21
43.501617
 31
0.0
  0
LINE
  5
190
100
AcDbEntity
  8
LY_3
390
0
  6
CONTINUOUS
 62
     3
100
AcDbLine
 10
263.801208
 20
47.301605
 30
0.0
 11
245.10891
 21
47.301605
 31
0.0
  0
LINE
  5
191
100
AcDbEntity
  8
LY_3
390
0
  6
CONTINUOUS
 62
     3
100
AcDbLine
 10
263.801208
 20
43.501617
 30
0.0
 11
245.10891
 21
43.501617
 31
0.0
  0
LINE
  5
192
100
AcDbEntity
  8
LY_3
390
0
  6
CONTINUOUS
 62
     3
100
AcDbLine
 10
256.708916
 20
42.601623
 30
0.0
 11
256.708916
 21
43.501617
 31
0.0
  0
LINE
  5
193
100
AcDbEntity
  8
LY_3
390
0
  6
CONTINUOUS
 62
     3
100
AcDbLine
 10
257.408928
 20
42.601623
 30
0.0
 11
257.408928
 21
43.501617
 31
0.0
  0
LINE
  5
194
100
AcDbEntity
  8
LY_3
390
0
  6
CONTINUOUS
 62
     3
100
AcDbLine
 10
266.508926
 20
48.201599
 30
0.0
 11
266.508926
 21
42.601623
 31
0.0
  0
LINE
  5
195
100
AcDbEntity
  8
LY_3
390
0
  6
CONTINUOUS
 62
     3
100
AcDbLine
 10
246.708916
 20
42.601623
 30
0.0
 11
246.708916
 21
43.201599
 31
0.0
  0
LINE
  5
196
100
AcDbEntity
  8
LY_3
390
0
  6
CONTINUOUS
 62
     3
100
AcDbLine
 10
266.508926
 20
48.201599
 30
0.0
 11
246.708916
 21
48.201599
 31
0.0
  0
LINE
  5
197
100
AcDbEntity
  8
LY_3
390
0
  6
CENTER
 62
   110
100
AcDbLine
 10
261.508942
 20
51.004005
 30
0.0
 11
261.508942
 21
46.639442
 31
0.0
  0
LINE
  5
198
100
AcDbEntity
  8
LY_3
390
0
  6
CENTER
 62
   110
100
AcDbLine
 10
251.508904
 20
51.004005
 30
0.0
 11
251.508904
 21
46.706588
 31
0.0
  0
LINE
  5
199
100
AcDbEntity
  8
LY_3
390
0
  6
CONTINUOUS
 62
     3
100
AcDbLine
 10
246.508904
 20
29.601623
 30
0.0
 11
266.508926
 21
29.601623
 31
0.0
  0
LINE
  5
19A
100
AcDbEntity
  8
LY_3
390
0
  6
CONTINUOUS
 62
     3
100
AcDbLine
 10
246.508904
 20
42.601623
 30
0.0
 11
266.508926
 21
42.601623
 31
0.0
  0
LINE
  5
19B
100
AcDbEntity
  8
LY_3
390
0
  6
CONTINUOUS
 62
     3
100
AcDbLine
 10
266.508926
 20
42.601623
 30
0.0
 11
266.508926
 21
29.601623
 31
0.0
  0
LINE
  5
19C
100
AcDbEntity
  8
LY_3
390
0
  6
CONTINUOUS
 62
     3
100
AcDbLine
 10
246.508904
 20
42.601623
 30
0.0
 11
246.508904
 21
29.601623
 31
0.0
  0
LINE
  5
19D
100
AcDbEntity
  8
LY_3
390
0
  6
CONTINUOUS
 62
     3
100
AcDbLine
 10
222.5
 20
32.999999
 30
0.0
 11
224.0
 21
32.999999
 31
0.0
  0
LINE
  5
19E
100
AcDbEntity
  8
LY_3
390
0
  6
CONTINUOUS
 62
     3
100
AcDbLine
 10
222.5
 20
38.999999
 30
0.0
 11
224.0
 21
38.999999
 31
0.0
  0
LINE
  5
19F
100
AcDbEntity
  8
LY_3
390
0
  6
CENTER
 62
   110
100
AcDbLine
 10
216.488884
 20
35.999999
 30
0.0
 11
402.0
 21
35.999999
 31
0.0
  0
LINE
  5
1A0
100
AcDbEntity
  8
LY_3
390
0
  6
CONTINUOUS
 62
     3
100
AcDbLine
 10
604.999985
 20
57.999999
 30
0.0
 11
604.999985
 21
22.999999
 31
0.0
  0
LINE
  5
1A1
100
AcDbEntity
  8
LY_3
390
0
  6
CENTER
 62
   110
100
AcDbLine
 10
458.5
 20
61.999999
 30
0.0
 11
458.5
 21
54.999999
 31
0.0
  0
LINE
  5
1A2
100
AcDbEntity
  8
LY_3
390
0
  6
CONTINUOUS
 62
     3
100
AcDbLine
 10
510.999985
 20
57.999999
 30
0.0
 11
604.999985
 21
57.999999
 31
0.0
  0
LINE
  5
1A3
100
AcDbEntity
  8
LY_3
390
0
  6
CONTINUOUS
 62
     3
100
AcDbLine
 10
510.999985
 20
22.999999
 30
0.0
 11
604.999985
 21
22.999999
 31
0.0
  0
LINE
  5
1A4
100
AcDbEntity
  8
LY_3
390
0
  6
CONTINUOUS
 62
     3
100
AcDbLine
 10
510.999985
 20
58.999999
 30
0.0
 11
510.999985
 21
-100.999997
 31
0.0
  0
LINE
  5
1A5
100
AcDbEntity
  8
LY_3
390
0
  6
CONTINUOUS
 62
     3
100
AcDbLine
 10
387.000025
 20
44.999963
 30
0.0
 11
388.000026
 21
45.999964
 31
0.0
  0
LINE
  5
1A6
100
AcDbEntity
  8
LY_3
390
0
  6
CONTINUOUS
 62
     3
100
AcDbLine
 10
440.309555
 20
37.187499
 30
0.0
 11
441.0
 21
37.187499
 31
0.0
  0
LINE
  5
1A7
100
AcDbEntity
  8
LY_3
390
0
  6
CONTINUOUS
 62
     3
100
AcDbLine
 10
440.309555
 20
36.812499
 30
0.0
 11
441.0
 21
36.812499
 31
0.0
  0
LINE
  5
1A8
100
AcDbEntity
  8
LY_3
390
0
  6
CONTINUOUS
 62
     3
100
AcDbLine
 10
439.6875
 20
36.190452
 30
0.0
 11
439.6875
 21
35.499999
 31
0.0
  0
LINE
  5
1A9
100
AcDbEntity
  8
LY_3
390
0
  6
CONTINUOUS
 62
     3
100
AcDbLine
 10
439.3125
 20
36.190452
 30
0.0
 11
439.3125
 21
35.499999
 31
0.0
  0
LINE
  5
1AA
100
AcDbEntity
  8
LY_3
390
0
  6
CONTINUOUS
 62
     3
100
AcDbLine
 10
438.0
 20
37.187499
 30
0.0
 11
438.690445
 21
37.187499
 31
0.0
  0
LINE
  5
1AB
100
AcDbEntity
  8
LY_3
390
0
  6
CONTINUOUS
 62
     3
100
AcDbLine
 10
438.0
 20
36.812499
 30
0.0
 11
438.690445
 21
36.812499
 31
0.0
  0
LINE
  5
1AC
100
AcDbEntity
  8
LY_3
390
0
  6
CONTINUOUS
 62
     3
100
AcDbLine
 10
439.3125
 20
38.499999
 30
0.0
 11
439.3125
 21
37.809547
 31
0.0
  0
LINE
  5
1AD
100
AcDbEntity
  8
LY_3
390
0
  6
CONTINUOUS
 62
     3
100
AcDbLine
 10
439.6875
 20
38.499999
 30
0.0
 11
439.6875
 21
37.809547
 31
0.0
  0
LINE
  5
1AE
100
AcDbEntity
  8
LY_3
390
0
  6
CONTINUOUS
 62
     3
100
AcDbLine
 10
438.0
 20
37.187499
 30
0.0
 11
438.0
 21
36.812499
 31
0.0
  0
LINE
  5
1AF
100
AcDbEntity
  8
LY_3
390
0
  6
CONTINUOUS
 62
     3
100
AcDbLine
 10
441.0
 20
37.187499
 30
0.0
 11
441.0
 21
36.812499
 31
0.0
  0
LINE
  5
1B0
100
AcDbEntity
  8
LY_3
390
0
  6
CONTINUOUS
 62
     3
100
AcDbLine
 10
439.3125
 20
35.499999
 30
0.0
 11
439.6875
 21
35.499999
 31
0.0
  0
LINE
  5
1B1
100
AcDbEntity
  8
LY_3
390
0
  6
CONTINUOUS
 62
     3
100
AcDbLine
 10
439.3125
 20
38.499999
 30
0.0
 11
439.6875
 21
38.499999
 31
0.0
  0
LINE
  5
1B2
100
AcDbEntity
  8
LY_3
390
0
  6
CONTINUOUS
 62
     3
100
AcDbLine
 10
440.309555
 20
49.187499
 30
0.0
 11
441.0
 21
49.187499
 31
0.0
  0
LINE
  5
1B3
100
AcDbEntity
  8
LY_3
390
0
  6
CONTINUOUS
 62
     3
100
AcDbLine
 10
440.309555
 20
48.812499
 30
0.0
 11
441.0
 21
48.812499
 31
0.0
  0
LINE
  5
1B4
100
AcDbEntity
  8
LY_3
390
0
  6
CONTINUOUS
 62
     3
100
AcDbLine
 10
439.6875
 20
48.190452
 30
0.0
 11
439.6875
 21
47.499999
 31
0.0
  0
LINE
  5
1B5
100
AcDbEntity
  8
LY_3
390
0
  6
CONTINUOUS
 62
     3
100
AcDbLine
 10
439.3125
 20
48.190452
 30
0.0
 11
439.3125
 21
47.499999
 31
0.0
  0
LINE
  5
1B6
100
AcDbEntity
  8
LY_3
390
0
  6
CONTINUOUS
 62
     3
100
AcDbLine
 10
438.0
 20
49.187499
 30
0.0
 11
438.690445
 21
49.187499
 31
0.0
  0
LINE
  5
1B7
100
AcDbEntity
  8
LY_3
390
0
  6
CONTINUOUS
 62
     3
100
AcDbLine
 10
438.0
 20
48.812499
 30
0.0
 11
438.690445
 21
48.812499
 31
0.0
  0
LINE
  5
1B8
100
AcDbEntity
  8
LY_3
390
0
  6
CONTINUOUS
 62
     3
100
AcDbLine
 10
439.3125
 20
50.499999
 30
0.0
 11
439.3125
 21
49.809547
 31
0.0
  0
LINE
  5
1B9
100
AcDbEntity
  8
LY_3
390
0
  6
CONTINUOUS
 62
     3
100
AcDbLine
 10
439.6875
 20
50.499999
 30
0.0
 11
439.6875
 21
49.809547
 31
0.0
  0
LINE
  5
1BA
100
AcDbEntity
  8
LY_3
390
0
  6
CONTINUOUS
 62
     3
100
AcDbLine
 10
438.0
 20
49.187499
 30
0.0
 11
438.0
 21
48.812499
 31
0.0
  0
LINE
  5
1BB
100
AcDbEntity
  8
LY_3
390
0
  6
CONTINUOUS
 62
     3
100
AcDbLine
 10
441.0
 20
49.187499
 30
0.0
 11
441.0
 21
48.812499
 31
0.0
  0
LINE
  5
1BC
100
AcDbEntity
  8
LY_3
390
0
  6
CONTINUOUS
 62
     3
100
AcDbLine
 10
439.3125
 20
47.499999
 30
0.0
 11
439.6875
 21
47.499999
 31
0.0
  0
LINE
  5
1BD
100
AcDbEntity
  8
LY_3
390
0
  6
CONTINUOUS
 62
     3
100
AcDbLine
 10
439.3125
 20
50.499999
 30
0.0
 11
439.6875
 21
50.499999
 31
0.0
  0
LINE
  5
1BE
100
AcDbEntity
  8
LY_3
390
0
  6
CENTER
 62
   110
100
AcDbLine
 10
441.34935
 20
35.999999
 30
0.0
 11
449.48558
 21
35.999999
 31
0.0
  0
LINE
  5
1BF
100
AcDbEntity
  8
LY_3
390
0
  6
CENTER
 62
   110
100
AcDbLine
 10
441.094055
 20
49.999999
 30
0.0
 11
449.809776
 21
49.999999
 31
0.0
  0
LINE
  5
1C0
100
AcDbEntity
  8
LY_3
390
0
  6
CENTER
 62
   110
100
AcDbLine
 10
434.75
 20
48.999999
 30
0.0
 11
442.5
 21
48.999999
 31
0.0
  0
LINE
  5
1C1
100
AcDbEntity
  8
LY_3
390
0
  6
CENTER
 62
   110
100
AcDbLine
 10
439.5
 20
54.636363
 30
0.0
 11
439.5
 21
31.468231
 31
0.0
  0
LINE
  5
1C2
100
AcDbEntity
  8
LY_3
390
0
  6
CONTINUOUS
 62
     3
100
AcDbLine
 10
431.5
 20
32.999999
 30
0.0
 11
446.5
 21
32.999999
 31
0.0
  0
LINE
  5
1C3
100
AcDbEntity
  8
LY_3
390
0
  6
CONTINUOUS
 62
     3
100
AcDbLine
 10
431.5
 20
52.999999
 30
0.0
 11
446.5
 21
52.999999
 31
0.0
  0
LINE
  5
1C4
100
AcDbEntity
  8
LY_3
390
0
  6
CONTINUOUS
 62
     3
100
AcDbLine
 10
431.5
 20
52.999999
 30
0.0
 11
431.5
 21
32.999999
 31
0.0
  0
LINE
  5
1C5
100
AcDbEntity
  8
LY_3
390
0
  6
CONTINUOUS
 62
     3
100
AcDbLine
 10
386.999957
 20
40.999979
 30
0.0
 11
387.999958
 21
39.999978
 31
0.0
  0
LINE
  5
1C6
100
AcDbEntity
  8
LY_3
390
0
  6
CONTINUOUS
 62
     3
100
AcDbLine
 10
388.0
 20
45.999999
 30
0.0
 11
388.0
 21
39.999999
 31
0.0
  0
LINE
  5
1C7
100
AcDbEntity
  8
LY_3
390
0
  6
CONTINUOUS
 62
     3
100
AcDbLine
 10
387.0
 20
44.999999
 30
0.0
 11
387.0
 21
40.999999
 31
0.0
  0
LINE
  5
1C8
100
AcDbEntity
  8
LY_3
390
0
  6
CONTINUOUS
 62
     3
100
AcDbLine
 10
388.0
 20
45.999999
 30
0.0
 11
397.0
 21
45.999999
 31
0.0
  0
LINE
  5
1C9
100
AcDbEntity
  8
LY_3
390
0
  6
CONTINUOUS
 62
     3
100
AcDbLine
 10
388.0
 20
39.999999
 30
0.0
 11
397.0
 21
39.999999
 31
0.0
  0
LINE
  5
1CA
100
AcDbEntity
  8
LY_3
390
0
  6
CENTER
 62
   110
100
AcDbLine
 10
435.0
 20
36.999999
 30
0.0
 11
442.5
 21
36.999999
 31
0.0
  0
LINE
  5
1CB
100
AcDbEntity
  8
LY_3
390
0
  6
CONTINUOUS
 62
     3
100
AcDbLine
 10
412.0
 20
52.999999
 30
0.0
 11
412.0
 21
32.999999
 31
0.0
  0
LINE
  5
1CC
100
AcDbEntity
  8
LY_3
390
0
  6
CONTINUOUS
 62
     3
100
AcDbLine
 10
412.0
 20
32.999999
 30
0.0
 11
431.5
 21
32.999999
 31
0.0
  0
LINE
  5
1CD
100
AcDbEntity
  8
LY_3
390
0
  6
CONTINUOUS
 62
     3
100
AcDbLine
 10
412.0
 20
52.999999
 30
0.0
 11
431.5
 21
52.999999
 31
0.0
  0
LINE
  5
1CE
100
AcDbEntity
  8
LY_3
390
0
  6
CENTER
 62
   110
100
AcDbLine
 10
384.712345
 20
42.999999
 30
0.0
 11
622.839249
 21
42.999999
 31
0.0
  0
LINE
  5
1CF
100
AcDbEntity
  8
LY_3
390
0
  6
CONTINUOUS
 62
     3
100
AcDbLine
 10
446.5
 20
58.999999
 30
0.0
 11
510.999985
 21
58.999999
 31
0.0
  0
LINE
  5
1D0
100
AcDbEntity
  8
LY_3
390
0
  6
CONTINUOUS
 62
     3
100
AcDbLine
 10
464.0
 20
59.499999
 30
0.0
 11
464.0
 21
58.999999
 31
0.0
  0
LINE
  5
1D1
100
AcDbEntity
  8
LY_3
390
0
  6
CONTINUOUS
 62
     3
100
AcDbLine
 10
454.5
 20
60.999999
 30
0.0
 11
462.5
 21
60.999999
 31
0.0
  0
LINE
  5
1D2
100
AcDbEntity
  8
LY_3
390
0
  6
CONTINUOUS
 62
     3
100
AcDbLine
 10
453.0
 20
59.499999
 30
0.0
 11
453.0
 21
58.999999
 31
0.0
  0
LINE
  5
1D3
100
AcDbEntity
  8
LY_3
390
0
  6
CONTINUOUS
 62
     3
100
AcDbLine
 10
446.5
 20
-99.999997
 30
0.0
 11
446.5
 21
-100.999997
 31
0.0
  0
LINE
  5
1D4
100
AcDbEntity
  8
LY_3
390
0
  6
CONTINUOUS
 62
     3
100
AcDbLine
 10
446.5
 20
-99.999997
 30
0.0
 11
446.5
 21
57.999999
 31
0.0
  0
LINE
  5
1D5
100
AcDbEntity
  8
LY_3
390
0
  6
CENTER
 62
   110
100
AcDbLine
 10
332.5
 20
-64.999997
 30
0.0
 11
454.12915
 21
-64.999997
 31
0.0
  0
LINE
  5
1D6
100
AcDbEntity
  8
LY_3
390
0
  6
CONTINUOUS
 62
     3
100
AcDbLine
 10
402.599769
 20
-90.499854
 30
0.0
 11
402.299766
 21
-91.019475
 31
0.0
  0
LINE
  5
1D7
100
AcDbEntity
  8
LY_3
390
0
  6
CONTINUOUS
 62
     3
100
AcDbLine
 10
402.600006
 20
-90.499997
 30
0.0
 11
402.600006
 21
-97.499997
 31
0.0
  0
LINE
  5
1D8
100
AcDbEntity
  8
LY_3
390
0
  6
CONTINUOUS
 62
     3
100
AcDbLine
 10
402.600006
 20
-97.499997
 30
0.0
 11
406.300003
 21
-97.499997
 31
0.0
  0
LINE
  5
1D9
100
AcDbEntity
  8
LY_3
390
0
  6
CONTINUOUS
 62
     3
100
AcDbLine
 10
402.600006
 20
-90.499997
 30
0.0
 11
406.300003
 21
-90.499997
 31
0.0
  0
LINE
  5
1DA
100
AcDbEntity
  8
LY_3
390
0
  6
CONTINUOUS
 62
     3
100
AcDbLine
 10
402.300003
 20
-91.019604
 30
0.0
 11
402.300003
 21
-96.980389
 31
0.0
  0
LINE
  5
1DB
100
AcDbEntity
  8
LY_3
390
0
  6
CONTINUOUS
 62
     3
100
AcDbLine
 10
406.300003
 20
-90.499997
 30
0.0
 11
406.300003
 21
-97.499997
 31
0.0
  0
LINE
  5
1DC
100
AcDbEntity
  8
LY_3
390
0
  6
CONTINUOUS
 62
     3
100
AcDbLine
 10
407.500143
 20
-35.942589
 30
0.0
 11
406.300134
 21
-36.635414
 31
0.0
  0
LINE
  5
1DD
100
AcDbEntity
  8
LY_3
390
0
  6
CONTINUOUS
 62
     3
100
AcDbLine
 10
407.500165
 20
-35.365235
 30
0.0
 11
406.300156
 21
-36.05806
 31
0.0
  0
LINE
  5
1DE
100
AcDbEntity
  8
LY_3
390
0
  6
CONTINUOUS
 62
     3
100
AcDbLine
 10
406.300003
 20
-39.500001
 30
0.0
 11
406.300003
 21
-32.500001
 31
0.0
  0
LINE
  5
1DF
100
AcDbEntity
  8
LY_3
390
0
  6
CONTINUOUS
 62
     3
100
AcDbLine
 10
406.300003
 20
-39.500001
 30
0.0
 11
407.5
 21
-39.500001
 31
0.0
  0
LINE
  5
1E0
100
AcDbEntity
  8
LY_3
390
0
  6
CONTINUOUS
 62
     3
100
AcDbLine
 10
406.300003
 20
-32.500001
 30
0.0
 11
407.5
 21
-32.500001
 31
0.0
  0
LINE
  5
1E1
100
AcDbEntity
  8
LY_3
390
0
  6
CONTINUOUS
 62
     3
100
AcDbLine
 10
407.500331
 20
-93.942853
 30
0.0
 11
406.300336
 21
-94.63567
 31
0.0
  0
LINE
  5
1E2
100
AcDbEntity
  8
LY_3
390
0
  6
CONTINUOUS
 62
     3
100
AcDbLine
 10
407.500272
 20
-93.365537
 30
0.0
 11
406.300263
 21
-94.058362
 31
0.0
  0
LINE
  5
1E3
100
AcDbEntity
  8
LY_3
390
0
  6
CONTINUOUS
 62
     3
100
AcDbLine
 10
406.300003
 20
-97.499997
 30
0.0
 11
407.5
 21
-97.499997
 31
0.0
  0
LINE
  5
1E4
100
AcDbEntity
  8
LY_3
390
0
  6
CONTINUOUS
 62
     3
100
AcDbLine
 10
406.300003
 20
-90.499997
 30
0.0
 11
407.5
 21
-90.499997
 31
0.0
  0
LINE
  5
1E5
100
AcDbEntity
  8
LY_3
390
0
  6
CONTINUOUS
 62
     3
100
AcDbLine
 10
335.5
 20
-98.499997
 30
0.0
 11
339.5
 21
-98.499997
 31
0.0
  0
LINE
  5
1E6
100
AcDbEntity
  8
LY_3
390
0
  6
CONTINUOUS
 62
     3
100
AcDbLine
 10
334.500156
 20
-97.499765
 30
0.0
 11
335.500168
 21
-98.499777
 31
0.0
  0
LINE
  5
1E7
100
AcDbEntity
  8
LY_3
390
0
  6
CONTINUOUS
 62
     3
100
AcDbLine
 10
334.500011
 20
-32.500027
 30
0.0
 11
335.500012
 21
-31.500026
 31
0.0
  0
LINE
  5
1E8
100
AcDbEntity
  8
LY_3
390
0
  6
CONTINUOUS
 62
     3
100
AcDbLine
 10
335.5
 20
-31.500001
 30
0.0
 11
339.5
 21
-31.500001
 31
0.0
  0
LINE
  5
1E9
100
AcDbEntity
  8
LY_3
390
0
  6
CONTINUOUS
 62
     3
100
AcDbLine
 10
334.5
 20
-32.500001
 30
0.0
 11
334.5
 21
-97.499997
 31
0.0
  0
LINE
  5
1EA
100
AcDbEntity
  8
LY_3
390
0
  6
CONTINUOUS
 62
     3
100
AcDbLine
 10
335.5
 20
-31.500001
 30
0.0
 11
335.5
 21
-98.499997
 31
0.0
  0
LINE
  5
1EB
100
AcDbEntity
  8
LY_3
390
0
  6
CONTINUOUS
 62
     3
100
AcDbLine
 10
339.5
 20
-30.500001
 30
0.0
 11
339.5
 21
-99.499997
 31
0.0
  0
LINE
  5
1EC
100
AcDbEntity
  8
LY_3
390
0
  6
CONTINUOUS
 62
     3
100
AcDbLine
 10
339.5
 20
-30.500001
 30
0.0
 11
407.5
 21
-30.500001
 31
0.0
  0
LINE
  5
1ED
100
AcDbEntity
  8
LY_3
390
0
  6
CONTINUOUS
 62
     3
100
AcDbLine
 10
407.5
 20
-99.999997
 30
0.0
 11
446.5
 21
-99.999997
 31
0.0
  0
LINE
  5
1EE
100
AcDbEntity
  8
LY_3
390
0
  6
CONTINUOUS
 62
     3
100
AcDbLine
 10
407.5
 20
-30.000001
 30
0.0
 11
446.5
 21
-30.000001
 31
0.0
  0
LINE
  5
1EF
100
AcDbEntity
  8
LY_3
390
0
  6
CENTER
 62
   110
100
AcDbLine
 10
400.300003
 20
-36.000001
 30
0.0
 11
408.932281
 21
-36.000001
 31
0.0
  0
LINE
  5
1F0
100
AcDbEntity
  8
LY_3
390
0
  6
CENTER
 62
   110
100
AcDbLine
 10
400.300003
 20
-93.999997
 30
0.0
 11
409.280075
 21
-93.999997
 31
0.0
  0
LINE
  5
1F1
100
AcDbEntity
  8
LY_3
390
0
  6
CONTINUOUS
 62
     3
100
AcDbLine
 10
414.5
 20
-30.000001
 30
0.0
 11
414.5
 21
-99.999997
 31
0.0
  0
LINE
  5
1F2
100
AcDbEntity
  8
LY_3
390
0
  6
CONTINUOUS
 62
     3
100
AcDbLine
 10
407.5
 20
-30.000001
 30
0.0
 11
407.5
 21
-99.999997
 31
0.0
  0
LINE
  5
1F3
100
AcDbEntity
  8
LY_3
390
0
  6
CONTINUOUS
 62
     3
100
AcDbLine
 10
339.5
 20
-99.499997
 30
0.0
 11
407.5
 21
-99.499997
 31
0.0
  0
LINE
  5
1F4
100
AcDbEntity
  8
LY_3
390
0
  6
CONTINUOUS
 62
     3
100
AcDbLine
 10
402.600165
 20
-39.499971
 30
0.0
 11
402.300162
 21
-38.98035
 31
0.0
  0
LINE
  5
1F5
100
AcDbEntity
  8
LY_3
390
0
  6
CONTINUOUS
 62
     3
100
AcDbLine
 10
446.5
 20
-64.999997
 30
0.0
 11
448.5
 21
-64.999997
 31
0.0
  0
LINE
  5
1F6
100
AcDbEntity
  8
LY_3
390
0
  6
CONTINUOUS
 62
     3
100
AcDbLine
 10
402.60028
 20
-97.499843
 30
0.0
 11
402.300277
 21
-96.980223
 31
0.0
  0
LINE
  5
1F7
100
AcDbEntity
  8
LY_3
390
0
  6
CONTINUOUS
 62
     3
100
AcDbLine
 10
402.300003
 20
-33.019623
 30
0.0
 11
402.300003
 21
-38.980378
 31
0.0
  0
LINE
  5
1F8
100
AcDbEntity
  8
LY_3
390
0
  6
CONTINUOUS
 62
     3
100
AcDbLine
 10
402.5999
 20
-32.499942
 30
0.0
 11
402.299904
 21
-33.019549
 31
0.0
  0
LINE
  5
1F9
100
AcDbEntity
  8
LY_3
390
0
  6
CONTINUOUS
 62
     3
100
AcDbLine
 10
402.600006
 20
-32.500001
 30
0.0
 11
406.300003
 21
-32.500001
 31
0.0
  0
LINE
  5
1FA
100
AcDbEntity
  8
LY_3
390
0
  6
CONTINUOUS
 62
     3
100
AcDbLine
 10
402.600006
 20
-32.500001
 30
0.0
 11
402.600006
 21
-39.500001
 31
0.0
  0
LINE
  5
1FB
100
AcDbEntity
  8
LY_3
390
0
  6
CONTINUOUS
 62
     3
100
AcDbLine
 10
402.600006
 20
-39.500001
 30
0.0
 11
406.300003
 21
-39.500001
 31
0.0
  0
LINE
  5
1FC
100
AcDbEntity
  8
LY_3
390
0
  6
CONTINUOUS
 62
     3
100
AcDbLine
 10
446.5
 20
58.999999
 30
0.0
 11
446.5
 21
57.999999
 31
0.0
  0
LINE
  5
1FD
100
AcDbEntity
  8
LY_3
390
0
  6
CONTINUOUS
 62
     3
100
AcDbLine
 10
445.999762
 20
-23.999733
 30
0.0
 11
446.499763
 21
-23.499733
 31
0.0
  0
LINE
  5
1FE
100
AcDbEntity
  8
LY_3
390
0
  6
CONTINUOUS
 62
     3
100
AcDbLine
 10
441.499942
 20
-23.500005
 30
0.0
 11
441.999942
 21
-24.000005
 31
0.0
  0
LINE
  5
1FF
100
AcDbEntity
  8
LY_3
390
0
  6
CONTINUOUS
 62
     3
100
AcDbLine
 10
445.999765
 20
23.999793
 30
0.0
 11
446.499766
 21
23.499793
 31
0.0
  0
LINE
  5
200
100
AcDbEntity
  8
LY_3
390
0
  6
CONTINUOUS
 62
     3
100
AcDbLine
 10
441.499947
 20
23.500051
 30
0.0
 11
441.999937
 21
24.000041
 31
0.0
  0
LINE
  5
201
100
AcDbEntity
  8
LY_3
390
0
  6
CONTINUOUS
 62
     3
100
AcDbLine
 10
441.5
 20
-23.500001
 30
0.0
 11
441.5
 21
23.499999
 31
0.0
  0
LINE
  5
202
100
AcDbEntity
  8
LY_3
390
0
  6
CONTINUOUS
 62
     3
100
AcDbLine
 10
442.0
 20
-24.000001
 30
0.0
 11
446.0
 21
-24.000001
 31
0.0
  0
LINE
  5
203
100
AcDbEntity
  8
LY_3
390
0
  6
CONTINUOUS
 62
     3
100
AcDbLine
 10
442.0
 20
23.999999
 30
0.0
 11
446.0
 21
23.999999
 31
0.0
  0
LINE
  5
204
100
AcDbEntity
  8
LY_3
390
0
  6
CONTINUOUS
 62
     3
100
AcDbLine
 10
440.999957
 20
-23.999978
 30
0.0
 11
441.499957
 21
-23.499977
 31
0.0
  0
LINE
  5
205
100
AcDbEntity
  8
LY_3
390
0
  6
CONTINUOUS
 62
     3
100
AcDbLine
 10
165.5
 20
-24.000001
 30
0.0
 11
224.0
 21
-24.000001
 31
0.0
  0
LINE
  5
206
100
AcDbEntity
  8
LY_3
390
0
  6
CONTINUOUS
 62
     3
100
AcDbLine
 10
440.999984
 20
24.000003
 30
0.0
 11
441.499984
 21
23.500002
 31
0.0
  0
LINE
  5
207
100
AcDbEntity
  8
LY_3
390
0
  6
CONTINUOUS
 62
     3
100
AcDbLine
 10
165.5
 20
23.999999
 30
0.0
 11
224.0
 21
23.999999
 31
0.0
  0
LINE
  5
208
100
AcDbEntity
  8
LY_3
390
0
  6
CONTINUOUS
 62
     3
100
AcDbLine
 10
140.0
 20
-55.950009
 30
0.0
 11
140.0
 21
55.95
 31
0.0
  0
LINE
  5
209
100
AcDbEntity
  8
LY_3
390
0
  6
CENTER
 62
   110
100
AcDbLine
 10
132.750015
 20
46.099998
 30
0.0
 11
164.750015
 21
46.099998
 31
0.0
  0
LINE
  5
20A
100
AcDbEntity
  8
LY_3
390
0
  6
CENTER
 62
   110
100
AcDbLine
 10
132.749985
 20
-46.099999
 30
0.0
 11
164.749985
 21
-46.099999
 31
0.0
  0
LINE
  5
20B
100
AcDbEntity
  8
LY_3
390
0
  6
CONTINUOUS
 62
     3
100
AcDbLine
 10
156.700008
 20
-56.75001
 30
0.0
 11
157.500013
 21
-55.950005
 31
0.0
  0
LINE
  5
20C
100
AcDbEntity
  8
LY_3
390
0
  6
CONTINUOUS
 62
     3
100
AcDbLine
 10
157.500008
 20
55.949974
 30
0.0
 11
156.700005
 21
56.749982
 31
0.0
  0
LINE
  5
20D
100
AcDbEntity
  8
LY_3
390
0
  6
CONTINUOUS
 62
     3
100
AcDbLine
 10
140.000015
 20
50.349998
 30
0.0
 11
157.500015
 21
50.349998
 31
0.0
  0
LINE
  5
20E
100
AcDbEntity
  8
LY_3
390
0
  6
CONTINUOUS
 62
     3
100
AcDbLine
 10
140.000015
 20
41.849998
 30
0.0
 11
157.500015
 21
41.849998
 31
0.0
  0
LINE
  5
20F
100
AcDbEntity
  8
LY_3
390
0
  6
CONTINUOUS
 62
     3
100
AcDbLine
 10
139.999835
 20
55.950157
 30
0.0
 11
140.79983
 21
56.750151
 31
0.0
  0
LINE
  5
210
100
AcDbEntity
  8
LY_3
390
0
  6
CONTINUOUS
 62
     3
100
AcDbLine
 10
140.800059
 20
-56.749969
 30
0.0
 11
140.000059
 21
-55.949969
 31
0.0
  0
LINE
  5
211
100
AcDbEntity
  8
LY_3
390
0
  6
CONTINUOUS
 62
     3
100
AcDbLine
 10
140.799988
 20
-56.750001
 30
0.0
 11
156.699997
 21
-56.750001
 31
0.0
  0
LINE
  5
212
100
AcDbEntity
  8
LY_3
390
0
  6
CONTINUOUS
 62
     3
100
AcDbLine
 10
140.800003
 20
56.749999
 30
0.0
 11
156.700012
 21
56.749999
 31
0.0
  0
LINE
  5
213
100
AcDbEntity
  8
LY_3
390
0
  6
CONTINUOUS
 62
     3
100
AcDbLine
 10
126.000015
 20
8.0
 30
0.0
 11
126.000015
 21
-8.0
 31
0.0
  0
LINE
  5
214
100
AcDbEntity
  8
LY_3
390
0
  6
CONTINUOUS
 62
     3
100
AcDbLine
 10
90.0
 20
5.5
 30
0.0
 11
125.0
 21
5.5
 31
0.0
  0
LINE
  5
215
100
AcDbEntity
  8
LY_3
390
0
  6
CONTINUOUS
 62
     3
100
AcDbLine
 10
91.0
 20
5.5
 30
0.0
 11
91.0
 21
-7.0
 31
0.0
  0
LINE
  5
216
100
AcDbEntity
  8
LY_3
390
0
  6
CONTINUOUS
 62
     3
100
AcDbLine
 10
125.000058
 20
-6.999955
 30
0.0
 11
126.000059
 21
-7.999956
 31
0.0
  0
LINE
  5
217
100
AcDbEntity
  8
LY_3
390
0
  6
CONTINUOUS
 62
     3
100
AcDbLine
 10
125.000032
 20
6.999953
 30
0.0
 11
126.000029
 21
7.999958
 31
0.0
  0
LINE
  5
218
100
AcDbEntity
  8
LY_3
390
0
  6
CONTINUOUS
 62
     3
100
AcDbLine
 10
90.000043
 20
-5.999953
 30
0.0
 11
91.000044
 21
-6.999955
 31
0.0
  0
LINE
  5
219
100
AcDbEntity
  8
LY_3
390
0
  6
CONTINUOUS
 62
     3
100
AcDbLine
 10
91.0
 20
-7.0
 30
0.0
 11
125.0
 21
-7.0
 31
0.0
  0
LINE
  5
21A
100
AcDbEntity
  8
LY_3
390
0
  6
CONTINUOUS
 62
     3
100
AcDbLine
 10
126.0
 20
-8.0
 30
0.0
 11
140.0
 21
-8.0
 31
0.0
  0
LINE
  5
21B
100
AcDbEntity
  8
LY_3
390
0
  6
CONTINUOUS
 62
     3
100
AcDbLine
 10
125.999985
 20
8.0
 30
0.0
 11
140.0
 21
8.0
 31
0.0
  0
LINE
  5
21C
100
AcDbEntity
  8
LY_3
390
0
  6
CONTINUOUS
 62
     3
100
AcDbLine
 10
125.0
 20
7.0
 30
0.0
 11
125.0
 21
-7.0
 31
0.0
  0
LINE
  5
21D
100
AcDbEntity
  8
LY_3
390
0
  6
CONTINUOUS
 62
     3
100
AcDbLine
 10
90.0
 20
5.5
 30
0.0
 11
90.0
 21
-6.0
 31
0.0
  0
LINE
  5
21E
100
AcDbEntity
  8
LY_3
390
0
  6
CENTER
 62
   110
100
AcDbLine
 10
88.0
 20
0.0
 30
0.0
 11
478.0
 21
0.0
 31
0.0
  0
ENDSEC
  0
SECTION
  2
OBJECTS
  0
DICTIONARY
  5
19
100
AcDbDictionary
280
     0
281
     1
  3
ACAD_GROUP
350
1A
  3
ACAD_MLINESTYLE
350
1B
  3
ACAD_LAYOUT
350
1E
  3
ACAD_PLOTSETTINGS
350
22
  3
ACAD_PLOTSTYLENAME
350
1F
  0
DICTIONARY
  5
1A
102
{ACAD_REACTORS
330
19
102
}
100
AcDbDictionary
280
     0
281
     1
  0
DICTIONARY
  5
1B
102
{ACAD_REACTORS
330
19
102
}
100
AcDbDictionary
280
     0
281
     1
  3
Standard
350
1C
  0
MLINESTYLE
  5
1C
102
{ACAD_REACTORS
330
1B
102
}
100
AcDbMlineStyle
  2
Standard
 70
     0
  3

 62
     0
 51
90.0
 52
90.0
 71
     2
 49
0.5
 62
   256
  6
ByLayer
 49
-0.5
 62
   256
  6
ByLayer
  0
ACDBDICTIONARYWDFLT
  5
1F
102
{ACAD_REACTORS
330
19
102
}
100
AcDbDictionary
281
     1
  3
Normal
350
1D
100
AcDbDictionaryWithDefault
340
1D
  0
ACDBPLACEHOLDER
  5
1D
102
{ACAD_REACTORS
330
1F
102
}
  0
LAYOUT
  5
20
102
{ACAD_REACTORS
330
1E
102
}
100
AcDbPlotSettings
  1

  2

  4

  6

 40
0.0
 41
0.0
 42
0.0
 43
0.0
 44
0.0
 45
0.0
 46
0.0
 47
0.0
 48
0.0
 49
0.0
140
0.0
141
0.0
142
1.0
143
1.0
 70
  1024
 72
     0
 73
     0
 74
     0
  7

 75
     0
147
1.0
148
0.0
149
0.0
100
AcDbLayout
  1
Model
 70
     0
 71
     0
 10
0.0
 20
0.0
 11
0.0
 21
0.0
 12
0.0
 22
0.0
 32
0.0
 14
0.0
 24
0.0
 34
0.0
 15
0.0
 25
0.0
 35
0.0
146
0.0
 13
0.0
 23
0.0
 33
0.0
 16
0.0
 26
0.0
 36
0.0
 17
0.0
 27
0.0
 37
0.0
 76
     0
330
A
331
0
345
0
346
0
  0
LAYOUT
  5
21
102
{ACAD_REACTORS
330
1E
102
}
100
AcDbPlotSettings
  1

  2

  4

  6

 40
0.0
 41
0.0
 42
0.0
 43
0.0
 44
0.0
 45
0.0
 46
0.0
 47
0.0
 48
0.0
 49
0.0
140
0.0
141
0.0
142
1.0
143
1.0
 70
     0
 72
     0
 73
     0
 74
     0
  7

 75
     0
147
1.0
148
0.0
149
0.0
100
AcDbLayout
  1
Layout1
 70
     0
 71
     0
 10
0.0
 20
0.0
 11
0.0
 21
0.0
 12
0.0
 22
0.0
 32
0.0
 14
0.0
 24
0.0
 34
0.0
 15
0.0
 25
0.0
 35
0.0
146
0.0
 13
0.0
 23
0.0
 33
0.0
 16
0.0
 26
0.0
 36
0.0
 17
0.0
 27
0.0
 37
0.0
 76
     0
330
B
331
0
345
0
346
0
  0
DICTIONARY
  5
1E
102
{ACAD_REACTORS
330
19
102
}
100
AcDbDictionary
280
     0
281
     1
  3
Layout1
350
21
  3
Model
350
20
  0
DICTIONARY
  5
22
102
{ACAD_REACTORS
330
19
102
}
100
AcDbDictionary
280
     0
281
     1
  0
ENDSEC
  0
EOF
