  0
SECTION
  2
HEADER
  9
$ACADVER
  1
AC1009
  9
$DWGCODEPAGE
  3
dos932
  9
$INSBASE
 10
0.0
 20
0.0
 30
0.0
  9
$EXTMIN
 10
-64.854644775390625
 20
-121.0
 30
0.0
  9
$EXTMAX
 10
521.0
 20
78.800000190734863
 30
0.0
  9
$LIMMIN
 10
-419.0
 20
-293.74999999999994
  9
$LIMMAX
 10
418.0
 20
296.24999999999994
  9
$ORTHOMODE
 70
               0
  9
$REGENMODE
 70
               1
  9
$FILLMODE
 70
               1
  9
$QTEXTMODE
 70
               0
  9
$MIRRTEXT
 70
               1
  9
$DRAGMODE
 70
               2
  9
$LTSCALE
 40
1.0
  9
$OSMODE
 70
               0
  9
$ATTMODE
 70
               1
  9
$TEXTSIZE
 40
3.2000000476837158
  9
$TRACEWID
 40
0.05
  9
$TEXTSTYLE
  7
MX_NOTE_STANDARD
  9
$CLAYER
  8
LY_1
  9
$CELTYPE
  6
CONTINUOUS
  9
$CECOLOR
 62
             256
  9
$DIMSCALE
 40
1.0
  9
$DIMASZ
 40
2.5
  9
$DIMEXO
 40
2.0
  9
$DIMDLI
 40
3.75
  9
$DIMRND
 40
0.0
  9
$DIMDLE
 40
0.0
  9
$DIMEXE
 40
1.0
  9
$DIMTP
 40
0.0
  9
$DIMTM
 40
0.0
  9
$DIMTXT
 40
4.1655998229980469
  9
$DIMCEN
 40
2.5
  9
$DIMTSZ
 40
0.0
  9
$DIMTOL
 70
               0
  9
$DIMLIM
 70
               0
  9
$DIMTIH
 70
               0
  9
$DIMTOH
 70
               0
  9
$DIMSE1
 70
               0
  9
$DIMSE2
 70
               0
  9
$DIMTAD
 70
               1
  9
$DIMZIN
 70
               8
  9
$DIMBLK
  1

  9
$DIMASO
 70
               1
  9
$DIMSHO
 70
               1
  9
$DIMPOST
  1

  9
$DIMAPOST
  1

  9
$DIMALT
 70
               0
  9
$DIMALTD
 70
               4
  9
$DIMALTF
 40
0.03937007874016
  9
$DIMLFAC
 40
1.0
  9
$DIMTOFL
 70
               1
  9
$DIMTVP
 40
0.0
  9
$DIMTIX
 70
               0
  9
$DIMSOXD
 70
               0
  9
$DIMSAH
 70
               1
  9
$DIMBLK1
  1
_OPEN30
  9
$DIMBLK2
  1
_OPEN30
  9
$DIMSTYLE
  2
MXDIMSTYLE
  9
$DIMCLRD
 70
               0
  9
$DIMCLRE
 70
               0
  9
$DIMCLRT
 70
               0
  9
$DIMTFAC
 40
1.0
  9
$DIMGAP
 40
1.0
  9
$LUNITS
 70
               2
  9
$LUPREC
 70
               4
  9
$AXISMODE
 70
               0
  9
$AXISUNIT
 10
0.0
 20
0.0
  9
$SKETCHINC
 40
0.1
  9
$FILLETRAD
 40
0.0
  9
$AUNITS
 70
               0
  9
$AUPREC
 70
               0
  9
$MENU
  1
acad
  9
$ELEVATION
 40
0.0
  9
$PELEVATION
 40
0.0
  9
$THICKNESS
 40
0.0
  9
$LIMCHECK
 70
               0
  9
$BLIPMODE
 70
               1
  9
$CHAMFERA
 40
0.0
  9
$CHAMFERB
 40
0.0
  9
$SKPOLY
 70
               0
  9
$TDCREATE
 40
2455216.529398148
  9
$TDUPDATE
 40
2455216.529398148
  9
$TDINDWG
 40
0.0000000000
  9
$TDUSRTIMER
 40
0.0000000000
  9
$USRTIMER
 70
               1
  9
$ANGBASE
 50
0.0
  9
$ANGDIR
 70
               0
  9
$PDMODE
 70
               0
  9
$PDSIZE
 40
0.0
  9
$PLINEWID
 40
0.0
  9
$COORDS
 70
               1
  9
$SPLFRAME
 70
               0
  9
$SPLINETYPE
 70
               6
  9
$SPLINESEGS
 70
               8
  9
$ATTDIA
 70
               0
  9
$ATTREQ
 70
               1
  9
$HANDLING
 70
               1
  9
$HANDSEED
  5
21D
  9
$SURFTAB1
 70
               6
  9
$SURFTAB2
 70
               6
  9
$SURFTYPE
 70
               6
  9
$SURFU
 70
               6
  9
$SURFV
 70
               6
  9
$UCSNAME
  2

  9
$UCSORG
 10
0.0
 20
0.0
 30
0.0
  9
$UCSXDIR
 10
1.0
 20
0.0
 30
0.0
  9
$UCSYDIR
 10
0.0
 20
1.0
 30
0.0
  9
$PUCSNAME
  2

  9
$PUCSORG
 10
0.0
 20
0.0
 30
0.0
  9
$PUCSXDIR
 10
1.0
 20
0.0
 30
0.0
  9
$PUCSYDIR
 10
0.0
 20
1.0
 30
0.0
  9
$USERI1
 70
               0
  9
$USERI2
 70
               0
  9
$USERI3
 70
               0
  9
$USERI4
 70
               0
  9
$USERI5
 70
               0
  9
$USERR1
 40
0.0
  9
$USERR2
 40
0.0
  9
$USERR3
 40
0.0
  9
$USERR4
 40
0.0
  9
$USERR5
 40
0.0
  9
$WORLDVIEW
 70
               1
  9
$SHADEDGE
 70
               3
  9
$SHADEDIF
 70
              70
  9
$TILEMODE
 70
               1
  9
$MAXACTVP
 70
              16
  9
$PINSBASE
 10
0.0
 20
0.0
 30
0.0
  9
$PLIMCHECK
 70
               0
  9
$PEXTMIN
 10
1.0000000000000000E+20
 20
1.0000000000000000E+20
 30
1.0000000000000000E+20
  9
$PEXTMAX
 10
-1.0000000000000000E+20
 20
-1.0000000000000000E+20
 30
-1.0000000000000000E+20
  9
$PLIMMIN
 10
0.0
 20
0.0
  9
$PLIMMAX
 10
12.0
 20
9.0
  9
$UNITMODE
 70
               0
  9
$VISRETAIN
 70
               0
  9
$PLINEGEN
 70
               1
  9
$PSLTSCALE
 70
               0
  9
$TREEDEPTH
 70
            3020
  0
ENDSEC
  0
SECTION
  2
TABLES
  0
TABLE
  2
VPORT
 70
               1
  0
VPORT
  2
*ACTIVE
 70
               0
 10
0.0
 20
0.0
 11
1.0
 21
1.0
 12
-0.5
 22
1.25
 13
0.0
 23
0.0
 14
1.0
 24
1.0
 15
0.0
 25
0.0
 16
0.0
 26
0.0
 36
1.0
 17
0.0
 27
0.0
 37
0.0
 40
595.89999999999986
 41
1.7320508075688772
 42
50.0
 43
0.0
 44
0.0
 50
0.0
 51
0.0
 71
               0
 72
             100
 73
               1
 74
               1
 75
               0
 76
               0
 77
               0
 78
               0
  0
ENDTAB
  0
TABLE
  2
LTYPE
 70
               3
  0
LTYPE
  2
CONTINUOUS
 70
              64
  3
Solid line
 72
              65
 73
               0
 40
0.0
  0
LTYPE
  2
CENTER
 70
              64
  3
Center ____ _ ____ _ ____ _ ____ _ ____ _ ____
 72
              65
 73
               4
 40
50.800000000000004
 49
31.75
 49
-6.3499999999999996
 49
6.3499999999999996
 49
-6.3499999999999996
  0
LTYPE
  2
DASHED
 70
              64
  3
Dashed __ __ __ __ __ __ __ __ __ __ __ __ __ _
 72
              65
 73
               2
 40
19.049999999999997
 49
12.699999999999999
 49
-6.3499999999999996
  0
ENDTAB
  0
TABLE
  2
LAYER
 70
               3
  0
LAYER
  2
0
 70
               0
 62
               7
  6
CONTINUOUS
  0
LAYER
  2
LY_1
 70
               0
 62
               7
  6
CONTINUOUS
  0
LAYER
  2
DEFPOINTS
 70
               0
 62
               7
  6
CONTINUOUS
  0
ENDTAB
  0
TABLE
  2
STYLE
 70
               4
  0
STYLE
  2
MX_NOTE_STANDARD
 70
               0
 40
0.0
 41
1.0
 50
0.0
 71
               0
 42
3.2000000476837158
  3
txt.shx
  4
extfont.shx
  0
STYLE
  2
MX_DIMTXSTY_2
 70
               0
 40
0.0
 41
0.9
 50
0.0
 71
               0
 42
3.2000000476837158
  3
txt.shx
  4
extfont.shx
  0
STYLE
  2
MX_DIMTXSTY_3
 70
               0
 40
0.0
 41
1.1000000000000001
 50
0.0
 71
               0
 42
3.2000000476837158
  3
txt.shx
  4
extfont.shx
  0
STYLE
  2
MX_DIMTXSTY_4
 70
               0
 40
0.0
 41
1.3
 50
0.0
 71
               0
 42
3.2000000476837158
  3
txt.shx
  4
extfont.shx
  0
ENDTAB
  0
TABLE
  2
VIEW
 70
               0
  0
ENDTAB
  0
TABLE
  2
UCS
 70
               0
  0
ENDTAB
  0
TABLE
  2
APPID
 70
               1
  0
APPID
  2
ACAD
 70
               0
  0
ENDTAB
  0
TABLE
  2
DIMSTYLE
 70
               1
  0
DIMSTYLE
  2
MXDIMSTYLE
 70
               0
  3

  4

  5

  6
_OPEN30
  7
_OPEN30
 40
1.0
 41
2.5
 42
2.0
 43
3.75
 44
1.0
 45
0.0
 46
0.0
 47
0.0
 48
0.0
 71
               0
 72
               0
 73
               0
 74
               0
 75
               0
 76
               0
 77
               1
 78
               8
140
4.1655998229980469
141
2.5
142
0.0
143
0.03937007874016
144
1.0
145
0.0
146
1.0
147
1.0
170
               0
171
               4
172
               1
173
               1
174
               0
175
               0
176
               0
177
               0
178
               0
  0
ENDTAB
  0
ENDSEC
  0
SECTION
  2
BLOCKS
  0
BLOCK
  8
0
  6
BYBLOCK
 62
               0
  5
20
  2
_OPEN30
 70
               2
 10
0.0
 20
0.0
 30
0.0
  3
_OPEN30
  0
LINE
  8
0
  6
BYBLOCK
 62
               0
  5
21
 10
-1.0
 20
0.267949
 30
0.0
 11
0.0
 21
0.0
 31
0.0
  0
LINE
  8
0
  6
BYBLOCK
 62
               0
  5
22
 10
0.0
 20
0.0
 30
0.0
 11
-1.0
 21
-0.267949
 31
0.0
  0
LINE
  8
0
  6
BYBLOCK
 62
               0
  5
23
 10
0.0
 20
0.0
 30
0.0
 11
-1.0
 21
0.0
 31
0.0
  0
ENDBLK
  8
0
  6
BYBLOCK
 62
               0
  5
24
  0
BLOCK
  8
0
  6
BYBLOCK
 62
               0
  5
26
  2
*D1
 70
               1
 10
0.0
 20
0.0
 30
0.0
  3
*D1
  0
LINE
  8
0
  6
CONTINUOUS
 62
             110
  5
27
 10
135.0
 20
-30.0
 30
0.0
 11
100.0
 21
-30.0
 31
0.0
  0
LINE
  8
0
  6
CONTINUOUS
 62
             110
  5
28
 10
135.0
 20
-9.0
 30
0.0
 11
135.0
 21
-31.0
 31
0.0
  0
INSERT
  8
0
  6
CONTINUOUS
 62
             110
  5
29
  2
_OPEN30
 10
135.0
 20
-30.0
 30
0.0
 41
2.77
 42
2.77
 43
2.77
  0
INSERT
  8
0
  6
CONTINUOUS
 62
             110
  5
2A
  2
_OPEN30
 10
100.0
 20
-30.0
 30
0.0
 41
2.77
 42
2.77
 50
180.0
 43
2.77
  0
TEXT
  8
0
  6
CONTINUOUS
 62
             110
  5
2B
 10
113.4375
 20
-29.0
 30
0.0
 40
5.1999998092651367
  1
35
 41
0.9375000343872963
  7
MX_NOTE_STANDARD
 11
113.4375
 21
-26.400000095367432
 31
0.0
 73
               2
  0
POINT
  8
DEFPOINTS
  6
CONTINUOUS
 62
               0
  5
2C
 10
135.0
 20
-7.0
 30
0.0
  0
POINT
  8
DEFPOINTS
  6
CONTINUOUS
 62
               0
  5
2D
 10
100.0
 20
-8.0
 30
0.0
  0
POINT
  8
DEFPOINTS
  6
CONTINUOUS
 62
               0
  5
2E
 10
100.0
 20
-30.0
 30
0.0
  0
ENDBLK
  8
0
  6
BYBLOCK
 62
               0
  5
2F
  0
BLOCK
  8
0
  6
BYBLOCK
 62
               0
  5
32
  2
*D2
 70
               1
 10
0.0
 20
0.0
 30
0.0
  3
*D2
  0
LINE
  8
0
  6
CONTINUOUS
 62
             110
  5
33
 10
280.0
 20
24.0
 30
0.0
 11
280.0
 21
-24.0
 31
0.0
  0
INSERT
  8
0
  6
CONTINUOUS
 62
             110
  5
34
  2
_OPEN30
 10
280.0
 20
24.0
 30
0.0
 41
2.77
 42
2.77
 50
90.0
 43
2.77
  0
INSERT
  8
0
  6
CONTINUOUS
 62
             110
  5
35
  2
_OPEN30
 10
280.0
 20
-24.0
 30
0.0
 41
2.77
 42
2.77
 50
270.0
 43
2.77
  0
TEXT
  8
0
  6
CONTINUOUS
 62
             110
  5
37
 10
279.0
 20
5.8803953261886912
 30
0.0
 40
5.1999998092651367
  1
%%c48
 50
90.000000000000014
 41
0.9943182021261069
  7
MX_DIMTXSTY_2
 11
276.40000009536743
 21
5.8803953261886912
 31
0.0
 73
               2
  0
POINT
  8
DEFPOINTS
  6
CONTINUOUS
 62
               0
  5
38
 10
223.55889892578125
 20
24.0
 30
0.0
  0
POINT
  8
DEFPOINTS
  6
CONTINUOUS
 62
               0
  5
39
 10
223.55889892578125
 20
-24.0
 30
0.0
  0
POINT
  8
DEFPOINTS
  6
CONTINUOUS
 62
               0
  5
3A
 10
280.0
 20
-24.0
 30
0.0
  0
ENDBLK
  8
0
  6
BYBLOCK
 62
               0
  5
3B
  0
BLOCK
  8
0
  6
BYBLOCK
 62
               0
  5
3E
  2
*D3
 70
               1
 10
0.0
 20
0.0
 30
0.0
  3
*D3
  0
LINE
  8
0
  6
CONTINUOUS
 62
             110
  5
3F
 10
520.0
 20
59.0
 30
0.0
 11
520.0
 21
-101.0
 31
0.0
  0
LINE
  8
0
  6
CONTINUOUS
 62
             110
  5
40
 10
453.0
 20
59.0
 30
0.0
 11
521.0
 21
59.0
 31
0.0
  0
LINE
  8
0
  6
CONTINUOUS
 62
             110
  5
41
 10
453.0
 20
-101.0
 30
0.0
 11
521.0
 21
-101.0
 31
0.0
  0
INSERT
  8
0
  6
CONTINUOUS
 62
             110
  5
42
  2
_OPEN30
 10
520.0
 20
59.0
 30
0.0
 41
2.77
 42
2.77
 50
90.0
 43
2.77
  0
INSERT
  8
0
  6
CONTINUOUS
 62
             110
  5
43
  2
_OPEN30
 10
520.0
 20
-101.0
 30
0.0
 41
2.77
 42
2.77
 50
270.0
 43
2.77
  0
TEXT
  8
0
  6
CONTINUOUS
 62
             110
  5
45
 10
519.0
 20
-27.426136363636363
 30
0.0
 40
5.1999998092651367
  1
160
 50
90.000000000000014
 41
1.0227273102406869
  7
MX_DIMTXSTY_3
 11
516.40000009536743
 21
-27.426136363636363
 31
0.0
 73
               2
  0
POINT
  8
DEFPOINTS
  6
CONTINUOUS
 62
               0
  5
46
 10
451.0
 20
59.0
 30
0.0
  0
POINT
  8
DEFPOINTS
  6
CONTINUOUS
 62
               0
  5
47
 10
451.0
 20
-101.0
 30
0.0
  0
POINT
  8
DEFPOINTS
  6
CONTINUOUS
 62
               0
  5
48
 10
520.0
 20
-101.0
 30
0.0
  0
ENDBLK
  8
0
  6
BYBLOCK
 62
               0
  5
49
  0
BLOCK
  8
0
  6
BYBLOCK
 62
               0
  5
4C
  2
*D4
 70
               1
 10
0.0
 20
0.0
 30
0.0
  3
*D4
  0
LINE
  8
0
  6
CONTINUOUS
 62
             110
  5
4D
 10
510.0
 20
0.0
 30
0.0
 11
510.0
 21
-101.0
 31
0.0
  0
LINE
  8
0
  6
CONTINUOUS
 62
             110
  5
4E
 10
418.0
 20
0.0
 30
0.0
 11
511.0
 21
0.0
 31
0.0
  0
INSERT
  8
0
  6
CONTINUOUS
 62
             110
  5
4F
  2
_OPEN30
 10
510.0
 20
0.0
 30
0.0
 41
2.77
 42
2.77
 50
90.0
 43
2.77
  0
INSERT
  8
0
  6
CONTINUOUS
 62
             110
  5
50
  2
_OPEN30
 10
510.0
 20
-101.0
 30
0.0
 41
2.77
 42
2.77
 50
270.0
 43
2.77
  0
TEXT
  8
0
  6
CONTINUOUS
 62
             110
  5
52
 10
509.0
 20
-56.947115392550913
 30
0.0
 40
5.1999998092651367
  1
101
 50
90.000000000000014
 41
0.9985207375283138
  7
MX_DIMTXSTY_4
 11
506.40000009536743
 21
-56.947115392550913
 31
0.0
 73
               2
  0
POINT
  8
DEFPOINTS
  6
CONTINUOUS
 62
               0
  5
53
 10
416.0
 20
0.0
 30
0.0
  0
POINT
  8
DEFPOINTS
  6
CONTINUOUS
 62
               0
  5
54
 10
503.55343627929687
 20
-101.0
 30
0.0
  0
POINT
  8
DEFPOINTS
  6
CONTINUOUS
 62
               0
  5
55
 10
510.0
 20
-101.0
 30
0.0
  0
ENDBLK
  8
0
  6
BYBLOCK
 62
               0
  5
56
  0
BLOCK
  8
0
  6
BYBLOCK
 62
               0
  5
59
  2
*D5
 70
               1
 10
0.0
 20
0.0
 30
0.0
  3
*D5
  0
LINE
  8
0
  6
CONTINUOUS
 62
             110
  5
5A
 10
495.0
 20
-120.0
 30
0.0
 11
150.0
 21
-120.0
 31
0.0
  0
LINE
  8
0
  6
CONTINUOUS
 62
             110
  5
5B
 10
495.0
 20
21.0
 30
0.0
 11
495.0
 21
-121.0
 31
0.0
  0
INSERT
  8
0
  6
CONTINUOUS
 62
             110
  5
5C
  2
_OPEN30
 10
495.0
 20
-120.0
 30
0.0
 41
2.77
 42
2.77
 43
2.77
  0
INSERT
  8
0
  6
CONTINUOUS
 62
             110
  5
5D
  2
_OPEN30
 10
150.0
 20
-120.0
 30
0.0
 41
2.77
 42
2.77
 50
180.0
 43
2.77
  0
TEXT
  8
0
  6
CONTINUOUS
 62
             110
  5
5E
 10
316.0
 20
-119.0
 30
0.0
 40
5.1999998092651367
  1
345
 41
0.9375000343872963
  7
MX_NOTE_STANDARD
 11
316.0
 21
-116.40000009536743
 31
0.0
 73
               2
  0
POINT
  8
DEFPOINTS
  6
CONTINUOUS
 62
               0
  5
5F
 10
495.0
 20
23.0
 30
0.0
  0
POINT
  8
DEFPOINTS
  6
CONTINUOUS
 62
               0
  5
60
 10
150.0
 20
-57.949996948242188
 30
0.0
  0
POINT
  8
DEFPOINTS
  6
CONTINUOUS
 62
               0
  5
61
 10
150.0
 20
-120.0
 30
0.0
  0
ENDBLK
  8
0
  6
BYBLOCK
 62
               0
  5
62
  0
BLOCK
  8
0
  6
BYBLOCK
 62
               0
  5
65
  2
*D6
 70
               1
 10
0.0
 20
0.0
 30
0.0
  3
*D6
  0
LINE
  8
0
  6
CONTINUOUS
 62
             110
  5
66
 10
150.0
 20
-120.0
 30
0.0
 11
100.0
 21
-120.0
 31
0.0
  0
LINE
  8
0
  6
CONTINUOUS
 62
             110
  5
67
 10
150.0
 20
-57.949996948242188
 30
0.0
 11
150.0
 21
-121.0
 31
0.0
  0
LINE
  8
0
  6
CONTINUOUS
 62
             110
  5
68
 10
100.0
 20
-8.0
 30
0.0
 11
100.0
 21
-121.0
 31
0.0
  0
INSERT
  8
0
  6
CONTINUOUS
 62
             110
  5
69
  2
_OPEN30
 10
150.0
 20
-120.0
 30
0.0
 41
2.77
 42
2.77
 43
2.77
  0
INSERT
  8
0
  6
CONTINUOUS
 62
             110
  5
6A
  2
_OPEN30
 10
100.0
 20
-120.0
 30
0.0
 41
2.77
 42
2.77
 50
180.0
 43
2.77
  0
TEXT
  8
0
  6
CONTINUOUS
 62
             110
  5
6B
 10
101.85985781857083
 20
-119.0
 30
0.0
 40
5.1999998092651367
  1
50+100ストローク
 41
1.0261194223657522
  7
MX_DIMTXSTY_2
 11
101.85985781857083
 21
-116.40000009536743
 31
0.0
 73
               2
  0
POINT
  8
DEFPOINTS
  6
CONTINUOUS
 62
               0
  5
6C
 10
150.0
 20
-55.949996948242187
 30
0.0
  0
POINT
  8
DEFPOINTS
  6
CONTINUOUS
 62
               0
  5
6D
 10
100.0
 20
-6.0
 30
0.0
  0
POINT
  8
DEFPOINTS
  6
CONTINUOUS
 62
               0
  5
6E
 10
100.0
 20
-120.0
 30
0.0
  0
ENDBLK
  8
0
  6
BYBLOCK
 62
               0
  5
6F
  0
BLOCK
  8
0
  6
BYBLOCK
 62
               0
  5
78
  2
*D7
 70
               1
 10
0.0
 20
0.0
 30
0.0
  3
*D7
  0
LINE
  8
0
  6
CONTINUOUS
 62
             110
  5
79
 10
140.0
 20
8.0
 30
0.0
 11
140.0
 21
-8.0
 31
0.0
  0
LINE
  8
0
  6
CONTINUOUS
 62
             110
  5
7A
 10
140.0
 20
37.155527114868164
 30
0.0
 11
140.0
 21
8.0
 31
0.0
  0
LINE
  8
0
  6
CONTINUOUS
 62
             110
  5
7B
 10
140.0
 20
8.0
 30
0.0
 11
140.0
 21
14.349999904632568
 31
0.0
  0
LINE
  8
0
  6
CONTINUOUS
 62
             110
  5
7C
 10
140.0
 20
-8.0
 30
0.0
 11
140.0
 21
-14.349999904632568
 31
0.0
  0
INSERT
  8
0
  6
CONTINUOUS
 62
             110
  5
7D
  2
_OPEN30
 10
140.0
 20
8.0
 30
0.0
 41
2.77
 42
2.77
 50
270.0
 43
2.77
  0
INSERT
  8
0
  6
CONTINUOUS
 62
             110
  5
7E
  2
_OPEN30
 10
140.0
 20
-8.0
 30
0.0
 41
2.77
 42
2.77
 50
90.0
 43
2.77
  0
TEXT
  8
0
  6
CONTINUOUS
 62
             110
  5
7F
 10
139.0
 20
13.625205320227881
 30
0.0
 40
5.1999998092651367
  1
%%c16g6
 50
90.000000000000014
 41
0.9746287342411499
  7
MX_NOTE_STANDARD
 11
136.40000009536743
 21
13.625205320227881
 31
0.0
 73
               2
  0
POINT
  8
DEFPOINTS
  6
CONTINUOUS
 62
               0
  5
80
 10
136.0
 20
8.0
 30
0.0
  0
POINT
  8
DEFPOINTS
  6
CONTINUOUS
 62
               0
  5
81
 10
130.0
 20
-8.0
 30
0.0
  0
POINT
  8
DEFPOINTS
  6
CONTINUOUS
 62
               0
  5
82
 10
140.0
 20
-8.0
 30
0.0
  0
ENDBLK
  8
0
  6
BYBLOCK
 62
               0
  5
83
  0
BLOCK
  8
0
  6
BYBLOCK
 62
               0
  5
86
  2
*D8
 70
               1
 10
0.0
 20
0.0
 30
0.0
  3
*D8
  0
LINE
  8
0
  6
CONTINUOUS
 62
             110
  5
87
 10
80.0
 20
-7.0
 30
0.0
 11
80.0
 21
5.0
 31
0.0
  0
LINE
  8
0
  6
CONTINUOUS
 62
             110
  5
88
 10
99.0
 20
-7.0
 30
0.0
 11
79.0
 21
-7.0
 31
0.0
  0
LINE
  8
0
  6
CONTINUOUS
 62
             110
  5
89
 10
98.0
 20
5.0
 30
0.0
 11
79.0
 21
5.0
 31
0.0
  0
INSERT
  8
0
  6
CONTINUOUS
 62
             110
  5
8A
  2
_OPEN30
 10
80.0
 20
-7.0
 30
0.0
 41
2.77
 42
2.77
 50
270.0
 43
2.77
  0
INSERT
  8
0
  6
CONTINUOUS
 62
             110
  5
8B
  2
_OPEN30
 10
80.0
 20
5.0
 30
0.0
 41
2.77
 42
2.77
 50
90.0
 43
2.77
  0
TEXT
  8
0
  6
CONTINUOUS
 62
             110
  5
8C
 10
79.0
 20
-4.9886363742026418
 30
0.0
 40
5.1999998092651367
  1
12
 50
90.0
 41
1.0227272980488273
  7
MX_DIMTXSTY_3
 11
76.400000095367432
 21
-4.9886363742026418
 31
0.0
 73
               2
  0
POINT
  8
DEFPOINTS
  6
CONTINUOUS
 62
               0
  5
8D
 10
101.0
 20
-7.0
 30
0.0
  0
POINT
  8
DEFPOINTS
  6
CONTINUOUS
 62
               0
  5
8E
 10
100.0
 20
5.0
 30
0.0
  0
POINT
  8
DEFPOINTS
  6
CONTINUOUS
 62
               0
  5
8F
 10
80.0
 20
5.0
 30
0.0
  0
ENDBLK
  8
0
  6
BYBLOCK
 62
               0
  5
90
  0
BLOCK
  8
0
  6
BYBLOCK
 62
               0
  5
93
  2
*D9
 70
               1
 10
0.0
 20
0.0
 30
0.0
  3
*D9
  0
LINE
  8
0
  6
CONTINUOUS
 62
             110
  5
94
 10
-7.0
 20
70.0
 30
0.0
 11
7.0
 21
70.0
 31
0.0
  0
LINE
  8
0
  6
CONTINUOUS
 62
             110
  5
95
 10
7.0
 20
70.0
 30
0.0
 11
36.873281478881836
 21
70.0
 31
0.0
  0
LINE
  8
0
  6
CONTINUOUS
 62
             110
  5
96
 10
-7.0
 20
2.0
 30
0.0
 11
-7.0
 21
71.0
 31
0.0
  0
LINE
  8
0
  6
CONTINUOUS
 62
             110
  5
97
 10
7.0
 20
2.0
 30
0.0
 11
7.0
 21
71.0
 31
0.0
  0
INSERT
  8
0
  6
CONTINUOUS
 62
             110
  5
98
  2
_OPEN30
 10
-7.0
 20
70.0
 30
0.0
 41
2.77
 42
2.77
 50
180.0
 43
2.77
  0
INSERT
  8
0
  6
CONTINUOUS
 62
             110
  5
99
  2
_OPEN30
 10
7.0
 20
70.0
 30
0.0
 41
2.77
 42
2.77
 43
2.77
  0
TEXT
  8
0
  6
CONTINUOUS
 62
             110
  5
9A
 10
13.342959684241553
 20
71.0
 30
0.0
 40
5.1999998092651367
  1
%%c14h7
 41
0.9746287342411499
  7
MX_NOTE_STANDARD
 11
13.342959684241553
 21
73.599999904632568
 31
0.0
 73
               2
  0
POINT
  8
DEFPOINTS
  6
CONTINUOUS
 62
               0
  5
9B
 10
-7.0
 20
0.0
 30
0.0
  0
POINT
  8
DEFPOINTS
  6
CONTINUOUS
 62
               0
  5
9C
 10
7.0
 20
0.0
 30
0.0
  0
POINT
  8
DEFPOINTS
  6
CONTINUOUS
 62
               0
  5
9D
 10
7.0
 20
70.0
 30
0.0
  0
ENDBLK
  8
0
  6
BYBLOCK
 62
               0
  5
9E
  0
ENDSEC
  0
SECTION
  2
ENTITIES
  0
DIMENSION
  8
LY_1
  6
CONTINUOUS
 62
             110
  5
30
  2
*D1
 10
100.0
 20
-30.0
 30
0.0
 11
117.5
 21
-30.0
 31
0.0
 70
             128
  1
<>
 13
135.0
 23
-7.0
 33
0.0
 14
100.0
 24
-8.0
 34
0.0
  3
MXDIMSTYLE
1001
ACAD
1000
DSTYLE
1002
{
1070
              41
1040
2.77
1070
              76
1070
               1
1070
             140
1040
5.1999998092651367
1070
             284
1070
               8
1002
}
  0
DIMENSION
  8
LY_1
  6
CONTINUOUS
 62
             110
  5
3C
  2
*D2
 10
280.0
 20
-24.0
 30
0.0
 11
280.0
 21
12.33115291595459
 31
0.0
 70
             128
  1
%%c<>
 13
223.55889892578125
 23
24.0
 33
0.0
 14
223.55889892578125
 24
-24.0
 34
0.0
 50
90.0
  3
MXDIMSTYLE
1001
ACAD
1000
DSTYLE
1002
{
1070
              41
1040
2.77
1070
              75
1070
               1
1070
              76
1070
               1
1070
             140
1040
5.1999998092651367
1070
             284
1070
               8
1070
             340
1005
36
1002
}
  0
DIMENSION
  8
LY_1
  6
CONTINUOUS
 62
             110
  5
4A
  2
*D3
 10
520.0
 20
-101.0
 30
0.0
 11
520.0
 21
-21.0
 31
0.0
 70
             128
  1
<>
 13
451.0
 23
59.0
 33
0.0
 14
451.0
 24
-101.0
 34
0.0
 50
90.0
  3
MXDIMSTYLE
1001
ACAD
1000
DSTYLE
1002
{
1070
              41
1040
2.77
1070
             140
1040
5.1999998092651367
1070
             284
1070
               8
1070
             340
1005
44
1002
}
  0
DIMENSION
  8
LY_1
  6
CONTINUOUS
 62
             110
  5
57
  2
*D4
 10
510.0
 20
-101.0
 30
0.0
 11
510.0
 21
-50.5
 31
0.0
 70
             128
  1
<>
 13
416.0
 23
0.0
 33
0.0
 14
503.55343627929687
 24
-101.0
 34
0.0
 50
90.0
  3
MXDIMSTYLE
1001
ACAD
1000
DSTYLE
1002
{
1070
              41
1040
2.77
1070
              76
1070
               1
1070
             140
1040
5.1999998092651367
1070
             284
1070
               8
1070
             340
1005
51
1002
}
  0
DIMENSION
  8
LY_1
  6
CONTINUOUS
 62
             110
  5
63
  2
*D5
 10
150.0
 20
-120.0
 30
0.0
 11
322.5
 21
-120.0
 31
0.0
 70
             128
  1
<>
 13
495.0
 23
23.0
 33
0.0
 14
150.0
 24
-57.949996948242188
 34
0.0
  3
MXDIMSTYLE
1001
ACAD
1000
DSTYLE
1002
{
1070
              41
1040
2.77
1070
              76
1070
               1
1070
             140
1040
5.1999998092651367
1070
             284
1070
               8
1002
}
  0
DIMENSION
  8
LY_1
  6
CONTINUOUS
 62
             110
  5
70
  2
*D6
 10
100.0
 20
-120.0
 30
0.0
 11
127.78305435180664
 21
-120.0
 31
0.0
 70
             128
  1
<>
 13
150.0
 23
-55.949996948242187
 33
0.0
 14
100.0
 24
-6.0
 34
0.0
  3
MXDIMSTYLE
1001
ACAD
1000
DSTYLE
1002
{
1070
              41
1040
2.77
1070
             140
1040
5.1999998092651367
1070
             284
1070
               8
1070
             340
1005
36
1002
}
  0
POLYLINE
  8
LY_1
  6
CONTINUOUS
 62
             110
  5
71
 66
               1
 10
0.0
 20
0.0
 30
0.0
  0
VERTEX
  8
LY_1
  6
CONTINUOUS
 62
             110
  5
20C
 10
374.0
 20
53.0
 30
0.0
  0
VERTEX
  8
LY_1
  6
CONTINUOUS
 62
             110
  5
20D
 10
360.0
 20
70.0
 30
0.0
  0
VERTEX
  8
LY_1
  6
CONTINUOUS
 62
             110
  5
20E
 10
314.79411840438843
 20
70.0
 30
0.0
  0
SEQEND
  8
LY_1
  6
CONTINUOUS
 62
             110
  5
20F
  0
INSERT
  8
LY_1
  6
CONTINUOUS
 62
             110
  5
72
  2
_OPEN30
 10
374.0
 20
53.0
 30
0.0
 41
2.77
 42
2.77
 50
309.47245984834382
 43
2.77
  0
TEXT
  8
LY_1
  6
CONTINUOUS
 62
             110
  5
73
 10
315.4712017108169
 20
72.300000190734863
 30
0.0
 40
5.1999998092651367
  1
ポテンショメーター
 41
0.7812499976119945
  7
MX_NOTE_STANDARD
 11
315.4712017108169
 21
74.900000095367432
 31
0.0
 73
               2
  0
POLYLINE
  8
LY_1
  6
CONTINUOUS
 62
             110
  5
74
 66
               1
 10
0.0
 20
0.0
 30
0.0
  0
VERTEX
  8
LY_1
  6
CONTINUOUS
 62
             110
  5
210
 10
158.75
 20
56.75
 30
0.0
  0
VERTEX
  8
LY_1
  6
CONTINUOUS
 62
             110
  5
211
 10
150.0
 20
70.0
 30
0.0
  0
VERTEX
  8
LY_1
  6
CONTINUOUS
 62
             110
  5
212
 10
125.28944656252861
 20
70.0
 30
0.0
  0
SEQEND
  8
LY_1
  6
CONTINUOUS
 62
             110
  5
213
  0
INSERT
  8
LY_1
  6
CONTINUOUS
 62
             110
  5
75
  2
_OPEN30
 10
158.75
 20
56.75
 30
0.0
 41
2.77
 42
2.77
 50
303.4398692057822
 43
2.77
  0
TEXT
  8
LY_1
  6
CONTINUOUS
 62
             110
  5
76
 10
126.22694655393178
 20
72.300000190734863
 30
0.0
 40
5.1999998092651367
  1
CF114
 41
1.0817307989890066
  7
MX_NOTE_STANDARD
 11
126.22694655393178
 21
74.900000095367432
 31
0.0
 73
               2
  0
DIMENSION
  8
LY_1
  6
CONTINUOUS
 62
             110
  5
84
  2
*D7
 10
140.0
 20
-8.0
 30
0.0
 11
140.0
 21
24.968027114868164
 31
0.0
 70
             128
  1
%%c<>
 13
136.0
 23
8.0
 33
0.0
 14
130.0
 24
-8.0
 34
0.0
 50
90.0
  3
MXDIMSTYLE
1001
ACAD
1000
DSTYLE
1002
{
1070
              41
1040
2.77
1070
              75
1070
               1
1070
              76
1070
               1
1070
             140
1040
5.1999998092651367
1070
             284
1070
               8
1002
}
  0
DIMENSION
  8
LY_1
  6
CONTINUOUS
 62
             110
  5
91
  2
*D8
 10
80.0
 20
5.0
 30
0.0
 11
80.0
 21
-1.0
 31
0.0
 70
             128
  1
<>
 13
101.0
 23
-7.0
 33
0.0
 14
100.0
 24
5.0
 34
0.0
 50
90.0
  3
MXDIMSTYLE
1001
ACAD
1000
DSTYLE
1002
{
1070
              41
1040
2.77
1070
             140
1040
5.1999998092651367
1070
             284
1070
               8
1070
             340
1005
44
1002
}
  0
DIMENSION
  8
LY_1
  6
CONTINUOUS
 62
             110
  5
9F
  2
*D9
 10
7.0
 20
70.0
 30
0.0
 11
24.685781478881836
 21
70.0
 31
0.0
 70
             128
  1
%%c<>
 13
-7.0
 23
0.0
 33
0.0
 14
7.0
 24
0.0
 34
0.0
  3
MXDIMSTYLE
1001
ACAD
1000
DSTYLE
1002
{
1070
              41
1040
2.77
1070
             140
1040
5.1999998092651367
1070
             284
1070
               8
1002
}
  0
CIRCLE
  8
LY_1
  6
CONTINUOUS
 62
               3
  5
A0
 10
42.590850830078125
 20
-17.641708374023438
 30
0.0
 40
4.25
  0
LINE
  8
LY_1
  6
CENTER
 62
             110
  5
A2
 10
35.892760330674719
 20
-14.867175809704349
 30
0.0
 11
49.289016598699163
 21
-20.416079006754444
 31
0.0
  0
CIRCLE
  8
LY_1
  6
CONTINUOUS
 62
               3
  5
A3
 10
42.590850830078125
 20
17.641708374023438
 30
0.0
 40
4.25
  0
LINE
  8
LY_1
  6
CENTER
 62
             110
  5
A4
 10
35.892585023253559
 20
14.867665104091429
 30
0.0
 11
49.288843019812703
 21
20.416563979804778
 31
0.0
  0
CIRCLE
  8
LY_1
  6
DASHED
 62
             110
  5
A6
 10
30.0
 20
0.0
 30
0.0
 40
2.0
  0
CIRCLE
  8
LY_1
  6
DASHED
 62
             110
  5
A7
 10
30.0
 20
0.0
 30
0.0
 40
1.6000000238418579
  0
CIRCLE
  8
LY_1
  6
DASHED
 62
             110
  5
A8
 10
0.0
 20
30.0
 30
0.0
 40
2.0
  0
CIRCLE
  8
LY_1
  6
DASHED
 62
             110
  5
A9
 10
0.0
 20
30.0
 30
0.0
 40
1.6000000238418579
  0
CIRCLE
  8
LY_1
  6
DASHED
 62
             110
  5
AA
 10
-30.0
 20
0.0
 30
0.0
 40
2.0
  0
CIRCLE
  8
LY_1
  6
DASHED
 62
             110
  5
AB
 10
-30.0
 20
0.0
 30
0.0
 40
1.6000000238418579
  0
CIRCLE
  8
LY_1
  6
DASHED
 62
             110
  5
AC
 10
0.0
 20
-30.0
 30
0.0
 40
2.0
  0
CIRCLE
  8
LY_1
  6
DASHED
 62
             110
  5
AD
 10
0.0
 20
-30.0
 30
0.0
 40
1.6000000238418579
  0
LINE
  8
LY_1
  6
CONTINUOUS
 62
               3
  5
AE
 10
-1.0
 20
-41.287887573242188
 30
0.0
 11
-1.0
 21
-56.741180419921875
 31
0.0
  0
LINE
  8
LY_1
  6
CONTINUOUS
 62
               3
  5
AF
 10
1.0
 20
-41.287887573242188
 30
0.0
 11
1.0
 21
-56.741180419921875
 31
0.0
  0
ARC
  8
LY_1
  6
CONTINUOUS
 62
               3
  5
B0
 10
0.0
 20
0.0
 30
0.0
 40
55.950000762939453
 50
91.024127898819046
 51
268.97585479833691
  0
ARC
  8
LY_1
  6
CONTINUOUS
 62
               3
  5
B1
 10
0.0
 20
0.0
 30
0.0
 40
55.950000762939453
 50
271.0241092294844
 51
88.975890770515619
  0
LINE
  8
LY_1
  6
CONTINUOUS
 62
               3
  5
B2
 10
1.0
 20
56.741191864013672
 30
0.0
 11
1.0
 21
41.287891387939453
 31
0.0
  0
LINE
  8
LY_1
  6
CONTINUOUS
 62
               3
  5
B3
 10
-1.0
 20
56.741191864013672
 30
0.0
 11
-1.0
 21
41.287891387939453
 31
0.0
  0
LINE
  8
LY_1
  6
CONTINUOUS
 62
               3
  5
B4
 10
347.0
 20
40.0
 30
0.0
 11
352.0
 21
40.0
 31
0.0
  0
LINE
  8
LY_1
  6
CONTINUOUS
 62
               3
  5
B5
 10
347.0
 20
46.0
 30
0.0
 11
352.0
 21
46.0
 31
0.0
  0
POLYLINE
  8
LY_1
  6
CONTINUOUS
 62
             110
  5
B6
 66
               1
 10
0.0
 20
0.0
 30
0.0
  0
VERTEX
  8
LY_1
  6
CONTINUOUS
 62
             110
  5
214
 10
313.5
 20
-99.5
 30
0.0
  0
VERTEX
  8
LY_1
  6
CONTINUOUS
 62
             110
  5
215
 10
320.0
 20
-110.0
 30
0.0
  0
VERTEX
  8
LY_1
  6
CONTINUOUS
 62
             110
  5
216
 10
343.03074193000793
 20
-110.0
 30
0.0
  0
SEQEND
  8
LY_1
  6
CONTINUOUS
 62
             110
  5
217
  0
INSERT
  8
LY_1
  6
CONTINUOUS
 62
             110
  5
B7
  2
_OPEN30
 10
313.5
 20
-99.5
 30
0.0
 41
2.77
 42
2.77
 50
121.75948008481281
 43
2.77
  0
TEXT
  8
LY_1
  6
CONTINUOUS
 62
             110
  5
B8
 10
324.20782523643641
 20
-107.69999980926514
 30
0.0
 40
5.1999998092651367
  1
モ－タ－
 41
0.7812499976119945
  7
MX_NOTE_STANDARD
 11
324.20782523643641
 21
-105.09999990463257
 31
0.0
 73
               2
  0
POLYLINE
  8
LY_1
  6
CONTINUOUS
 62
             110
  5
B9
 66
               1
 10
0.0
 20
0.0
 30
0.0
  0
VERTEX
  8
LY_1
  6
CONTINUOUS
 62
             110
  5
218
 10
240.2032129151961
 20
47.216281786393097
 30
0.0
  0
VERTEX
  8
LY_1
  6
CONTINUOUS
 62
             110
  5
219
 10
230.0
 20
70.0
 30
0.0
  0
VERTEX
  8
LY_1
  6
CONTINUOUS
 62
             110
  5
21A
 10
189.07934165000916
 20
70.0
 30
0.0
  0
SEQEND
  8
LY_1
  6
CONTINUOUS
 62
             110
  5
21B
  0
INSERT
  8
LY_1
  6
CONTINUOUS
 62
             110
  5
BA
  2
_OPEN30
 10
240.2032129151961
 20
47.216281786393097
 30
0.0
 41
2.77
 42
2.77
 50
294.12422585540691
 43
2.77
  0
TEXT
  8
LY_1
  6
CONTINUOUS
 62
             110
  5
BB
 10
189.75642495643763
 20
72.300000190734863
 30
0.0
 40
5.1999998092651367
  1
マイクロスイッチ
 41
0.7812499976119945
  7
MX_NOTE_STANDARD
 11
189.75642495643763
 21
74.900000095367432
 31
0.0
 73
               2
  0
TEXT
  8
LY_1
  6
CONTINUOUS
 62
             110
  5
BC
 10
247.20893554389477
 20
45.351611327379942
 30
0.0
 40
0.1000000014901161
  1
形ＳＳ－
 41
0.833333300219643
  7
MX_NOTE_STANDARD
 72
               1
 11
247.408935546875
 21
45.401611328125
 31
0.0
 73
               2
  0
CIRCLE
  8
LY_1
  6
CONTINUOUS
 62
               3
  5
BD
 10
17.641693115234375
 20
-42.590850830078125
 30
0.0
 40
4.25
  0
CIRCLE
  8
LY_1
  6
CONTINUOUS
 62
               3
  5
BE
 10
-17.641693115234375
 20
-42.590850830078125
 30
0.0
 40
4.25
  0
CIRCLE
  8
LY_1
  6
CONTINUOUS
 62
               3
  5
BF
 10
-42.590850830078125
 20
-17.641708374023438
 30
0.0
 40
4.25
  0
CIRCLE
  8
LY_1
  6
CONTINUOUS
 62
               3
  5
C0
 10
-42.590850830078125
 20
17.641708374023438
 30
0.0
 40
4.25
  0
CIRCLE
  8
LY_1
  6
CENTER
 62
             110
  5
C1
 10
0.0
 20
0.0
 30
0.0
 40
46.099998474121094
  0
CIRCLE
  8
LY_1
  6
CONTINUOUS
 62
               3
  5
C2
 10
17.641693115234375
 20
42.590843200683594
 30
0.0
 40
4.25
  0
CIRCLE
  8
LY_1
  6
CONTINUOUS
 62
               3
  5
C3
 10
-17.641693115234375
 20
42.590843200683594
 30
0.0
 40
4.25
  0
CIRCLE
  8
LY_1
  6
CONTINUOUS
 62
               3
  5
C4
 10
0.0
 20
0.0
 30
0.0
 40
56.75
  0
CIRCLE
  8
LY_1
  6
CENTER
 62
             110
  5
C5
 10
0.0
 20
0.0
 30
0.0
 40
30.0
  0
ARC
  8
LY_1
  6
CONTINUOUS
 62
               3
  5
C6
 10
453.96781921386719
 20
27.699996948242187
 30
0.0
 40
0.5
 50
270.00001798608935
 51
329.26218164046168
  0
ARC
  8
LY_1
  6
CONTINUOUS
 62
               3
  5
C7
 10
450.09999084472656
 20
30.0
 30
0.0
 40
5.0
 50
329.26218164046168
 51
30.737873001051703
  0
ARC
  8
LY_1
  6
CONTINUOUS
 62
               3
  5
C8
 10
453.96781921386719
 20
32.300003051757812
 30
0.0
 40
0.5
 50
30.737859340673364
 51
90.000022995045683
  0
ARC
  8
LY_1
  6
CONTINUOUS
 62
               3
  5
C9
 10
453.96781921386719
 20
48.699996948242188
 30
0.0
 40
0.5
 50
270.00001798608935
 51
329.26218164046168
  0
ARC
  8
LY_1
  6
CONTINUOUS
 62
               3
  5
CA
 10
450.09999084472656
 20
51.0
 30
0.0
 40
5.0
 50
329.26218164046168
 51
30.737873001051703
  0
ARC
  8
LY_1
  6
CONTINUOUS
 62
               3
  5
CB
 10
453.96781921386719
 20
53.300003051757812
 30
0.0
 40
0.5
 50
30.737859340673364
 51
90.000022995045683
  0
ARC
  8
LY_1
  6
CONTINUOUS
 62
               3
  5
CC
 10
333.99105072021484
 20
49.346595764160156
 30
0.0
 40
0.5
 50
359.99995901886496
 51
56.251006456880489
  0
CIRCLE
  8
LY_1
  6
CONTINUOUS
 62
               3
  5
CD
 10
0.071197509765625
 20
0.0001449584960938
 30
0.0
 40
38.599815368652344
  0
CIRCLE
  8
LY_1
  6
CONTINUOUS
 62
               3
  5
CE
 10
0.0
 20
0.0
 30
0.0
 40
31.900001525878906
  0
CIRCLE
  8
LY_1
  6
CONTINUOUS
 62
               3
  5
CF
 10
0.0
 20
0.0
 30
0.0
 40
41.300003051757813
  0
ARC
  8
LY_1
  6
CONTINUOUS
 62
               3
  5
D0
 10
0.0
 20
0.0
 30
0.0
 40
8.0
 50
71.805116215994559
 51
161.80514604122942
  0
ARC
  8
LY_1
  6
CONTINUOUS
 62
               3
  5
D1
 10
0.0
 20
0.0
 30
0.0
 40
8.0
 50
161.80515970160775
 51
288.19485965097226
  0
ARC
  8
LY_1
  6
CONTINUOUS
 62
               3
  5
D2
 10
-7.5
 20
0.0
 30
0.0
 40
2.5
 50
92.29237108428535
 51
267.70751599022225
  0
ARC
  8
LY_1
  6
CONTINUOUS
 62
               3
  5
D3
 10
0.0
 20
7.5
 30
0.0
 40
2.5
 50
2.2924405102368861
 51
177.70750665555491
  0
ARC
  8
LY_1
  6
CONTINUOUS
 62
               3
  5
D4
 10
7.5
 20
0.0
 30
0.0
 40
2.5
 50
272.29239339608569
 51
87.707551962400942
  0
ARC
  8
LY_1
  6
CONTINUOUS
 62
               3
  5
D5
 10
0.0
 20
0.0
 30
0.0
 40
8.0
 50
288.19488378400541
 51
341.80512566434743
  0
ARC
  8
LY_1
  6
CONTINUOUS
 62
               3
  5
D6
 10
0.0
 20
-7.5
 30
0.0
 40
2.5
 50
182.29242504255339
 51
357.70755948976313
  0
ARC
  8
LY_1
  6
CONTINUOUS
 62
               3
  5
D7
 10
0.0
 20
0.0
 30
0.0
 40
8.0
 50
341.80513932472576
 51
71.805123046183724
  0
ARC
  8
LY_1
  6
CONTINUOUS
 62
               3
  5
D8
 10
0.0
 20
0.0
 30
0.0
 40
7.0
 50
128.21321019359618
 51
51.786808475738496
  0
CIRCLE
  8
LY_1
  6
CONTINUOUS
 62
               3
  5
D9
 10
0.0
 20
0.0
 30
0.0
 40
15.0
  0
ARC
  8
LY_1
  6
CONTINUOUS
 62
               3
  5
DA
 10
8.304656982421875
 20
-9.7892837524414062
 30
0.0
 40
1.1749999523162842
 50
220.94221159322944
 51
312.57452344140853
  0
ARC
  8
LY_1
  6
CONTINUOUS
 62
               3
  5
DB
 10
-8.304656982421875
 20
-9.7892837524414062
 30
0.0
 40
1.1749999523162842
 50
227.42545447416222
 51
319.05776973743588
  0
ARC
  8
LY_1
  6
CONTINUOUS
 62
               3
  5
DC
 10
5.641937255859375
 20
-12.099212646484375
 30
0.0
 40
2.3499999046325684
 50
40.942257583320796
 51
178.33137613434388
  0
ARC
  8
LY_1
  6
CONTINUOUS
 62
               3
  5
DD
 10
-5.641937255859375
 20
-12.099212646484375
 30
0.0
 40
2.3499999046325684
 50
1.6686390131745044
 51
139.05776108601387
  0
CIRCLE
  8
LY_1
  6
CONTINUOUS
 62
               3
  5
DE
 10
5.641937255859375
 20
-12.099212646484375
 30
0.0
 40
1.0
  0
CIRCLE
  8
LY_1
  6
CONTINUOUS
 62
               3
  5
DF
 10
-5.641937255859375
 20
-12.099212646484375
 30
0.0
 40
1.0
  0
ARC
  8
LY_1
  6
CONTINUOUS
 62
               3
  5
E0
 10
0.0
 20
-0.75
 30
0.0
 40
13.449999809265137
 50
312.57453368669229
 51
227.42543717131821
  0
ARC
  8
LY_1
  6
CONTINUOUS
 62
               3
  5
E1
 10
250.00894165039063
 20
49.346595764160156
 30
0.0
 40
0.5
 50
123.74895757094082
 51
180.00000500895632
  0
ARC
  8
LY_1
  6
CONTINUOUS
 62
               3
  5
E2
 10
253.00894927978516
 20
49.346595764160156
 30
0.0
 40
0.5
 50
359.99998633962167
 51
56.251033777637176
  0
ARC
  8
LY_1
  6
CONTINUOUS
 62
               3
  5
E3
 10
251.50894927978516
 20
47.101600646972656
 30
0.0
 40
3.2000000476837158
 50
56.251033777637176
 51
123.74895757094082
  0
ARC
  8
LY_1
  6
CONTINUOUS
 62
               3
  5
E4
 10
240.0089111328125
 20
49.346591949462891
 30
0.0
 40
0.5
 50
123.74895757094082
 51
180.00000500895632
  0
ARC
  8
LY_1
  6
CONTINUOUS
 62
               3
  5
E5
 10
243.0089111328125
 20
49.346591949462891
 30
0.0
 40
0.5
 50
359.99998633962167
 51
56.251033777637176
  0
ARC
  8
LY_1
  6
CONTINUOUS
 62
               3
  5
E6
 10
241.5089111328125
 20
47.101600646972656
 30
0.0
 40
3.2000000476837158
 50
56.251033777637176
 51
123.74895757094082
  0
CIRCLE
  8
LY_1
  6
CONTINUOUS
 62
             110
  5
E7
 10
251.40894317626953
 20
45.401611328125
 30
0.0
 40
0.25
  0
CIRCLE
  8
LY_1
  6
DASHED
 62
             110
  5
E8
 10
246.5089111328125
 20
36.10162353515625
 30
0.0
 40
1.2000000476837158
  0
CIRCLE
  8
LY_1
  6
DASHED
 62
             110
  5
E9
 10
246.5089111328125
 20
36.10162353515625
 30
0.0
 40
1.5
  0
ARC
  8
LY_1
  6
CONTINUOUS
 62
               3
  5
EA
 10
330.99105072021484
 20
49.346595764160156
 30
0.0
 40
0.5
 50
123.74893025018415
 51
179.99997768819966
  0
ARC
  8
LY_1
  6
CONTINUOUS
 62
               3
  5
EB
 10
332.49105072021484
 20
47.101600646972656
 30
0.0
 40
3.2000000476837158
 50
56.251006456880489
 51
123.74893025018415
  0
ARC
  8
LY_1
  6
CONTINUOUS
 62
               3
  5
EC
 10
342.49108123779297
 20
47.101600646972656
 30
0.0
 40
3.2000000476837158
 50
64.924458778204581
 51
115.07555989113008
  0
ARC
  8
LY_1
  6
DASHED
 62
             110
  5
ED
 10
337.49108123779297
 20
36.10162353515625
 30
0.0
 40
1.2000000476837158
 50
114.15679699492583
 51
355.14199698960607
  0
ARC
  8
LY_1
  6
DASHED
 62
             110
  5
EE
 10
337.49108123779297
 20
36.10162353515625
 30
0.0
 40
1.5
 50
109.11029806628356
 51
356.11527162557621
  0
CIRCLE
  8
LY_1
  6
CONTINUOUS
 62
               3
  5
EF
 10
369.5
 20
37.0
 30
0.0
 40
2.7999999523162842
  0
ARC
  8
LY_1
  6
CONTINUOUS
 62
               3
  5
F0
 10
370.30955505371094
 20
37.809547424316406
 30
0.0
 40
0.622045636177063
 50
179.99997768819966
 51
270.00002800400199
  0
ARC
  8
LY_1
  6
CONTINUOUS
 62
               3
  5
F1
 10
370.30955505371094
 20
36.190452575683594
 30
0.0
 40
0.622045636177063
 50
89.999982013910653
 51
179.99996402782131
  0
ARC
  8
LY_1
  6
CONTINUOUS
 62
               3
  5
F2
 10
368.69044494628906
 20
36.190452575683594
 30
0.0
 40
0.622045636177063
 50
0.0
 51
89.999982013910653
  0
ARC
  8
LY_1
  6
CONTINUOUS
 62
               3
  5
F3
 10
368.69044494628906
 20
37.809547424316406
 30
0.0
 40
0.622045636177063
 50
270.00001798608935
 51
0.0
  0
CIRCLE
  8
LY_1
  6
CONTINUOUS
 62
               3
  5
F4
 10
369.5
 20
49.0
 30
0.0
 40
2.7999999523162842
  0
ARC
  8
LY_1
  6
CONTINUOUS
 62
               3
  5
F5
 10
370.30955505371094
 20
49.809547424316406
 30
0.0
 40
0.622045636177063
 50
179.99997768819966
 51
270.00002800400199
  0
ARC
  8
LY_1
  6
CONTINUOUS
 62
               3
  5
F6
 10
370.30955505371094
 20
48.190452575683594
 30
0.0
 40
0.622045636177063
 50
89.999982013910653
 51
179.99996402782131
  0
ARC
  8
LY_1
  6
CONTINUOUS
 62
               3
  5
F7
 10
368.69044494628906
 20
48.190452575683594
 30
0.0
 40
0.622045636177063
 50
0.0
 51
89.999982013910653
  0
ARC
  8
LY_1
  6
CONTINUOUS
 62
               3
  5
F8
 10
368.69044494628906
 20
49.809547424316406
 30
0.0
 40
0.622045636177063
 50
270.00001798608935
 51
0.0
  0
ARC
  8
LY_1
  6
CONTINUOUS
 62
               3
  5
F9
 10
394.5
 20
-101.5
 30
0.0
 40
1.5
 50
179.99998133066532
 51
269.99996334457597
  0
ARC
  8
LY_1
  6
CONTINUOUS
 62
               3
  5
FA
 10
402.5
 20
-101.5
 30
0.0
 40
1.5
 50
269.99996334457597
 51
359.99994535848663
  0
ARC
  8
LY_1
  6
CONTINUOUS
 62
               3
  5
FB
 10
402.5
 20
59.5
 30
0.0
 40
1.5
 50
0.0
 51
89.999982013910653
  0
ARC
  8
LY_1
  6
CONTINUOUS
 62
               3
  5
FC
 10
394.5
 20
59.5
 30
0.0
 40
1.5
 50
89.999982013910653
 51
179.99996402782131
  0
LINE
  8
LY_1
  6
CENTER
 62
             110
  5
FD
 10
14.867844611595501
 20
-35.892509761961264
 30
0.0
 11
20.416765210251015
 21
-49.288782854571309
 31
0.0
  0
LINE
  8
LY_1
  6
CENTER
 62
             110
  5
FE
 10
-14.866813162360813
 20
-35.892948335463188
 30
0.0
 11
-20.415736680660302
 21
-49.289228476714015
 31
0.0
  0
LINE
  8
LY_1
  6
CENTER
 62
             110
  5
FF
 10
-35.892760330674719
 20
-14.867175809704349
 30
0.0
 11
-49.289016598699163
 21
-20.416079006754444
 31
0.0
  0
LINE
  8
LY_1
  6
CENTER
 62
             110
  5
100
 10
-35.892585023253559
 20
14.867665104091429
 30
0.0
 11
-49.288843019812703
 21
20.416563979804778
 31
0.0
  0
LINE
  8
LY_1
  6
CENTER
 62
             110
  5
101
 10
14.867723717045237
 20
35.89250151115175
 30
0.0
 11
20.416639235386128
 21
49.288768419389271
 31
0.0
  0
LINE
  8
LY_1
  6
CENTER
 62
             110
  5
102
 10
-14.866758432939605
 20
35.892899325490362
 30
0.0
 11
-20.415681951239094
 21
49.289179466741189
 31
0.0
  0
LINE
  8
LY_1
  6
CONTINUOUS
 62
               3
  5
103
 10
167.5
 20
-35.0
 30
0.0
 11
175.0
 21
-35.0
 31
0.0
  0
LINE
  8
LY_1
  6
CENTER
 62
             110
  5
104
 10
157.62480163574219
 20
-30.0
 30
0.0
 11
178.21372985839844
 21
-30.0
 31
0.0
  0
LINE
  8
LY_1
  6
CONTINUOUS
 62
               3
  5
105
 10
174.99999835936433
 20
-34.99999908680752
 30
0.0
 11
175.49999889015908
 21
-34.499998513865876
 31
0.0
  0
LINE
  8
LY_1
  6
CONTINUOUS
 62
               3
  5
106
 10
175.00000476568584
 20
35.000006187920462
 30
0.0
 11
175.49999990168408
 21
34.50001100977579
 31
0.0
  0
LINE
  8
LY_1
  6
CONTINUOUS
 62
               3
  5
107
 10
167.5
 20
35.0
 30
0.0
 11
175.0
 21
35.0
 31
0.0
  0
LINE
  8
LY_1
  6
CENTER
 62
             110
  5
108
 10
156.23591613769531
 20
30.0
 30
0.0
 11
178.21372985839844
 21
30.0
 31
0.0
  0
LINE
  8
LY_1
  6
CONTINUOUS
 62
               3
  5
109
 10
175.5
 20
-34.5
 30
0.0
 11
175.5
 21
34.5
 31
0.0
  0
LINE
  8
LY_1
  6
CONTINUOUS
 62
               3
  5
10A
 10
223.55889892578125
 20
-24.0
 30
0.0
 11
381.0
 21
-24.0
 31
0.0
  0
LINE
  8
LY_1
  6
CONTINUOUS
 62
               3
  5
10B
 10
223.55889892578125
 20
24.0
 30
0.0
 11
380.99993133544922
 21
24.0
 31
0.0
  0
LINE
  8
LY_1
  6
CONTINUOUS
 62
               3
  5
10C
 10
452.69999694824219
 20
27.050003051757813
 30
0.0
 11
452.69999694824219
 21
32.949996948242188
 31
0.0
  0
LINE
  8
LY_1
  6
CONTINUOUS
 62
               3
  5
10D
 10
453.96781921386719
 20
27.199996948242187
 30
0.0
 11
452.69999694824219
 21
27.199996948242187
 31
0.0
  0
LINE
  8
LY_1
  6
CONTINUOUS
 62
               3
  5
10E
 10
453.96781921386719
 20
32.800003051757813
 30
0.0
 11
452.69999694824219
 21
32.800003051757813
 31
0.0
  0
LINE
  8
LY_1
  6
CONTINUOUS
 62
               3
  5
10F
 10
452.69999694824219
 20
27.050003051757813
 30
0.0
 11
452.0
 21
27.050003051757813
 31
0.0
  0
LINE
  8
LY_1
  6
CONTINUOUS
 62
               3
  5
110
 10
452.69999694824219
 20
32.949996948242188
 30
0.0
 11
452.0
 21
32.949996948242188
 31
0.0
  0
LINE
  8
LY_1
  6
CONTINUOUS
 62
               3
  5
111
 10
452.69999694824219
 20
48.050003051757813
 30
0.0
 11
452.69999694824219
 21
53.949996948242188
 31
0.0
  0
LINE
  8
LY_1
  6
CONTINUOUS
 62
               3
  5
112
 10
453.96781921386719
 20
48.199996948242187
 30
0.0
 11
452.69999694824219
 21
48.199996948242187
 31
0.0
  0
LINE
  8
LY_1
  6
CONTINUOUS
 62
               3
  5
113
 10
453.96781921386719
 20
53.800003051757813
 30
0.0
 11
452.69999694824219
 21
53.800003051757813
 31
0.0
  0
LINE
  8
LY_1
  6
CONTINUOUS
 62
               3
  5
114
 10
452.69999694824219
 20
48.050003051757813
 30
0.0
 11
452.0
 21
48.050003051757813
 31
0.0
  0
LINE
  8
LY_1
  6
CONTINUOUS
 62
               3
  5
115
 10
452.69999694824219
 20
53.949996948242188
 30
0.0
 11
452.0
 21
53.949996948242188
 31
0.0
  0
LINE
  8
LY_1
  6
CENTER
 62
             110
  5
116
 10
449.56130981445312
 20
30.0
 30
0.0
 11
455.86203002929687
 21
30.0
 31
0.0
  0
LINE
  8
LY_1
  6
CENTER
 62
             110
  5
117
 10
449.41305541992187
 20
51.0
 30
0.0
 11
455.9361572265625
 21
51.0
 31
0.0
  0
LINE
  8
LY_1
  6
CONTINUOUS
 62
               3
  5
118
 10
452.0
 20
58.0
 30
0.0
 11
452.0
 21
23.0
 31
0.0
  0
LINE
  8
LY_1
  6
CONTINUOUS
 62
               3
  5
119
 10
223.55889892578125
 20
33.0
 30
0.0
 11
236.5089111328125
 21
33.0
 31
0.0
  0
LINE
  8
LY_1
  6
CONTINUOUS
 62
               3
  5
11A
 10
223.55889892578125
 20
39.0
 30
0.0
 11
236.5089111328125
 21
39.0
 31
0.0
  0
LINE
  8
LY_1
  6
CONTINUOUS
 62
               3
  5
11B
 10
215.55889892578125
 20
43.826801300048828
 30
0.0
 11
223.55889892578125
 21
43.826801300048828
 31
0.0
  0
LINE
  8
LY_1
  6
CONTINUOUS
 62
               3
  5
11C
 10
215.55889892578125
 20
-29.0
 30
0.0
 11
223.55889892578125
 21
-29.0
 31
0.0
  0
LINE
  8
LY_1
  6
CONTINUOUS
 62
               3
  5
11D
 10
223.55889892578125
 20
43.826801300048828
 30
0.0
 11
223.55889892578125
 21
-29.0
 31
0.0
  0
LINE
  8
LY_1
  6
CONTINUOUS
 62
               3
  5
11E
 10
215.55889892578125
 20
43.826801300048828
 30
0.0
 11
215.55889892578125
 21
-29.0
 31
0.0
  0
LINE
  8
LY_1
  6
CONTINUOUS
 62
               3
  5
11F
 10
385.5
 20
47.200000762939453
 30
0.0
 11
386.5
 21
47.200000762939453
 31
0.0
  0
LINE
  8
LY_1
  6
CONTINUOUS
 62
               3
  5
120
 10
385.5
 20
52.799999237060547
 30
0.0
 11
385.5
 21
47.200000762939453
 31
0.0
  0
LINE
  8
LY_1
  6
CONTINUOUS
 62
               3
  5
121
 10
385.5
 20
38.799999237060547
 30
0.0
 11
386.5
 21
38.799999237060547
 31
0.0
  0
LINE
  8
LY_1
  6
CONTINUOUS
 62
               3
  5
122
 10
385.5
 20
33.199996948242187
 30
0.0
 11
386.5
 21
33.199996948242187
 31
0.0
  0
LINE
  8
LY_1
  6
CONTINUOUS
 62
               3
  5
123
 10
385.5
 20
38.799999237060547
 30
0.0
 11
385.5
 21
33.199996948242187
 31
0.0
  0
LINE
  8
LY_1
  6
CONTINUOUS
 62
               3
  5
124
 10
382.50002958977814
 20
52.403658138981768
 30
0.0
 11
382.70002647841659
 21
52.750063056161594
 31
0.0
  0
LINE
  8
LY_1
  6
CONTINUOUS
 62
               3
  5
125
 10
382.49984066697868
 20
47.596325803360514
 30
0.0
 11
382.69984593604511
 21
47.249908124685817
 31
0.0
  0
LINE
  8
LY_1
  6
CONTINUOUS
 62
               3
  5
126
 10
382.69999694824219
 20
47.25
 30
0.0
 11
382.69999694824219
 21
52.75
 31
0.0
  0
LINE
  8
LY_1
  6
CONTINUOUS
 62
               3
  5
127
 10
382.69999694824219
 20
52.75
 30
0.0
 11
385.5
 21
52.75
 31
0.0
  0
LINE
  8
LY_1
  6
CONTINUOUS
 62
               3
  5
128
 10
382.69999694824219
 20
47.25
 30
0.0
 11
385.5
 21
47.25
 31
0.0
  0
LINE
  8
LY_1
  6
CONTINUOUS
 62
               3
  5
129
 10
382.5
 20
47.596408843994141
 30
0.0
 11
382.5
 21
52.403587341308594
 31
0.0
  0
LINE
  8
LY_1
  6
CONTINUOUS
 62
               3
  5
12A
 10
382.50002289084193
 20
38.403621847874888
 30
0.0
 11
382.70002314117949
 21
38.750033634566421
 31
0.0
  0
LINE
  8
LY_1
  6
CONTINUOUS
 62
               3
  5
12B
 10
382.49985918942116
 20
33.596327609843684
 30
0.0
 11
382.69986445848758
 21
33.249909931168986
 31
0.0
  0
LINE
  8
LY_1
  6
CONTINUOUS
 62
               3
  5
12C
 10
382.69999694824219
 20
33.25
 30
0.0
 11
382.69999694824219
 21
38.75
 31
0.0
  0
LINE
  8
LY_1
  6
CONTINUOUS
 62
               3
  5
12D
 10
382.69999694824219
 20
38.75
 30
0.0
 11
385.5
 21
38.75
 31
0.0
  0
LINE
  8
LY_1
  6
CONTINUOUS
 62
               3
  5
12E
 10
382.69999694824219
 20
33.25
 30
0.0
 11
385.5
 21
33.25
 31
0.0
  0
LINE
  8
LY_1
  6
CONTINUOUS
 62
               3
  5
12F
 10
382.5
 20
33.596405029296875
 30
0.0
 11
382.5
 21
38.403591156005859
 31
0.0
  0
LINE
  8
LY_1
  6
CONTINUOUS
 62
               3
  5
130
 10
385.5
 20
52.799999237060547
 30
0.0
 11
386.5
 21
52.799999237060547
 31
0.0
  0
LINE
  8
LY_1
  6
CONTINUOUS
 62
               3
  5
131
 10
337.0
 20
50.0
 30
0.0
 11
347.0
 21
50.0
 31
0.0
  0
LINE
  8
LY_1
  6
CONTINUOUS
 62
               3
  5
132
 10
337.0
 20
36.0
 30
0.0
 11
344.0
 21
36.0
 31
0.0
  0
LINE
  8
LY_1
  6
CONTINUOUS
 62
               3
  5
133
 10
337.0
 20
36.0
 30
0.0
 11
337.0
 21
50.0
 31
0.0
  0
LINE
  8
LY_1
  6
CONTINUOUS
 62
               3
  5
134
 10
347.0
 20
24.0
 30
0.0
 11
347.0
 21
50.0
 31
0.0
  0
LINE
  8
LY_1
  6
CONTINUOUS
 62
               3
  5
135
 10
344.0
 20
36.0
 30
0.0
 11
344.0
 21
24.0
 31
0.0
  0
LINE
  8
LY_1
  6
CONTINUOUS
 62
               3
  5
136
 10
101.0
 20
5.0
 30
0.0
 11
101.0
 21
-7.0
 31
0.0
  0
LINE
  8
LY_1
  6
CONTINUOUS
 62
               3
  5
137
 10
100.00009756922736
 20
-5.9999197053966782
 30
0.0
 11
101.00009863081686
 21
-6.9999207669861789
 31
0.0
  0
LINE
  8
LY_1
  6
CONTINUOUS
 62
               3
  5
138
 10
495.0
 20
58.0
 30
0.0
 11
495.0
 21
23.0
 31
0.0
  0
LINE
  8
LY_1
  6
CENTER
 62
             110
  5
139
 10
337.49108123779297
 20
36.0
 30
0.0
 11
337.49108123779297
 21
33.60162353515625
 31
0.0
  0
LINE
  8
LY_1
  6
CONTINUOUS
 62
               3
  5
13A
 10
380.99990933384925
 20
-23.999944546276993
 30
0.0
 11
381.49991176125422
 21
-23.499945912092471
 31
0.0
  0
LINE
  8
LY_1
  6
CONTINUOUS
 62
               3
  5
13B
 10
380.99994608503971
 20
23.999958053316732
 30
0.0
 11
381.49994758521302
 21
23.499958449753649
 31
0.0
  0
LINE
  8
LY_1
  6
CENTER
 62
             110
  5
13C
 10
398.5
 20
62.0
 30
0.0
 11
398.5
 21
57.556846618652344
 31
0.0
  0
LINE
  8
LY_1
  6
CONTINUOUS
 62
               3
  5
13D
 10
344.04399871826172
 20
29.60162353515625
 30
0.0
 11
327.49106597900391
 21
29.60162353515625
 31
0.0
  0
LINE
  8
LY_1
  6
CONTINUOUS
 62
               3
  5
13E
 10
334.49105072021484
 20
49.346595764160156
 30
0.0
 11
334.49105072021484
 21
48.70159912109375
 31
0.0
  0
LINE
  8
LY_1
  6
CONTINUOUS
 62
               3
  5
13F
 10
347.49108123779297
 20
33.0
 30
0.0
 11
352.0
 21
33.0
 31
0.0
  0
LINE
  8
LY_1
  6
CONTINUOUS
 62
               3
  5
140
 10
3.2926483522358012
 20
-12.030909890223029
 30
0.0
 11
4.3732928346728386
 21
-14.348358849240412
 31
0.0
  0
LINE
  8
LY_1
  6
CONTINUOUS
 62
               3
  5
141
 10
-4.3738456444712028
 20
-14.348057781136049
 30
0.0
 11
-3.2932076106785644
 21
-12.030622651277554
 31
0.0
  0
LINE
  8
LY_1
  6
CENTER
 62
             110
  5
142
 10
-64.854644775390625
 20
0.0
 30
0.0
 11
64.510190996498324
 21
0.0
 31
0.0
  0
LINE
  8
LY_1
  6
CENTER
 62
             110
  5
143
 10
0.0
 20
61.998275756835937
 30
0.0
 11
0.0
 21
-58.75
 31
0.0
  0
LINE
  8
LY_1
  6
CONTINUOUS
 62
               3
  5
144
 10
-4.330108642578125
 20
5.5
 30
0.0
 11
4.330108642578125
 21
5.5
 31
0.0
  0
LINE
  8
LY_1
  6
CONTINUOUS
 62
               3
  5
145
 10
100.0
 20
5.0
 30
0.0
 11
135.0
 21
5.0
 31
0.0
  0
LINE
  8
LY_1
  6
CONTINUOUS
 62
               3
  5
146
 10
256.50893402099609
 20
39.0
 30
0.0
 11
327.49106597900391
 21
39.0
 31
0.0
  0
LINE
  8
LY_1
  6
CONTINUOUS
 62
               3
  5
147
 10
256.50893402099609
 20
33.0
 30
0.0
 11
327.49106597900391
 21
33.0
 31
0.0
  0
LINE
  8
LY_1
  6
CONTINUOUS
 62
               3
  5
148
 10
253.50894927978516
 20
49.346595764160156
 30
0.0
 11
253.50894927978516
 21
48.70159912109375
 31
0.0
  0
LINE
  8
LY_1
  6
CONTINUOUS
 62
               3
  5
149
 10
249.50894165039062
 20
49.346595764160156
 30
0.0
 11
249.50894165039062
 21
48.70159912109375
 31
0.0
  0
LINE
  8
LY_1
  6
CONTINUOUS
 62
               3
  5
14A
 10
243.5089111328125
 20
49.346595764160156
 30
0.0
 11
243.5089111328125
 21
48.70159912109375
 31
0.0
  0
LINE
  8
LY_1
  6
CONTINUOUS
 62
               3
  5
14B
 10
239.5089111328125
 20
49.346595764160156
 30
0.0
 11
239.5089111328125
 21
48.70159912109375
 31
0.0
  0
LINE
  8
LY_1
  6
CENTER
 62
             110
  5
14C
 10
246.5089111328125
 20
38.648937225341797
 30
0.0
 11
246.5089111328125
 21
33.60162353515625
 31
0.0
  0
LINE
  8
LY_1
  6
CONTINUOUS
 62
               3
  5
14D
 10
251.36450430709294
 20
48.201591856118739
 30
0.0
 11
251.07583477252945
 21
48.701582271423376
 31
0.0
  0
LINE
  8
LY_1
  6
CONTINUOUS
 62
               3
  5
14E
 10
251.9417469418288
 20
48.201497721292981
 30
0.0
 11
251.653076483223
 21
48.701496430062434
 31
0.0
  0
LINE
  8
LY_1
  6
CONTINUOUS
 62
               3
  5
14F
 10
253.70893096923828
 20
48.70159912109375
 30
0.0
 11
253.70893096923828
 21
48.20159912109375
 31
0.0
  0
LINE
  8
LY_1
  6
CONTINUOUS
 62
               3
  5
150
 10
249.30892944335937
 20
48.70159912109375
 30
0.0
 11
249.30892944335937
 21
48.20159912109375
 31
0.0
  0
LINE
  8
LY_1
  6
DASHED
 62
               3
  5
151
 10
252.55893707275391
 20
48.70159912109375
 30
0.0
 11
252.55893707275391
 21
48.20159912109375
 31
0.0
  0
LINE
  8
LY_1
  6
DASHED
 62
               3
  5
152
 10
250.45892333984375
 20
48.70159912109375
 30
0.0
 11
250.45892333984375
 21
48.20159912109375
 31
0.0
  0
LINE
  8
LY_1
  6
CONTINUOUS
 62
               3
  5
153
 10
249.30892944335937
 20
48.70159912109375
 30
0.0
 11
253.70893096923828
 21
48.70159912109375
 31
0.0
  0
LINE
  8
LY_1
  6
CONTINUOUS
 62
               3
  5
154
 10
241.36449669298167
 20
48.201582011179767
 30
0.0
 11
241.07581578315535
 21
48.701592282647312
 31
0.0
  0
LINE
  8
LY_1
  6
CONTINUOUS
 62
               3
  5
155
 10
241.94184501410973
 20
48.201572293115987
 30
0.0
 11
241.65316529154779
 21
48.701583252852743
 31
0.0
  0
LINE
  8
LY_1
  6
CONTINUOUS
 62
               3
  5
156
 10
243.70892333984375
 20
48.70159912109375
 30
0.0
 11
243.70892333984375
 21
48.20159912109375
 31
0.0
  0
LINE
  8
LY_1
  6
CONTINUOUS
 62
               3
  5
157
 10
239.30892944335937
 20
48.70159912109375
 30
0.0
 11
239.30892944335937
 21
48.20159912109375
 31
0.0
  0
LINE
  8
LY_1
  6
DASHED
 62
               3
  5
158
 10
242.55892944335937
 20
48.70159912109375
 30
0.0
 11
242.55892944335937
 21
48.20159912109375
 31
0.0
  0
LINE
  8
LY_1
  6
DASHED
 62
               3
  5
159
 10
240.45892333984375
 20
48.70159912109375
 30
0.0
 11
240.45892333984375
 21
48.20159912109375
 31
0.0
  0
LINE
  8
LY_1
  6
CONTINUOUS
 62
               3
  5
15A
 10
239.30892944335937
 20
48.70159912109375
 30
0.0
 11
243.70892333984375
 21
48.70159912109375
 31
0.0
  0
LINE
  8
LY_1
  6
CENTER
 62
             110
  5
15B
 10
236.908935546875
 20
42.401611328125
 30
0.0
 11
236.908935546875
 21
48.401611328125
 31
0.0
  0
LINE
  8
LY_1
  6
CONTINUOUS
 62
               3
  5
15C
 10
238.10891723632812
 20
43.20159912109375
 30
0.0
 11
238.10891723632812
 21
43.501617431640625
 31
0.0
  0
LINE
  8
LY_1
  6
CONTINUOUS
 62
               3
  5
15D
 10
238.10891723632812
 20
43.20159912109375
 30
0.0
 11
235.70892333984375
 21
43.20159912109375
 31
0.0
  0
LINE
  8
LY_1
  6
CONTINUOUS
 62
               3
  5
15E
 10
235.70892333984375
 20
43.20159912109375
 30
0.0
 11
235.70892333984375
 21
43.501617431640625
 31
0.0
  0
LINE
  8
LY_1
  6
CONTINUOUS
 62
               3
  5
15F
 10
235.70892333984375
 20
47.301605224609375
 30
0.0
 11
235.70892333984375
 21
47.60162353515625
 31
0.0
  0
LINE
  8
LY_1
  6
CONTINUOUS
 62
               3
  5
160
 10
238.10891723632812
 20
47.301605224609375
 30
0.0
 11
238.10891723632812
 21
47.60162353515625
 31
0.0
  0
LINE
  8
LY_1
  6
CONTINUOUS
 62
               3
  5
161
 10
238.10891723632812
 20
47.60162353515625
 30
0.0
 11
235.70892333984375
 21
47.60162353515625
 31
0.0
  0
LINE
  8
LY_1
  6
CONTINUOUS
 62
               3
  5
162
 10
238.70892333984375
 20
47.001617431640625
 30
0.0
 11
238.70892333984375
 21
47.301605224609375
 31
0.0
  0
LINE
  8
LY_1
  6
CONTINUOUS
 62
               3
  5
163
 10
235.10891723632812
 20
47.301605224609375
 30
0.0
 11
235.10891723632812
 21
47.001617431640625
 31
0.0
  0
LINE
  8
LY_1
  6
CONTINUOUS
 62
               3
  5
164
 10
238.80892944335937
 20
47.001617431640625
 30
0.0
 11
235.00894165039062
 21
47.001617431640625
 31
0.0
  0
LINE
  8
LY_1
  6
CONTINUOUS
 62
               3
  5
165
 10
234.50872704075209
 20
46.501887195998961
 30
0.0
 11
235.00872710793101
 21
47.001888232556439
 31
0.0
  0
LINE
  8
LY_1
  6
CONTINUOUS
 62
               3
  5
166
 10
234.5089111328125
 20
44.301605224609375
 30
0.0
 11
234.5089111328125
 21
46.501617431640625
 31
0.0
  0
LINE
  8
LY_1
  6
CONTINUOUS
 62
               3
  5
167
 10
235.00860821320794
 20
43.801275779662774
 30
0.0
 11
234.50860768241319
 21
44.301276310457524
 31
0.0
  0
LINE
  8
LY_1
  6
CONTINUOUS
 62
               3
  5
168
 10
235.10891723632812
 20
43.801605224609375
 30
0.0
 11
235.10891723632812
 21
43.501617431640625
 31
0.0
  0
LINE
  8
LY_1
  6
CONTINUOUS
 62
               3
  5
169
 10
238.70892333984375
 20
43.801605224609375
 30
0.0
 11
238.70892333984375
 21
43.501617431640625
 31
0.0
  0
LINE
  8
LY_1
  6
CONTINUOUS
 62
               3
  5
16A
 10
238.80892944335937
 20
43.801605224609375
 30
0.0
 11
235.0089111328125
 21
43.801605224609375
 31
0.0
  0
LINE
  8
LY_1
  6
CONTINUOUS
 62
               3
  5
16B
 10
239.30901703433301
 20
44.301507086792753
 30
0.0
 11
238.8090294425765
 21
43.801515196145829
 31
0.0
  0
LINE
  8
LY_1
  6
CONTINUOUS
 62
               3
  5
16C
 10
239.30892944335937
 20
44.301605224609375
 30
0.0
 11
239.30892944335937
 21
46.501617431640625
 31
0.0
  0
LINE
  8
LY_1
  6
CONTINUOUS
 62
               3
  5
16D
 10
239.30880916257047
 20
46.501498922684732
 30
0.0
 11
238.80882182368987
 21
47.001491066207564
 31
0.0
  0
LINE
  8
LY_1
  6
CONTINUOUS
 62
               3
  5
16E
 10
246.70892333984375
 20
47.301605224609375
 30
0.0
 11
246.70892333984375
 21
48.20159912109375
 31
0.0
  0
LINE
  8
LY_1
  6
CONTINUOUS
 62
               3
  5
16F
 10
247.408935546875
 20
47.301605224609375
 30
0.0
 11
247.408935546875
 21
48.20159912109375
 31
0.0
  0
LINE
  8
LY_1
  6
CONTINUOUS
 62
               3
  5
170
 10
236.70892333984375
 20
47.60162353515625
 30
0.0
 11
236.70892333984375
 21
48.20159912109375
 31
0.0
  0
LINE
  8
LY_1
  6
CONTINUOUS
 62
               3
  5
171
 10
253.80121612548828
 20
47.301605224609375
 30
0.0
 11
253.80121612548828
 21
43.501617431640625
 31
0.0
  0
LINE
  8
LY_1
  6
CONTINUOUS
 62
               3
  5
172
 10
253.80121612548828
 20
47.301605224609375
 30
0.0
 11
235.10891723632812
 21
47.301605224609375
 31
0.0
  0
LINE
  8
LY_1
  6
CONTINUOUS
 62
               3
  5
173
 10
253.80121612548828
 20
43.501617431640625
 30
0.0
 11
235.10891723632812
 21
43.501617431640625
 31
0.0
  0
LINE
  8
LY_1
  6
CONTINUOUS
 62
               3
  5
174
 10
246.70892333984375
 20
42.60162353515625
 30
0.0
 11
246.70892333984375
 21
43.501617431640625
 31
0.0
  0
LINE
  8
LY_1
  6
CONTINUOUS
 62
               3
  5
175
 10
247.408935546875
 20
42.60162353515625
 30
0.0
 11
247.408935546875
 21
43.501617431640625
 31
0.0
  0
LINE
  8
LY_1
  6
CONTINUOUS
 62
               3
  5
176
 10
256.50893402099609
 20
48.20159912109375
 30
0.0
 11
256.50893402099609
 21
42.60162353515625
 31
0.0
  0
LINE
  8
LY_1
  6
CONTINUOUS
 62
               3
  5
177
 10
236.70892333984375
 20
42.60162353515625
 30
0.0
 11
236.70892333984375
 21
43.20159912109375
 31
0.0
  0
LINE
  8
LY_1
  6
CONTINUOUS
 62
               3
  5
178
 10
256.50893402099609
 20
48.20159912109375
 30
0.0
 11
236.70892333984375
 21
48.20159912109375
 31
0.0
  0
LINE
  8
LY_1
  6
CENTER
 62
             110
  5
179
 10
251.50894927978516
 20
51.004005432128906
 30
0.0
 11
251.50894927978516
 21
46.639442443847656
 31
0.0
  0
LINE
  8
LY_1
  6
CENTER
 62
             110
  5
17A
 10
241.5089111328125
 20
51.004005432128906
 30
0.0
 11
241.5089111328125
 21
46.706588745117187
 31
0.0
  0
LINE
  8
LY_1
  6
CONTINUOUS
 62
               3
  5
17B
 10
236.5089111328125
 20
29.60162353515625
 30
0.0
 11
256.50893402099609
 21
29.60162353515625
 31
0.0
  0
LINE
  8
LY_1
  6
CONTINUOUS
 62
               3
  5
17C
 10
236.5089111328125
 20
42.60162353515625
 30
0.0
 11
256.50893402099609
 21
42.60162353515625
 31
0.0
  0
LINE
  8
LY_1
  6
CONTINUOUS
 62
               3
  5
17D
 10
256.50893402099609
 20
42.60162353515625
 30
0.0
 11
256.50893402099609
 21
29.60162353515625
 31
0.0
  0
LINE
  8
LY_1
  6
CONTINUOUS
 62
               3
  5
17E
 10
236.5089111328125
 20
42.60162353515625
 30
0.0
 11
236.5089111328125
 21
29.60162353515625
 31
0.0
  0
LINE
  8
LY_1
  6
CONTINUOUS
 62
               3
  5
17F
 10
347.49108123779297
 20
29.60162353515625
 30
0.0
 11
347.04399871826172
 21
29.60162353515625
 31
0.0
  0
LINE
  8
LY_1
  6
CENTER
 62
             110
  5
180
 10
342.44708251953125
 20
36.0
 30
0.0
 11
352.0
 21
36.0
 31
0.0
  0
LINE
  8
LY_1
  6
CONTINUOUS
 62
               3
  5
181
 10
330.49105072021484
 20
49.346595764160156
 30
0.0
 11
330.49105072021484
 21
48.70159912109375
 31
0.0
  0
LINE
  8
LY_1
  6
CONTINUOUS
 62
               3
  5
182
 10
332.63552802086315
 20
48.201569173002241
 30
0.0
 11
332.92420137012323
 21
48.701566195556694
 31
0.0
  0
LINE
  8
LY_1
  6
CONTINUOUS
 62
               3
  5
183
 10
332.05820008397967
 20
48.201541688146222
 30
0.0
 11
332.34688293556752
 21
48.701555263238902
 31
0.0
  0
LINE
  8
LY_1
  6
CONTINUOUS
 62
               3
  5
184
 10
330.29106903076172
 20
48.70159912109375
 30
0.0
 11
330.29106903076172
 21
48.20159912109375
 31
0.0
  0
LINE
  8
LY_1
  6
CONTINUOUS
 62
               3
  5
185
 10
334.69106292724609
 20
48.70159912109375
 30
0.0
 11
334.69106292724609
 21
48.20159912109375
 31
0.0
  0
LINE
  8
LY_1
  6
DASHED
 62
               3
  5
186
 10
331.44106292724609
 20
48.70159912109375
 30
0.0
 11
331.44106292724609
 21
48.20159912109375
 31
0.0
  0
LINE
  8
LY_1
  6
DASHED
 62
               3
  5
187
 10
333.54106903076172
 20
48.70159912109375
 30
0.0
 11
333.54106903076172
 21
48.20159912109375
 31
0.0
  0
LINE
  8
LY_1
  6
CONTINUOUS
 62
               3
  5
188
 10
334.69106292724609
 20
48.70159912109375
 30
0.0
 11
330.29106903076172
 21
48.70159912109375
 31
0.0
  0
LINE
  8
LY_1
  6
CONTINUOUS
 62
               3
  5
189
 10
336.59105682373047
 20
47.301605224609375
 30
0.0
 11
336.59105682373047
 21
48.20159912109375
 31
0.0
  0
LINE
  8
LY_1
  6
CONTINUOUS
 62
               3
  5
18A
 10
330.19878387451172
 20
47.301605224609375
 30
0.0
 11
330.19878387451172
 21
46.0
 31
0.0
  0
LINE
  8
LY_1
  6
CONTINUOUS
 62
               3
  5
18B
 10
330.19878387451172
 20
47.301605224609375
 30
0.0
 11
337.04399871826172
 21
47.301605224609375
 31
0.0
  0
LINE
  8
LY_1
  6
CONTINUOUS
 62
               3
  5
18C
 10
327.49106597900391
 20
48.20159912109375
 30
0.0
 11
327.49106597900391
 21
45.491006851196289
 31
0.0
  0
LINE
  8
LY_1
  6
CONTINUOUS
 62
               3
  5
18D
 10
327.49106597900391
 20
48.20159912109375
 30
0.0
 11
337.04399871826172
 21
48.20159912109375
 31
0.0
  0
LINE
  8
LY_1
  6
CENTER
 62
             110
  5
18E
 10
332.49105072021484
 20
51.004005432128906
 30
0.0
 11
332.49105072021484
 21
46.639442443847656
 31
0.0
  0
LINE
  8
LY_1
  6
CONTINUOUS
 62
               3
  5
18F
 10
327.49106597900391
 20
40.508934020996094
 30
0.0
 11
327.49106597900391
 21
29.60162353515625
 31
0.0
  0
LINE
  8
LY_1
  6
CONTINUOUS
 62
               3
  5
190
 10
347.49108123779297
 20
40.0
 30
0.0
 11
347.49108123779297
 21
29.60162353515625
 31
0.0
  0
LINE
  8
LY_1
  6
CONTINUOUS
 62
               3
  5
191
 10
214.5
 20
38.0
 30
0.0
 11
214.5
 21
34.0
 31
0.0
  0
LINE
  8
LY_1
  6
CONTINUOUS
 62
               3
  5
192
 10
215.5
 20
39.0
 30
0.0
 11
215.5
 21
33.0
 31
0.0
  0
LINE
  8
LY_1
  6
CONTINUOUS
 62
               3
  5
193
 10
214.50003839554188
 20
34.000028349244303
 30
0.0
 11
215.50003945713138
 21
33.000027287654802
 31
0.0
  0
LINE
  8
LY_1
  6
CONTINUOUS
 62
               3
  5
194
 10
214.50018234818072
 20
37.999798870340101
 30
0.0
 11
215.50018298830128
 21
38.999800437692329
 31
0.0
  0
LINE
  8
LY_1
  6
CONTINUOUS
 62
               3
  5
195
 10
347.49108123779297
 20
39.0
 30
0.0
 11
352.0
 21
39.0
 31
0.0
  0
LINE
  8
LY_1
  6
CENTER
 62
             110
  5
196
 10
212.17841339111328
 20
36.0
 30
0.0
 11
337.0
 21
36.0
 31
0.0
  0
LINE
  8
LY_1
  6
CONTINUOUS
 62
               3
  5
197
 10
451.0
 20
58.0
 30
0.0
 11
495.0
 21
58.0
 31
0.0
  0
LINE
  8
LY_1
  6
CONTINUOUS
 62
               3
  5
198
 10
451.0
 20
23.0
 30
0.0
 11
495.0
 21
23.0
 31
0.0
  0
LINE
  8
LY_1
  6
CONTINUOUS
 62
               3
  5
199
 10
451.0
 20
59.0
 30
0.0
 11
451.0
 21
-101.0
 31
0.0
  0
LINE
  8
LY_1
  6
CONTINUOUS
 62
               3
  5
19A
 10
327.00002518823328
 20
44.999966143304277
 30
0.0
 11
328.00002624982278
 21
45.999967289187566
 31
0.0
  0
LINE
  8
LY_1
  6
CONTINUOUS
 62
               3
  5
19B
 10
370.30955505371094
 20
37.1875
 30
0.0
 11
371.0
 21
37.1875
 31
0.0
  0
LINE
  8
LY_1
  6
CONTINUOUS
 62
               3
  5
19C
 10
370.30955505371094
 20
36.8125
 30
0.0
 11
371.0
 21
36.8125
 31
0.0
  0
LINE
  8
LY_1
  6
CONTINUOUS
 62
               3
  5
19D
 10
369.6875
 20
36.190452575683594
 30
0.0
 11
369.6875
 21
35.5
 31
0.0
  0
LINE
  8
LY_1
  6
CONTINUOUS
 62
               3
  5
19E
 10
369.3125
 20
36.190452575683594
 30
0.0
 11
369.3125
 21
35.5
 31
0.0
  0
LINE
  8
LY_1
  6
CONTINUOUS
 62
               3
  5
19F
 10
368.0
 20
37.1875
 30
0.0
 11
368.69044494628906
 21
37.1875
 31
0.0
  0
LINE
  8
LY_1
  6
CONTINUOUS
 62
               3
  5
1A0
 10
368.0
 20
36.8125
 30
0.0
 11
368.69044494628906
 21
36.8125
 31
0.0
  0
LINE
  8
LY_1
  6
CONTINUOUS
 62
               3
  5
1A1
 10
369.3125
 20
38.5
 30
0.0
 11
369.3125
 21
37.809547424316406
 31
0.0
  0
LINE
  8
LY_1
  6
CONTINUOUS
 62
               3
  5
1A2
 10
369.6875
 20
38.5
 30
0.0
 11
369.6875
 21
37.809547424316406
 31
0.0
  0
LINE
  8
LY_1
  6
CONTINUOUS
 62
               3
  5
1A3
 10
368.0
 20
37.1875
 30
0.0
 11
368.0
 21
36.8125
 31
0.0
  0
LINE
  8
LY_1
  6
CONTINUOUS
 62
               3
  5
1A4
 10
371.0
 20
37.1875
 30
0.0
 11
371.0
 21
36.8125
 31
0.0
  0
LINE
  8
LY_1
  6
CONTINUOUS
 62
               3
  5
1A5
 10
369.3125
 20
35.5
 30
0.0
 11
369.6875
 21
35.5
 31
0.0
  0
LINE
  8
LY_1
  6
CONTINUOUS
 62
               3
  5
1A6
 10
369.3125
 20
38.5
 30
0.0
 11
369.6875
 21
38.5
 31
0.0
  0
LINE
  8
LY_1
  6
CONTINUOUS
 62
               3
  5
1A7
 10
370.30955505371094
 20
49.1875
 30
0.0
 11
371.0
 21
49.1875
 31
0.0
  0
LINE
  8
LY_1
  6
CONTINUOUS
 62
               3
  5
1A8
 10
370.30955505371094
 20
48.8125
 30
0.0
 11
371.0
 21
48.8125
 31
0.0
  0
LINE
  8
LY_1
  6
CONTINUOUS
 62
               3
  5
1A9
 10
369.6875
 20
48.190452575683594
 30
0.0
 11
369.6875
 21
47.5
 31
0.0
  0
LINE
  8
LY_1
  6
CONTINUOUS
 62
               3
  5
1AA
 10
369.3125
 20
48.190452575683594
 30
0.0
 11
369.3125
 21
47.5
 31
0.0
  0
LINE
  8
LY_1
  6
CONTINUOUS
 62
               3
  5
1AB
 10
368.0
 20
49.1875
 30
0.0
 11
368.69044494628906
 21
49.1875
 31
0.0
  0
LINE
  8
LY_1
  6
CONTINUOUS
 62
               3
  5
1AC
 10
368.0
 20
48.8125
 30
0.0
 11
368.69044494628906
 21
48.8125
 31
0.0
  0
LINE
  8
LY_1
  6
CONTINUOUS
 62
               3
  5
1AD
 10
369.3125
 20
50.5
 30
0.0
 11
369.3125
 21
49.809547424316406
 31
0.0
  0
LINE
  8
LY_1
  6
CONTINUOUS
 62
               3
  5
1AE
 10
369.6875
 20
50.5
 30
0.0
 11
369.6875
 21
49.809547424316406
 31
0.0
  0
LINE
  8
LY_1
  6
CONTINUOUS
 62
               3
  5
1AF
 10
368.0
 20
49.1875
 30
0.0
 11
368.0
 21
48.8125
 31
0.0
  0
LINE
  8
LY_1
  6
CONTINUOUS
 62
               3
  5
1B0
 10
371.0
 20
49.1875
 30
0.0
 11
371.0
 21
48.8125
 31
0.0
  0
LINE
  8
LY_1
  6
CONTINUOUS
 62
               3
  5
1B1
 10
369.3125
 20
47.5
 30
0.0
 11
369.6875
 21
47.5
 31
0.0
  0
LINE
  8
LY_1
  6
CONTINUOUS
 62
               3
  5
1B2
 10
369.3125
 20
50.5
 30
0.0
 11
369.6875
 21
50.5
 31
0.0
  0
LINE
  8
LY_1
  6
CENTER
 62
             110
  5
1B3
 10
381.07963562011719
 20
36.0
 30
0.0
 11
388.76597595214844
 21
36.0
 31
0.0
  0
LINE
  8
LY_1
  6
CENTER
 62
             110
  5
1B4
 10
380.67246246337891
 20
50.0
 30
0.0
 11
388.76597595214844
 21
50.0
 31
0.0
  0
LINE
  8
LY_1
  6
CENTER
 62
             110
  5
1B5
 10
364.75
 20
49.0
 30
0.0
 11
374.25
 21
49.0
 31
0.0
  0
LINE
  8
LY_1
  6
CENTER
 62
             110
  5
1B6
 10
369.5
 20
54.636363983154297
 30
0.0
 11
369.5
 21
31.468231201171875
 31
0.0
  0
LINE
  8
LY_1
  6
CONTINUOUS
 62
               3
  5
1B7
 10
361.5
 20
33.0
 30
0.0
 11
386.5
 21
33.0
 31
0.0
  0
LINE
  8
LY_1
  6
CONTINUOUS
 62
               3
  5
1B8
 10
361.5
 20
53.0
 30
0.0
 11
386.5
 21
53.0
 31
0.0
  0
LINE
  8
LY_1
  6
CONTINUOUS
 62
               3
  5
1B9
 10
361.5
 20
53.0
 30
0.0
 11
361.5
 21
33.0
 31
0.0
  0
LINE
  8
LY_1
  6
CONTINUOUS
 62
               3
  5
1BA
 10
326.9999959804652
 20
41.000003411591706
 30
0.0
 11
327.9999970420547
 21
40.000002350002205
 31
0.0
  0
LINE
  8
LY_1
  6
CONTINUOUS
 62
               3
  5
1BB
 10
328.0
 20
46.0
 30
0.0
 11
328.0
 21
40.0
 31
0.0
  0
LINE
  8
LY_1
  6
CONTINUOUS
 62
               3
  5
1BC
 10
327.0
 20
45.0
 30
0.0
 11
327.0
 21
41.0
 31
0.0
  0
LINE
  8
LY_1
  6
CONTINUOUS
 62
               3
  5
1BD
 10
328.0
 20
46.0
 30
0.0
 11
337.0
 21
46.0
 31
0.0
  0
LINE
  8
LY_1
  6
CONTINUOUS
 62
               3
  5
1BE
 10
328.0
 20
40.0
 30
0.0
 11
337.0
 21
40.0
 31
0.0
  0
LINE
  8
LY_1
  6
CENTER
 62
             110
  5
1BF
 10
365.0
 20
37.0
 30
0.0
 11
374.0
 21
37.0
 31
0.0
  0
LINE
  8
LY_1
  6
CONTINUOUS
 62
               3
  5
1C0
 10
352.0
 20
53.0
 30
0.0
 11
352.0
 21
33.0
 31
0.0
  0
LINE
  8
LY_1
  6
CONTINUOUS
 62
               3
  5
1C1
 10
352.0
 20
33.0
 30
0.0
 11
361.5
 21
33.0
 31
0.0
  0
LINE
  8
LY_1
  6
CONTINUOUS
 62
               3
  5
1C2
 10
352.0
 20
53.0
 30
0.0
 11
361.5
 21
53.0
 31
0.0
  0
LINE
  8
LY_1
  6
CENTER
 62
             110
  5
1C3
 10
325.05839538574219
 20
43.0
 30
0.0
 11
499.3970947265625
 21
43.0
 31
0.0
  0
LINE
  8
LY_1
  6
CONTINUOUS
 62
               3
  5
1C4
 10
393.0
 20
-101.5
 30
0.0
 11
393.0
 21
-101.0
 31
0.0
  0
LINE
  8
LY_1
  6
CONTINUOUS
 62
               3
  5
1C5
 10
394.5
 20
-103.0
 30
0.0
 11
402.5
 21
-103.0
 31
0.0
  0
LINE
  8
LY_1
  6
CONTINUOUS
 62
               3
  5
1C6
 10
404.0
 20
-101.5
 30
0.0
 11
404.0
 21
-101.0
 31
0.0
  0
LINE
  8
LY_1
  6
CENTER
 62
             110
  5
1C7
 10
398.5
 20
-97.0
 30
0.0
 11
398.5
 21
-104.0
 31
0.0
  0
LINE
  8
LY_1
  6
CONTINUOUS
 62
               3
  5
1C8
 10
386.5
 20
-101.0
 30
0.0
 11
451.0
 21
-101.0
 31
0.0
  0
LINE
  8
LY_1
  6
CONTINUOUS
 62
               3
  5
1C9
 10
386.5
 20
59.0
 30
0.0
 11
451.0
 21
59.0
 31
0.0
  0
LINE
  8
LY_1
  6
CONTINUOUS
 62
               3
  5
1CA
 10
404.0
 20
59.5
 30
0.0
 11
404.0
 21
59.0
 31
0.0
  0
LINE
  8
LY_1
  6
CONTINUOUS
 62
               3
  5
1CB
 10
394.5
 20
61.0
 30
0.0
 11
402.5
 21
61.0
 31
0.0
  0
LINE
  8
LY_1
  6
CONTINUOUS
 62
               3
  5
1CC
 10
393.0
 20
59.5
 30
0.0
 11
393.0
 21
59.0
 31
0.0
  0
LINE
  8
LY_1
  6
CONTINUOUS
 62
               3
  5
1CD
 10
386.5
 20
-101.0
 30
0.0
 11
386.5
 21
59.0
 31
0.0
  0
LINE
  8
LY_1
  6
CONTINUOUS
 62
               3
  5
1CE
 10
342.59980546022234
 20
-90.499842189850824
 30
0.0
 11
342.29980230117508
 21
-91.0194626370685
 31
0.0
  0
LINE
  8
LY_1
  6
CONTINUOUS
 62
               3
  5
1CF
 10
342.60000610351562
 20
-90.5
 30
0.0
 11
342.60000610351562
 21
-97.5
 31
0.0
  0
LINE
  8
LY_1
  6
CONTINUOUS
 62
               3
  5
1D0
 10
342.60000610351562
 20
-97.5
 30
0.0
 11
346.30000305175781
 21
-97.5
 31
0.0
  0
LINE
  8
LY_1
  6
CONTINUOUS
 62
               3
  5
1D1
 10
342.60000610351562
 20
-90.5
 30
0.0
 11
346.30000305175781
 21
-90.5
 31
0.0
  0
LINE
  8
LY_1
  6
CONTINUOUS
 62
               3
  5
1D2
 10
342.30000305175781
 20
-91.019607543945313
 30
0.0
 11
342.30000305175781
 21
-96.980392456054687
 31
0.0
  0
LINE
  8
LY_1
  6
CONTINUOUS
 62
               3
  5
1D3
 10
346.30000305175781
 20
-90.5
 30
0.0
 11
346.30000305175781
 21
-97.5
 31
0.0
  0
LINE
  8
LY_1
  6
CONTINUOUS
 62
               3
  5
1D4
 10
346.30000305175781
 20
-39.5
 30
0.0
 11
346.30000305175781
 21
-32.5
 31
0.0
  0
LINE
  8
LY_1
  6
CONTINUOUS
 62
               3
  5
1D5
 10
346.30000305175781
 20
-39.5
 30
0.0
 11
347.5
 21
-39.5
 31
0.0
  0
LINE
  8
LY_1
  6
CONTINUOUS
 62
               3
  5
1D6
 10
346.30000305175781
 20
-32.5
 30
0.0
 11
347.5
 21
-32.5
 31
0.0
  0
LINE
  8
LY_1
  6
CONTINUOUS
 62
               3
  5
1D7
 10
346.30000305175781
 20
-97.5
 30
0.0
 11
347.5
 21
-97.5
 31
0.0
  0
LINE
  8
LY_1
  6
CONTINUOUS
 62
               3
  5
1D8
 10
346.30000305175781
 20
-90.5
 30
0.0
 11
347.5
 21
-90.5
 31
0.0
  0
LINE
  8
LY_1
  6
CONTINUOUS
 62
               3
  5
1D9
 10
275.5
 20
-98.5
 30
0.0
 11
279.5
 21
-98.5
 31
0.0
  0
LINE
  8
LY_1
  6
CONTINUOUS
 62
               3
  5
1DA
 10
274.50019649985097
 20
-97.499779469789246
 30
0.0
 11
275.50019756144047
 21
-98.499780531378747
 31
0.0
  0
LINE
  8
LY_1
  6
CONTINUOUS
 62
               3
  5
1DB
 10
274.50002116896417
 20
-32.500031456864463
 30
0.0
 11
275.50002223055367
 21
-31.500030395274962
 31
0.0
  0
LINE
  8
LY_1
  6
CONTINUOUS
 62
               3
  5
1DC
 10
275.5
 20
-31.5
 30
0.0
 11
279.5
 21
-31.5
 31
0.0
  0
LINE
  8
LY_1
  6
CONTINUOUS
 62
               3
  5
1DD
 10
274.5
 20
-32.5
 30
0.0
 11
274.5
 21
-97.5
 31
0.0
  0
LINE
  8
LY_1
  6
CONTINUOUS
 62
               3
  5
1DE
 10
275.5
 20
-31.5
 30
0.0
 11
275.5
 21
-98.5
 31
0.0
  0
LINE
  8
LY_1
  6
CONTINUOUS
 62
               3
  5
1DF
 10
279.5
 20
-30.5
 30
0.0
 11
279.5
 21
-99.5
 31
0.0
  0
LINE
  8
LY_1
  6
CONTINUOUS
 62
               3
  5
1E0
 10
279.5
 20
-30.5
 30
0.0
 11
347.5
 21
-30.5
 31
0.0
  0
LINE
  8
LY_1
  6
CONTINUOUS
 62
               3
  5
1E1
 10
347.5
 20
-100.0
 30
0.0
 11
386.5
 21
-100.0
 31
0.0
  0
LINE
  8
LY_1
  6
CONTINUOUS
 62
               3
  5
1E2
 10
347.5
 20
-30.0
 30
0.0
 11
386.5
 21
-30.0
 31
0.0
  0
LINE
  8
LY_1
  6
CENTER
 62
             110
  5
1E3
 10
340.30000305175781
 20
-36.0
 30
0.0
 11
348.93228149414062
 21
-36.0
 31
0.0
  0
LINE
  8
LY_1
  6
CENTER
 62
             110
  5
1E4
 10
340.30000305175781
 20
-94.0
 30
0.0
 11
349.28007507324219
 21
-94.0
 31
0.0
  0
LINE
  8
LY_1
  6
CONTINUOUS
 62
               3
  5
1E5
 10
354.5
 20
-30.0
 30
0.0
 11
354.5
 21
-100.0
 31
0.0
  0
LINE
  8
LY_1
  6
CONTINUOUS
 62
               3
  5
1E6
 10
347.5
 20
-30.0
 30
0.0
 11
347.5
 21
-100.0
 31
0.0
  0
LINE
  8
LY_1
  6
CONTINUOUS
 62
               3
  5
1E7
 10
279.5
 20
-99.5
 30
0.0
 11
347.5
 21
-99.5
 31
0.0
  0
LINE
  8
LY_1
  6
CONTINUOUS
 62
               3
  5
1E8
 10
342.60017784489514
 20
-39.499934497770511
 30
0.0
 11
342.30017468584788
 21
-38.980314050552835
 31
0.0
  0
LINE
  8
LY_1
  6
CONTINUOUS
 62
               3
  5
1E9
 10
342.60029865893011
 20
-97.49980417930874
 30
0.0
 11
342.30029549988285
 21
-96.980183732091064
 31
0.0
  0
LINE
  8
LY_1
  6
CONTINUOUS
 62
               3
  5
1EA
 10
342.30000305175781
 20
-33.019622802734375
 30
0.0
 11
342.30000305175781
 21
-38.980377197265625
 31
0.0
  0
LINE
  8
LY_1
  6
CONTINUOUS
 62
               3
  5
1EB
 10
342.5998864140563
 20
-32.49993187566929
 30
0.0
 11
342.2998908844063
 21
-33.019539108390063
 31
0.0
  0
LINE
  8
LY_1
  6
CONTINUOUS
 62
               3
  5
1EC
 10
342.60000610351562
 20
-32.5
 30
0.0
 11
346.30000305175781
 21
-32.5
 31
0.0
  0
LINE
  8
LY_1
  6
CONTINUOUS
 62
               3
  5
1ED
 10
342.60000610351562
 20
-32.5
 30
0.0
 11
342.60000610351562
 21
-39.5
 31
0.0
  0
LINE
  8
LY_1
  6
CONTINUOUS
 62
               3
  5
1EE
 10
342.60000610351562
 20
-39.5
 30
0.0
 11
346.30000305175781
 21
-39.5
 31
0.0
  0
LINE
  8
LY_1
  6
CONTINUOUS
 62
               3
  5
1EF
 10
385.99998578449276
 20
23.999988061968452
 30
0.0
 11
386.49998631528752
 21
23.499987531173701
 31
0.0
  0
LINE
  8
LY_1
  6
CONTINUOUS
 62
               3
  5
1F0
 10
381.49993911341971
 20
23.500041394780965
 30
0.0
 11
381.99992826457765
 21
24.000031726026464
 31
0.0
  0
LINE
  8
LY_1
  6
CONTINUOUS
 62
               3
  5
1F1
 10
385.99998038969625
 20
-23.999971182786794
 30
0.0
 11
386.499980920491
 21
-23.499970651992044
 31
0.0
  0
LINE
  8
LY_1
  6
CONTINUOUS
 62
               3
  5
1F2
 10
381.49999360934407
 20
-23.500011576637917
 30
0.0
 11
381.99999468804845
 21
-24.000011559523045
 31
0.0
  0
LINE
  8
LY_1
  6
CONTINUOUS
 62
               3
  5
1F3
 10
381.5
 20
-23.5
 30
0.0
 11
381.5
 21
23.5
 31
0.0
  0
LINE
  8
LY_1
  6
CONTINUOUS
 62
               3
  5
1F4
 10
382.0
 20
-24.0
 30
0.0
 11
386.0
 21
-24.0
 31
0.0
  0
LINE
  8
LY_1
  6
CONTINUOUS
 62
               3
  5
1F5
 10
382.0
 20
24.0
 30
0.0
 11
386.0
 21
24.0
 31
0.0
  0
LINE
  8
LY_1
  6
CONTINUOUS
 62
               3
  5
1F6
 10
175.5
 20
-24.0
 30
0.0
 11
215.55889892578125
 21
-24.0
 31
0.0
  0
LINE
  8
LY_1
  6
CONTINUOUS
 62
               3
  5
1F7
 10
175.5
 20
24.0
 30
0.0
 11
215.55889892578125
 21
24.0
 31
0.0
  0
LINE
  8
LY_1
  6
CENTER
 62
             110
  5
1F8
 10
142.75
 20
-46.100006103515625
 30
0.0
 11
174.75
 21
-46.100006103515625
 31
0.0
  0
LINE
  8
LY_1
  6
CENTER
 62
             110
  5
1F9
 10
142.75
 20
46.099998474121094
 30
0.0
 11
174.75
 21
46.099998474121094
 31
0.0
  0
LINE
  8
LY_1
  6
CONTINUOUS
 62
               3
  5
1FA
 10
166.69989157944519
 20
56.749850939390853
 30
0.0
 11
167.49989870018044
 21
55.949847662473076
 31
0.0
  0
LINE
  8
LY_1
  6
CONTINUOUS
 62
               3
  5
1FB
 10
167.50004367873885
 20
-55.950023207188906
 30
0.0
 11
166.70005119138864
 21
-56.750019470870257
 31
0.0
  0
LINE
  8
LY_1
  6
CONTINUOUS
 62
               3
  5
1FC
 10
167.5
 20
-55.949996948242187
 30
0.0
 11
167.5
 21
55.950000762939453
 31
0.0
  0
LINE
  8
LY_1
  6
CONTINUOUS
 62
               3
  5
1FD
 10
149.99940077198653
 20
-55.950583422757973
 30
0.0
 11
150.79940054229883
 21
-56.75058319307027
 31
0.0
  0
LINE
  8
LY_1
  6
CONTINUOUS
 62
               3
  5
1FE
 10
150.80010186584605
 20
56.749904143501226
 30
0.0
 11
150.00009670073723
 21
55.949898978392412
 31
0.0
  0
LINE
  8
LY_1
  6
CONTINUOUS
 62
               3
  5
1FF
 10
150.0
 20
-55.949996948242187
 30
0.0
 11
150.0
 21
55.950000762939453
 31
0.0
  0
LINE
  8
LY_1
  6
CONTINUOUS
 62
               3
  5
200
 10
150.80000305175781
 20
56.75
 30
0.0
 11
166.69999694824219
 21
56.75
 31
0.0
  0
LINE
  8
LY_1
  6
CONTINUOUS
 62
               3
  5
201
 10
150.80000305175781
 20
-56.75
 30
0.0
 11
166.69999694824219
 21
-56.75
 31
0.0
  0
LINE
  8
LY_1
  6
CONTINUOUS
 62
               3
  5
202
 10
136.0
 20
8.0
 30
0.0
 11
136.0
 21
-8.0
 31
0.0
  0
LINE
  8
LY_1
  6
CONTINUOUS
 62
               3
  5
203
 10
135.00000524974348
 20
6.9999861993364902
 30
0.0
 11
136.00000631133298
 21
7.999987260925991
 31
0.0
  0
LINE
  8
LY_1
  6
CONTINUOUS
 62
               3
  5
204
 10
135.00012933006337
 20
-6.9998722138175253
 30
0.0
 11
136.00013039165287
 21
-7.9998732754070261
 31
0.0
  0
LINE
  8
LY_1
  6
CONTINUOUS
 62
               3
  5
205
 10
136.0
 20
-8.0
 30
0.0
 11
150.0
 21
-8.0
 31
0.0
  0
LINE
  8
LY_1
  6
CONTINUOUS
 62
               3
  5
206
 10
136.0
 20
8.0
 30
0.0
 11
150.0
 21
8.0
 31
0.0
  0
LINE
  8
LY_1
  6
CONTINUOUS
 62
               3
  5
207
 10
101.0
 20
-7.0
 30
0.0
 11
135.0
 21
-7.0
 31
0.0
  0
LINE
  8
LY_1
  6
CONTINUOUS
 62
               3
  5
208
 10
135.0
 20
7.0
 30
0.0
 11
135.0
 21
-7.0
 31
0.0
  0
LINE
  8
LY_1
  6
CONTINUOUS
 62
               3
  5
209
 10
100.0
 20
5.0
 30
0.0
 11
100.0
 21
-6.0
 31
0.0
  0
LINE
  8
LY_1
  6
CENTER
 62
             110
  5
20A
 10
98.0
 20
0.0
 30
0.0
 11
416.0
 21
0.0
 31
0.0
  0
ENDSEC
  0
EOF
