  0
SECTION
  2
HEADER
  9
$ACADVER
  1
AC1015
  9
$ACADMAINTVER
 70
     6
  9
$DWGCODEPAGE
  3
ANSI_932
  9
$INSBASE
 10
0.0
 20
0.0
 30
0.0
  9
$EXTMIN
 10
-62.663483
 20
-131.0
 30
0.0
  9
$EXTMAX
 10
391.0
 20
79.233333
 30
0.0
  9
$LIMMIN
 10
-62.663483
 20
-131.0
  9
$LIMMAX
 10
391.0
 20
79.233333
  9
$ORTHOMODE
 70
     0
  9
$REGENMODE
 70
     1
  9
$FILLMODE
 70
     1
  9
$QTEXTMODE
 70
     0
  9
$MIRRTEXT
 70
     1
  9
$LTSCALE
 40
1.0
  9
$ATTMODE
 70
     1
  9
$TEXTSIZE
 40
3.2
  9
$TRACEWID
 40
0.05
  9
$TEXTSTYLE
  7
MX_NOTE_STANDARD
  9
$CLAYER
  8
0
  9
$CELTYPE
  6
CONTINUOUS
  9
$CECOLOR
 62
   256
  9
$CELTSCALE
 40
1.0
  9
$DISPSILH
 70
     0
  9
$DIMSCALE
 40
1.0
  9
$DIMASZ
 40
2.5
  9
$DIMEXO
 40
2.0
  9
$DIMDLI
 40
3.75
  9
$DIMRND
 40
0.0
  9
$DIMDLE
 40
0.0
  9
$DIMEXE
 40
1.0
  9
$DIMTP
 40
0.0
  9
$DIMTM
 40
0.0
  9
$DIMTXT
 40
4.1656
  9
$DIMCEN
 40
2.5
  9
$DIMTSZ
 40
0.0
  9
$DIMTOL
 70
     0
  9
$DIMLIM
 70
     0
  9
$DIMTIH
 70
     0
  9
$DIMTOH
 70
     0
  9
$DIMSE1
 70
     0
  9
$DIMSE2
 70
     0
  9
$DIMTAD
 70
     1
  9
$DIMZIN
 70
     8
  9
$DIMBLK
  1

  9
$DIMASO
 70
     1
  9
$DIMSHO
 70
     1
  9
$DIMPOST
  1

  9
$DIMAPOST
  1

  9
$DIMALT
 70
     0
  9
$DIMALTD
 70
     4
  9
$DIMALTF
 40
0.03937
  9
$DIMLFAC
 40
1.0
  9
$DIMTOFL
 70
     1
  9
$DIMTVP
 40
0.0
  9
$DIMTIX
 70
     0
  9
$DIMSOXD
 70
     0
  9
$DIMSAH
 70
     1
  9
$DIMBLK1
  1
_OPEN30
  9
$DIMBLK2
  1
_OPEN30
  9
$DIMSTYLE
  2
MXDIMSTYLE
  9
$DIMCLRD
 70
     0
  9
$DIMCLRE
 70
     0
  9
$DIMCLRT
 70
     0
  9
$DIMTFAC
 40
1.0
  9
$DIMGAP
 40
1.0
  9
$DIMJUST
 70
     0
  9
$DIMSD1
 70
     0
  9
$DIMSD2
 70
     0
  9
$DIMTOLJ
 70
     0
  9
$DIMTZIN
 70
     0
  9
$DIMALTZ
 70
     0
  9
$DIMALTTZ
 70
     0
  9
$DIMUPT
 70
     0
  9
$DIMDEC
 70
     2
  9
$DIMTDEC
 70
     2
  9
$DIMALTU
 70
     2
  9
$DIMALTTD
 70
     4
  9
$DIMTXSTY
  7
MX_NOTE_STANDARD
  9
$DIMAUNIT
 70
     0
  9
$DIMADEC
 70
     0
  9
$DIMALTRND
 40
0.0
  9
$DIMAZIN
 70
     0
  9
$DIMDSEP
 70
    46
  9
$DIMATFIT
 70
     3
  9
$DIMFRAC
 70
     0
  9
$DIMLDRBLK
  1
_OPEN30
  9
$DIMLUNIT
 70
     2
  9
$DIMLWD
 70
    -2
  9
$DIMLWE
 70
    -2
  9
$DIMTMOVE
 70
     0
  9
$LUNITS
 70
     2
  9
$LUPREC
 70
     4
  9
$SKETCHINC
 40
0.1
  9
$FILLETRAD
 40
0.0
  9
$AUNITS
 70
     0
  9
$AUPREC
 70
     0
  9
$MENU
  1
acad
  9
$ELEVATION
 40
0.0
  9
$PELEVATION
 40
0.0
  9
$THICKNESS
 40
0.0
  9
$LIMCHECK
 70
     0
  9
$CHAMFERA
 40
0.0
  9
$CHAMFERB
 40
0.0
  9
$CHAMFERC
 40
0.0
  9
$CHAMFERD
 40
0.0
  9
$SKPOLY
 70
     0
  9
$TDCREATE
 40
2456119.571585648
  9
$TDUCREATE
 40
0.000000000
  9
$TDUPDATE
 40
2456119.571585648
  9
$TDUUPDATE
 40
0.000000000
  9
$TDINDWG
 40
0.0000000000
  9
$TDUSRTIMER
 40
0.0000000000
  9
$USRTIMER
 70
     1
  9
$ANGBASE
 50
0.0
  9
$ANGDIR
 70
     0
  9
$PDMODE
 70
     0
  9
$PDSIZE
 40
0.0
  9
$PLINEWID
 40
0.0
  9
$SPLFRAME
 70
     0
  9
$SPLINETYPE
 70
     6
  9
$SPLINESEGS
 70
     8
  9
$HANDSEED
  5
1FA
  9
$SURFTAB1
 70
     6
  9
$SURFTAB2
 70
     6
  9
$SURFTYPE
 70
     6
  9
$SURFU
 70
     6
  9
$SURFV
 70
     6
  9
$UCSBASE
  2

  9
$UCSNAME
  2

  9
$UCSORG
 10
0.0
 20
0.0
 30
0.0
  9
$UCSXDIR
 10
1.0
 20
0.0
 30
0.0
  9
$UCSYDIR
 10
0.0
 20
1.0
 30
0.0
  9
$UCSORTHOREF
  2

  9
$UCSORTHOVIEW
 70
     0
  9
$UCSORGTOP
 10
0.0
 20
0.0
 30
0.0
  9
$UCSORGBOTTOM
 10
0.0
 20
0.0
 30
0.0
  9
$UCSORGLEFT
 10
0.0
 20
0.0
 30
0.0
  9
$UCSORGRIGHT
 10
0.0
 20
0.0
 30
0.0
  9
$UCSORGFRONT
 10
0.0
 20
0.0
 30
0.0
  9
$UCSORGBACK
 10
0.0
 20
0.0
 30
0.0
  9
$PUCSBASE
  2

  9
$PUCSNAME
  2

  9
$PUCSORG
 10
0.0
 20
0.0
 30
0.0
  9
$PUCSXDIR
 10
1.0
 20
0.0
 30
0.0
  9
$PUCSYDIR
 10
0.0
 20
1.0
 30
0.0
  9
$PUCSORTHOREF
  2

  9
$PUCSORTHOVIEW
 70
     0
  9
$PUCSORGTOP
 10
0.0
 20
0.0
 30
0.0
  9
$PUCSORGBOTTOM
 10
0.0
 20
0.0
 30
0.0
  9
$PUCSORGLEFT
 10
0.0
 20
0.0
 30
0.0
  9
$PUCSORGRIGHT
 10
0.0
 20
0.0
 30
0.0
  9
$PUCSORGFRONT
 10
0.0
 20
0.0
 30
0.0
  9
$PUCSORGBACK
 10
0.0
 20
0.0
 30
0.0
  9
$USERI1
 70
     0
  9
$USERI2
 70
     0
  9
$USERI3
 70
     0
  9
$USERI4
 70
     0
  9
$USERI5
 70
     0
  9
$USERR1
 40
0.0
  9
$USERR2
 40
0.0
  9
$USERR3
 40
0.0
  9
$USERR4
 40
0.0
  9
$USERR5
 40
0.0
  9
$WORLDVIEW
 70
     1
  9
$SHADEDGE
 70
     3
  9
$SHADEDIF
 70
    70
  9
$TILEMODE
 70
     1
  9
$MAXACTVP
 70
    16
  9
$PINSBASE
 10
0.0
 20
0.0
 30
0.0
  9
$PLIMCHECK
 70
     0
  9
$PEXTMIN
 10
1.000000E+20
 20
1.000000E+20
 30
1.000000E+20
  9
$PEXTMAX
 10
-1.000000E+20
 20
-1.000000E+20
 30
-1.000000E+20
  9
$PLIMMIN
 10
0.0
 20
0.0
  9
$PLIMMAX
 10
12.0
 20
9.0
  9
$UNITMODE
 70
     0
  9
$VISRETAIN
 70
     0
  9
$PLINEGEN
 70
     1
  9
$PSLTSCALE
 70
     0
  9
$TREEDEPTH
 70
  3020
  9
$CMLSTYLE
  2
Standard
  9
$CMLJUST
 70
     0
  9
$CMLSCALE
 40
1.0
  9
$PROXYGRAPHICS
 70
     0
  9
$MEASUREMENT
 70
     1
  9
$CELWEIGHT
370
     0
  9
$ENDCAPS
280
     0
  9
$JOINSTYLE
280
     0
  9
$LWDISPLAY
290
     0
  9
$INSUNITS
 70
     0
  9
$HYPERLINKBASE
  1

  9
$STYLESHEET
  1

  9
$XEDIT
290
     1
  9
$CEPSNTYPE
380
     0
  9
$PSTYLEMODE
290
     1
  9
$FINGERPRINTGUID
  2

  9
$VERSIONGUID
  2

  9
$EXTNAMES
290
     1
  9
$PSVPSCALE
 40
0.0
  0
ENDSEC
  0
SECTION
  2
CLASSES
  0
CLASS
  1
LWPOLYLINE
  2
AcDbPolyline
  3
AutoCAD 2000
 90
        0
280
     0
281
     1
  0
CLASS
  1
IMAGE
  2
AcDbRasterImage
  3
ISM
 90
      127
280
     0
281
     1
  0
CLASS
  1
OLE2FRAME
  2
AcDbOle2Frame
  3
AutoCAD 2000
 90
        0
280
     0
281
     1
  0
CLASS
  1
HATCH
  2
AcDbHatch
  3
AutoCAD 2000
 90
        0
280
     0
281
     1
  0
CLASS
  1
DICTIONARYVAR
  2
AcDbDictionaryVar
  3
AutoCAD 2000
 90
        0
280
     0
281
     0
  0
CLASS
  1
RASTERVARIABLES
  2
AcDbRasterVariables
  3
ISM
 90
        0
280
     0
281
     0
  0
CLASS
  1
IMAGEDEF
  2
AcDbRasterImageDef
  3
ISM
 90
        0
280
     0
281
     0
  0
CLASS
  1
IMAGEDEF_REACTOR
  2
AcDbRasterImageDefReactor
  3
ISM
 90
        1
280
     0
281
     0
  0
CLASS
  1
IDBUFFER
  2
AcDbIdBuffer
  3
AutoCAD 2000
 90
        0
280
     0
281
     0
  0
CLASS
  1
SPATIAL_FILTER
  2
AcDbSpatialFilter
  3
AutoCAD 2000
 90
        0
280
     0
281
     0
  0
CLASS
  1
XRECORD
  2
AcDbXrecord
  3
AutoCAD 2000
 90
        0
280
     0
281
     0
  0
CLASS
  1
SORTENTSTABLE
  2
AcDbSortentsTable
  3
AutoCAD 2000
 90
        0
280
     0
281
     0
  0
CLASS
  1
LAYER_INDEX
  2
AcDbLayerIndex
  3
AutoCAD 2000
 90
        0
280
     0
281
     0
  0
CLASS
  1
SPATIAL_INDEX
  2
AcDbSpatialIndex
  3
AutoCAD 2000
 90
        0
280
     0
281
     0
  0
CLASS
  1
OBJECT_PTR
  2
CAseDLPNTableRecord
  3
"ASE-LPNTableRecord"
 90
        1
280
     0
281
     0
  0
CLASS
  1
LAYOUT
  2
AcDbLayout
  3
AutoCAD 2000
 90
        0
280
     0
281
     0
  0
CLASS
  1
PLOTSETTINGS
  2
AcDbPlotSettings
  3
AutoCAD 2000
 90
        0
280
     0
281
     0
  0
CLASS
  1
ACDBDICTIONARYWDFLT
  2
AcDbDictionaryWithDefault
  3
AutoCAD 2000
 90
        0
280
     0
281
     0
  0
CLASS
  1
ACDBPLACEHOLDER
  2
AcDbPlaceHolder
  3
AutoCAD 2000
 90
        0
280
     0
281
     0
  0
ENDSEC
  0
SECTION
  2
TABLES
  0
TABLE
  2
VPORT
  5
7
100
AcDbSymbolTable
 70
     1
  0
VPORT
  5
15
100
AcDbSymbolTableRecord
100
AcDbViewportTableRecord
  2
*ACTIVE
 70
     0
 10
0.0
 20
0.0
 11
1.0
 21
1.0
 12
164.168259
 22
-25.883333
 13
0.0
 23
0.0
 14
1.0
 24
1.0
 15
0.0
 25
0.0
 16
0.0
 26
0.0
 36
1.0
 17
0.0
 27
0.0
 37
0.0
 40
212.335666
 41
1.732051
 42
50.0
 43
0.0
 44
0.0
 50
0.0
 51
0.0
 71
     0
 72
   100
 73
     1
 74
     1
 75
     0
 76
     0
 77
     0
 78
     0
281
     0
 65
     0
110
0.0
120
0.0
130
0.0
111
1.0
121
0.0
131
0.0
112
0.0
122
1.0
132
0.0
345
0
346
0
 79
     0
146
0.0
  0
ENDTAB
  0
TABLE
  2
LTYPE
  5
4
100
AcDbSymbolTable
 70
     5
  0
LTYPE
  5
11
100
AcDbSymbolTableRecord
100
AcDbLinetypeTableRecord
  2
BYBLOCK
 70
    64
  3

 72
    65
 73
     0
 40
0.0
  0
LTYPE
  5
12
100
AcDbSymbolTableRecord
100
AcDbLinetypeTableRecord
  2
BYLAYER
 70
    64
  3

 72
    65
 73
     0
 40
0.0
  0
LTYPE
  5
13
100
AcDbSymbolTableRecord
100
AcDbLinetypeTableRecord
  2
CONTINUOUS
 70
    64
  3
Solid line
 72
    65
 73
     0
 40
0.0
  0
LTYPE
  5
6D
100
AcDbSymbolTableRecord
100
AcDbLinetypeTableRecord
  2
CENTER
 70
    64
  3
Center ____ _ ____ _ ____ _ ____ _ ____ _ ____
 72
    65
 73
     4
 40
50.8
 49
31.75
 74
     0
 49
-6.35
 74
     0
 49
6.35
 74
     0
 49
-6.35
 74
     0
  0
LTYPE
  5
10A
100
AcDbSymbolTableRecord
100
AcDbLinetypeTableRecord
  2
DASHED
 70
    64
  3
Dashed __ __ __ __ __ __ __ __ __ __ __ __ __ _
 72
    65
 73
     2
 40
19.05
 49
12.7
 74
     0
 49
-6.35
 74
     0
  0
ENDTAB
  0
TABLE
  2
LAYER
  5
2
100
AcDbSymbolTable
 70
     3
  0
LAYER
  5
14
100
AcDbSymbolTableRecord
100
AcDbLayerTableRecord
  2
0
 70
     0
 62
     7
  6
CONTINUOUS
290
     1
370
    -3
390
1D
  0
LAYER
  5
23
100
AcDbSymbolTableRecord
100
AcDbLayerTableRecord
  2
DEFPOINTS
 70
     0
 62
     7
  6
CONTINUOUS
290
     0
370
    -3
390
1D
  0
LAYER
  5
24
100
AcDbSymbolTableRecord
100
AcDbLayerTableRecord
  2
LY_3
 70
     0
 62
     7
  6
CONTINUOUS
290
     1
370
    -3
390
1D
  0
ENDTAB
  0
TABLE
  2
STYLE
  5
3
100
AcDbSymbolTable
 70
     3
  0
STYLE
  5
17
100
AcDbSymbolTableRecord
100
AcDbTextStyleTableRecord
  2
MX_NOTE_STANDARD
 70
     0
 40
0.0
 41
1.0
 50
0.0
 71
     0
 42
3.2
  3
txt.shx
  4
extfont.shx
  0
STYLE
  5
48
100
AcDbSymbolTableRecord
100
AcDbTextStyleTableRecord
  2
MX_DIMTXSTY_2
 70
     0
 40
0.0
 41
1.25
 50
0.0
 71
     0
 42
3.2
  3
txt.shx
  4
extfont.shx
  0
STYLE
  5
56
100
AcDbSymbolTableRecord
100
AcDbTextStyleTableRecord
  2
MX_DIMTXSTY_3
 70
     0
 40
0.0
 41
1.1
 50
0.0
 71
     0
 42
3.2
  3
txt.shx
  4
extfont.shx
  0
ENDTAB
  0
TABLE
  2
VIEW
  5
5
100
AcDbSymbolTable
 70
     0
  0
ENDTAB
  0
TABLE
  2
UCS
  5
6
100
AcDbSymbolTable
 70
     0
  0
ENDTAB
  0
TABLE
  2
APPID
  5
8
100
AcDbSymbolTable
 70
     1
  0
APPID
  5
16
100
AcDbSymbolTableRecord
100
AcDbRegAppTableRecord
  2
ACAD
 70
     0
  0
ENDTAB
  0
TABLE
  2
DIMSTYLE
  5
9
100
AcDbSymbolTable
 70
     1
100
AcDbDimStyleTable
 71
     0
  0
DIMSTYLE
105
18
100
AcDbSymbolTableRecord
100
AcDbDimStyleTableRecord
  2
MXDIMSTYLE
 70
     0
  3

  4

 40
1.0
 41
2.5
 42
2.0
 43
3.75
 44
1.0
 45
0.0
 46
0.0
 47
0.0
 48
0.0
 71
     0
 72
     0
 73
     0
 74
     0
 75
     0
 76
     0
 77
     1
 78
     8
 79
     0
140
4.1656
141
2.5
142
0.0
143
0.03937
144
1.0
145
0.0
146
1.0
147
1.0
148
0.0
170
     0
171
     4
172
     1
173
     1
174
     0
175
     0
176
     0
177
     0
178
     0
179
     0
271
     2
272
     2
273
     2
274
     4
275
     0
276
     0
277
     2
278
    46
279
     0
280
     0
281
     0
282
     0
283
     0
284
     0
285
     0
286
     0
288
     0
289
     3
340
17
341
26
342
0
343
26
344
26
371
    -2
372
    -2
  0
ENDTAB
  0
TABLE
  2
BLOCK_RECORD
  5
1
100
AcDbSymbolTable
 70
     5
  0
BLOCK_RECORD
  5
A
100
AcDbSymbolTableRecord
100
AcDbBlockTableRecord
  2
*MODEL_SPACE
340
20
  0
BLOCK_RECORD
  5
B
100
AcDbSymbolTableRecord
100
AcDbBlockTableRecord
  2
*PAPER_SPACE
340
21
  0
BLOCK_RECORD
  5
25
100
AcDbSymbolTableRecord
100
AcDbBlockTableRecord
  2
*U0
340
0
102
{BLKREFS
331
63
331
64
331
65
331
66
102
}
  0
BLOCK_RECORD
  5
26
100
AcDbSymbolTableRecord
100
AcDbBlockTableRecord
  2
_OPEN30
340
0
102
{BLKREFS
331
36
331
37
331
46
331
47
331
54
331
55
102
}
  0
BLOCK_RECORD
  5
31
100
AcDbSymbolTableRecord
100
AcDbBlockTableRecord
  2
*D2
340
0
  0
BLOCK_RECORD
  5
3E
100
AcDbSymbolTableRecord
100
AcDbBlockTableRecord
  2
*D3
340
0
  0
BLOCK_RECORD
  5
4F
100
AcDbSymbolTableRecord
100
AcDbBlockTableRecord
  2
*D4
340
0
  0
ENDTAB
  0
ENDSEC
  0
SECTION
  2
BLOCKS
  0
BLOCK
  5
D
100
AcDbEntity
  8
0
390
0
100
AcDbBlockBegin
  2
*MODEL_SPACE
 70
     0
 10
0.0
 20
0.0
 30
0.0
  3
*MODEL_SPACE
  1

  0
ENDBLK
  5
E
100
AcDbEntity
  8
0
390
0
100
AcDbBlockEnd
  0
BLOCK
  5
F
100
AcDbEntity
 67
     1
  8
0
390
0
100
AcDbBlockBegin
  2
*PAPER_SPACE
 70
     0
 10
0.0
 20
0.0
 30
0.0
  3
*PAPER_SPACE
  1

  0
ENDBLK
  5
10
100
AcDbEntity
 67
     1
  8
0
390
0
100
AcDbBlockEnd
  0
BLOCK
  5
2C
100
AcDbEntity
  8
0
370
    -2
390
0
100
AcDbBlockBegin
  2
*U0
 70
     1
 10
0.0
 20
0.0
 30
0.0
  3
*U0
  1

  0
LINE
  5
2D
100
AcDbEntity
  8
0
390
0
  6
CONTINUOUS
 62
   110
100
AcDbLine
 10
0.0
 20
0.0
 30
0.0
 11
-1.0
 21
0.0
 31
0.0
  0
LINE
  5
2E
100
AcDbEntity
  8
0
390
0
  6
CONTINUOUS
 62
   110
100
AcDbLine
 10
0.0
 20
0.0
 30
0.0
 11
-1.0
 21
-0.267949
 31
0.0
  0
LINE
  5
2F
100
AcDbEntity
  8
0
390
0
  6
CONTINUOUS
 62
   110
100
AcDbLine
 10
-1.0
 20
0.267949
 30
0.0
 11
0.0
 21
0.0
 31
0.0
  0
ENDBLK
  5
30
100
AcDbEntity
  8
0
370
    -2
390
0
100
AcDbBlockEnd
  0
BLOCK
  5
27
100
AcDbEntity
  8
0
370
    -2
390
0
  6
ByBlock
 62
     0
100
AcDbBlockBegin
  2
_OPEN30
 70
     2
 10
0.0
 20
0.0
 30
0.0
  3
_OPEN30
  1

  0
LINE
  5
28
100
AcDbEntity
  8
0
370
    -2
390
0
  6
ByBlock
 62
     0
100
AcDbLine
 10
-1.0
 20
0.267949
 30
0.0
 11
0.0
 21
0.0
 31
0.0
  0
LINE
  5
29
100
AcDbEntity
  8
0
370
    -2
390
0
  6
ByBlock
 62
     0
100
AcDbLine
 10
0.0
 20
0.0
 30
0.0
 11
-1.0
 21
-0.267949
 31
0.0
  0
LINE
  5
2A
100
AcDbEntity
  8
0
370
    -2
390
0
  6
ByBlock
 62
     0
100
AcDbLine
 10
0.0
 20
0.0
 30
0.0
 11
-1.0
 21
0.0
 31
0.0
  0
ENDBLK
  5
2B
100
AcDbEntity
  8
0
370
    -2
390
0
  6
ByBlock
 62
     0
100
AcDbBlockEnd
  0
BLOCK
  5
32
100
AcDbEntity
  8
0
370
    -2
390
0
  6
ByBlock
 62
     0
100
AcDbBlockBegin
  2
*D2
 70
     1
 10
0.0
 20
0.0
 30
0.0
  3
*D2
  1

  0
LINE
  5
33
100
AcDbEntity
  8
0
390
0
  6
CONTINUOUS
 62
   110
100
AcDbLine
 10
125.000015
 20
-50.0
 30
0.0
 11
90.000015
 21
-50.0
 31
0.0
  0
LINE
  5
34
100
AcDbEntity
  8
0
390
0
  6
CONTINUOUS
 62
   110
100
AcDbLine
 10
125.000015
 20
-9.0
 30
0.0
 11
125.000015
 21
-51.0
 31
0.0
  0
LINE
  5
35
100
AcDbEntity
  8
0
390
0
  6
CONTINUOUS
 62
   110
100
AcDbLine
 10
90.000015
 20
-8.0
 30
0.0
 11
90.000015
 21
-51.0
 31
0.0
  0
INSERT
  5
36
100
AcDbEntity
  8
0
390
0
  6
CONTINUOUS
 62
   110
100
AcDbBlockReference
  2
_OPEN30
 10
125.000015
 20
-50.0
 30
0.0
 41
2.77
 42
2.77
 43
2.77
  0
INSERT
  5
37
100
AcDbEntity
  8
0
390
0
  6
CONTINUOUS
 62
   110
100
AcDbBlockReference
  2
_OPEN30
 10
90.000015
 20
-50.0
 30
0.0
 41
2.77
 42
2.77
 43
2.77
 50
180.0
  0
MTEXT
  5
38
100
AcDbEntity
  8
0
390
0
  6
CONTINUOUS
 62
   110
100
AcDbMText
 10
107.500015
 20
-46.4
 30
0.0
 40
5.2
 41
0.0
 71
     5
 72
     1
  1
\A1;35
 11
1.0
 21
0.0
 31
0.0
 73
     1
 44
0.9
  0
POINT
  5
39
100
AcDbEntity
  8
DEFPOINTS
390
0
  6
CONTINUOUS
 62
     0
100
AcDbPoint
 10
125.000015
 20
-7.0
 30
0.0
  0
POINT
  5
3A
100
AcDbEntity
  8
DEFPOINTS
390
0
  6
CONTINUOUS
 62
     0
100
AcDbPoint
 10
90.000015
 20
-6.0
 30
0.0
  0
POINT
  5
3B
100
AcDbEntity
  8
DEFPOINTS
390
0
  6
CONTINUOUS
 62
     0
100
AcDbPoint
 10
90.000015
 20
-50.0
 30
0.0
  0
ENDBLK
  5
3C
100
AcDbEntity
  8
0
370
    -2
390
0
  6
ByBlock
 62
     0
100
AcDbBlockEnd
  0
BLOCK
  5
3F
100
AcDbEntity
  8
0
370
    -2
390
0
  6
ByBlock
 62
     0
100
AcDbBlockBegin
  2
*D3
 70
     1
 10
0.0
 20
0.0
 30
0.0
  3
*D3
  1

  0
LINE
  5
40
100
AcDbEntity
  8
0
390
0
  6
CONTINUOUS
 62
   110
100
AcDbLine
 10
70.0
 20
5.5
 30
0.0
 11
70.0
 21
-7.0
 31
0.0
  0
LINE
  5
41
100
AcDbEntity
  8
0
390
0
  6
CONTINUOUS
 62
   110
100
AcDbLine
 10
70.0
 20
29.784657
 30
0.0
 11
70.0
 21
5.5
 31
0.0
  0
LINE
  5
42
100
AcDbEntity
  8
0
390
0
  6
CONTINUOUS
 62
   110
100
AcDbLine
 10
6.330109
 20
5.5
 30
0.0
 11
71.0
 21
5.5
 31
0.0
  0
LINE
  5
43
100
AcDbEntity
  8
0
390
0
  6
CONTINUOUS
 62
   110
100
AcDbLine
 10
2.0
 20
-7.0
 30
0.0
 11
71.0
 21
-7.0
 31
0.0
  0
LINE
  5
44
100
AcDbEntity
  8
0
390
0
  6
CONTINUOUS
 62
   110
100
AcDbLine
 10
70.0
 20
5.5
 30
0.0
 11
70.0
 21
9.5
 31
0.0
  0
LINE
  5
45
100
AcDbEntity
  8
0
390
0
  6
CONTINUOUS
 62
   110
100
AcDbLine
 10
70.0
 20
-7.0
 30
0.0
 11
70.0
 21
-11.0
 31
0.0
  0
INSERT
  5
46
100
AcDbEntity
  8
0
390
0
  6
CONTINUOUS
 62
   110
100
AcDbBlockReference
  2
_OPEN30
 10
70.0
 20
5.5
 30
0.0
 41
2.77
 42
2.77
 43
2.77
 50
270.0
  0
INSERT
  5
47
100
AcDbEntity
  8
0
390
0
  6
CONTINUOUS
 62
   110
100
AcDbBlockReference
  2
_OPEN30
 10
70.0
 20
-7.0
 30
0.0
 41
2.77
 42
2.77
 43
2.77
 50
90.0
  0
MTEXT
  5
49
100
AcDbEntity
  8
0
390
0
  6
CONTINUOUS
 62
   110
100
AcDbMText
 10
66.4
 20
20.034657
 30
0.0
 40
5.2
 41
0.0
 71
     5
 72
     1
  1
\A1;12.5
  7
MX_DIMTXSTY_2
 11
0.0
 21
1.0
 31
0.0
 73
     1
 44
0.9
  0
POINT
  5
4A
100
AcDbEntity
  8
DEFPOINTS
390
0
  6
CONTINUOUS
 62
     0
100
AcDbPoint
 10
4.330109
 20
5.5
 30
0.0
  0
POINT
  5
4B
100
AcDbEntity
  8
DEFPOINTS
390
0
  6
CONTINUOUS
 62
     0
100
AcDbPoint
 10
0.0
 20
-7.0
 30
0.0
  0
POINT
  5
4C
100
AcDbEntity
  8
DEFPOINTS
390
0
  6
CONTINUOUS
 62
     0
100
AcDbPoint
 10
70.0
 20
-7.0
 30
0.0
  0
ENDBLK
  5
4D
100
AcDbEntity
  8
0
370
    -2
390
0
  6
ByBlock
 62
     0
100
AcDbBlockEnd
  0
BLOCK
  5
50
100
AcDbEntity
  8
0
370
    -2
390
0
  6
ByBlock
 62
     0
100
AcDbBlockBegin
  2
*D4
 70
     1
 10
0.0
 20
0.0
 30
0.0
  3
*D4
  1

  0
LINE
  5
51
100
AcDbEntity
  8
0
390
0
  6
CONTINUOUS
 62
   110
100
AcDbLine
 10
390.0
 20
59.0
 30
0.0
 11
390.0
 21
-101.0
 31
0.0
  0
LINE
  5
52
100
AcDbEntity
  8
0
390
0
  6
CONTINUOUS
 62
   110
100
AcDbLine
 10
363.0
 20
59.0
 30
0.0
 11
391.0
 21
59.0
 31
0.0
  0
LINE
  5
53
100
AcDbEntity
  8
0
390
0
  6
CONTINUOUS
 62
   110
100
AcDbLine
 10
363.0
 20
-101.0
 30
0.0
 11
391.0
 21
-101.0
 31
0.0
  0
INSERT
  5
54
100
AcDbEntity
  8
0
390
0
  6
CONTINUOUS
 62
   110
100
AcDbBlockReference
  2
_OPEN30
 10
390.0
 20
59.0
 30
0.0
 41
2.77
 42
2.77
 43
2.77
 50
90.0
  0
INSERT
  5
55
100
AcDbEntity
  8
0
390
0
  6
CONTINUOUS
 62
   110
100
AcDbBlockReference
  2
_OPEN30
 10
390.0
 20
-101.0
 30
0.0
 41
2.77
 42
2.77
 43
2.77
 50
270.0
  0
MTEXT
  5
57
100
AcDbEntity
  8
0
390
0
  6
CONTINUOUS
 62
   110
100
AcDbMText
 10
386.4
 20
-21.0
 30
0.0
 40
5.2
 41
0.0
 71
     5
 72
     1
  1
\A1;160
  7
MX_DIMTXSTY_3
 11
0.0
 21
1.0
 31
0.0
 73
     1
 44
0.9
  0
POINT
  5
58
100
AcDbEntity
  8
DEFPOINTS
390
0
  6
CONTINUOUS
 62
     0
100
AcDbPoint
 10
361.0
 20
59.0
 30
0.0
  0
POINT
  5
59
100
AcDbEntity
  8
DEFPOINTS
390
0
  6
CONTINUOUS
 62
     0
100
AcDbPoint
 10
361.0
 20
-101.0
 30
0.0
  0
POINT
  5
5A
100
AcDbEntity
  8
DEFPOINTS
390
0
  6
CONTINUOUS
 62
     0
100
AcDbPoint
 10
390.0
 20
-101.0
 30
0.0
  0
ENDBLK
  5
5B
100
AcDbEntity
  8
0
370
    -2
390
0
  6
ByBlock
 62
     0
100
AcDbBlockEnd
  0
ENDSEC
  0
SECTION
  2
ENTITIES
  0
DIMENSION
  5
3D
100
AcDbEntity
  8
0
390
0
  6
CONTINUOUS
 62
   110
100
AcDbDimension
  2
*D2
 10
90.000015
 20
-50.0
 30
0.0
 11
107.500015
 21
-50.0
 31
0.0
 70
   128
 71
     5
 72
     1
 41
0.9
 42
35.0
  1
\A1;<>
  3
MXDIMSTYLE
100
AcDbAlignedDimension
 13
125.000015
 23
-7.0
 33
0.0
 14
90.000015
 24
-6.0
 34
0.0
100
AcDbRotatedDimension
1001
ACAD
1000
DSTYLE
1002
{
1070
    41
1040
2.77
1070
   140
1040
5.2
1070
   284
1070
     8
1002
}
  0
DIMENSION
  5
4E
100
AcDbEntity
  8
0
390
0
  6
CONTINUOUS
 62
   110
100
AcDbDimension
  2
*D3
 10
70.0
 20
-7.0
 30
0.0
 11
70.0
 21
20.034657
 31
0.0
 70
   128
 71
     5
 72
     1
 41
0.9
 42
12.5
  1
\A1;<>
  3
MXDIMSTYLE
100
AcDbAlignedDimension
 13
4.330109
 23
5.5
 33
0.0
 14
0.0
 24
-7.0
 34
0.0
 50
90.0
100
AcDbRotatedDimension
1001
ACAD
1000
DSTYLE
1002
{
1070
    41
1040
2.77
1070
   140
1040
5.2
1070
   284
1070
     8
1070
   340
1005
48
1002
}
  0
DIMENSION
  5
5C
100
AcDbEntity
  8
0
390
0
  6
CONTINUOUS
 62
   110
100
AcDbDimension
  2
*D4
 10
390.0
 20
-101.0
 30
0.0
 11
390.0
 21
-21.0
 31
0.0
 70
   128
 71
     5
 72
     1
 41
0.9
 42
160.0
  1
\A1;<>
  3
MXDIMSTYLE
100
AcDbAlignedDimension
 13
361.0
 23
59.0
 33
0.0
 14
361.0
 24
-101.0
 34
0.0
 50
90.0
100
AcDbRotatedDimension
1001
ACAD
1000
DSTYLE
1002
{
1070
    41
1040
2.77
1070
   140
1040
5.2
1070
   284
1070
     8
1070
   340
1005
56
1002
}
  0
LINE
  5
5D
100
AcDbEntity
  8
0
390
0
  6
CONTINUOUS
 62
     3
100
AcDbLine
 10
1.0
 20
-41.287888
 30
0.0
 11
1.0
 21
-56.74118
 31
0.0
  0
LINE
  5
5E
100
AcDbEntity
  8
0
390
0
  6
CONTINUOUS
 62
     3
100
AcDbLine
 10
-1.0
 20
-41.287888
 30
0.0
 11
-1.0
 21
-56.74118
 31
0.0
  0
ARC
  5
5F
100
AcDbEntity
  8
0
390
0
  6
CONTINUOUS
 62
     3
100
AcDbCircle
 10
0.0
 20
0.0
 30
0.0
 40
55.950001
100
AcDbArc
 50
271.024109
 51
88.975891
  0
LINE
  5
60
100
AcDbEntity
  8
0
390
0
  6
CONTINUOUS
 62
     3
100
AcDbLine
 10
1.0
 20
56.741192
 30
0.0
 11
1.0
 21
41.287891
 31
0.0
  0
LINE
  5
61
100
AcDbEntity
  8
0
390
0
  6
CONTINUOUS
 62
     3
100
AcDbLine
 10
-1.0
 20
56.741192
 30
0.0
 11
-1.0
 21
41.287891
 31
0.0
  0
ARC
  5
62
100
AcDbEntity
  8
0
390
0
  6
CONTINUOUS
 62
     3
100
AcDbCircle
 10
0.0
 20
0.0
 30
0.0
 40
55.950001
100
AcDbArc
 50
91.024128
 51
268.975855
  0
INSERT
  5
63
100
AcDbEntity
  8
LY_3
390
0
  6
ByBlock
100
AcDbBlockReference
  2
*U0
 10
223.5
 20
-99.5
 30
0.0
 41
2.77
 42
2.77
 43
2.77
 50
107.592425
  0
INSERT
  5
64
100
AcDbEntity
  8
LY_3
390
0
  6
ByBlock
100
AcDbBlockReference
  2
*U0
 10
148.750008
 20
56.75
 30
0.0
 41
2.77
 42
2.77
 43
2.77
 50
303.439892
  0
INSERT
  5
65
100
AcDbEntity
  8
LY_3
390
0
  6
ByBlock
100
AcDbBlockReference
  2
*U0
 10
206.848572
 20
48.099976
 30
0.0
 41
2.77
 42
2.77
 43
2.77
 50
307.572535
  0
INSERT
  5
66
100
AcDbEntity
  8
LY_3
390
0
  6
ByBlock
100
AcDbBlockReference
  2
*U0
 10
288.426312
 20
53.0
 30
0.0
 41
2.77
 42
2.77
 43
2.77
 50
296.366023
  0
LINE
  5
67
100
AcDbEntity
  8
LY_3
390
0
  6
CONTINUOUS
 62
     3
100
AcDbLine
 10
140.800003
 20
56.75
 30
0.0
 11
156.700012
 21
56.75
 31
0.0
  0
LINE
  5
68
100
AcDbEntity
  8
LY_3
390
0
  6
CONTINUOUS
 62
     3
100
AcDbLine
 10
140.800079
 20
-56.75
 30
0.0
 11
156.699997
 21
-56.75
 31
0.0
  0
LINE
  5
69
100
AcDbEntity
  8
LY_3
390
0
  6
CONTINUOUS
 62
     3
100
AcDbLine
 10
140.800072
 20
-56.749881
 30
0.0
 11
140.000072
 21
-55.949881
 31
0.0
  0
LINE
  5
6A
100
AcDbEntity
  8
LY_3
390
0
  6
CONTINUOUS
 62
     3
100
AcDbLine
 10
139.99977
 20
55.950215
 30
0.0
 11
140.799775
 21
56.750221
 31
0.0
  0
LINE
  5
6B
100
AcDbEntity
  8
LY_3
390
0
  6
CONTINUOUS
 62
     3
100
AcDbLine
 10
157.499966
 20
55.949944
 30
0.0
 11
156.699963
 21
56.749951
 31
0.0
  0
LINE
  5
6C
100
AcDbEntity
  8
LY_3
390
0
  6
CONTINUOUS
 62
     3
100
AcDbLine
 10
156.700005
 20
-56.749949
 30
0.0
 11
157.50001
 21
-55.949944
 31
0.0
  0
LINE
  5
6E
100
AcDbEntity
  8
LY_3
390
0
  6
CENTER
 62
   110
100
AcDbLine
 10
132.75
 20
-46.100006
 30
0.0
 11
164.75
 21
-46.100006
 31
0.0
  0
LINE
  5
6F
100
AcDbEntity
  8
LY_3
390
0
  6
CENTER
 62
   110
100
AcDbLine
 10
132.750015
 20
46.099998
 30
0.0
 11
164.750015
 21
46.099998
 31
0.0
  0
LINE
  5
70
100
AcDbEntity
  8
LY_3
390
0
  6
CONTINUOUS
 62
     3
100
AcDbLine
 10
140.0
 20
-55.949997
 30
0.0
 11
140.0
 21
55.950001
 31
0.0
  0
LINE
  5
71
100
AcDbEntity
  8
LY_3
390
0
  6
CONTINUOUS
 62
     3
100
AcDbLine
 10
126.000015
 20
8.0
 30
0.0
 11
140.0
 21
8.0
 31
0.0
  0
LINE
  5
72
100
AcDbEntity
  8
LY_3
390
0
  6
CONTINUOUS
 62
     3
100
AcDbLine
 10
126.000015
 20
-8.0
 30
0.0
 11
140.0
 21
-8.0
 31
0.0
  0
LINE
  5
73
100
AcDbEntity
  8
LY_3
390
0
  6
CONTINUOUS
 62
     3
100
AcDbLine
 10
165.5
 20
24.0
 30
0.0
 11
181.0
 21
24.0
 31
0.0
  0
LINE
  5
74
100
AcDbEntity
  8
LY_3
390
0
  6
CONTINUOUS
 62
     3
100
AcDbLine
 10
165.5
 20
-24.0
 30
0.0
 11
181.0
 21
-24.0
 31
0.0
  0
LINE
  5
75
100
AcDbEntity
  8
LY_3
390
0
  6
CONTINUOUS
 62
     3
100
AcDbLine
 10
292.0
 20
24.0
 30
0.0
 11
296.0
 21
24.0
 31
0.0
  0
LINE
  5
76
100
AcDbEntity
  8
LY_3
390
0
  6
CONTINUOUS
 62
     3
100
AcDbLine
 10
291.5
 20
-23.5
 30
0.0
 11
291.5
 21
23.5
 31
0.0
  0
LINE
  5
77
100
AcDbEntity
  8
LY_3
390
0
  6
CONTINUOUS
 62
     3
100
AcDbLine
 10
291.499999
 20
23.500059
 30
0.0
 11
291.999972
 21
24.000033
 31
0.0
  0
LINE
  5
78
100
AcDbEntity
  8
LY_3
390
0
  6
CONTINUOUS
 62
     3
100
AcDbLine
 10
296.000015
 20
23.999999
 30
0.0
 11
296.500005
 21
23.50001
 31
0.0
  0
LINE
  5
79
100
AcDbEntity
  8
LY_3
390
0
  6
CONTINUOUS
 62
     3
100
AcDbLine
 10
291.499989
 20
-23.499983
 30
0.0
 11
291.999989
 21
-23.999984
 31
0.0
  0
LINE
  5
7A
100
AcDbEntity
  8
LY_3
390
0
  6
CONTINUOUS
 62
     3
100
AcDbLine
 10
292.0
 20
-24.0
 30
0.0
 11
296.0
 21
-24.0
 31
0.0
  0
LINE
  5
7B
100
AcDbEntity
  8
LY_3
390
0
  6
CONTINUOUS
 62
     3
100
AcDbLine
 10
295.999983
 20
-23.999971
 30
0.0
 11
296.499984
 21
-23.49997
 31
0.0
  0
LINE
  5
7C
100
AcDbEntity
  8
LY_3
390
0
  6
CONTINUOUS
 62
     3
100
AcDbLine
 10
125.000015
 20
7.0
 30
0.0
 11
125.000015
 21
-7.0
 31
0.0
  0
LINE
  5
7D
100
AcDbEntity
  8
LY_3
390
0
  6
CONTINUOUS
 62
     3
100
AcDbLine
 10
91.000031
 20
-7.0
 30
0.0
 11
125.000015
 21
-7.0
 31
0.0
  0
LINE
  5
7E
100
AcDbEntity
  8
LY_3
390
0
  6
CONTINUOUS
 62
     3
100
AcDbLine
 10
90.000015
 20
5.5
 30
0.0
 11
90.000015
 21
-6.0
 31
0.0
  0
LINE
  5
7F
100
AcDbEntity
  8
LY_3
390
0
  6
CONTINUOUS
 62
     3
100
AcDbLine
 10
252.600006
 20
-39.5
 30
0.0
 11
256.300003
 21
-39.5
 31
0.0
  0
LINE
  5
80
100
AcDbEntity
  8
LY_3
390
0
  6
CONTINUOUS
 62
     3
100
AcDbLine
 10
252.600006
 20
-32.5
 30
0.0
 11
252.600006
 21
-39.5
 31
0.0
  0
LINE
  5
81
100
AcDbEntity
  8
LY_3
390
0
  6
CONTINUOUS
 62
     3
100
AcDbLine
 10
252.600006
 20
-32.5
 30
0.0
 11
256.300003
 21
-32.5
 31
0.0
  0
LINE
  5
82
100
AcDbEntity
  8
LY_3
390
0
  6
CONTINUOUS
 62
     3
100
AcDbLine
 10
252.600004
 20
-32.499992
 30
0.0
 11
252.300009
 21
-33.019599
 31
0.0
  0
LINE
  5
83
100
AcDbEntity
  8
LY_3
390
0
  6
CONTINUOUS
 62
     3
100
AcDbLine
 10
252.300003
 20
-33.019623
 30
0.0
 11
252.300003
 21
-38.980377
 31
0.0
  0
LINE
  5
84
100
AcDbEntity
  8
LY_3
390
0
  6
CONTINUOUS
 62
     3
100
AcDbLine
 10
252.60022
 20
-97.49983
 30
0.0
 11
252.300217
 21
-96.980209
 31
0.0
  0
LINE
  5
85
100
AcDbEntity
  8
LY_3
390
0
  6
CONTINUOUS
 62
     3
100
AcDbLine
 10
296.5
 20
-65.0
 30
0.0
 11
298.5
 21
-65.0
 31
0.0
  0
LINE
  5
86
100
AcDbEntity
  8
LY_3
390
0
  6
CONTINUOUS
 62
     3
100
AcDbLine
 10
252.600174
 20
-39.499926
 30
0.0
 11
252.300171
 21
-38.980305
 31
0.0
  0
LINE
  5
87
100
AcDbEntity
  8
LY_3
390
0
  6
CONTINUOUS
 62
     3
100
AcDbLine
 10
189.5
 20
-99.5
 30
0.0
 11
257.5
 21
-99.5
 31
0.0
  0
LINE
  5
88
100
AcDbEntity
  8
LY_3
390
0
  6
CONTINUOUS
 62
     3
100
AcDbLine
 10
257.5
 20
-30.0
 30
0.0
 11
257.5
 21
-100.0
 31
0.0
  0
LINE
  5
89
100
AcDbEntity
  8
LY_3
390
0
  6
CONTINUOUS
 62
     3
100
AcDbLine
 10
264.5
 20
-30.0
 30
0.0
 11
264.5
 21
-100.0
 31
0.0
  0
LINE
  5
8A
100
AcDbEntity
  8
LY_3
390
0
  6
CENTER
 62
   110
100
AcDbLine
 10
250.300003
 20
-94.0
 30
0.0
 11
259.280075
 21
-94.0
 31
0.0
  0
LINE
  5
8B
100
AcDbEntity
  8
LY_3
390
0
  6
CENTER
 62
   110
100
AcDbLine
 10
250.300003
 20
-36.0
 30
0.0
 11
258.932281
 21
-36.0
 31
0.0
  0
LINE
  5
8C
100
AcDbEntity
  8
LY_3
390
0
  6
CONTINUOUS
 62
     3
100
AcDbLine
 10
257.5
 20
-30.0
 30
0.0
 11
296.5
 21
-30.0
 31
0.0
  0
LINE
  5
8D
100
AcDbEntity
  8
LY_3
390
0
  6
CONTINUOUS
 62
     3
100
AcDbLine
 10
257.5
 20
-100.0
 30
0.0
 11
296.5
 21
-100.0
 31
0.0
  0
LINE
  5
8E
100
AcDbEntity
  8
LY_3
390
0
  6
CONTINUOUS
 62
     3
100
AcDbLine
 10
189.5
 20
-30.5
 30
0.0
 11
257.5
 21
-30.5
 31
0.0
  0
LINE
  5
8F
100
AcDbEntity
  8
LY_3
390
0
  6
CONTINUOUS
 62
     3
100
AcDbLine
 10
189.5
 20
-30.5
 30
0.0
 11
189.5
 21
-99.5
 31
0.0
  0
LINE
  5
90
100
AcDbEntity
  8
LY_3
390
0
  6
CONTINUOUS
 62
     3
100
AcDbLine
 10
185.5
 20
-31.5
 30
0.0
 11
185.5
 21
-98.5
 31
0.0
  0
LINE
  5
91
100
AcDbEntity
  8
LY_3
390
0
  6
CONTINUOUS
 62
     3
100
AcDbLine
 10
184.5
 20
-32.5
 30
0.0
 11
184.5
 21
-97.5
 31
0.0
  0
LINE
  5
92
100
AcDbEntity
  8
LY_3
390
0
  6
CONTINUOUS
 62
     3
100
AcDbLine
 10
185.5
 20
-31.5
 30
0.0
 11
189.5
 21
-31.5
 31
0.0
  0
LINE
  5
93
100
AcDbEntity
  8
LY_3
390
0
  6
CONTINUOUS
 62
     3
100
AcDbLine
 10
184.500017
 20
-32.500024
 30
0.0
 11
185.500018
 21
-31.500023
 31
0.0
  0
LINE
  5
94
100
AcDbEntity
  8
LY_3
390
0
  6
CONTINUOUS
 62
     3
100
AcDbLine
 10
184.500113
 20
-97.499854
 30
0.0
 11
185.500114
 21
-98.499856
 31
0.0
  0
LINE
  5
95
100
AcDbEntity
  8
LY_3
390
0
  6
CONTINUOUS
 62
     3
100
AcDbLine
 10
185.5
 20
-98.5
 30
0.0
 11
189.5
 21
-98.5
 31
0.0
  0
LINE
  5
96
100
AcDbEntity
  8
LY_3
390
0
  6
CONTINUOUS
 62
     3
100
AcDbLine
 10
256.300003
 20
-90.5
 30
0.0
 11
257.5
 21
-90.5
 31
0.0
  0
LINE
  5
97
100
AcDbEntity
  8
LY_3
390
0
  6
CONTINUOUS
 62
     3
100
AcDbLine
 10
256.300003
 20
-97.5
 30
0.0
 11
257.5
 21
-97.5
 31
0.0
  0
LINE
  5
98
100
AcDbEntity
  8
LY_3
390
0
  6
CONTINUOUS
 62
     3
100
AcDbLine
 10
257.500121
 20
-93.365185
 30
0.0
 11
256.300112
 21
-94.05801
 31
0.0
  0
LINE
  5
99
100
AcDbEntity
  8
LY_3
390
0
  6
CONTINUOUS
 62
     3
100
AcDbLine
 10
257.500183
 20
-93.942517
 30
0.0
 11
256.300187
 21
-94.635335
 31
0.0
  0
LINE
  5
9A
100
AcDbEntity
  8
LY_3
390
0
  6
CONTINUOUS
 62
     3
100
AcDbLine
 10
256.300003
 20
-32.5
 30
0.0
 11
257.5
 21
-32.5
 31
0.0
  0
LINE
  5
9B
100
AcDbEntity
  8
LY_3
390
0
  6
CONTINUOUS
 62
     3
100
AcDbLine
 10
256.300003
 20
-39.5
 30
0.0
 11
257.5
 21
-39.5
 31
0.0
  0
LINE
  5
9C
100
AcDbEntity
  8
LY_3
390
0
  6
CONTINUOUS
 62
     3
100
AcDbLine
 10
256.300003
 20
-39.5
 30
0.0
 11
256.300003
 21
-32.5
 31
0.0
  0
LINE
  5
9D
100
AcDbEntity
  8
LY_3
390
0
  6
CONTINUOUS
 62
     3
100
AcDbLine
 10
257.500047
 20
-35.365049
 30
0.0
 11
256.300045
 21
-36.05787
 31
0.0
  0
LINE
  5
9E
100
AcDbEntity
  8
LY_3
390
0
  6
CONTINUOUS
 62
     3
100
AcDbLine
 10
257.500062
 20
-35.942399
 30
0.0
 11
256.300054
 21
-36.635224
 31
0.0
  0
LINE
  5
9F
100
AcDbEntity
  8
LY_3
390
0
  6
CONTINUOUS
 62
     3
100
AcDbLine
 10
256.300003
 20
-90.5
 30
0.0
 11
256.300003
 21
-97.5
 31
0.0
  0
LINE
  5
A0
100
AcDbEntity
  8
LY_3
390
0
  6
CONTINUOUS
 62
     3
100
AcDbLine
 10
252.300003
 20
-91.019608
 30
0.0
 11
252.300003
 21
-96.980392
 31
0.0
  0
LINE
  5
A1
100
AcDbEntity
  8
LY_3
390
0
  6
CONTINUOUS
 62
     3
100
AcDbLine
 10
252.600006
 20
-90.5
 30
0.0
 11
256.300003
 21
-90.5
 31
0.0
  0
LINE
  5
A2
100
AcDbEntity
  8
LY_3
390
0
  6
CONTINUOUS
 62
     3
100
AcDbLine
 10
252.600006
 20
-97.5
 30
0.0
 11
256.300003
 21
-97.5
 31
0.0
  0
LINE
  5
A3
100
AcDbEntity
  8
LY_3
390
0
  6
CONTINUOUS
 62
     3
100
AcDbLine
 10
252.600006
 20
-90.5
 30
0.0
 11
252.600006
 21
-97.5
 31
0.0
  0
LINE
  5
A4
100
AcDbEntity
  8
LY_3
390
0
  6
CONTINUOUS
 62
     3
100
AcDbLine
 10
252.59993
 20
-90.499959
 30
0.0
 11
252.299927
 21
-91.019579
 31
0.0
  0
LINE
  5
A5
100
AcDbEntity
  8
LY_3
390
0
  6
CONTINUOUS
 62
     3
100
AcDbLine
 10
257.000004
 20
50.0
 30
0.0
 11
257.000004
 21
43.765886
 31
0.0
  0
LINE
  5
A6
100
AcDbEntity
  8
LY_3
390
0
  6
CONTINUOUS
 62
     3
100
AcDbLine
 10
296.5
 20
59.0
 30
0.0
 11
296.5
 21
58.0
 31
0.0
  0
LINE
  5
A7
100
AcDbEntity
  8
LY_3
390
0
  6
CONTINUOUS
 62
     3
100
AcDbLine
 10
296.5
 20
-100.0
 30
0.0
 11
296.5
 21
-101.0
 31
0.0
  0
LINE
  5
A8
100
AcDbEntity
  8
LY_3
390
0
  6
CENTER
 62
   110
100
AcDbLine
 10
312.5
 20
-97.012222
 30
0.0
 11
312.5
 21
-104.313812
 31
0.0
  0
LINE
  5
A9
100
AcDbEntity
  8
LY_3
390
0
  6
CONTINUOUS
 62
     3
100
AcDbLine
 10
296.5
 20
-101.0
 30
0.0
 11
361.0
 21
-101.0
 31
0.0
  0
LINE
  5
AA
100
AcDbEntity
  8
LY_3
390
0
  6
CONTINUOUS
 62
     3
100
AcDbLine
 10
296.5
 20
59.0
 30
0.0
 11
361.0
 21
59.0
 31
0.0
  0
LINE
  5
AB
100
AcDbEntity
  8
LY_3
390
0
  6
CONTINUOUS
 62
     3
100
AcDbLine
 10
307.0
 20
59.5
 30
0.0
 11
307.0
 21
59.0
 31
0.0
  0
LINE
  5
AC
100
AcDbEntity
  8
LY_3
390
0
  6
CONTINUOUS
 62
     3
100
AcDbLine
 10
318.0
 20
59.5
 30
0.0
 11
318.0
 21
59.0
 31
0.0
  0
LINE
  5
AD
100
AcDbEntity
  8
LY_3
390
0
  6
CONTINUOUS
 62
     3
100
AcDbLine
 10
308.5
 20
61.0
 30
0.0
 11
316.5
 21
61.0
 31
0.0
  0
LINE
  5
AE
100
AcDbEntity
  8
LY_3
390
0
  6
CONTINUOUS
 62
     3
100
AcDbLine
 10
308.5
 20
59.0
 30
0.0
 11
308.5
 21
58.5
 31
0.0
  0
LINE
  5
AF
100
AcDbEntity
  8
LY_3
390
0
  6
CONTINUOUS
 62
     3
100
AcDbLine
 10
316.5
 20
59.0
 30
0.0
 11
316.5
 21
58.5
 31
0.0
  0
LINE
  5
B0
100
AcDbEntity
  8
LY_3
390
0
  6
CONTINUOUS
 62
     3
100
AcDbLine
 10
267.000004
 20
53.0
 30
0.0
 11
296.5
 21
53.0
 31
0.0
  0
LINE
  5
B1
100
AcDbEntity
  8
LY_3
390
0
  6
CONTINUOUS
 62
     3
100
AcDbLine
 10
267.000004
 20
53.000004
 30
0.0
 11
267.000004
 21
33.0
 31
0.0
  0
LINE
  5
B2
100
AcDbEntity
  8
LY_3
390
0
  6
CONTINUOUS
 62
     3
100
AcDbLine
 10
267.000004
 20
40.0
 30
0.0
 11
257.000004
 21
40.0
 31
0.0
  0
LINE
  5
B3
100
AcDbEntity
  8
LY_3
390
0
  6
CONTINUOUS
 62
     3
100
AcDbLine
 10
267.000004
 20
46.0
 30
0.0
 11
257.000004
 21
46.0
 31
0.0
  0
LINE
  5
B4
100
AcDbEntity
  8
LY_3
390
0
  6
CONTINUOUS
 62
     3
100
AcDbLine
 10
242.999935
 20
46.000072
 30
0.0
 11
241.999933
 21
45.000072
 31
0.0
  0
LINE
  5
B5
100
AcDbEntity
  8
LY_3
390
0
  6
CONTINUOUS
 62
     3
100
AcDbLine
 10
242.0
 20
45.000137
 30
0.0
 11
242.0
 21
41.000008
 31
0.0
  0
LINE
  5
B6
100
AcDbEntity
  8
LY_3
390
0
  6
CONTINUOUS
 62
     3
100
AcDbLine
 10
243.0
 20
46.000004
 30
0.0
 11
243.0
 21
40.000004
 31
0.0
  0
LINE
  5
B7
100
AcDbEntity
  8
LY_3
390
0
  6
CONTINUOUS
 62
     3
100
AcDbLine
 10
243.000177
 20
40.000222
 30
0.0
 11
242.000177
 21
41.000223
 31
0.0
  0
LINE
  5
B8
100
AcDbEntity
  8
LY_3
390
0
  6
CENTER
 62
   110
100
AcDbLine
 10
284.5
 20
52.799999
 30
0.0
 11
284.5
 21
45.200001
 31
0.0
  0
LINE
  5
B9
100
AcDbEntity
  8
LY_3
390
0
  6
CENTER
 62
   110
100
AcDbLine
 10
280.699997
 20
37.0
 30
0.0
 11
288.300003
 21
37.0
 31
0.0
  0
LINE
  5
BA
100
AcDbEntity
  8
LY_3
390
0
  6
CENTER
 62
   110
100
AcDbLine
 10
280.699997
 20
49.0
 30
0.0
 11
288.300003
 21
49.0
 31
0.0
  0
LINE
  5
BB
100
AcDbEntity
  8
LY_3
390
0
  6
CENTER
 62
   110
100
AcDbLine
 10
284.5
 20
40.799999
 30
0.0
 11
284.5
 21
33.199997
 31
0.0
  0
LINE
  5
BC
100
AcDbEntity
  8
LY_3
390
0
  6
CONTINUOUS
 62
     3
100
AcDbLine
 10
284.3125
 20
38.5
 30
0.0
 11
284.6875
 21
38.5
 31
0.0
  0
LINE
  5
BD
100
AcDbEntity
  8
LY_3
390
0
  6
CONTINUOUS
 62
     3
100
AcDbLine
 10
284.3125
 20
35.5
 30
0.0
 11
284.6875
 21
35.5
 31
0.0
  0
LINE
  5
BE
100
AcDbEntity
  8
LY_3
390
0
  6
CONTINUOUS
 62
     3
100
AcDbLine
 10
286.0
 20
37.1875
 30
0.0
 11
286.0
 21
36.8125
 31
0.0
  0
LINE
  5
BF
100
AcDbEntity
  8
LY_3
390
0
  6
CONTINUOUS
 62
     3
100
AcDbLine
 10
283.0
 20
37.1875
 30
0.0
 11
283.0
 21
36.8125
 31
0.0
  0
LINE
  5
C0
100
AcDbEntity
  8
LY_3
390
0
  6
CONTINUOUS
 62
     3
100
AcDbLine
 10
284.6875
 20
38.5
 30
0.0
 11
284.6875
 21
37.809547
 31
0.0
  0
LINE
  5
C1
100
AcDbEntity
  8
LY_3
390
0
  6
CONTINUOUS
 62
     3
100
AcDbLine
 10
284.3125
 20
38.5
 30
0.0
 11
284.3125
 21
37.809547
 31
0.0
  0
LINE
  5
C2
100
AcDbEntity
  8
LY_3
390
0
  6
CONTINUOUS
 62
     3
100
AcDbLine
 10
283.0
 20
36.8125
 30
0.0
 11
283.69046
 21
36.8125
 31
0.0
  0
LINE
  5
C3
100
AcDbEntity
  8
LY_3
390
0
  6
CONTINUOUS
 62
     3
100
AcDbLine
 10
283.0
 20
37.1875
 30
0.0
 11
283.69046
 21
37.1875
 31
0.0
  0
LINE
  5
C4
100
AcDbEntity
  8
LY_3
390
0
  6
CONTINUOUS
 62
     3
100
AcDbLine
 10
284.3125
 20
36.190453
 30
0.0
 11
284.3125
 21
35.5
 31
0.0
  0
LINE
  5
C5
100
AcDbEntity
  8
LY_3
390
0
  6
CONTINUOUS
 62
     3
100
AcDbLine
 10
284.6875
 20
36.190453
 30
0.0
 11
284.6875
 21
35.5
 31
0.0
  0
LINE
  5
C6
100
AcDbEntity
  8
LY_3
390
0
  6
CONTINUOUS
 62
     3
100
AcDbLine
 10
285.309555
 20
36.8125
 30
0.0
 11
286.0
 21
36.8125
 31
0.0
  0
LINE
  5
C7
100
AcDbEntity
  8
LY_3
390
0
  6
CONTINUOUS
 62
     3
100
AcDbLine
 10
285.309555
 20
37.1875
 30
0.0
 11
286.0
 21
37.1875
 31
0.0
  0
LINE
  5
C8
100
AcDbEntity
  8
LY_3
390
0
  6
CONTINUOUS
 62
     3
100
AcDbLine
 10
284.3125
 20
50.5
 30
0.0
 11
284.6875
 21
50.5
 31
0.0
  0
LINE
  5
C9
100
AcDbEntity
  8
LY_3
390
0
  6
CONTINUOUS
 62
     3
100
AcDbLine
 10
284.3125
 20
47.5
 30
0.0
 11
284.6875
 21
47.5
 31
0.0
  0
LINE
  5
CA
100
AcDbEntity
  8
LY_3
390
0
  6
CONTINUOUS
 62
     3
100
AcDbLine
 10
286.0
 20
49.1875
 30
0.0
 11
286.0
 21
48.8125
 31
0.0
  0
LINE
  5
CB
100
AcDbEntity
  8
LY_3
390
0
  6
CONTINUOUS
 62
     3
100
AcDbLine
 10
283.0
 20
49.1875
 30
0.0
 11
283.0
 21
48.8125
 31
0.0
  0
LINE
  5
CC
100
AcDbEntity
  8
LY_3
390
0
  6
CONTINUOUS
 62
     3
100
AcDbLine
 10
284.6875
 20
50.5
 30
0.0
 11
284.6875
 21
49.809547
 31
0.0
  0
LINE
  5
CD
100
AcDbEntity
  8
LY_3
390
0
  6
CONTINUOUS
 62
     3
100
AcDbLine
 10
284.3125
 20
50.5
 30
0.0
 11
284.3125
 21
49.809547
 31
0.0
  0
LINE
  5
CE
100
AcDbEntity
  8
LY_3
390
0
  6
CONTINUOUS
 62
     3
100
AcDbLine
 10
283.0
 20
48.8125
 30
0.0
 11
283.69046
 21
48.8125
 31
0.0
  0
LINE
  5
CF
100
AcDbEntity
  8
LY_3
390
0
  6
CONTINUOUS
 62
     3
100
AcDbLine
 10
283.0
 20
49.1875
 30
0.0
 11
283.69046
 21
49.1875
 31
0.0
  0
LINE
  5
D0
100
AcDbEntity
  8
LY_3
390
0
  6
CONTINUOUS
 62
     3
100
AcDbLine
 10
284.3125
 20
48.190453
 30
0.0
 11
284.3125
 21
47.5
 31
0.0
  0
LINE
  5
D1
100
AcDbEntity
  8
LY_3
390
0
  6
CONTINUOUS
 62
     3
100
AcDbLine
 10
284.6875
 20
48.190453
 30
0.0
 11
284.6875
 21
47.5
 31
0.0
  0
LINE
  5
D2
100
AcDbEntity
  8
LY_3
390
0
  6
CONTINUOUS
 62
     3
100
AcDbLine
 10
285.309555
 20
48.8125
 30
0.0
 11
286.0
 21
48.8125
 31
0.0
  0
LINE
  5
D3
100
AcDbEntity
  8
LY_3
390
0
  6
CONTINUOUS
 62
     3
100
AcDbLine
 10
285.309555
 20
49.1875
 30
0.0
 11
286.0
 21
49.1875
 31
0.0
  0
LINE
  5
D4
100
AcDbEntity
  8
LY_3
390
0
  6
CENTER
 62
   110
100
AcDbLine
 10
241.094604
 20
43.0
 30
0.0
 11
299.221905
 21
43.0
 31
0.0
  0
LINE
  5
D5
100
AcDbEntity
  8
LY_3
390
0
  6
CENTER
 62
   110
100
AcDbLine
 10
291.109921
 20
36.0
 30
0.0
 11
303.149166
 21
36.0
 31
0.0
  0
LINE
  5
D6
100
AcDbEntity
  8
LY_3
390
0
  6
CENTER
 62
   110
100
AcDbLine
 10
290.606888
 20
50.0
 30
0.0
 11
303.42358
 21
50.0
 31
0.0
  0
LINE
  5
D7
100
AcDbEntity
  8
LY_3
390
0
  6
CONTINUOUS
 62
     3
100
AcDbLine
 10
292.5
 20
33.596405
 30
0.0
 11
292.5
 21
38.403591
 31
0.0
  0
LINE
  5
D8
100
AcDbEntity
  8
LY_3
390
0
  6
CONTINUOUS
 62
     3
100
AcDbLine
 10
292.700001
 20
33.25
 30
0.0
 11
295.500004
 21
33.25
 31
0.0
  0
LINE
  5
D9
100
AcDbEntity
  8
LY_3
390
0
  6
CONTINUOUS
 62
     3
100
AcDbLine
 10
292.700001
 20
38.75
 30
0.0
 11
295.500004
 21
38.75
 31
0.0
  0
LINE
  5
DA
100
AcDbEntity
  8
LY_3
390
0
  6
CONTINUOUS
 62
     3
100
AcDbLine
 10
292.699997
 20
33.25
 30
0.0
 11
292.699997
 21
38.75
 31
0.0
  0
LINE
  5
DB
100
AcDbEntity
  8
LY_3
390
0
  6
CONTINUOUS
 62
     3
100
AcDbLine
 10
292.49994
 20
33.596392
 30
0.0
 11
292.699937
 21
33.249987
 31
0.0
  0
LINE
  5
DC
100
AcDbEntity
  8
LY_3
390
0
  6
CONTINUOUS
 62
     3
100
AcDbLine
 10
292.500007
 20
38.403575
 30
0.0
 11
292.700009
 21
38.749986
 31
0.0
  0
LINE
  5
DD
100
AcDbEntity
  8
LY_3
390
0
  6
CONTINUOUS
 62
     3
100
AcDbLine
 10
292.5
 20
47.596409
 30
0.0
 11
292.5
 21
52.403591
 31
0.0
  0
LINE
  5
DE
100
AcDbEntity
  8
LY_3
390
0
  6
CONTINUOUS
 62
     3
100
AcDbLine
 10
292.700001
 20
47.25
 30
0.0
 11
295.500004
 21
47.25
 31
0.0
  0
LINE
  5
DF
100
AcDbEntity
  8
LY_3
390
0
  6
CONTINUOUS
 62
     3
100
AcDbLine
 10
292.700001
 20
52.75
 30
0.0
 11
295.500004
 21
52.75
 31
0.0
  0
LINE
  5
E0
100
AcDbEntity
  8
LY_3
390
0
  6
CONTINUOUS
 62
     3
100
AcDbLine
 10
292.699997
 20
47.25
 30
0.0
 11
292.699997
 21
52.75
 31
0.0
  0
LINE
  5
E1
100
AcDbEntity
  8
LY_3
390
0
  6
CONTINUOUS
 62
     3
100
AcDbLine
 10
292.499959
 20
47.596367
 30
0.0
 11
292.699956
 21
47.249962
 31
0.0
  0
LINE
  5
E2
100
AcDbEntity
  8
LY_3
390
0
  6
CONTINUOUS
 62
     3
100
AcDbLine
 10
292.500004
 20
52.403594
 30
0.0
 11
292.700004
 21
52.750006
 31
0.0
  0
LINE
  5
E3
100
AcDbEntity
  8
LY_3
390
0
  6
CONTINUOUS
 62
     3
100
AcDbLine
 10
180.548615
 20
39.0
 30
0.0
 11
181.0
 21
39.0
 31
0.0
  0
LINE
  5
E4
100
AcDbEntity
  8
LY_3
390
0
  6
CONTINUOUS
 62
     3
100
AcDbLine
 10
180.548615
 20
33.0
 30
0.0
 11
181.0
 21
33.0
 31
0.0
  0
LINE
  5
E5
100
AcDbEntity
  8
LY_3
390
0
  6
CONTINUOUS
 62
     3
100
AcDbLine
 10
196.748566
 20
42.5
 30
0.0
 11
196.748566
 21
29.5
 31
0.0
  0
LINE
  5
E6
100
AcDbEntity
  8
LY_3
390
0
  6
CONTINUOUS
 62
     3
100
AcDbLine
 10
216.748566
 20
42.5
 30
0.0
 11
216.748566
 21
29.5
 31
0.0
  0
LINE
  5
E7
100
AcDbEntity
  8
LY_3
390
0
  6
CONTINUOUS
 62
     3
100
AcDbLine
 10
196.748566
 20
42.5
 30
0.0
 11
216.748566
 21
42.5
 31
0.0
  0
LINE
  5
E8
100
AcDbEntity
  8
LY_3
390
0
  6
CONTINUOUS
 62
     3
100
AcDbLine
 10
196.748566
 20
29.5
 30
0.0
 11
216.748566
 21
29.5
 31
0.0
  0
LINE
  5
E9
100
AcDbEntity
  8
LY_3
390
0
  6
CENTER
 62
   110
100
AcDbLine
 10
201.748566
 20
50.902382
 30
0.0
 11
201.748566
 21
46.604965
 31
0.0
  0
LINE
  5
EA
100
AcDbEntity
  8
LY_3
390
0
  6
CENTER
 62
   110
100
AcDbLine
 10
211.748566
 20
50.902382
 30
0.0
 11
211.748566
 21
46.537819
 31
0.0
  0
LINE
  5
EB
100
AcDbEntity
  8
LY_3
390
0
  6
CONTINUOUS
 62
     3
100
AcDbLine
 10
216.748566
 20
48.099976
 30
0.0
 11
196.948578
 21
48.099976
 31
0.0
  0
LINE
  5
EC
100
AcDbEntity
  8
LY_3
390
0
  6
CONTINUOUS
 62
     3
100
AcDbLine
 10
196.948578
 20
42.5
 30
0.0
 11
196.948578
 21
43.099976
 31
0.0
  0
LINE
  5
ED
100
AcDbEntity
  8
LY_3
390
0
  6
CONTINUOUS
 62
     3
100
AcDbLine
 10
216.748566
 20
48.099976
 30
0.0
 11
216.748566
 21
42.5
 31
0.0
  0
LINE
  5
EE
100
AcDbEntity
  8
LY_3
390
0
  6
CONTINUOUS
 62
     3
100
AcDbLine
 10
207.648575
 20
42.5
 30
0.0
 11
207.648575
 21
43.399994
 31
0.0
  0
LINE
  5
EF
100
AcDbEntity
  8
LY_3
390
0
  6
CONTINUOUS
 62
     3
100
AcDbLine
 10
206.948578
 20
42.5
 30
0.0
 11
206.948578
 21
43.399994
 31
0.0
  0
LINE
  5
F0
100
AcDbEntity
  8
LY_3
390
0
  6
CONTINUOUS
 62
     3
100
AcDbLine
 10
214.040848
 20
43.399994
 30
0.0
 11
195.348572
 21
43.399994
 31
0.0
  0
LINE
  5
F1
100
AcDbEntity
  8
LY_3
390
0
  6
CONTINUOUS
 62
     3
100
AcDbLine
 10
214.040848
 20
47.199982
 30
0.0
 11
195.348572
 21
47.199982
 31
0.0
  0
LINE
  5
F2
100
AcDbEntity
  8
LY_3
390
0
  6
CONTINUOUS
 62
     3
100
AcDbLine
 10
214.040848
 20
47.199982
 30
0.0
 11
214.040848
 21
43.399994
 31
0.0
  0
LINE
  5
F3
100
AcDbEntity
  8
LY_3
390
0
  6
CONTINUOUS
 62
     3
100
AcDbLine
 10
196.948578
 20
47.5
 30
0.0
 11
196.948578
 21
48.099976
 31
0.0
  0
LINE
  5
F4
100
AcDbEntity
  8
LY_3
390
0
  6
CONTINUOUS
 62
     3
100
AcDbLine
 10
207.648575
 20
47.199982
 30
0.0
 11
207.648575
 21
48.099976
 31
0.0
  0
LINE
  5
F5
100
AcDbEntity
  8
LY_3
390
0
  6
CONTINUOUS
 62
     3
100
AcDbLine
 10
206.948578
 20
47.199982
 30
0.0
 11
206.948578
 21
48.099976
 31
0.0
  0
LINE
  5
F6
100
AcDbEntity
  8
LY_3
390
0
  6
CONTINUOUS
 62
     3
100
AcDbLine
 10
199.548409
 20
46.399884
 30
0.0
 11
199.048419
 21
46.899873
 31
0.0
  0
LINE
  5
F7
100
AcDbEntity
  8
LY_3
390
0
  6
CONTINUOUS
 62
     3
100
AcDbLine
 10
199.548569
 20
44.199982
 30
0.0
 11
199.548569
 21
46.399994
 31
0.0
  0
LINE
  5
F8
100
AcDbEntity
  8
LY_3
390
0
  6
CONTINUOUS
 62
     3
100
AcDbLine
 10
199.548608
 20
44.199936
 30
0.0
 11
199.048618
 21
43.699946
 31
0.0
  0
LINE
  5
F9
100
AcDbEntity
  8
LY_3
390
0
  6
CONTINUOUS
 62
     3
100
AcDbLine
 10
199.048584
 20
43.699982
 30
0.0
 11
195.248566
 21
43.699982
 31
0.0
  0
LINE
  5
FA
100
AcDbEntity
  8
LY_3
390
0
  6
CONTINUOUS
 62
     3
100
AcDbLine
 10
198.948578
 20
43.699982
 30
0.0
 11
198.948578
 21
43.399994
 31
0.0
  0
LINE
  5
FB
100
AcDbEntity
  8
LY_3
390
0
  6
CONTINUOUS
 62
     3
100
AcDbLine
 10
195.348572
 20
43.699982
 30
0.0
 11
195.348572
 21
43.399994
 31
0.0
  0
LINE
  5
FC
100
AcDbEntity
  8
LY_3
390
0
  6
CONTINUOUS
 62
     3
100
AcDbLine
 10
195.248221
 20
43.699664
 30
0.0
 11
194.74822
 21
44.199664
 31
0.0
  0
LINE
  5
FD
100
AcDbEntity
  8
LY_3
390
0
  6
CONTINUOUS
 62
     3
100
AcDbLine
 10
194.748566
 20
44.199982
 30
0.0
 11
194.748566
 21
46.399994
 31
0.0
  0
LINE
  5
FE
100
AcDbEntity
  8
LY_3
390
0
  6
CONTINUOUS
 62
     3
100
AcDbLine
 10
194.74826
 20
46.400308
 30
0.0
 11
195.248261
 21
46.900307
 31
0.0
  0
LINE
  5
FF
100
AcDbEntity
  8
LY_3
390
0
  6
CONTINUOUS
 62
     3
100
AcDbLine
 10
199.048569
 20
46.899994
 30
0.0
 11
195.248581
 21
46.899994
 31
0.0
  0
LINE
  5
100
100
AcDbEntity
  8
LY_3
390
0
  6
CONTINUOUS
 62
     3
100
AcDbLine
 10
195.348572
 20
47.199982
 30
0.0
 11
195.348572
 21
46.899994
 31
0.0
  0
LINE
  5
101
100
AcDbEntity
  8
LY_3
390
0
  6
CONTINUOUS
 62
     3
100
AcDbLine
 10
198.948578
 20
46.899994
 30
0.0
 11
198.948578
 21
47.199982
 31
0.0
  0
LINE
  5
102
100
AcDbEntity
  8
LY_3
390
0
  6
CONTINUOUS
 62
     3
100
AcDbLine
 10
198.348572
 20
47.5
 30
0.0
 11
195.948578
 21
47.5
 31
0.0
  0
LINE
  5
103
100
AcDbEntity
  8
LY_3
390
0
  6
CONTINUOUS
 62
     3
100
AcDbLine
 10
198.348572
 20
47.199982
 30
0.0
 11
198.348572
 21
47.5
 31
0.0
  0
LINE
  5
104
100
AcDbEntity
  8
LY_3
390
0
  6
CONTINUOUS
 62
     3
100
AcDbLine
 10
195.948578
 20
47.199982
 30
0.0
 11
195.948578
 21
47.5
 31
0.0
  0
LINE
  5
105
100
AcDbEntity
  8
LY_3
390
0
  6
CONTINUOUS
 62
     3
100
AcDbLine
 10
195.948578
 20
43.099976
 30
0.0
 11
195.948578
 21
43.399994
 31
0.0
  0
LINE
  5
106
100
AcDbEntity
  8
LY_3
390
0
  6
CONTINUOUS
 62
     3
100
AcDbLine
 10
198.348572
 20
43.099976
 30
0.0
 11
195.948578
 21
43.099976
 31
0.0
  0
LINE
  5
107
100
AcDbEntity
  8
LY_3
390
0
  6
CONTINUOUS
 62
     3
100
AcDbLine
 10
198.348572
 20
43.099976
 30
0.0
 11
198.348572
 21
43.399994
 31
0.0
  0
LINE
  5
108
100
AcDbEntity
  8
LY_3
390
0
  6
CENTER
 62
   110
100
AcDbLine
 10
197.148575
 20
42.299988
 30
0.0
 11
197.148575
 21
48.299988
 31
0.0
  0
LINE
  5
109
100
AcDbEntity
  8
LY_3
390
0
  6
CONTINUOUS
 62
     3
100
AcDbLine
 10
199.548569
 20
48.599976
 30
0.0
 11
203.948578
 21
48.599976
 31
0.0
  0
LINE
  5
10B
100
AcDbEntity
  8
LY_3
390
0
  6
DASHED
 62
     3
100
AcDbLine
 10
200.698578
 20
48.599976
 30
0.0
 11
200.698578
 21
48.099976
 31
0.0
  0
LINE
  5
10C
100
AcDbEntity
  8
LY_3
390
0
  6
DASHED
 62
     3
100
AcDbLine
 10
202.798569
 20
48.599976
 30
0.0
 11
202.798569
 21
48.099976
 31
0.0
  0
LINE
  5
10D
100
AcDbEntity
  8
LY_3
390
0
  6
CONTINUOUS
 62
     3
100
AcDbLine
 10
199.548569
 20
48.599976
 30
0.0
 11
199.548569
 21
48.099976
 31
0.0
  0
LINE
  5
10E
100
AcDbEntity
  8
LY_3
390
0
  6
CONTINUOUS
 62
     3
100
AcDbLine
 10
203.948578
 20
48.599976
 30
0.0
 11
203.948578
 21
48.099976
 31
0.0
  0
LINE
  5
10F
100
AcDbEntity
  8
LY_3
390
0
  6
CONTINUOUS
 62
     3
100
AcDbLine
 10
202.181465
 20
48.099913
 30
0.0
 11
201.892792
 21
48.59991
 31
0.0
  0
LINE
  5
110
100
AcDbEntity
  8
LY_3
390
0
  6
CONTINUOUS
 62
     3
100
AcDbLine
 10
201.604103
 20
48.09991
 30
0.0
 11
201.315422
 21
48.599921
 31
0.0
  0
LINE
  5
111
100
AcDbEntity
  8
LY_3
390
0
  6
CONTINUOUS
 62
     3
100
AcDbLine
 10
209.548569
 20
48.599976
 30
0.0
 11
213.948578
 21
48.599976
 31
0.0
  0
LINE
  5
112
100
AcDbEntity
  8
LY_3
390
0
  6
DASHED
 62
     3
100
AcDbLine
 10
210.698563
 20
48.599976
 30
0.0
 11
210.698563
 21
48.099976
 31
0.0
  0
LINE
  5
113
100
AcDbEntity
  8
LY_3
390
0
  6
DASHED
 62
     3
100
AcDbLine
 10
212.798569
 20
48.599976
 30
0.0
 11
212.798569
 21
48.099976
 31
0.0
  0
LINE
  5
114
100
AcDbEntity
  8
LY_3
390
0
  6
CONTINUOUS
 62
     3
100
AcDbLine
 10
209.548569
 20
48.599976
 30
0.0
 11
209.548569
 21
48.099976
 31
0.0
  0
LINE
  5
115
100
AcDbEntity
  8
LY_3
390
0
  6
CONTINUOUS
 62
     3
100
AcDbLine
 10
213.948563
 20
48.599976
 30
0.0
 11
213.948563
 21
48.099976
 31
0.0
  0
LINE
  5
116
100
AcDbEntity
  8
LY_3
390
0
  6
CONTINUOUS
 62
     3
100
AcDbLine
 10
212.181467
 20
48.099941
 30
0.0
 11
211.89279
 21
48.599944
 31
0.0
  0
LINE
  5
117
100
AcDbEntity
  8
LY_3
390
0
  6
CONTINUOUS
 62
     3
100
AcDbLine
 10
211.604121
 20
48.09995
 30
0.0
 11
211.315447
 21
48.599947
 31
0.0
  0
LINE
  5
118
100
AcDbEntity
  8
LY_3
390
0
  6
CENTER
 62
   110
100
AcDbLine
 10
206.748566
 20
38.547314
 30
0.0
 11
206.748566
 21
33.5
 31
0.0
  0
LINE
  5
119
100
AcDbEntity
  8
LY_3
390
0
  6
CONTINUOUS
 62
     3
100
AcDbLine
 10
199.748566
 20
49.244972
 30
0.0
 11
199.748566
 21
48.599976
 31
0.0
  0
LINE
  5
11A
100
AcDbEntity
  8
LY_3
390
0
  6
CONTINUOUS
 62
     3
100
AcDbLine
 10
203.748566
 20
49.244972
 30
0.0
 11
203.748566
 21
48.599976
 31
0.0
  0
LINE
  5
11B
100
AcDbEntity
  8
LY_3
390
0
  6
CONTINUOUS
 62
     3
100
AcDbLine
 10
209.748566
 20
49.244972
 30
0.0
 11
209.748566
 21
48.599976
 31
0.0
  0
LINE
  5
11C
100
AcDbEntity
  8
LY_3
390
0
  6
CONTINUOUS
 62
     3
100
AcDbLine
 10
213.748566
 20
49.244972
 30
0.0
 11
213.748566
 21
48.599976
 31
0.0
  0
LINE
  5
11D
100
AcDbEntity
  8
LY_3
390
0
  6
CONTINUOUS
 62
     3
100
AcDbLine
 10
216.748558
 20
33.0
 30
0.0
 11
237.490051
 21
33.0
 31
0.0
  0
LINE
  5
11E
100
AcDbEntity
  8
LY_3
390
0
  6
CONTINUOUS
 62
     3
100
AcDbLine
 10
216.748558
 20
39.0
 30
0.0
 11
237.490051
 21
39.0
 31
0.0
  0
LINE
  5
11F
100
AcDbEntity
  8
LY_3
390
0
  6
CENTER
 62
   110
100
AcDbLine
 10
84.787064
 20
0.0
 30
0.0
 11
328.773499
 21
0.0
 31
0.0
  0
LINE
  5
120
100
AcDbEntity
  8
LY_3
390
0
  6
CONTINUOUS
 62
     3
100
AcDbLine
 10
90.000015
 20
5.5
 30
0.0
 11
125.000015
 21
5.5
 31
0.0
  0
LINE
  5
121
100
AcDbEntity
  8
LY_3
390
0
  6
CENTER
 62
   110
100
AcDbLine
 10
178.314087
 20
-65.0
 30
0.0
 11
304.12915
 21
-65.0
 31
0.0
  0
LINE
  5
122
100
AcDbEntity
  8
LY_3
390
0
  6
CONTINUOUS
 62
     3
100
AcDbLine
 10
307.0
 20
-101.5
 30
0.0
 11
307.0
 21
-101.0
 31
0.0
  0
LINE
  5
123
100
AcDbEntity
  8
LY_3
390
0
  6
CONTINUOUS
 62
     3
100
AcDbLine
 10
308.5
 20
-103.0
 30
0.0
 11
316.5
 21
-103.0
 31
0.0
  0
LINE
  5
124
100
AcDbEntity
  8
LY_3
390
0
  6
CONTINUOUS
 62
     3
100
AcDbLine
 10
318.0
 20
-101.5
 30
0.0
 11
318.0
 21
-101.0
 31
0.0
  0
LINE
  5
125
100
AcDbEntity
  8
LY_3
390
0
  6
CONTINUOUS
 62
     3
100
AcDbLine
 10
361.0
 20
59.0
 30
0.0
 11
361.0
 21
-101.0
 31
0.0
  0
LINE
  5
126
100
AcDbEntity
  8
LY_3
390
0
  6
CONTINUOUS
 62
     3
100
AcDbLine
 10
291.000001
 20
24.000001
 30
0.0
 11
291.499999
 21
23.500003
 31
0.0
  0
LINE
  5
127
100
AcDbEntity
  8
LY_3
390
0
  6
CONTINUOUS
 62
     3
100
AcDbLine
 10
291.499984
 20
-23.499966
 30
0.0
 11
290.999983
 21
-23.999966
 31
0.0
  0
LINE
  5
128
100
AcDbEntity
  8
LY_3
390
0
  6
CONTINUOUS
 62
     3
100
AcDbLine
 10
257.490051
 20
48.099976
 30
0.0
 11
257.490051
 21
46.0
 31
0.0
  0
LINE
  5
129
100
AcDbEntity
  8
LY_3
390
0
  6
CONTINUOUS
 62
     3
100
AcDbLine
 10
237.490051
 20
42.5
 30
0.0
 11
237.490051
 21
29.5
 31
0.0
  0
LINE
  5
12A
100
AcDbEntity
  8
LY_3
390
0
  6
CONTINUOUS
 62
     3
100
AcDbLine
 10
257.490051
 20
29.5
 30
0.0
 11
257.000004
 21
29.5
 31
0.0
  0
LINE
  5
12B
100
AcDbEntity
  8
LY_3
390
0
  6
CENTER
 62
   110
100
AcDbLine
 10
242.490051
 20
50.902382
 30
0.0
 11
242.490051
 21
46.537819
 31
0.0
  0
LINE
  5
12C
100
AcDbEntity
  8
LY_3
390
0
  6
CONTINUOUS
 62
     3
100
AcDbLine
 10
237.490051
 20
42.5
 30
0.0
 11
242.0
 21
42.5
 31
0.0
  0
LINE
  5
12D
100
AcDbEntity
  8
LY_3
390
0
  6
CONTINUOUS
 62
     3
100
AcDbLine
 10
237.490051
 20
48.099976
 30
0.0
 11
247.000004
 21
48.099976
 31
0.0
  0
LINE
  5
12E
100
AcDbEntity
  8
LY_3
390
0
  6
CONTINUOUS
 62
     3
100
AcDbLine
 10
237.490051
 20
48.099976
 30
0.0
 11
237.490051
 21
42.5
 31
0.0
  0
LINE
  5
12F
100
AcDbEntity
  8
LY_3
390
0
  6
CONTINUOUS
 62
     3
100
AcDbLine
 10
240.197769
 20
43.399994
 30
0.0
 11
242.0
 21
43.399994
 31
0.0
  0
LINE
  5
130
100
AcDbEntity
  8
LY_3
390
0
  6
CONTINUOUS
 62
     3
100
AcDbLine
 10
240.197769
 20
47.199982
 30
0.0
 11
247.000004
 21
47.199982
 31
0.0
  0
LINE
  5
131
100
AcDbEntity
  8
LY_3
390
0
  6
CONTINUOUS
 62
     3
100
AcDbLine
 10
240.197769
 20
47.199982
 30
0.0
 11
240.197769
 21
43.399994
 31
0.0
  0
LINE
  5
132
100
AcDbEntity
  8
LY_3
390
0
  6
CONTINUOUS
 62
     3
100
AcDbLine
 10
246.590042
 20
47.199982
 30
0.0
 11
246.590042
 21
48.099976
 31
0.0
  0
LINE
  5
133
100
AcDbEntity
  8
LY_3
390
0
  6
CONTINUOUS
 62
     3
100
AcDbLine
 10
246.290039
 20
47.199982
 30
0.0
 11
246.290039
 21
48.099976
 31
0.0
  0
LINE
  5
134
100
AcDbEntity
  8
LY_3
390
0
  6
CONTINUOUS
 62
     3
100
AcDbLine
 10
244.690048
 20
48.599976
 30
0.0
 11
240.290039
 21
48.599976
 31
0.0
  0
LINE
  5
135
100
AcDbEntity
  8
LY_3
390
0
  6
DASHED
 62
     3
100
AcDbLine
 10
243.540054
 20
48.599976
 30
0.0
 11
243.540054
 21
48.099976
 31
0.0
  0
LINE
  5
136
100
AcDbEntity
  8
LY_3
390
0
  6
DASHED
 62
     3
100
AcDbLine
 10
241.440048
 20
48.599976
 30
0.0
 11
241.440048
 21
48.099976
 31
0.0
  0
LINE
  5
137
100
AcDbEntity
  8
LY_3
390
0
  6
CONTINUOUS
 62
     3
100
AcDbLine
 10
244.690048
 20
48.599976
 30
0.0
 11
244.690048
 21
48.099976
 31
0.0
  0
LINE
  5
138
100
AcDbEntity
  8
LY_3
390
0
  6
CONTINUOUS
 62
     3
100
AcDbLine
 10
240.290054
 20
48.599976
 30
0.0
 11
240.290054
 21
48.099976
 31
0.0
  0
LINE
  5
139
100
AcDbEntity
  8
LY_3
390
0
  6
CONTINUOUS
 62
     3
100
AcDbLine
 10
242.057124
 20
48.099955
 30
0.0
 11
242.345798
 21
48.59996
 31
0.0
  0
LINE
  5
13A
100
AcDbEntity
  8
LY_3
390
0
  6
CONTINUOUS
 62
     3
100
AcDbLine
 10
242.634478
 20
48.099958
 30
0.0
 11
242.923152
 21
48.599955
 31
0.0
  0
LINE
  5
13B
100
AcDbEntity
  8
LY_3
390
0
  6
CONTINUOUS
 62
     3
100
AcDbLine
 10
244.490051
 20
49.244972
 30
0.0
 11
244.490051
 21
48.599976
 31
0.0
  0
LINE
  5
13C
100
AcDbEntity
  8
LY_3
390
0
  6
CONTINUOUS
 62
     3
100
AcDbLine
 10
240.490051
 20
49.244972
 30
0.0
 11
240.490051
 21
48.599976
 31
0.0
  0
LINE
  5
13D
100
AcDbEntity
  8
LY_3
390
0
  6
CONTINUOUS
 62
     3
100
AcDbLine
 10
254.000004
 20
29.5
 30
0.0
 11
237.490051
 21
29.5
 31
0.0
  0
LINE
  5
13E
100
AcDbEntity
  8
LY_3
390
0
  6
CENTER
 62
   110
100
AcDbLine
 10
312.5
 20
54.18914
 30
0.0
 11
312.5
 21
62.568756
 31
0.0
  0
LINE
  5
13F
100
AcDbEntity
  8
LY_3
390
0
  6
CONTINUOUS
 62
     3
100
AcDbLine
 10
257.490051
 20
39.0
 30
0.0
 11
267.000004
 21
39.0
 31
0.0
  0
LINE
  5
140
100
AcDbEntity
  8
LY_3
390
0
  6
CONTINUOUS
 62
     3
100
AcDbLine
 10
247.000004
 20
36.0
 30
0.0
 11
254.000004
 21
36.0
 31
0.0
  0
LINE
  5
141
100
AcDbEntity
  8
LY_3
390
0
  6
CONTINUOUS
 62
     3
100
AcDbLine
 10
247.000004
 20
50.0
 30
0.0
 11
257.000004
 21
50.0
 31
0.0
  0
LINE
  5
142
100
AcDbEntity
  8
LY_3
390
0
  6
CENTER
 62
   110
100
AcDbLine
 10
247.490051
 20
36.5
 30
0.0
 11
247.490051
 21
32.5
 31
0.0
  0
LINE
  5
143
100
AcDbEntity
  8
LY_3
390
0
  6
CONTINUOUS
 62
     3
100
AcDbLine
 10
257.000004
 20
48.099976
 30
0.0
 11
257.490051
 21
48.099976
 31
0.0
  0
LINE
  5
144
100
AcDbEntity
  8
LY_3
390
0
  6
CONTINUOUS
 62
     3
100
AcDbLine
 10
257.490051
 20
40.0
 30
0.0
 11
257.490051
 21
29.5
 31
0.0
  0
LINE
  5
145
100
AcDbEntity
  8
LY_3
390
0
  6
CENTER
 62
   110
100
AcDbLine
 10
175.958679
 20
36.0
 30
0.0
 11
247.000004
 21
36.0
 31
0.0
  0
LINE
  5
146
100
AcDbEntity
  8
LY_3
390
0
  6
CENTER
 62
   110
100
AcDbLine
 10
257.066051
 20
36.0
 30
0.0
 11
268.792297
 21
36.0
 31
0.0
  0
LINE
  5
147
100
AcDbEntity
  8
LY_3
390
0
  6
CONTINUOUS
 62
     3
100
AcDbLine
 10
295.5
 20
38.799999
 30
0.0
 11
295.5
 21
33.199997
 31
0.0
  0
LINE
  5
148
100
AcDbEntity
  8
LY_3
390
0
  6
CONTINUOUS
 62
     3
100
AcDbLine
 10
295.5
 20
33.199997
 30
0.0
 11
296.5
 21
33.199997
 31
0.0
  0
LINE
  5
149
100
AcDbEntity
  8
LY_3
390
0
  6
CONTINUOUS
 62
     3
100
AcDbLine
 10
295.5
 20
38.799999
 30
0.0
 11
296.5
 21
38.799999
 31
0.0
  0
LINE
  5
14A
100
AcDbEntity
  8
LY_3
390
0
  6
CONTINUOUS
 62
     3
100
AcDbLine
 10
296.500025
 20
35.422653
 30
0.0
 11
295.500019
 21
36.00001
 31
0.0
  0
LINE
  5
14B
100
AcDbEntity
  8
LY_3
390
0
  6
CONTINUOUS
 62
     3
100
AcDbLine
 10
296.500008
 20
36.00001
 30
0.0
 11
295.500001
 21
36.577365
 31
0.0
  0
LINE
  5
14C
100
AcDbEntity
  8
LY_3
390
0
  6
CONTINUOUS
 62
     3
100
AcDbLine
 10
295.5
 20
52.799999
 30
0.0
 11
295.5
 21
47.200001
 31
0.0
  0
LINE
  5
14D
100
AcDbEntity
  8
LY_3
390
0
  6
CONTINUOUS
 62
     3
100
AcDbLine
 10
295.5
 20
47.200001
 30
0.0
 11
296.5
 21
47.200001
 31
0.0
  0
LINE
  5
14E
100
AcDbEntity
  8
LY_3
390
0
  6
CONTINUOUS
 62
     3
100
AcDbLine
 10
295.5
 20
52.799999
 30
0.0
 11
296.5
 21
52.799999
 31
0.0
  0
LINE
  5
14F
100
AcDbEntity
  8
LY_3
390
0
  6
CONTINUOUS
 62
     3
100
AcDbLine
 10
296.500029
 20
49.422665
 30
0.0
 11
295.500021
 21
50.00002
 31
0.0
  0
LINE
  5
150
100
AcDbEntity
  8
LY_3
390
0
  6
CONTINUOUS
 62
     3
100
AcDbLine
 10
296.500016
 20
50.000014
 30
0.0
 11
295.500009
 21
50.577368
 31
0.0
  0
LINE
  5
151
100
AcDbEntity
  8
LY_3
390
0
  6
CONTINUOUS
 62
     3
100
AcDbLine
 10
179.548599
 20
37.999992
 30
0.0
 11
179.548599
 21
34.000015
 31
0.0
  0
LINE
  5
152
100
AcDbEntity
  8
LY_3
390
0
  6
CONTINUOUS
 62
     3
100
AcDbLine
 10
179.548609
 20
37.999995
 30
0.0
 11
180.548611
 21
38.999996
 31
0.0
  0
LINE
  5
153
100
AcDbEntity
  8
LY_3
390
0
  6
CONTINUOUS
 62
     3
100
AcDbLine
 10
179.548604
 20
34.000018
 30
0.0
 11
180.548611
 21
33.000012
 31
0.0
  0
LINE
  5
154
100
AcDbEntity
  8
LY_3
390
0
  6
CONTINUOUS
 62
     3
100
AcDbLine
 10
90.000093
 20
-5.99994
 30
0.0
 11
91.000107
 21
-6.999939
 31
0.0
  0
LINE
  5
155
100
AcDbEntity
  8
LY_3
390
0
  6
CONTINUOUS
 62
     3
100
AcDbLine
 10
125.000034
 20
-6.99998
 30
0.0
 11
126.000035
 21
-7.999981
 31
0.0
  0
LINE
  5
156
100
AcDbEntity
  8
LY_3
390
0
  6
CONTINUOUS
 62
     3
100
AcDbLine
 10
125.000028
 20
7.000008
 30
0.0
 11
126.000029
 21
8.000009
 31
0.0
  0
LINE
  5
157
100
AcDbEntity
  8
LY_3
390
0
  6
CONTINUOUS
 62
     3
100
AcDbLine
 10
91.000046
 20
5.5
 30
0.0
 11
91.000046
 21
-7.0
 31
0.0
  0
LINE
  5
158
100
AcDbEntity
  8
LY_3
390
0
  6
CONTINUOUS
 62
     3
100
AcDbLine
 10
126.000031
 20
8.0
 30
0.0
 11
126.000031
 21
-8.0
 31
0.0
  0
LINE
  5
159
100
AcDbEntity
  8
LY_3
390
0
  6
CONTINUOUS
 62
     3
100
AcDbLine
 10
279.500004
 20
53.0
 30
0.0
 11
279.500004
 21
33.0
 31
0.0
  0
LINE
  5
15A
100
AcDbEntity
  8
LY_3
390
0
  6
CONTINUOUS
 62
     3
100
AcDbLine
 10
295.5
 20
32.199997
 30
0.0
 11
296.5
 21
32.199997
 31
0.0
  0
LINE
  5
15B
100
AcDbEntity
  8
LY_3
390
0
  6
CONTINUOUS
 62
     3
100
AcDbLine
 10
295.5
 20
33.0
 30
0.0
 11
295.5
 21
32.199997
 31
0.0
  0
LINE
  5
15C
100
AcDbEntity
  8
LY_3
390
0
  6
CONTINUOUS
 62
     3
100
AcDbLine
 10
181.0
 20
-29.0
 30
0.0
 11
189.0
 21
-29.0
 31
0.0
  0
LINE
  5
15D
100
AcDbEntity
  8
LY_3
390
0
  6
CONTINUOUS
 62
     3
100
AcDbLine
 10
189.0
 20
-29.0
 30
0.0
 11
189.0
 21
43.8269
 31
0.0
  0
LINE
  5
15E
100
AcDbEntity
  8
LY_3
390
0
  6
CONTINUOUS
 62
     3
100
AcDbLine
 10
181.0
 20
43.8269
 30
0.0
 11
189.0
 21
43.8269
 31
0.0
  0
LINE
  5
15F
100
AcDbEntity
  8
LY_3
390
0
  6
CONTINUOUS
 62
     3
100
AcDbLine
 10
189.0
 20
33.0
 30
0.0
 11
196.748566
 21
33.0
 31
0.0
  0
LINE
  5
160
100
AcDbEntity
  8
LY_3
390
0
  6
CONTINUOUS
 62
     3
100
AcDbLine
 10
189.0
 20
39.0
 30
0.0
 11
196.748566
 21
39.0
 31
0.0
  0
LINE
  5
161
100
AcDbEntity
  8
LY_3
390
0
  6
CONTINUOUS
 62
     3
100
AcDbLine
 10
-4.330109
 20
5.5
 30
0.0
 11
4.330109
 21
5.5
 31
0.0
  0
LINE
  5
162
100
AcDbEntity
  8
LY_3
390
0
  6
CENTER
 62
   110
100
AcDbLine
 10
0.0
 20
60.731491
 30
0.0
 11
0.0
 21
-72.906235
 31
0.0
  0
LINE
  5
163
100
AcDbEntity
  8
LY_3
390
0
  6
CENTER
 62
   110
100
AcDbLine
 10
-62.663483
 20
0.0
 30
0.0
 11
61.75
 21
0.0
 31
0.0
  0
LINE
  5
164
100
AcDbEntity
  8
LY_3
390
0
  6
CONTINUOUS
 62
     3
100
AcDbLine
 10
-4.37367
 20
-14.348179
 30
0.0
 11
-3.293025
 21
-12.03073
 31
0.0
  0
LINE
  5
165
100
AcDbEntity
  8
LY_3
390
0
  6
CONTINUOUS
 62
     3
100
AcDbLine
 10
3.292886
 20
-12.030814
 30
0.0
 11
4.373532
 21
-14.348267
 31
0.0
  0
LINE
  5
166
100
AcDbEntity
  8
LY_3
390
0
  6
CENTER
 62
   110
100
AcDbLine
 10
35.892687
 20
14.867247
 30
0.0
 11
49.28894
 21
20.416157
 31
0.0
  0
LINE
  5
167
100
AcDbEntity
  8
LY_3
390
0
  6
CENTER
 62
   110
100
AcDbLine
 10
14.867317
 20
35.892678
 30
0.0
 11
20.416233
 21
49.288945
 31
0.0
  0
LINE
  5
168
100
AcDbEntity
  8
LY_3
390
0
  6
CENTER
 62
   110
100
AcDbLine
 10
-14.867213
 20
35.892717
 30
0.0
 11
-20.416131
 21
49.288983
 31
0.0
  0
LINE
  5
169
100
AcDbEntity
  8
LY_3
390
0
  6
CENTER
 62
   110
100
AcDbLine
 10
-35.892706
 20
14.867288
 30
0.0
 11
-49.288964
 21
20.416187
 31
0.0
  0
LINE
  5
16A
100
AcDbEntity
  8
LY_3
390
0
  6
CENTER
 62
   110
100
AcDbLine
 10
-35.892724
 20
-14.86725
 30
0.0
 11
-49.28898
 21
-20.416153
 31
0.0
  0
LINE
  5
16B
100
AcDbEntity
  8
LY_3
390
0
  6
CENTER
 62
   110
100
AcDbLine
 10
-14.867209
 20
-35.892699
 30
0.0
 11
-20.416133
 21
-49.28898
 31
0.0
  0
LINE
  5
16C
100
AcDbEntity
  8
LY_3
390
0
  6
CENTER
 62
   110
100
AcDbLine
 10
14.867355
 20
-35.892688
 30
0.0
 11
20.416276
 21
-49.28896
 31
0.0
  0
LINE
  5
16D
100
AcDbEntity
  8
LY_3
390
0
  6
CENTER
 62
   110
100
AcDbLine
 10
35.892691
 20
-14.867237
 30
0.0
 11
49.288946
 21
-20.416142
 31
0.0
  0
LINE
  5
16E
100
AcDbEntity
  8
LY_3
390
0
  6
CONTINUOUS
 62
     3
100
AcDbLine
 10
254.000004
 20
36.0
 30
0.0
 11
254.000004
 21
24.0
 31
0.0
  0
LINE
  5
16F
100
AcDbEntity
  8
LY_3
390
0
  6
CONTINUOUS
 62
     3
100
AcDbLine
 10
181.0
 20
-29.0
 30
0.0
 11
181.0
 21
43.8269
 31
0.0
  0
LINE
  5
170
100
AcDbEntity
  8
LY_3
390
0
  6
CENTER
 62
   110
100
AcDbLine
 10
147.624802
 20
30.0
 30
0.0
 11
168.21373
 21
30.0
 31
0.0
  0
LINE
  5
171
100
AcDbEntity
  8
LY_3
390
0
  6
CONTINUOUS
 62
     3
100
AcDbLine
 10
157.5
 20
35.0
 30
0.0
 11
165.0
 21
35.0
 31
0.0
  0
LINE
  5
172
100
AcDbEntity
  8
LY_3
390
0
  6
CONTINUOUS
 62
     3
100
AcDbLine
 10
165.000004
 20
35.000006
 30
0.0
 11
165.500002
 21
34.500008
 31
0.0
  0
LINE
  5
173
100
AcDbEntity
  8
LY_3
390
0
  6
CONTINUOUS
 62
     3
100
AcDbLine
 10
165.5
 20
-34.5
 30
0.0
 11
165.5
 21
34.5
 31
0.0
  0
LINE
  5
174
100
AcDbEntity
  8
LY_3
390
0
  6
CONTINUOUS
 62
     3
100
AcDbLine
 10
164.999998
 20
-35.000004
 30
0.0
 11
165.499998
 21
-34.500003
 31
0.0
  0
LINE
  5
175
100
AcDbEntity
  8
LY_3
390
0
  6
CENTER
 62
   110
100
AcDbLine
 10
145.827026
 20
-30.0
 30
0.0
 11
168.21373
 21
-30.0
 31
0.0
  0
LINE
  5
176
100
AcDbEntity
  8
LY_3
390
0
  6
CONTINUOUS
 62
     3
100
AcDbLine
 10
157.5
 20
-35.0
 30
0.0
 11
165.0
 21
-35.0
 31
0.0
  0
LINE
  5
177
100
AcDbEntity
  8
LY_3
390
0
  6
CONTINUOUS
 62
     3
100
AcDbLine
 10
157.5
 20
-55.949951
 30
0.0
 11
157.5
 21
55.949997
 31
0.0
  0
ARC
  5
178
100
AcDbEntity
  8
LY_3
390
0
  6
CONTINUOUS
 62
     3
100
AcDbCircle
 10
308.5
 20
59.5
 30
0.0
 40
1.5
100
AcDbArc
 50
89.999982
 51
179.999964
  0
ARC
  5
179
100
AcDbEntity
  8
LY_3
390
0
  6
CONTINUOUS
 62
     3
100
AcDbCircle
 10
316.5
 20
59.5
 30
0.0
 40
1.5
100
AcDbArc
 50
0.0
 51
89.999982
  0
ARC
  5
17A
100
AcDbEntity
  8
LY_3
390
0
  6
CONTINUOUS
 62
     3
100
AcDbCircle
 10
283.690445
 20
48.190453
 30
0.0
 40
0.622046
100
AcDbArc
 50
0.0
 51
89.999982
  0
ARC
  5
17B
100
AcDbEntity
  8
LY_3
390
0
  6
CONTINUOUS
 62
     3
100
AcDbCircle
 10
285.30954
 20
36.19046
 30
0.0
 40
0.622046
100
AcDbArc
 50
89.999982
 51
179.999964
  0
CIRCLE
  5
17C
100
AcDbEntity
  8
LY_3
390
0
  6
CONTINUOUS
 62
     3
100
AcDbCircle
 10
284.5
 20
37.0
 30
0.0
 40
2.8
  0
ARC
  5
17D
100
AcDbEntity
  8
LY_3
390
0
  6
CONTINUOUS
 62
     3
100
AcDbCircle
 10
285.30954
 20
37.809544
 30
0.0
 40
0.622046
100
AcDbArc
 50
179.999978
 51
270.000028
  0
ARC
  5
17E
100
AcDbEntity
  8
LY_3
390
0
  6
CONTINUOUS
 62
     3
100
AcDbCircle
 10
283.690445
 20
49.809547
 30
0.0
 40
0.622046
100
AcDbArc
 50
270.000018
 51
0.0
  0
ARC
  5
17F
100
AcDbEntity
  8
LY_3
390
0
  6
CONTINUOUS
 62
     3
100
AcDbCircle
 10
283.690445
 20
36.19046
 30
0.0
 40
0.622046
100
AcDbArc
 50
0.0
 51
89.999982
  0
ARC
  5
180
100
AcDbEntity
  8
LY_3
390
0
  6
CONTINUOUS
 62
     3
100
AcDbCircle
 10
285.30954
 20
48.190453
 30
0.0
 40
0.622046
100
AcDbArc
 50
89.999982
 51
179.999964
  0
ARC
  5
181
100
AcDbEntity
  8
LY_3
390
0
  6
CONTINUOUS
 62
     3
100
AcDbCircle
 10
285.30954
 20
49.809547
 30
0.0
 40
0.622046
100
AcDbArc
 50
179.999978
 51
270.000028
  0
ARC
  5
182
100
AcDbEntity
  8
LY_3
390
0
  6
CONTINUOUS
 62
     3
100
AcDbCircle
 10
283.690445
 20
37.809544
 30
0.0
 40
0.622046
100
AcDbArc
 50
270.000018
 51
0.0
  0
CIRCLE
  5
183
100
AcDbEntity
  8
LY_3
390
0
  6
CONTINUOUS
 62
     3
100
AcDbCircle
 10
284.5
 20
49.0
 30
0.0
 40
2.8
  0
ARC
  5
184
100
AcDbEntity
  8
LY_3
390
0
  6
CONTINUOUS
 62
     3
100
AcDbCircle
 10
213.248566
 20
49.244972
 30
0.0
 40
0.5
100
AcDbArc
 50
359.999986
 51
56.251034
  0
ARC
  5
185
100
AcDbEntity
  8
LY_3
390
0
  6
CONTINUOUS
 62
     3
100
AcDbCircle
 10
211.748566
 20
46.999977
 30
0.0
 40
3.2
100
AcDbArc
 50
56.251034
 51
123.748958
  0
ARC
  5
186
100
AcDbEntity
  8
LY_3
390
0
  6
CONTINUOUS
 62
     3
100
AcDbCircle
 10
210.248566
 20
49.244972
 30
0.0
 40
0.5
100
AcDbArc
 50
123.748958
 51
180.000005
  0
CIRCLE
  5
187
100
AcDbEntity
  8
LY_3
390
0
  6
CONTINUOUS
 62
   110
100
AcDbCircle
 10
211.648575
 20
45.299988
 30
0.0
 40
0.25
  0
ARC
  5
188
100
AcDbEntity
  8
LY_3
390
0
  6
CONTINUOUS
 62
     3
100
AcDbCircle
 10
200.248566
 20
49.244968
 30
0.0
 40
0.5
100
AcDbArc
 50
123.748958
 51
180.000005
  0
ARC
  5
189
100
AcDbEntity
  8
LY_3
390
0
  6
CONTINUOUS
 62
     3
100
AcDbCircle
 10
203.248566
 20
49.244968
 30
0.0
 40
0.5
100
AcDbArc
 50
359.999986
 51
56.251034
  0
ARC
  5
18A
100
AcDbEntity
  8
LY_3
390
0
  6
CONTINUOUS
 62
     3
100
AcDbCircle
 10
201.748566
 20
46.999977
 30
0.0
 40
3.2
100
AcDbArc
 50
56.251034
 51
123.748958
  0
CIRCLE
  5
18B
100
AcDbEntity
  8
LY_3
390
0
  6
DASHED
 62
   110
100
AcDbCircle
 10
206.748566
 20
36.0
 30
0.0
 40
1.5
  0
CIRCLE
  5
18C
100
AcDbEntity
  8
LY_3
390
0
  6
DASHED
 62
   110
100
AcDbCircle
 10
206.748566
 20
36.0
 30
0.0
 40
1.2
  0
ARC
  5
18D
100
AcDbEntity
  8
LY_3
390
0
  6
CONTINUOUS
 62
     3
100
AcDbCircle
 10
308.5
 20
-101.5
 30
0.0
 40
1.5
100
AcDbArc
 50
179.999981
 51
269.999963
  0
ARC
  5
18E
100
AcDbEntity
  8
LY_3
390
0
  6
CONTINUOUS
 62
     3
100
AcDbCircle
 10
316.5
 20
-101.5
 30
0.0
 40
1.5
100
AcDbArc
 50
269.999963
 51
359.999945
  0
ARC
  5
18F
100
AcDbEntity
  8
LY_3
390
0
  6
DASHED
 62
   110
100
AcDbCircle
 10
247.490051
 20
36.0
 30
0.0
 40
1.5
100
AcDbArc
 50
109.068504
 51
0.00001
  0
ARC
  5
190
100
AcDbEntity
  8
LY_3
390
0
  6
CONTINUOUS
 62
     3
100
AcDbCircle
 10
240.990051
 20
49.244972
 30
0.0
 40
0.5
100
AcDbArc
 50
123.74893
 51
179.999978
  0
ARC
  5
191
100
AcDbEntity
  8
LY_3
390
0
  6
CONTINUOUS
 62
     3
100
AcDbCircle
 10
242.490051
 20
46.999977
 30
0.0
 40
3.2
100
AcDbArc
 50
56.251006
 51
123.74893
  0
ARC
  5
192
100
AcDbEntity
  8
LY_3
390
0
  6
CONTINUOUS
 62
     3
100
AcDbCircle
 10
243.990051
 20
49.244972
 30
0.0
 40
0.5
100
AcDbArc
 50
359.999959
 51
56.251006
  0
ARC
  5
193
100
AcDbEntity
  8
LY_3
390
0
  6
DASHED
 62
   110
100
AcDbCircle
 10
247.490051
 20
36.0
 30
0.0
 40
1.2
100
AcDbArc
 50
114.102668
 51
0.00001
  0
ARC
  5
194
100
AcDbEntity
  8
LY_3
390
0
  6
CONTINUOUS
 62
     3
100
AcDbCircle
 10
0.0
 20
-0.75
 30
0.0
 40
13.45
100
AcDbArc
 50
312.574534
 51
227.425437
  0
CIRCLE
  5
195
100
AcDbEntity
  8
LY_3
390
0
  6
CONTINUOUS
 62
     3
100
AcDbCircle
 10
-5.641937
 20
-12.099213
 30
0.0
 40
1.0
  0
CIRCLE
  5
196
100
AcDbEntity
  8
LY_3
390
0
  6
CONTINUOUS
 62
     3
100
AcDbCircle
 10
5.641937
 20
-12.099213
 30
0.0
 40
1.0
  0
ARC
  5
197
100
AcDbEntity
  8
LY_3
390
0
  6
CONTINUOUS
 62
     3
100
AcDbCircle
 10
-5.641937
 20
-12.099213
 30
0.0
 40
2.35
100
AcDbArc
 50
1.668639
 51
139.057761
  0
ARC
  5
198
100
AcDbEntity
  8
LY_3
390
0
  6
CONTINUOUS
 62
     3
100
AcDbCircle
 10
5.641937
 20
-12.099213
 30
0.0
 40
2.35
100
AcDbArc
 50
40.942258
 51
178.331376
  0
ARC
  5
199
100
AcDbEntity
  8
LY_3
390
0
  6
CONTINUOUS
 62
     3
100
AcDbCircle
 10
-8.304657
 20
-9.789284
 30
0.0
 40
1.175
100
AcDbArc
 50
227.425454
 51
319.05777
  0
ARC
  5
19A
100
AcDbEntity
  8
LY_3
390
0
  6
CONTINUOUS
 62
     3
100
AcDbCircle
 10
8.304657
 20
-9.789284
 30
0.0
 40
1.175
100
AcDbArc
 50
220.942212
 51
312.574523
  0
CIRCLE
  5
19B
100
AcDbEntity
  8
LY_3
390
0
  6
CONTINUOUS
 62
     3
100
AcDbCircle
 10
0.0
 20
0.0
 30
0.0
 40
15.0
  0
ARC
  5
19C
100
AcDbEntity
  8
LY_3
390
0
  6
CONTINUOUS
 62
     3
100
AcDbCircle
 10
0.0
 20
0.0
 30
0.0
 40
7.0
100
AcDbArc
 50
128.21321
 51
51.786808
  0
ARC
  5
19D
100
AcDbEntity
  8
LY_3
390
0
  6
CONTINUOUS
 62
     3
100
AcDbCircle
 10
0.0
 20
0.0
 30
0.0
 40
8.0
100
AcDbArc
 50
341.805139
 51
71.805123
  0
ARC
  5
19E
100
AcDbEntity
  8
LY_3
390
0
  6
CONTINUOUS
 62
     3
100
AcDbCircle
 10
0.0
 20
-7.5
 30
0.0
 40
2.5
100
AcDbArc
 50
182.292425
 51
357.707559
  0
ARC
  5
19F
100
AcDbEntity
  8
LY_3
390
0
  6
CONTINUOUS
 62
     3
100
AcDbCircle
 10
0.0
 20
0.0
 30
0.0
 40
8.0
100
AcDbArc
 50
288.194884
 51
341.805126
  0
ARC
  5
1A0
100
AcDbEntity
  8
LY_3
390
0
  6
CONTINUOUS
 62
     3
100
AcDbCircle
 10
7.5
 20
0.0
 30
0.0
 40
2.5
100
AcDbArc
 50
272.292393
 51
87.707552
  0
ARC
  5
1A1
100
AcDbEntity
  8
LY_3
390
0
  6
CONTINUOUS
 62
     3
100
AcDbCircle
 10
0.0
 20
7.5
 30
0.0
 40
2.5
100
AcDbArc
 50
2.292441
 51
177.707507
  0
ARC
  5
1A2
100
AcDbEntity
  8
LY_3
390
0
  6
CONTINUOUS
 62
     3
100
AcDbCircle
 10
-7.5
 20
0.0
 30
0.0
 40
2.5
100
AcDbArc
 50
92.292371
 51
267.707516
  0
ARC
  5
1A3
100
AcDbEntity
  8
LY_3
390
0
  6
CONTINUOUS
 62
     3
100
AcDbCircle
 10
0.0
 20
0.0
 30
0.0
 40
8.0
100
AcDbArc
 50
161.80516
 51
288.19486
  0
ARC
  5
1A4
100
AcDbEntity
  8
LY_3
390
0
  6
CONTINUOUS
 62
     3
100
AcDbCircle
 10
0.0
 20
0.0
 30
0.0
 40
8.0
100
AcDbArc
 50
71.805116
 51
161.805146
  0
CIRCLE
  5
1A5
100
AcDbEntity
  8
LY_3
390
0
  6
CONTINUOUS
 62
     3
100
AcDbCircle
 10
0.0
 20
0.0
 30
0.0
 40
41.300003
  0
CIRCLE
  5
1A6
100
AcDbEntity
  8
LY_3
390
0
  6
CONTINUOUS
 62
     3
100
AcDbCircle
 10
0.0
 20
0.0
 30
0.0
 40
31.900002
  0
CIRCLE
  5
1A7
100
AcDbEntity
  8
LY_3
390
0
  6
CONTINUOUS
 62
     3
100
AcDbCircle
 10
0.071198
 20
0.000145
 30
0.0
 40
38.599815
  0
CIRCLE
  5
1A8
100
AcDbEntity
  8
LY_3
390
0
  6
CONTINUOUS
 62
     3
100
AcDbCircle
 10
0.0
 20
0.0
 30
0.0
 40
56.75
  0
CIRCLE
  5
1A9
100
AcDbEntity
  8
LY_3
390
0
  6
CENTER
 62
   110
100
AcDbCircle
 10
0.0
 20
0.0
 30
0.0
 40
46.099998
  0
CIRCLE
  5
1AA
100
AcDbEntity
  8
LY_3
390
0
  6
CONTINUOUS
 62
     3
100
AcDbCircle
 10
17.641693
 20
42.590843
 30
0.0
 40
4.25
  0
CIRCLE
  5
1AB
100
AcDbEntity
  8
LY_3
390
0
  6
CONTINUOUS
 62
     3
100
AcDbCircle
 10
42.590851
 20
17.641708
 30
0.0
 40
4.25
  0
CIRCLE
  5
1AC
100
AcDbEntity
  8
LY_3
390
0
  6
CONTINUOUS
 62
     3
100
AcDbCircle
 10
-17.641693
 20
42.590843
 30
0.0
 40
4.25
  0
CIRCLE
  5
1AD
100
AcDbEntity
  8
LY_3
390
0
  6
CONTINUOUS
 62
     3
100
AcDbCircle
 10
-42.590851
 20
17.641708
 30
0.0
 40
4.25
  0
CIRCLE
  5
1AE
100
AcDbEntity
  8
LY_3
390
0
  6
CONTINUOUS
 62
     3
100
AcDbCircle
 10
-42.590851
 20
-17.641708
 30
0.0
 40
4.25
  0
CIRCLE
  5
1AF
100
AcDbEntity
  8
LY_3
390
0
  6
CONTINUOUS
 62
     3
100
AcDbCircle
 10
-17.641693
 20
-42.590851
 30
0.0
 40
4.25
  0
CIRCLE
  5
1B0
100
AcDbEntity
  8
LY_3
390
0
  6
CONTINUOUS
 62
     3
100
AcDbCircle
 10
17.641693
 20
-42.590851
 30
0.0
 40
4.25
  0
CIRCLE
  5
1B1
100
AcDbEntity
  8
LY_3
390
0
  6
CONTINUOUS
 62
     3
100
AcDbCircle
 10
42.590851
 20
-17.641708
 30
0.0
 40
4.25
  0
CIRCLE
  5
1B2
100
AcDbEntity
  8
LY_3
390
0
  6
CENTER
 62
   110
100
AcDbCircle
 10
0.0
 20
0.0
 30
0.0
 40
30.0
  0
CIRCLE
  5
1B3
100
AcDbEntity
  8
LY_3
390
0
  6
DASHED
 62
   110
100
AcDbCircle
 10
30.0
 20
0.0
 30
0.0
 40
2.0
  0
CIRCLE
  5
1B4
100
AcDbEntity
  8
LY_3
390
0
  6
DASHED
 62
   110
100
AcDbCircle
 10
30.0
 20
0.0
 30
0.0
 40
1.6
  0
CIRCLE
  5
1B5
100
AcDbEntity
  8
LY_3
390
0
  6
DASHED
 62
   110
100
AcDbCircle
 10
0.0
 20
30.0
 30
0.0
 40
1.6
  0
CIRCLE
  5
1B6
100
AcDbEntity
  8
LY_3
390
0
  6
DASHED
 62
   110
100
AcDbCircle
 10
0.0
 20
30.0
 30
0.0
 40
2.0
  0
CIRCLE
  5
1B7
100
AcDbEntity
  8
LY_3
390
0
  6
DASHED
 62
   110
100
AcDbCircle
 10
-30.0
 20
0.0
 30
0.0
 40
1.6
  0
CIRCLE
  5
1B8
100
AcDbEntity
  8
LY_3
390
0
  6
DASHED
 62
   110
100
AcDbCircle
 10
-30.0
 20
0.0
 30
0.0
 40
2.0
  0
CIRCLE
  5
1B9
100
AcDbEntity
  8
LY_3
390
0
  6
DASHED
 62
   110
100
AcDbCircle
 10
0.0
 20
-30.0
 30
0.0
 40
1.6
  0
CIRCLE
  5
1BA
100
AcDbEntity
  8
LY_3
390
0
  6
DASHED
 62
   110
100
AcDbCircle
 10
0.0
 20
-30.0
 30
0.0
 40
2.0
  0
MTEXT
  5
1BB
100
AcDbEntity
  8
LY_3
390
0
  6
CONTINUOUS
 62
   110
100
AcDbMText
 10
207.648575
 20
47.899988
 30
0.0
 40
5.2
 41
0.0
 71
     2
 72
     1
  1
\W0.781;\A1;形ＳＳ－
 73
     1
 44
1.0
  0
MTEXT
  5
1BC
100
AcDbEntity
  8
LY_3
390
0
  6
CONTINUOUS
 62
   110
100
AcDbMText
 10
231.751416
 20
-112.5
 30
0.0
 40
5.2
 41
0.0
 71
     1
 72
     1
  1
\W0.781;\A1;モ－タ－
 73
     1
 44
1.0
  0
LWPOLYLINE
  5
1BD
100
AcDbEntity
  8
LY_3
390
0
  6
CONTINUOUS
 62
   110
100
AcDbPolyline
 90
        3
 70
     0
 10
223.5
 20
-99.5
 10
230.0
 20
-120.0
 10
250.574333
 20
-120.0
  0
LINE
  5
1BE
100
AcDbEntity
  8
LY_3
390
0
  6
CONTINUOUS
 62
     3
100
AcDbLine
 10
296.5
 20
-100.0
 30
0.0
 11
296.5
 21
58.0
 31
0.0
  0
LINE
  5
1BF
100
AcDbEntity
  8
LY_3
390
0
  6
CONTINUOUS
 62
     3
100
AcDbLine
 10
247.000004
 20
36.0
 30
0.0
 11
247.000004
 21
50.0
 31
0.0
  0
LINE
  5
1C0
100
AcDbEntity
  8
LY_3
390
0
  6
CONTINUOUS
 62
     3
100
AcDbLine
 10
257.000004
 20
43.765886
 30
0.0
 11
257.000004
 21
24.0
 31
0.0
  0
LINE
  5
1C1
100
AcDbEntity
  8
LY_3
390
0
  6
CONTINUOUS
 62
     3
100
AcDbLine
 10
189.0
 20
24.0
 30
0.0
 11
290.999996
 21
24.0
 31
0.0
  0
LINE
  5
1C2
100
AcDbEntity
  8
LY_3
390
0
  6
CONTINUOUS
 62
     3
100
AcDbLine
 10
189.0
 20
-24.0
 30
0.0
 11
291.0
 21
-24.0
 31
0.0
  0
LINE
  5
1C3
100
AcDbEntity
  8
LY_3
390
0
  6
CONTINUOUS
 62
     3
100
AcDbLine
 10
247.000004
 20
46.0
 30
0.0
 11
243.0
 21
46.0
 31
0.0
  0
LINE
  5
1C4
100
AcDbEntity
  8
LY_3
390
0
  6
CONTINUOUS
 62
     3
100
AcDbLine
 10
247.000004
 20
40.0
 30
0.0
 11
243.0
 21
40.0
 31
0.0
  0
LINE
  5
1C5
100
AcDbEntity
  8
LY_3
390
0
  6
CONTINUOUS
 62
     3
100
AcDbLine
 10
257.490051
 20
33.0
 30
0.0
 11
296.5
 21
33.0
 31
0.0
  0
MTEXT
  5
1C6
100
AcDbEntity
  8
LY_3
390
0
  6
CONTINUOUS
 62
   110
100
AcDbMText
 10
113.880043
 20
77.5
 30
0.0
 40
5.2
 41
0.0
 71
     1
 72
     1
  1
\W1.082;\A1;CF114
 73
     1
 44
1.0
  0
LWPOLYLINE
  5
1C7
100
AcDbEntity
  8
LY_3
390
0
  6
CONTINUOUS
 62
   110
100
AcDbPolyline
 90
        3
 70
     0
 10
148.750008
 20
56.75
 10
140.0
 20
70.0
 10
112.942544
 20
70.0
  0
MTEXT
  5
1C8
100
AcDbEntity
  8
LY_3
390
0
  6
CONTINUOUS
 62
   110
100
AcDbMText
 10
151.438258
 20
77.5
 30
0.0
 40
5.2
 41
0.0
 71
     1
 72
     1
  1
\W0.781;\A1;マイクロスイッチ
 73
     1
 44
1.0
  0
LWPOLYLINE
  5
1C9
100
AcDbEntity
  8
LY_3
390
0
  6
CONTINUOUS
 62
   110
100
AcDbPolyline
 90
        3
 70
     0
 10
206.848572
 20
48.099976
 10
190.0
 20
70.0
 10
150.761175
 20
70.0
  0
MTEXT
  5
1CA
100
AcDbEntity
  8
LY_3
390
0
  6
CONTINUOUS
 62
   110
100
AcDbMText
 10
233.228581
 20
77.5
 30
0.0
 40
5.2
 41
0.0
 71
     1
 72
     1
  1
\W0.781;\A1;ポテンショメーター
 73
     1
 44
1.0
  0
LWPOLYLINE
  5
1CB
100
AcDbEntity
  8
LY_3
390
0
  6
CONTINUOUS
 62
   110
100
AcDbPolyline
 90
        3
 70
     0
 10
288.426312
 20
53.0
 10
280.0
 20
70.0
 10
232.551498
 20
70.0
  0
LINE
  5
1CC
100
AcDbEntity
  8
LY_3
390
0
  6
CONTINUOUS
 62
   110
100
AcDbLine
 10
380.0
 20
0.0
 30
0.0
 11
380.0
 21
-101.0
 31
0.0
  0
LINE
  5
1CD
100
AcDbEntity
  8
LY_3
390
0
  6
CONTINUOUS
 62
   110
100
AcDbLine
 10
330.773499
 20
0.0
 30
0.0
 11
381.0
 21
0.0
 31
0.0
  0
MTEXT
  5
1CE
100
AcDbEntity
  8
LY_3
390
0
  6
CONTINUOUS
 62
   110
100
AcDbMText
 10
373.8
 20
-55.216349
 30
0.0
 40
5.2
 41
0.0
 71
     1
 72
     1
  1
\W0.999;\A1;101
 11
0.0
 21
1.0
 31
0.0
 73
     1
 44
1.0
  0
LINE
  5
1CF
100
AcDbEntity
  8
LY_3
390
0
  6
CONTINUOUS
 62
   110
100
AcDbLine
 10
379.257781
 20
-2.77
 30
0.0
 11
380.0
 21
0.0
 31
0.0
  0
LINE
  5
1D0
100
AcDbEntity
  8
LY_3
390
0
  6
CONTINUOUS
 62
   110
100
AcDbLine
 10
380.0
 20
0.0
 30
0.0
 11
380.742219
 21
-2.77
 31
0.0
  0
LINE
  5
1D1
100
AcDbEntity
  8
LY_3
390
0
  6
CONTINUOUS
 62
   110
100
AcDbLine
 10
380.742219
 20
-98.23
 30
0.0
 11
380.0
 21
-101.0
 31
0.0
  0
LINE
  5
1D2
100
AcDbEntity
  8
LY_3
390
0
  6
CONTINUOUS
 62
   110
100
AcDbLine
 10
380.0
 20
-101.0
 30
0.0
 11
379.257781
 21
-98.23
 31
0.0
  0
LINE
  5
1D3
100
AcDbEntity
  8
LY_3
390
0
  6
CONTINUOUS
 62
   110
100
AcDbLine
 10
140.0
 20
-130.0
 30
0.0
 11
90.000015
 21
-130.0
 31
0.0
  0
LINE
  5
1D4
100
AcDbEntity
  8
LY_3
390
0
  6
CONTINUOUS
 62
   110
100
AcDbLine
 10
140.0
 20
-57.949997
 30
0.0
 11
140.0
 21
-131.0
 31
0.0
  0
LINE
  5
1D5
100
AcDbEntity
  8
LY_3
390
0
  6
CONTINUOUS
 62
   110
100
AcDbLine
 10
90.000015
 20
-8.0
 30
0.0
 11
90.000015
 21
-131.0
 31
0.0
  0
MTEXT
  5
1D6
100
AcDbEntity
  8
LY_3
390
0
  6
CONTINUOUS
 62
   110
100
AcDbMText
 10
93.158341
 20
-123.8
 30
0.0
 40
5.2
 41
0.0
 71
     1
 72
     1
  1
\T0.968;\W1.009;\A1;50+50ストローク
 73
     1
 44
1.0
  0
LINE
  5
1D7
100
AcDbEntity
  8
LY_3
390
0
  6
CONTINUOUS
 62
   110
100
AcDbLine
 10
137.23
 20
-129.257781
 30
0.0
 11
140.0
 21
-130.0
 31
0.0
  0
LINE
  5
1D8
100
AcDbEntity
  8
LY_3
390
0
  6
CONTINUOUS
 62
   110
100
AcDbLine
 10
140.0
 20
-130.0
 30
0.0
 11
137.23
 21
-130.742219
 31
0.0
  0
LINE
  5
1D9
100
AcDbEntity
  8
LY_3
390
0
  6
CONTINUOUS
 62
   110
100
AcDbLine
 10
92.770015
 20
-130.742219
 30
0.0
 11
90.000015
 21
-130.0
 31
0.0
  0
LINE
  5
1DA
100
AcDbEntity
  8
LY_3
390
0
  6
CONTINUOUS
 62
   110
100
AcDbLine
 10
90.000015
 20
-130.0
 30
0.0
 11
92.770015
 21
-129.257781
 31
0.0
  0
LINE
  5
1DB
100
AcDbEntity
  8
LY_3
390
0
  6
CONTINUOUS
 62
   110
100
AcDbLine
 10
361.0
 20
-130.0
 30
0.0
 11
140.0
 21
-130.0
 31
0.0
  0
LINE
  5
1DC
100
AcDbEntity
  8
LY_3
390
0
  6
CONTINUOUS
 62
   110
100
AcDbLine
 10
361.0
 20
-103.0
 30
0.0
 11
361.0
 21
-131.0
 31
0.0
  0
MTEXT
  5
1DD
100
AcDbEntity
  8
LY_3
390
0
  6
CONTINUOUS
 62
   110
100
AcDbMText
 10
245.799109
 20
-123.8
 30
0.0
 40
5.2
 41
0.0
 71
     1
 72
     1
  1
\W1.004;\A1;221
 73
     1
 44
1.0
  0
LINE
  5
1DE
100
AcDbEntity
  8
LY_3
390
0
  6
CONTINUOUS
 62
   110
100
AcDbLine
 10
358.23
 20
-129.257781
 30
0.0
 11
361.0
 21
-130.0
 31
0.0
  0
LINE
  5
1DF
100
AcDbEntity
  8
LY_3
390
0
  6
CONTINUOUS
 62
   110
100
AcDbLine
 10
361.0
 20
-130.0
 30
0.0
 11
358.23
 21
-130.742219
 31
0.0
  0
LINE
  5
1E0
100
AcDbEntity
  8
LY_3
390
0
  6
CONTINUOUS
 62
   110
100
AcDbLine
 10
142.77
 20
-130.742219
 30
0.0
 11
140.0
 21
-130.0
 31
0.0
  0
LINE
  5
1E1
100
AcDbEntity
  8
LY_3
390
0
  6
CONTINUOUS
 62
   110
100
AcDbLine
 10
140.0
 20
-130.0
 30
0.0
 11
142.77
 21
-129.257781
 31
0.0
  0
LINE
  5
1E2
100
AcDbEntity
  8
LY_3
390
0
  6
CONTINUOUS
 62
   110
100
AcDbLine
 10
230.0
 20
-24.0
 30
0.0
 11
230.0
 21
24.0
 31
0.0
  0
MTEXT
  5
1E3
100
AcDbEntity
  8
LY_3
390
0
  6
CONTINUOUS
 62
   110
100
AcDbMText
 10
223.8
 20
5.282862
 30
0.0
 40
5.2
 41
0.0
 71
     1
 72
     1
  1
\T0.977;\W1.018;\A1;\U+220548
 11
0.0
 21
1.0
 31
0.0
 73
     1
 44
1.0
  0
LINE
  5
1E4
100
AcDbEntity
  8
LY_3
390
0
  6
CONTINUOUS
 62
   110
100
AcDbLine
 10
230.742219
 20
-21.23
 30
0.0
 11
230.0
 21
-24.0
 31
0.0
  0
LINE
  5
1E5
100
AcDbEntity
  8
LY_3
390
0
  6
CONTINUOUS
 62
   110
100
AcDbLine
 10
230.0
 20
-24.0
 30
0.0
 11
229.257781
 21
-21.23
 31
0.0
  0
LINE
  5
1E6
100
AcDbEntity
  8
LY_3
390
0
  6
CONTINUOUS
 62
   110
100
AcDbLine
 10
229.257781
 20
21.23
 30
0.0
 11
230.0
 21
24.0
 31
0.0
  0
LINE
  5
1E7
100
AcDbEntity
  8
LY_3
390
0
  6
CONTINUOUS
 62
   110
100
AcDbLine
 10
230.0
 20
24.0
 30
0.0
 11
230.742219
 21
21.23
 31
0.0
  0
LINE
  5
1E8
100
AcDbEntity
  8
LY_3
390
0
  6
CONTINUOUS
 62
   110
100
AcDbLine
 10
130.0
 20
-8.0
 30
0.0
 11
130.0
 21
8.0
 31
0.0
  0
LINE
  5
1E9
100
AcDbEntity
  8
LY_3
390
0
  6
CONTINUOUS
 62
   110
100
AcDbLine
 10
130.0
 20
8.0
 30
0.0
 11
130.0
 21
38.604626
 31
0.0
  0
LINE
  5
1EA
100
AcDbEntity
  8
LY_3
390
0
  6
CONTINUOUS
 62
   110
100
AcDbLine
 10
130.0
 20
-8.0
 30
0.0
 11
130.0
 21
-12.0
 31
0.0
  0
MTEXT
  5
1EB
100
AcDbEntity
  8
LY_3
390
0
  6
CONTINUOUS
 62
   110
100
AcDbMText
 10
123.8
 20
15.074304
 30
0.0
 40
5.2
 41
0.0
 71
     1
 72
     1
  1
\W0.975;\A1;\U+220516g6
 11
0.0
 21
1.0
 31
0.0
 73
     1
 44
1.0
  0
LINE
  5
1EC
100
AcDbEntity
  8
LY_3
390
0
  6
CONTINUOUS
 62
   110
100
AcDbLine
 10
129.257781
 20
-10.77
 30
0.0
 11
130.0
 21
-8.0
 31
0.0
  0
LINE
  5
1ED
100
AcDbEntity
  8
LY_3
390
0
  6
CONTINUOUS
 62
   110
100
AcDbLine
 10
130.0
 20
-8.0
 30
0.0
 11
130.742219
 21
-10.77
 31
0.0
  0
LINE
  5
1EE
100
AcDbEntity
  8
LY_3
390
0
  6
CONTINUOUS
 62
   110
100
AcDbLine
 10
130.742219
 20
10.77
 30
0.0
 11
130.0
 21
8.0
 31
0.0
  0
LINE
  5
1EF
100
AcDbEntity
  8
LY_3
390
0
  6
CONTINUOUS
 62
   110
100
AcDbLine
 10
130.0
 20
8.0
 30
0.0
 11
129.257781
 21
10.77
 31
0.0
  0
LINE
  5
1F0
100
AcDbEntity
  8
LY_3
390
0
  6
CONTINUOUS
 62
   110
100
AcDbLine
 10
-7.0
 20
70.0
 30
0.0
 11
7.0
 21
70.0
 31
0.0
  0
LINE
  5
1F1
100
AcDbEntity
  8
LY_3
390
0
  6
CONTINUOUS
 62
   110
100
AcDbLine
 10
7.0
 20
70.0
 30
0.0
 11
39.641724
 21
70.0
 31
0.0
  0
LINE
  5
1F2
100
AcDbEntity
  8
LY_3
390
0
  6
CONTINUOUS
 62
   110
100
AcDbLine
 10
-7.0
 20
2.0
 30
0.0
 11
-7.0
 21
71.0
 31
0.0
  0
LINE
  5
1F3
100
AcDbEntity
  8
LY_3
390
0
  6
CONTINUOUS
 62
   110
100
AcDbLine
 10
7.0
 20
2.0
 30
0.0
 11
7.0
 21
71.0
 31
0.0
  0
LINE
  5
1F4
100
AcDbEntity
  8
LY_3
390
0
  6
CONTINUOUS
 62
   110
100
AcDbLine
 10
-7.0
 20
70.0
 30
0.0
 11
-11.0
 21
70.0
 31
0.0
  0
MTEXT
  5
1F5
100
AcDbEntity
  8
LY_3
390
0
  6
CONTINUOUS
 62
   110
100
AcDbMText
 10
16.111402
 20
76.2
 30
0.0
 40
5.2
 41
0.0
 71
     1
 72
     1
  1
\W0.975;\A1;\U+220514h7
 73
     1
 44
1.0
  0
LINE
  5
1F6
100
AcDbEntity
  8
LY_3
390
0
  6
CONTINUOUS
 62
   110
100
AcDbLine
 10
-9.77
 20
70.742219
 30
0.0
 11
-7.0
 21
70.0
 31
0.0
  0
LINE
  5
1F7
100
AcDbEntity
  8
LY_3
390
0
  6
CONTINUOUS
 62
   110
100
AcDbLine
 10
-7.0
 20
70.0
 30
0.0
 11
-9.77
 21
69.257781
 31
0.0
  0
LINE
  5
1F8
100
AcDbEntity
  8
LY_3
390
0
  6
CONTINUOUS
 62
   110
100
AcDbLine
 10
9.77
 20
69.257781
 30
0.0
 11
7.0
 21
70.0
 31
0.0
  0
LINE
  5
1F9
100
AcDbEntity
  8
LY_3
390
0
  6
CONTINUOUS
 62
   110
100
AcDbLine
 10
7.0
 20
70.0
 30
0.0
 11
9.77
 21
70.742219
 31
0.0
  0
ENDSEC
  0
SECTION
  2
OBJECTS
  0
DICTIONARY
  5
19
100
AcDbDictionary
280
     0
281
     1
  3
ACAD_GROUP
350
1A
  3
ACAD_MLINESTYLE
350
1B
  3
ACAD_LAYOUT
350
1E
  3
ACAD_PLOTSETTINGS
350
22
  3
ACAD_PLOTSTYLENAME
350
1F
  0
DICTIONARY
  5
1A
102
{ACAD_REACTORS
330
19
102
}
100
AcDbDictionary
280
     0
281
     1
  0
DICTIONARY
  5
1B
102
{ACAD_REACTORS
330
19
102
}
100
AcDbDictionary
280
     0
281
     1
  3
Standard
350
1C
  0
MLINESTYLE
  5
1C
102
{ACAD_REACTORS
330
1B
102
}
100
AcDbMlineStyle
  2
Standard
 70
     0
  3

 62
     0
 51
90.0
 52
90.0
 71
     2
 49
0.5
 62
   256
  6
ByLayer
 49
-0.5
 62
   256
  6
ByLayer
  0
ACDBDICTIONARYWDFLT
  5
1F
102
{ACAD_REACTORS
330
19
102
}
100
AcDbDictionary
281
     1
  3
Normal
350
1D
100
AcDbDictionaryWithDefault
340
1D
  0
ACDBPLACEHOLDER
  5
1D
102
{ACAD_REACTORS
330
1F
102
}
  0
LAYOUT
  5
20
102
{ACAD_REACTORS
330
1E
102
}
100
AcDbPlotSettings
  1

  2

  4

  6

 40
0.0
 41
0.0
 42
0.0
 43
0.0
 44
0.0
 45
0.0
 46
0.0
 47
0.0
 48
0.0
 49
0.0
140
0.0
141
0.0
142
1.0
143
1.0
 70
  1024
 72
     0
 73
     0
 74
     0
  7

 75
     0
147
1.0
148
0.0
149
0.0
100
AcDbLayout
  1
Model
 70
     0
 71
     0
 10
0.0
 20
0.0
 11
0.0
 21
0.0
 12
0.0
 22
0.0
 32
0.0
 14
0.0
 24
0.0
 34
0.0
 15
0.0
 25
0.0
 35
0.0
146
0.0
 13
0.0
 23
0.0
 33
0.0
 16
0.0
 26
0.0
 36
0.0
 17
0.0
 27
0.0
 37
0.0
 76
     0
330
A
331
0
345
0
346
0
  0
LAYOUT
  5
21
102
{ACAD_REACTORS
330
1E
102
}
100
AcDbPlotSettings
  1

  2

  4

  6

 40
0.0
 41
0.0
 42
0.0
 43
0.0
 44
0.0
 45
0.0
 46
0.0
 47
0.0
 48
0.0
 49
0.0
140
0.0
141
0.0
142
1.0
143
1.0
 70
     0
 72
     0
 73
     0
 74
     0
  7

 75
     0
147
1.0
148
0.0
149
0.0
100
AcDbLayout
  1
Layout1
 70
     0
 71
     0
 10
0.0
 20
0.0
 11
0.0
 21
0.0
 12
0.0
 22
0.0
 32
0.0
 14
0.0
 24
0.0
 34
0.0
 15
0.0
 25
0.0
 35
0.0
146
0.0
 13
0.0
 23
0.0
 33
0.0
 16
0.0
 26
0.0
 36
0.0
 17
0.0
 27
0.0
 37
0.0
 76
     0
330
B
331
0
345
0
346
0
  0
DICTIONARY
  5
1E
102
{ACAD_REACTORS
330
19
102
}
100
AcDbDictionary
280
     0
281
     1
  3
Layout1
350
21
  3
Model
350
20
  0
DICTIONARY
  5
22
102
{ACAD_REACTORS
330
19
102
}
100
AcDbDictionary
280
     0
281
     1
  0
ENDSEC
  0
EOF
