  0
SECTION
  2
HEADER
  9
$ACADVER
  1
AC1015
  9
$ACADMAINTVER
 70
     6
  9
$DWGCODEPAGE
  3
ANSI_932
  9
$INSBASE
 10
0.0
 20
0.0
 30
0.0
  9
$EXTMIN
 10
-42.568176
 20
-50.0
 30
0.0
  9
$EXTMAX
 10
394.814815
 20
189.233333
 30
0.0
  9
$LIMMIN
 10
-42.568176
 20
-50.0
  9
$LIMMAX
 10
394.814815
 20
189.233333
  9
$ORTHOMODE
 70
     0
  9
$REGENMODE
 70
     1
  9
$FILLMODE
 70
     1
  9
$QTEXTMODE
 70
     0
  9
$MIRRTEXT
 70
     1
  9
$LTSCALE
 40
1.0
  9
$ATTMODE
 70
     1
  9
$TEXTSIZE
 40
3.2
  9
$TRACEWID
 40
0.05
  9
$TEXTSTYLE
  7
MX_NOTE_STANDARD
  9
$CLAYER
  8
0
  9
$CELTYPE
  6
CONTINUOUS
  9
$CECOLOR
 62
   256
  9
$CELTSCALE
 40
1.0
  9
$DISPSILH
 70
     0
  9
$DIMSCALE
 40
1.0
  9
$DIMASZ
 40
2.5
  9
$DIMEXO
 40
2.0
  9
$DIMDLI
 40
3.75
  9
$DIMRND
 40
0.0
  9
$DIMDLE
 40
0.0
  9
$DIMEXE
 40
1.0
  9
$DIMTP
 40
0.0
  9
$DIMTM
 40
0.0
  9
$DIMTXT
 40
4.1656
  9
$DIMCEN
 40
2.5
  9
$DIMTSZ
 40
0.0
  9
$DIMTOL
 70
     0
  9
$DIMLIM
 70
     0
  9
$DIMTIH
 70
     0
  9
$DIMTOH
 70
     0
  9
$DIMSE1
 70
     0
  9
$DIMSE2
 70
     0
  9
$DIMTAD
 70
     1
  9
$DIMZIN
 70
     8
  9
$DIMBLK
  1

  9
$DIMASO
 70
     1
  9
$DIMSHO
 70
     1
  9
$DIMPOST
  1

  9
$DIMAPOST
  1

  9
$DIMALT
 70
     0
  9
$DIMALTD
 70
     4
  9
$DIMALTF
 40
0.03937
  9
$DIMLFAC
 40
1.0
  9
$DIMTOFL
 70
     1
  9
$DIMTVP
 40
0.0
  9
$DIMTIX
 70
     0
  9
$DIMSOXD
 70
     0
  9
$DIMSAH
 70
     1
  9
$DIMBLK1
  1
_OPEN30
  9
$DIMBLK2
  1
_OPEN30
  9
$DIMSTYLE
  2
MXDIMSTYLE
  9
$DIMCLRD
 70
     0
  9
$DIMCLRE
 70
     0
  9
$DIMCLRT
 70
     0
  9
$DIMTFAC
 40
1.0
  9
$DIMGAP
 40
1.0
  9
$DIMJUST
 70
     0
  9
$DIMSD1
 70
     0
  9
$DIMSD2
 70
     0
  9
$DIMTOLJ
 70
     0
  9
$DIMTZIN
 70
     0
  9
$DIMALTZ
 70
     0
  9
$DIMALTTZ
 70
     0
  9
$DIMUPT
 70
     0
  9
$DIMDEC
 70
     2
  9
$DIMTDEC
 70
     2
  9
$DIMALTU
 70
     2
  9
$DIMALTTD
 70
     4
  9
$DIMTXSTY
  7
MX_NOTE_STANDARD
  9
$DIMAUNIT
 70
     0
  9
$DIMADEC
 70
     0
  9
$DIMALTRND
 40
0.0
  9
$DIMAZIN
 70
     0
  9
$DIMDSEP
 70
    46
  9
$DIMATFIT
 70
     3
  9
$DIMFRAC
 70
     0
  9
$DIMLDRBLK
  1
_OPEN30
  9
$DIMLUNIT
 70
     2
  9
$DIMLWD
 70
    -2
  9
$DIMLWE
 70
    -2
  9
$DIMTMOVE
 70
     0
  9
$LUNITS
 70
     2
  9
$LUPREC
 70
     4
  9
$SKETCHINC
 40
0.1
  9
$FILLETRAD
 40
0.0
  9
$AUNITS
 70
     0
  9
$AUPREC
 70
     0
  9
$MENU
  1
acad
  9
$ELEVATION
 40
0.0
  9
$PELEVATION
 40
0.0
  9
$THICKNESS
 40
0.0
  9
$LIMCHECK
 70
     0
  9
$CHAMFERA
 40
0.0
  9
$CHAMFERB
 40
0.0
  9
$CHAMFERC
 40
0.0
  9
$CHAMFERD
 40
0.0
  9
$SKPOLY
 70
     0
  9
$TDCREATE
 40
2456119.555370370
  9
$TDUCREATE
 40
0.000000000
  9
$TDUPDATE
 40
2456119.555370370
  9
$TDUUPDATE
 40
0.000000000
  9
$TDINDWG
 40
0.0000000000
  9
$TDUSRTIMER
 40
0.0000000000
  9
$USRTIMER
 70
     1
  9
$ANGBASE
 50
0.0
  9
$ANGDIR
 70
     0
  9
$PDMODE
 70
     0
  9
$PDSIZE
 40
0.0
  9
$PLINEWID
 40
0.0
  9
$SPLFRAME
 70
     0
  9
$SPLINETYPE
 70
     6
  9
$SPLINESEGS
 70
     8
  9
$HANDSEED
  5
312
  9
$SURFTAB1
 70
     6
  9
$SURFTAB2
 70
     6
  9
$SURFTYPE
 70
     6
  9
$SURFU
 70
     6
  9
$SURFV
 70
     6
  9
$UCSBASE
  2

  9
$UCSNAME
  2

  9
$UCSORG
 10
0.0
 20
0.0
 30
0.0
  9
$UCSXDIR
 10
1.0
 20
0.0
 30
0.0
  9
$UCSYDIR
 10
0.0
 20
1.0
 30
0.0
  9
$UCSORTHOREF
  2

  9
$UCSORTHOVIEW
 70
     0
  9
$UCSORGTOP
 10
0.0
 20
0.0
 30
0.0
  9
$UCSORGBOTTOM
 10
0.0
 20
0.0
 30
0.0
  9
$UCSORGLEFT
 10
0.0
 20
0.0
 30
0.0
  9
$UCSORGRIGHT
 10
0.0
 20
0.0
 30
0.0
  9
$UCSORGFRONT
 10
0.0
 20
0.0
 30
0.0
  9
$UCSORGBACK
 10
0.0
 20
0.0
 30
0.0
  9
$PUCSBASE
  2

  9
$PUCSNAME
  2

  9
$PUCSORG
 10
0.0
 20
0.0
 30
0.0
  9
$PUCSXDIR
 10
1.0
 20
0.0
 30
0.0
  9
$PUCSYDIR
 10
0.0
 20
1.0
 30
0.0
  9
$PUCSORTHOREF
  2

  9
$PUCSORTHOVIEW
 70
     0
  9
$PUCSORGTOP
 10
0.0
 20
0.0
 30
0.0
  9
$PUCSORGBOTTOM
 10
0.0
 20
0.0
 30
0.0
  9
$PUCSORGLEFT
 10
0.0
 20
0.0
 30
0.0
  9
$PUCSORGRIGHT
 10
0.0
 20
0.0
 30
0.0
  9
$PUCSORGFRONT
 10
0.0
 20
0.0
 30
0.0
  9
$PUCSORGBACK
 10
0.0
 20
0.0
 30
0.0
  9
$USERI1
 70
     0
  9
$USERI2
 70
     0
  9
$USERI3
 70
     0
  9
$USERI4
 70
     0
  9
$USERI5
 70
     0
  9
$USERR1
 40
0.0
  9
$USERR2
 40
0.0
  9
$USERR3
 40
0.0
  9
$USERR4
 40
0.0
  9
$USERR5
 40
0.0
  9
$WORLDVIEW
 70
     1
  9
$SHADEDGE
 70
     3
  9
$SHADEDIF
 70
    70
  9
$TILEMODE
 70
     1
  9
$MAXACTVP
 70
    16
  9
$PINSBASE
 10
0.0
 20
0.0
 30
0.0
  9
$PLIMCHECK
 70
     0
  9
$PEXTMIN
 10
1.000000E+20
 20
1.000000E+20
 30
1.000000E+20
  9
$PEXTMAX
 10
-1.000000E+20
 20
-1.000000E+20
 30
-1.000000E+20
  9
$PLIMMIN
 10
0.0
 20
0.0
  9
$PLIMMAX
 10
12.0
 20
9.0
  9
$UNITMODE
 70
     0
  9
$VISRETAIN
 70
     0
  9
$PLINEGEN
 70
     1
  9
$PSLTSCALE
 70
     0
  9
$TREEDEPTH
 70
  3020
  9
$CMLSTYLE
  2
Standard
  9
$CMLJUST
 70
     0
  9
$CMLSCALE
 40
1.0
  9
$PROXYGRAPHICS
 70
     0
  9
$MEASUREMENT
 70
     1
  9
$CELWEIGHT
370
     0
  9
$ENDCAPS
280
     0
  9
$JOINSTYLE
280
     0
  9
$LWDISPLAY
290
     0
  9
$INSUNITS
 70
     0
  9
$HYPERLINKBASE
  1

  9
$STYLESHEET
  1

  9
$XEDIT
290
     1
  9
$CEPSNTYPE
380
     0
  9
$PSTYLEMODE
290
     1
  9
$FINGERPRINTGUID
  2

  9
$VERSIONGUID
  2

  9
$EXTNAMES
290
     1
  9
$PSVPSCALE
 40
0.0
  0
ENDSEC
  0
SECTION
  2
CLASSES
  0
CLASS
  1
LWPOLYLINE
  2
AcDbPolyline
  3
AutoCAD 2000
 90
        0
280
     0
281
     1
  0
CLASS
  1
IMAGE
  2
AcDbRasterImage
  3
ISM
 90
      127
280
     0
281
     1
  0
CLASS
  1
OLE2FRAME
  2
AcDbOle2Frame
  3
AutoCAD 2000
 90
        0
280
     0
281
     1
  0
CLASS
  1
HATCH
  2
AcDbHatch
  3
AutoCAD 2000
 90
        0
280
     0
281
     1
  0
CLASS
  1
DICTIONARYVAR
  2
AcDbDictionaryVar
  3
AutoCAD 2000
 90
        0
280
     0
281
     0
  0
CLASS
  1
RASTERVARIABLES
  2
AcDbRasterVariables
  3
ISM
 90
        0
280
     0
281
     0
  0
CLASS
  1
IMAGEDEF
  2
AcDbRasterImageDef
  3
ISM
 90
        0
280
     0
281
     0
  0
CLASS
  1
IMAGEDEF_REACTOR
  2
AcDbRasterImageDefReactor
  3
ISM
 90
        1
280
     0
281
     0
  0
CLASS
  1
IDBUFFER
  2
AcDbIdBuffer
  3
AutoCAD 2000
 90
        0
280
     0
281
     0
  0
CLASS
  1
SPATIAL_FILTER
  2
AcDbSpatialFilter
  3
AutoCAD 2000
 90
        0
280
     0
281
     0
  0
CLASS
  1
XRECORD
  2
AcDbXrecord
  3
AutoCAD 2000
 90
        0
280
     0
281
     0
  0
CLASS
  1
SORTENTSTABLE
  2
AcDbSortentsTable
  3
AutoCAD 2000
 90
        0
280
     0
281
     0
  0
CLASS
  1
LAYER_INDEX
  2
AcDbLayerIndex
  3
AutoCAD 2000
 90
        0
280
     0
281
     0
  0
CLASS
  1
SPATIAL_INDEX
  2
AcDbSpatialIndex
  3
AutoCAD 2000
 90
        0
280
     0
281
     0
  0
CLASS
  1
OBJECT_PTR
  2
CAseDLPNTableRecord
  3
"ASE-LPNTableRecord"
 90
        1
280
     0
281
     0
  0
CLASS
  1
LAYOUT
  2
AcDbLayout
  3
AutoCAD 2000
 90
        0
280
     0
281
     0
  0
CLASS
  1
PLOTSETTINGS
  2
AcDbPlotSettings
  3
AutoCAD 2000
 90
        0
280
     0
281
     0
  0
CLASS
  1
ACDBDICTIONARYWDFLT
  2
AcDbDictionaryWithDefault
  3
AutoCAD 2000
 90
        0
280
     0
281
     0
  0
CLASS
  1
ACDBPLACEHOLDER
  2
AcDbPlaceHolder
  3
AutoCAD 2000
 90
        0
280
     0
281
     0
  0
ENDSEC
  0
SECTION
  2
TABLES
  0
TABLE
  2
VPORT
  5
7
100
AcDbSymbolTable
 70
     1
  0
VPORT
  5
15
100
AcDbSymbolTableRecord
100
AcDbViewportTableRecord
  2
*ACTIVE
 70
     0
 10
0.0
 20
0.0
 11
1.0
 21
1.0
 12
176.123319
 22
69.616667
 13
0.0
 23
0.0
 14
1.0
 24
1.0
 15
0.0
 25
0.0
 16
0.0
 26
0.0
 36
1.0
 17
0.0
 27
0.0
 37
0.0
 40
241.625666
 41
1.732051
 42
50.0
 43
0.0
 44
0.0
 50
0.0
 51
0.0
 71
     0
 72
   100
 73
     1
 74
     1
 75
     0
 76
     0
 77
     0
 78
     0
281
     0
 65
     0
110
0.0
120
0.0
130
0.0
111
1.0
121
0.0
131
0.0
112
0.0
122
1.0
132
0.0
345
0
346
0
 79
     0
146
0.0
  0
ENDTAB
  0
TABLE
  2
LTYPE
  5
4
100
AcDbSymbolTable
 70
     5
  0
LTYPE
  5
11
100
AcDbSymbolTableRecord
100
AcDbLinetypeTableRecord
  2
BYBLOCK
 70
    64
  3

 72
    65
 73
     0
 40
0.0
  0
LTYPE
  5
12
100
AcDbSymbolTableRecord
100
AcDbLinetypeTableRecord
  2
BYLAYER
 70
    64
  3

 72
    65
 73
     0
 40
0.0
  0
LTYPE
  5
13
100
AcDbSymbolTableRecord
100
AcDbLinetypeTableRecord
  2
CONTINUOUS
 70
    64
  3
Solid line
 72
    65
 73
     0
 40
0.0
  0
LTYPE
  5
168
100
AcDbSymbolTableRecord
100
AcDbLinetypeTableRecord
  2
CENTER
 70
    64
  3
Center ____ _ ____ _ ____ _ ____ _ ____ _ ____
 72
    65
 73
     4
 40
50.8
 49
31.75
 74
     0
 49
-6.35
 74
     0
 49
6.35
 74
     0
 49
-6.35
 74
     0
  0
LTYPE
  5
22F
100
AcDbSymbolTableRecord
100
AcDbLinetypeTableRecord
  2
PHANTOM
 70
    64
  3
Phantom ______  __  __  ______  __  __  ______
 72
    65
 73
     6
 40
63.5
 49
31.75
 74
     0
 49
-6.35
 74
     0
 49
6.35
 74
     0
 49
-6.35
 74
     0
 49
6.35
 74
     0
 49
-6.35
 74
     0
  0
ENDTAB
  0
TABLE
  2
LAYER
  5
2
100
AcDbSymbolTable
 70
     3
  0
LAYER
  5
14
100
AcDbSymbolTableRecord
100
AcDbLayerTableRecord
  2
0
 70
     0
 62
     7
  6
CONTINUOUS
290
     1
370
    -3
390
1D
  0
LAYER
  5
23
100
AcDbSymbolTableRecord
100
AcDbLayerTableRecord
  2
DEFPOINTS
 70
     0
 62
     7
  6
CONTINUOUS
290
     0
370
    -3
390
1D
  0
LAYER
  5
24
100
AcDbSymbolTableRecord
100
AcDbLayerTableRecord
  2
LY_3
 70
     0
 62
     7
  6
CONTINUOUS
290
     1
370
    -3
390
1D
  0
ENDTAB
  0
TABLE
  2
STYLE
  5
3
100
AcDbSymbolTable
 70
     2
  0
STYLE
  5
17
100
AcDbSymbolTableRecord
100
AcDbTextStyleTableRecord
  2
MX_NOTE_STANDARD
 70
     0
 40
0.0
 41
1.0
 50
0.0
 71
     0
 42
3.2
  3
txt.shx
  4
extfont.shx
  0
STYLE
  5
38
100
AcDbSymbolTableRecord
100
AcDbTextStyleTableRecord
  2
MX_DIMTXSTY_2
 70
     0
 40
0.0
 41
0.9
 50
0.0
 71
     0
 42
3.2
  3
txt.shx
  4
extfont.shx
  0
ENDTAB
  0
TABLE
  2
VIEW
  5
5
100
AcDbSymbolTable
 70
     0
  0
ENDTAB
  0
TABLE
  2
UCS
  5
6
100
AcDbSymbolTable
 70
     0
  0
ENDTAB
  0
TABLE
  2
APPID
  5
8
100
AcDbSymbolTable
 70
     1
  0
APPID
  5
16
100
AcDbSymbolTableRecord
100
AcDbRegAppTableRecord
  2
ACAD
 70
     0
  0
ENDTAB
  0
TABLE
  2
DIMSTYLE
  5
9
100
AcDbSymbolTable
 70
     1
100
AcDbDimStyleTable
 71
     0
  0
DIMSTYLE
105
18
100
AcDbSymbolTableRecord
100
AcDbDimStyleTableRecord
  2
MXDIMSTYLE
 70
     0
  3

  4

 40
1.0
 41
2.5
 42
2.0
 43
3.75
 44
1.0
 45
0.0
 46
0.0
 47
0.0
 48
0.0
 71
     0
 72
     0
 73
     0
 74
     0
 75
     0
 76
     0
 77
     1
 78
     8
 79
     0
140
4.1656
141
2.5
142
0.0
143
0.03937
144
1.0
145
0.0
146
1.0
147
1.0
148
0.0
170
     0
171
     4
172
     1
173
     1
174
     0
175
     0
176
     0
177
     0
178
     0
179
     0
271
     2
272
     2
273
     2
274
     4
275
     0
276
     0
277
     2
278
    46
279
     0
280
     0
281
     0
282
     0
283
     0
284
     0
285
     0
286
     0
288
     0
289
     3
340
17
341
26
342
0
343
26
344
26
371
    -2
372
    -2
  0
ENDTAB
  0
TABLE
  2
BLOCK_RECORD
  5
1
100
AcDbSymbolTable
 70
     4
  0
BLOCK_RECORD
  5
A
100
AcDbSymbolTableRecord
100
AcDbBlockTableRecord
  2
*MODEL_SPACE
340
20
  0
BLOCK_RECORD
  5
B
100
AcDbSymbolTableRecord
100
AcDbBlockTableRecord
  2
*PAPER_SPACE
340
21
  0
BLOCK_RECORD
  5
25
100
AcDbSymbolTableRecord
100
AcDbBlockTableRecord
  2
*U0
340
0
102
{BLKREFS
331
4C
331
4D
331
4E
331
4F
331
50
331
51
331
52
331
53
331
54
331
55
102
}
  0
BLOCK_RECORD
  5
26
100
AcDbSymbolTableRecord
100
AcDbBlockTableRecord
  2
_OPEN30
340
0
102
{BLKREFS
331
36
331
37
331
44
331
45
102
}
  0
BLOCK_RECORD
  5
31
100
AcDbSymbolTableRecord
100
AcDbBlockTableRecord
  2
*D2
340
0
  0
BLOCK_RECORD
  5
3F
100
AcDbSymbolTableRecord
100
AcDbBlockTableRecord
  2
*D3
340
0
  0
ENDTAB
  0
ENDSEC
  0
SECTION
  2
BLOCKS
  0
BLOCK
  5
D
100
AcDbEntity
  8
0
390
0
100
AcDbBlockBegin
  2
*MODEL_SPACE
 70
     0
 10
0.0
 20
0.0
 30
0.0
  3
*MODEL_SPACE
  1

  0
ENDBLK
  5
E
100
AcDbEntity
  8
0
390
0
100
AcDbBlockEnd
  0
BLOCK
  5
F
100
AcDbEntity
 67
     1
  8
0
390
0
100
AcDbBlockBegin
  2
*PAPER_SPACE
 70
     0
 10
0.0
 20
0.0
 30
0.0
  3
*PAPER_SPACE
  1

  0
ENDBLK
  5
10
100
AcDbEntity
 67
     1
  8
0
390
0
100
AcDbBlockEnd
  0
BLOCK
  5
2C
100
AcDbEntity
  8
0
370
    -2
390
0
100
AcDbBlockBegin
  2
*U0
 70
     1
 10
0.0
 20
0.0
 30
0.0
  3
*U0
  1

  0
LINE
  5
2D
100
AcDbEntity
  8
0
390
0
  6
CONTINUOUS
 62
   110
100
AcDbLine
 10
-1.0
 20
0.267949
 30
0.0
 11
0.0
 21
0.0
 31
0.0
  0
LINE
  5
2E
100
AcDbEntity
  8
0
390
0
  6
CONTINUOUS
 62
   110
100
AcDbLine
 10
0.0
 20
0.0
 30
0.0
 11
-1.0
 21
-0.267949
 31
0.0
  0
LINE
  5
2F
100
AcDbEntity
  8
0
390
0
  6
CONTINUOUS
 62
   110
100
AcDbLine
 10
0.0
 20
0.0
 30
0.0
 11
-1.0
 21
0.0
 31
0.0
  0
ENDBLK
  5
30
100
AcDbEntity
  8
0
370
    -2
390
0
100
AcDbBlockEnd
  0
BLOCK
  5
27
100
AcDbEntity
  8
0
370
    -2
390
0
  6
ByBlock
 62
     0
100
AcDbBlockBegin
  2
_OPEN30
 70
     2
 10
0.0
 20
0.0
 30
0.0
  3
_OPEN30
  1

  0
LINE
  5
28
100
AcDbEntity
  8
0
370
    -2
390
0
  6
ByBlock
 62
     0
100
AcDbLine
 10
-1.0
 20
0.267949
 30
0.0
 11
0.0
 21
0.0
 31
0.0
  0
LINE
  5
29
100
AcDbEntity
  8
0
370
    -2
390
0
  6
ByBlock
 62
     0
100
AcDbLine
 10
0.0
 20
0.0
 30
0.0
 11
-1.0
 21
-0.267949
 31
0.0
  0
LINE
  5
2A
100
AcDbEntity
  8
0
370
    -2
390
0
  6
ByBlock
 62
     0
100
AcDbLine
 10
0.0
 20
0.0
 30
0.0
 11
-1.0
 21
0.0
 31
0.0
  0
ENDBLK
  5
2B
100
AcDbEntity
  8
0
370
    -2
390
0
  6
ByBlock
 62
     0
100
AcDbBlockEnd
  0
BLOCK
  5
32
100
AcDbEntity
  8
0
370
    -2
390
0
  6
ByBlock
 62
     0
100
AcDbBlockBegin
  2
*D2
 70
     1
 10
0.0
 20
0.0
 30
0.0
  3
*D2
  1

  0
LINE
  5
33
100
AcDbEntity
  8
0
390
0
  6
CONTINUOUS
 62
   110
100
AcDbLine
 10
60.00004
 20
70.0
 30
0.0
 11
345.000055
 21
70.0
 31
0.0
  0
LINE
  5
34
100
AcDbEntity
  8
0
390
0
  6
CONTINUOUS
 62
   110
100
AcDbLine
 10
60.00004
 20
5.0
 30
0.0
 11
60.00004
 21
71.0
 31
0.0
  0
LINE
  5
35
100
AcDbEntity
  8
0
390
0
  6
CONTINUOUS
 62
   110
100
AcDbLine
 10
345.000055
 20
2.0
 30
0.0
 11
345.000055
 21
71.0
 31
0.0
  0
INSERT
  5
36
100
AcDbEntity
  8
0
390
0
  6
CONTINUOUS
 62
   110
100
AcDbBlockReference
  2
_OPEN30
 10
60.00004
 20
70.0
 30
0.0
 41
2.77
 42
2.77
 43
2.77
 50
180.0
  0
INSERT
  5
37
100
AcDbEntity
  8
0
390
0
  6
CONTINUOUS
 62
   110
100
AcDbBlockReference
  2
_OPEN30
 10
345.000055
 20
70.0
 30
0.0
 41
2.77
 42
2.77
 43
2.77
  0
MTEXT
  5
39
100
AcDbEntity
  8
0
390
0
  6
CONTINUOUS
 62
   110
100
AcDbMText
 10
202.50004
 20
73.1
 30
0.0
 40
4.2
 41
0.0
 71
     5
 72
     1
  1
\A1;385～285（100ストローク）
  7
MX_DIMTXSTY_2
 73
     1
 44
0.9
  0
POINT
  5
3A
100
AcDbEntity
  8
DEFPOINTS
390
0
  6
CONTINUOUS
 62
     0
100
AcDbPoint
 10
60.00004
 20
3.0
 30
0.0
  0
POINT
  5
3B
100
AcDbEntity
  8
DEFPOINTS
390
0
  6
CONTINUOUS
 62
     0
100
AcDbPoint
 10
345.000055
 20
0.0
 30
0.0
  0
POINT
  5
3C
100
AcDbEntity
  8
DEFPOINTS
390
0
  6
CONTINUOUS
 62
     0
100
AcDbPoint
 10
345.000055
 20
70.0
 30
0.0
  0
ENDBLK
  5
3D
100
AcDbEntity
  8
0
370
    -2
390
0
  6
ByBlock
 62
     0
100
AcDbBlockEnd
  0
BLOCK
  5
40
100
AcDbEntity
  8
0
370
    -2
390
0
  6
ByBlock
 62
     0
100
AcDbBlockBegin
  2
*D3
 70
     1
 10
0.0
 20
0.0
 30
0.0
  3
*D3
  1

  0
LINE
  5
41
100
AcDbEntity
  8
0
390
0
  6
CONTINUOUS
 62
   110
100
AcDbLine
 10
110.00004
 20
60.0
 30
0.0
 11
338.000055
 21
60.0
 31
0.0
  0
LINE
  5
42
100
AcDbEntity
  8
0
390
0
  6
CONTINUOUS
 62
   110
100
AcDbLine
 10
110.00004
 20
35.849991
 30
0.0
 11
110.00004
 21
61.0
 31
0.0
  0
LINE
  5
43
100
AcDbEntity
  8
0
390
0
  6
CONTINUOUS
 62
   110
100
AcDbLine
 10
338.000055
 20
25.0
 30
0.0
 11
338.000055
 21
61.0
 31
0.0
  0
INSERT
  5
44
100
AcDbEntity
  8
0
390
0
  6
CONTINUOUS
 62
   110
100
AcDbBlockReference
  2
_OPEN30
 10
110.00004
 20
60.0
 30
0.0
 41
2.77
 42
2.77
 43
2.77
 50
180.0
  0
INSERT
  5
45
100
AcDbEntity
  8
0
390
0
  6
CONTINUOUS
 62
   110
100
AcDbBlockReference
  2
_OPEN30
 10
338.000055
 20
60.0
 30
0.0
 41
2.77
 42
2.77
 43
2.77
  0
MTEXT
  5
46
100
AcDbEntity
  8
0
390
0
  6
CONTINUOUS
 62
   110
100
AcDbMText
 10
224.000048
 20
63.1
 30
0.0
 40
4.2
 41
0.0
 71
     5
 72
     1
  1
\A1;228
 73
     1
 44
0.9
  0
POINT
  5
47
100
AcDbEntity
  8
DEFPOINTS
390
0
  6
CONTINUOUS
 62
     0
100
AcDbPoint
 10
110.00004
 20
33.849991
 30
0.0
  0
POINT
  5
48
100
AcDbEntity
  8
DEFPOINTS
390
0
  6
CONTINUOUS
 62
     0
100
AcDbPoint
 10
338.000055
 20
23.0
 30
0.0
  0
POINT
  5
49
100
AcDbEntity
  8
DEFPOINTS
390
0
  6
CONTINUOUS
 62
     0
100
AcDbPoint
 10
338.000055
 20
60.0
 30
0.0
  0
ENDBLK
  5
4A
100
AcDbEntity
  8
0
370
    -2
390
0
  6
ByBlock
 62
     0
100
AcDbBlockEnd
  0
ENDSEC
  0
SECTION
  2
ENTITIES
  0
DIMENSION
  5
3E
100
AcDbEntity
  8
0
390
0
  6
CONTINUOUS
 62
   110
100
AcDbDimension
  2
*D2
 10
345.000055
 20
70.0
 30
0.0
 11
202.50004
 21
70.0
 31
0.0
 70
   128
 71
     5
 72
     1
 41
0.9
 42
285.000015
  1
\A1;385～<>（100ストローク）
  3
MXDIMSTYLE
100
AcDbAlignedDimension
 13
60.00004
 23
3.0
 33
0.0
 14
345.000055
 24
0.0
 34
0.0
100
AcDbRotatedDimension
1001
ACAD
1000
DSTYLE
1002
{
1070
    41
1040
2.77
1070
   140
1040
4.2
1070
   284
1070
     8
1070
   340
1005
38
1002
}
  0
DIMENSION
  5
4B
100
AcDbEntity
  8
0
390
0
  6
CONTINUOUS
 62
   110
100
AcDbDimension
  2
*D3
 10
338.000055
 20
60.0
 30
0.0
 11
224.000048
 21
60.0
 31
0.0
 70
   128
 71
     5
 72
     1
 41
0.9
 42
228.000015
  1
\A1;<>
  3
MXDIMSTYLE
100
AcDbAlignedDimension
 13
110.00004
 23
33.849991
 33
0.0
 14
338.000055
 24
23.0
 34
0.0
100
AcDbRotatedDimension
1001
ACAD
1000
DSTYLE
1002
{
1070
    41
1040
2.77
1070
   140
1040
4.2
1070
   284
1070
     8
1002
}
  0
INSERT
  5
4C
100
AcDbEntity
  8
LY_3
390
0
  6
ByBlock
100
AcDbBlockReference
  2
*U0
 10
145.17585
 20
-13.753087
 30
0.0
 41
2.77
 42
2.77
 43
2.77
 50
133.404238
  0
INSERT
  5
4D
100
AcDbEntity
  8
LY_3
390
0
  6
ByBlock
100
AcDbBlockReference
  2
*U0
 10
120.918524
 20
-9.833539
 30
0.0
 41
2.77
 42
2.77
 43
2.77
 50
115.410519
  0
INSERT
  5
4E
100
AcDbEntity
  8
LY_3
390
0
  6
ByBlock
100
AcDbBlockReference
  2
*U0
 10
117.892383
 20
-9.329182
 30
0.0
 41
2.77
 42
2.77
 43
2.77
 50
66.253783
  0
INSERT
  5
4F
100
AcDbEntity
  8
LY_3
390
0
  6
ByBlock
100
AcDbBlockReference
  2
*U0
 10
302.568116
 20
104.444133
 30
0.0
 41
2.77
 42
2.77
 43
2.77
 50
104.741848
  0
INSERT
  5
50
100
AcDbEntity
  8
LY_3
390
0
  6
ByBlock
100
AcDbBlockReference
  2
*U0
 10
226.065983
 20
118.775716
 30
0.0
 41
2.77
 42
2.77
 43
2.77
 50
108.446622
  0
INSERT
  5
51
100
AcDbEntity
  8
LY_3
390
0
  6
ByBlock
100
AcDbBlockReference
  2
*U0
 10
349.392273
 20
128.938178
 30
0.0
 41
2.77
 42
2.77
 43
2.77
 50
245.479051
  0
INSERT
  5
52
100
AcDbEntity
  8
LY_3
390
0
  6
ByBlock
100
AcDbBlockReference
  2
*U0
 10
320.301829
 20
149.420111
 30
0.0
 41
2.77
 42
2.77
 43
2.77
 50
247.08846
  0
INSERT
  5
53
100
AcDbEntity
  8
LY_3
390
0
  6
ByBlock
100
AcDbBlockReference
  2
*U0
 10
281.118831
 20
127.157073
 30
0.0
 41
2.77
 42
2.77
 43
2.77
 50
251.305035
  0
INSERT
  5
54
100
AcDbEntity
  8
LY_3
390
0
  6
ByBlock
100
AcDbBlockReference
  2
*U0
 10
223.531875
 20
143.483309
 30
0.0
 41
2.77
 42
2.77
 43
2.77
 50
247.042944
  0
INSERT
  5
55
100
AcDbEntity
  8
LY_3
390
0
  6
ByBlock
100
AcDbBlockReference
  2
*U0
 10
118.253311
 20
159.760241
 30
0.0
 41
2.77
 42
2.77
 43
2.77
 50
239.870111
  0
LINE
  5
56
100
AcDbEntity
  8
LY_3
390
0
  6
CONTINUOUS
 62
     3
100
AcDbLine
 10
115.300035
 20
12.849991
 30
0.0
 11
115.300035
 21
6.0
 31
0.0
  0
LINE
  5
57
100
AcDbEntity
  8
LY_3
390
0
  6
CONTINUOUS
 62
     3
100
AcDbLine
 10
115.300035
 20
-12.850006
 30
0.0
 11
115.300035
 21
-6.0
 31
0.0
  0
LINE
  5
58
100
AcDbEntity
  8
LY_3
390
0
  6
CONTINUOUS
 62
     3
100
AcDbLine
 10
127.812536
 20
126.610229
 30
0.0
 11
128.187536
 21
126.610229
 31
0.0
  0
LINE
  5
59
100
AcDbEntity
  8
LY_3
390
0
  6
CONTINUOUS
 62
     3
100
AcDbLine
 10
127.812536
 20
123.610229
 30
0.0
 11
128.187536
 21
123.610229
 31
0.0
  0
LINE
  5
5A
100
AcDbEntity
  8
LY_3
390
0
  6
CONTINUOUS
 62
     3
100
AcDbLine
 10
129.500036
 20
125.297729
 30
0.0
 11
129.500036
 21
124.922729
 31
0.0
  0
LINE
  5
5B
100
AcDbEntity
  8
LY_3
390
0
  6
CONTINUOUS
 62
     3
100
AcDbLine
 10
126.500036
 20
125.297729
 30
0.0
 11
126.500036
 21
124.922729
 31
0.0
  0
LINE
  5
5C
100
AcDbEntity
  8
LY_3
390
0
  6
CONTINUOUS
 62
     3
100
AcDbLine
 10
128.187536
 20
126.610229
 30
0.0
 11
128.187536
 21
125.919775
 31
0.0
  0
LINE
  5
5D
100
AcDbEntity
  8
LY_3
390
0
  6
CONTINUOUS
 62
     3
100
AcDbLine
 10
127.812536
 20
126.610229
 30
0.0
 11
127.812536
 21
125.919775
 31
0.0
  0
LINE
  5
5E
100
AcDbEntity
  8
LY_3
390
0
  6
CONTINUOUS
 62
     3
100
AcDbLine
 10
126.500036
 20
124.922729
 30
0.0
 11
127.190491
 21
124.922729
 31
0.0
  0
LINE
  5
5F
100
AcDbEntity
  8
LY_3
390
0
  6
CONTINUOUS
 62
     3
100
AcDbLine
 10
126.500036
 20
125.297729
 30
0.0
 11
127.190491
 21
125.297729
 31
0.0
  0
LINE
  5
60
100
AcDbEntity
  8
LY_3
390
0
  6
CONTINUOUS
 62
     3
100
AcDbLine
 10
127.812536
 20
124.300684
 30
0.0
 11
127.812536
 21
123.610229
 31
0.0
  0
LINE
  5
61
100
AcDbEntity
  8
LY_3
390
0
  6
CONTINUOUS
 62
     3
100
AcDbLine
 10
128.187536
 20
124.300684
 30
0.0
 11
128.187536
 21
123.610229
 31
0.0
  0
LINE
  5
62
100
AcDbEntity
  8
LY_3
390
0
  6
CONTINUOUS
 62
     3
100
AcDbLine
 10
128.809582
 20
124.922729
 30
0.0
 11
129.500036
 21
124.922729
 31
0.0
  0
LINE
  5
63
100
AcDbEntity
  8
LY_3
390
0
  6
CONTINUOUS
 62
     3
100
AcDbLine
 10
128.809582
 20
125.297729
 30
0.0
 11
129.500036
 21
125.297729
 31
0.0
  0
ARC
  5
64
100
AcDbEntity
  8
LY_3
390
0
  6
CONTINUOUS
 62
     3
100
AcDbCircle
 10
127.190491
 20
125.919775
 30
0.0
 40
0.622046
100
AcDbArc
 50
270.000018
 51
0.0
  0
ARC
  5
65
100
AcDbEntity
  8
LY_3
390
0
  6
CONTINUOUS
 62
     3
100
AcDbCircle
 10
127.190491
 20
124.300684
 30
0.0
 40
0.622046
100
AcDbArc
 50
0.0
 51
89.999982
  0
ARC
  5
66
100
AcDbEntity
  8
LY_3
390
0
  6
CONTINUOUS
 62
     3
100
AcDbCircle
 10
128.809582
 20
124.300684
 30
0.0
 40
0.622046
100
AcDbArc
 50
89.999982
 51
179.999964
  0
ARC
  5
67
100
AcDbEntity
  8
LY_3
390
0
  6
CONTINUOUS
 62
     3
100
AcDbCircle
 10
128.809582
 20
125.919775
 30
0.0
 40
0.622046
100
AcDbArc
 50
179.999981
 51
270.000018
  0
CIRCLE
  5
68
100
AcDbEntity
  8
LY_3
390
0
  6
CONTINUOUS
 62
     3
100
AcDbCircle
 10
128.000036
 20
125.110229
 30
0.0
 40
2.75
  0
LINE
  5
69
100
AcDbEntity
  8
LY_3
390
0
  6
CONTINUOUS
 62
     3
100
AcDbLine
 10
318.500047
 20
-25.000005
 30
0.0
 11
319.000047
 21
-25.500006
 31
0.0
  0
LINE
  5
6A
100
AcDbEntity
  8
LY_3
390
0
  6
CONTINUOUS
 62
     3
100
AcDbLine
 10
332.500051
 20
-24.999994
 30
0.0
 11
332.00005
 21
-25.499995
 31
0.0
  0
LINE
  5
6B
100
AcDbEntity
  8
LY_3
390
0
  6
CONTINUOUS
 62
     3
100
AcDbLine
 10
332.500055
 20
-24.999992
 30
0.0
 11
336.000055
 21
-24.999992
 31
0.0
  0
LINE
  5
6C
100
AcDbEntity
  8
LY_3
390
0
  6
CONTINUOUS
 62
     3
100
AcDbLine
 10
319.000055
 20
-25.499992
 30
0.0
 11
332.000055
 21
-25.499992
 31
0.0
  0
LINE
  5
6D
100
AcDbEntity
  8
LY_3
390
0
  6
CONTINUOUS
 62
     3
100
AcDbLine
 10
311.00004
 20
-22.0
 30
0.0
 11
311.947733
 21
-22.0
 31
0.0
  0
LINE
  5
6E
100
AcDbEntity
  8
LY_3
390
0
  6
CONTINUOUS
 62
     3
100
AcDbLine
 10
311.999997
 20
-24.000055
 30
0.0
 11
313.0
 21
-25.00006
 31
0.0
  0
LINE
  5
6F
100
AcDbEntity
  8
LY_3
390
0
  6
CONTINUOUS
 62
     3
100
AcDbLine
 10
313.00004
 20
-24.999992
 30
0.0
 11
318.500055
 21
-24.999992
 31
0.0
  0
LINE
  5
70
100
AcDbEntity
  8
LY_3
390
0
  6
CONTINUOUS
 62
     3
100
AcDbLine
 10
300.000055
 20
-20.41272
 30
0.0
 11
304.000055
 21
-20.41272
 31
0.0
  0
MTEXT
  5
71
100
AcDbEntity
  8
LY_3
390
0
  6
CONTINUOUS
 62
   110
100
AcDbMText
 10
304.38765
 20
-20.41272
 30
0.0
 40
3.2
 41
0.0
 71
     2
 72
     1
  1
\W0.833;\A1;4
 11
0.0
 21
1.0
 31
0.0
 73
     1
 44
1.0
  0
LINE
  5
72
100
AcDbEntity
  8
LY_3
390
0
  6
CONTINUOUS
 62
     3
100
AcDbLine
 10
300.000134
 20
-21.037493
 30
0.0
 11
311.000124
 21
-21.999868
 31
0.0
  0
LINE
  5
73
100
AcDbEntity
  8
LY_3
390
0
  6
CONTINUOUS
 62
     3
100
AcDbLine
 10
300.000055
 20
-12.365608
 30
0.0
 11
304.000055
 21
-12.365608
 31
0.0
  0
MTEXT
  5
74
100
AcDbEntity
  8
LY_3
390
0
  6
CONTINUOUS
 62
   110
100
AcDbMText
 10
304.400055
 20
-12.365608
 30
0.0
 40
3.2
 41
0.0
 71
     2
 72
     1
  1
\W0.833;\A1;3
 11
0.0
 21
1.0
 31
0.0
 73
     1
 44
1.0
  0
LINE
  5
75
100
AcDbEntity
  8
LY_3
390
0
  6
CONTINUOUS
 62
     3
100
AcDbLine
 10
300.000055
 20
-0.000008
 30
0.0
 11
304.000055
 21
-0.000008
 31
0.0
  0
MTEXT
  5
76
100
AcDbEntity
  8
LY_3
390
0
  6
CONTINUOUS
 62
   110
100
AcDbMText
 10
304.400055
 20
0.000008
 30
0.0
 40
3.2
 41
0.0
 71
     2
 72
     1
  1
\W0.833;\A1;2
 11
0.0
 21
1.0
 31
0.0
 73
     1
 44
1.0
  0
LINE
  5
77
100
AcDbEntity
  8
LY_3
390
0
  6
CONTINUOUS
 62
     3
100
AcDbLine
 10
300.000055
 20
21.037621
 30
0.0
 11
300.000055
 21
-21.037628
 31
0.0
  0
MTEXT
  5
78
100
AcDbEntity
  8
LY_3
390
0
  6
CONTINUOUS
 62
   110
100
AcDbMText
 10
304.400055
 20
20.412712
 30
0.0
 40
3.2
 41
0.0
 71
     2
 72
     1
  1
\A1;0
 11
0.0
 21
1.0
 31
0.0
 73
     1
 44
1.0
  0
MTEXT
  5
79
100
AcDbEntity
  8
LY_3
390
0
  6
CONTINUOUS
 62
   110
100
AcDbMText
 10
304.400055
 20
12.365608
 30
0.0
 40
3.2
 41
0.0
 71
     2
 72
     1
  1
\W1.313;\A1;1
 11
0.0
 21
1.0
 31
0.0
 73
     1
 44
1.0
  0
LINE
  5
7A
100
AcDbEntity
  8
LY_3
390
0
  6
CONTINUOUS
 62
     3
100
AcDbLine
 10
300.000055
 20
12.365608
 30
0.0
 11
304.000055
 21
12.365608
 31
0.0
  0
LINE
  5
7B
100
AcDbEntity
  8
LY_3
390
0
  6
CONTINUOUS
 62
     3
100
AcDbLine
 10
300.000055
 20
20.412712
 30
0.0
 11
304.000055
 21
20.412712
 31
0.0
  0
LINE
  5
7C
100
AcDbEntity
  8
LY_3
390
0
  6
CONTINUOUS
 62
     3
100
AcDbLine
 10
311.000055
 20
21.999992
 30
0.0
 11
311.947733
 21
21.999992
 31
0.0
  0
LINE
  5
7D
100
AcDbEntity
  8
LY_3
390
0
  6
CONTINUOUS
 62
     3
100
AcDbLine
 10
312.000002
 20
24.000048
 30
0.0
 11
313.000002
 21
25.00005
 31
0.0
  0
LINE
  5
7E
100
AcDbEntity
  8
LY_3
390
0
  6
CONTINUOUS
 62
     3
100
AcDbLine
 10
300.000021
 20
21.037762
 30
0.0
 11
311.000011
 21
22.000137
 31
0.0
  0
LINE
  5
7F
100
AcDbEntity
  8
LY_3
390
0
  6
CONTINUOUS
 62
     3
100
AcDbLine
 10
312.999994
 20
25.000008
 30
0.0
 11
312.999994
 21
-24.999992
 31
0.0
  0
LINE
  5
80
100
AcDbEntity
  8
LY_3
390
0
  6
CONTINUOUS
 62
     3
100
AcDbLine
 10
312.000055
 20
24.000008
 30
0.0
 11
312.000055
 21
-24.000122
 31
0.0
  0
LINE
  5
81
100
AcDbEntity
  8
LY_3
390
0
  6
CONTINUOUS
 62
     3
100
AcDbLine
 10
313.00004
 20
25.000008
 30
0.0
 11
318.500055
 21
25.000008
 31
0.0
  0
LINE
  5
82
100
AcDbEntity
  8
LY_3
390
0
  6
CONTINUOUS
 62
     3
100
AcDbLine
 10
318.50005
 20
25.000002
 30
0.0
 11
319.00005
 21
25.500003
 31
0.0
  0
LINE
  5
83
100
AcDbEntity
  8
LY_3
390
0
  6
CONTINUOUS
 62
     3
100
AcDbLine
 10
319.000055
 20
25.500008
 30
0.0
 11
319.000055
 21
-25.499992
 31
0.0
  0
LINE
  5
84
100
AcDbEntity
  8
LY_3
390
0
  6
CONTINUOUS
 62
     3
100
AcDbLine
 10
318.500055
 20
25.000008
 30
0.0
 11
318.500055
 21
-24.999992
 31
0.0
  0
LINE
  5
85
100
AcDbEntity
  8
LY_3
390
0
  6
CONTINUOUS
 62
     3
100
AcDbLine
 10
332.500046
 20
24.999999
 30
0.0
 11
332.000045
 21
25.5
 31
0.0
  0
LINE
  5
86
100
AcDbEntity
  8
LY_3
390
0
  6
CONTINUOUS
 62
     3
100
AcDbLine
 10
332.500055
 20
25.000008
 30
0.0
 11
332.500055
 21
-24.999992
 31
0.0
  0
LINE
  5
87
100
AcDbEntity
  8
LY_3
390
0
  6
CONTINUOUS
 62
     3
100
AcDbLine
 10
332.000055
 20
25.500008
 30
0.0
 11
332.000055
 21
-25.499992
 31
0.0
  0
LINE
  5
88
100
AcDbEntity
  8
LY_3
390
0
  6
CONTINUOUS
 62
   110
100
AcDbLine
 10
319.000055
 20
15.500008
 30
0.0
 11
332.000055
 21
15.500008
 31
0.0
  0
LINE
  5
89
100
AcDbEntity
  8
LY_3
390
0
  6
CONTINUOUS
 62
   110
100
AcDbLine
 10
319.000055
 20
16.500008
 30
0.0
 11
332.000055
 21
16.500008
 31
0.0
  0
LINE
  5
8A
100
AcDbEntity
  8
LY_3
390
0
  6
CONTINUOUS
 62
   110
100
AcDbLine
 10
319.000055
 20
17.500008
 30
0.0
 11
332.000055
 21
17.500008
 31
0.0
  0
LINE
  5
8B
100
AcDbEntity
  8
LY_3
390
0
  6
CONTINUOUS
 62
   110
100
AcDbLine
 10
319.000055
 20
18.500008
 30
0.0
 11
332.000055
 21
18.500008
 31
0.0
  0
LINE
  5
8C
100
AcDbEntity
  8
LY_3
390
0
  6
CONTINUOUS
 62
   110
100
AcDbLine
 10
319.000055
 20
19.500008
 30
0.0
 11
332.000055
 21
19.500008
 31
0.0
  0
LINE
  5
8D
100
AcDbEntity
  8
LY_3
390
0
  6
CONTINUOUS
 62
   110
100
AcDbLine
 10
319.000055
 20
20.500008
 30
0.0
 11
332.000055
 21
20.500008
 31
0.0
  0
LINE
  5
8E
100
AcDbEntity
  8
LY_3
390
0
  6
CONTINUOUS
 62
   110
100
AcDbLine
 10
319.000055
 20
21.500008
 30
0.0
 11
332.000055
 21
21.500008
 31
0.0
  0
LINE
  5
8F
100
AcDbEntity
  8
LY_3
390
0
  6
CONTINUOUS
 62
   110
100
AcDbLine
 10
319.000055
 20
22.500008
 30
0.0
 11
332.000055
 21
22.500008
 31
0.0
  0
LINE
  5
90
100
AcDbEntity
  8
LY_3
390
0
  6
CONTINUOUS
 62
   110
100
AcDbLine
 10
319.000055
 20
23.500008
 30
0.0
 11
332.000055
 21
23.500008
 31
0.0
  0
LINE
  5
91
100
AcDbEntity
  8
LY_3
390
0
  6
CONTINUOUS
 62
   110
100
AcDbLine
 10
319.000055
 20
24.500008
 30
0.0
 11
332.000055
 21
24.500008
 31
0.0
  0
LINE
  5
92
100
AcDbEntity
  8
LY_3
390
0
  6
CONTINUOUS
 62
     3
100
AcDbLine
 10
319.000055
 20
25.500008
 30
0.0
 11
332.000055
 21
25.500008
 31
0.0
  0
LINE
  5
93
100
AcDbEntity
  8
LY_3
390
0
  6
CONTINUOUS
 62
     3
100
AcDbLine
 10
332.500055
 20
25.000008
 30
0.0
 11
336.000055
 21
25.000008
 31
0.0
  0
LINE
  5
94
100
AcDbEntity
  8
LY_3
390
0
  6
CONTINUOUS
 62
     3
100
AcDbLine
 10
361.700055
 20
12.0
 30
0.0
 11
362.000055
 21
12.3
 31
0.0
  0
LINE
  5
95
100
AcDbEntity
  8
LY_3
390
0
  6
CONTINUOUS
 62
     3
100
AcDbLine
 10
361.700055
 20
22.0
 30
0.0
 11
362.000055
 21
21.7
 31
0.0
  0
LINE
  5
96
100
AcDbEntity
  8
LY_3
390
0
  6
CONTINUOUS
 62
     3
100
AcDbLine
 10
361.700055
 20
120.110229
 30
0.0
 11
362.000055
 21
120.410229
 31
0.0
  0
LINE
  5
97
100
AcDbEntity
  8
LY_3
390
0
  6
CONTINUOUS
 62
     3
100
AcDbLine
 10
361.700055
 20
130.110229
 30
0.0
 11
362.000055
 21
129.810229
 31
0.0
  0
LINE
  5
98
100
AcDbEntity
  8
LY_3
390
0
  6
CONTINUOUS
 62
   110
100
AcDbLine
 10
60.00004
 20
20.0
 30
0.0
 11
80.00004
 21
20.0
 31
0.0
  0
LINE
  5
99
100
AcDbEntity
  8
LY_3
390
0
  6
CONTINUOUS
 62
   110
100
AcDbLine
 10
80.00004
 20
7.54
 30
0.0
 11
80.00004
 21
22.285999
 31
0.0
  0
MTEXT
  5
9A
100
AcDbEntity
  8
LY_3
390
0
  6
CONTINUOUS
 62
   110
100
AcDbMText
 10
67.023181
 20
25.2
 30
0.0
 40
4.2
 41
0.0
 71
     1
 72
     1
  1
\W0.992;\A1;20
 73
     1
 44
1.0
  0
LINE
  5
9B
100
AcDbEntity
  8
LY_3
390
0
  6
CONTINUOUS
 62
   110
100
AcDbLine
 10
62.77004
 20
19.257781
 30
0.0
 11
60.00004
 21
20.0
 31
0.0
  0
LINE
  5
9C
100
AcDbEntity
  8
LY_3
390
0
  6
CONTINUOUS
 62
   110
100
AcDbLine
 10
60.00004
 20
20.0
 30
0.0
 11
62.77004
 21
20.742219
 31
0.0
  0
LINE
  5
9D
100
AcDbEntity
  8
LY_3
390
0
  6
CONTINUOUS
 62
   110
100
AcDbLine
 10
77.23004
 20
20.742219
 30
0.0
 11
80.00004
 21
20.0
 31
0.0
  0
LINE
  5
9E
100
AcDbEntity
  8
LY_3
390
0
  6
CONTINUOUS
 62
   110
100
AcDbLine
 10
80.00004
 20
20.0
 30
0.0
 11
77.23004
 21
19.257781
 31
0.0
  0
LINE
  5
9F
100
AcDbEntity
  8
LY_3
390
0
  6
CONTINUOUS
 62
   110
100
AcDbLine
 10
144.821522
 20
146.110229
 30
0.0
 11
144.821522
 21
104.110229
 31
0.0
  0
LINE
  5
A0
100
AcDbEntity
  8
LY_3
390
0
  6
CONTINUOUS
 62
   110
100
AcDbLine
 10
133.040036
 20
146.110229
 30
0.0
 11
147.107521
 21
146.110229
 31
0.0
  0
LINE
  5
A1
100
AcDbEntity
  8
LY_3
390
0
  6
CONTINUOUS
 62
   110
100
AcDbLine
 10
133.040036
 20
104.110229
 30
0.0
 11
147.107521
 21
104.110229
 31
0.0
  0
MTEXT
  5
A2
100
AcDbEntity
  8
LY_3
390
0
  6
CONTINUOUS
 62
   110
100
AcDbMText
 10
139.621522
 20
119.987502
 30
0.0
 40
4.2
 41
0.0
 71
     1
 72
     1
  1
\W0.955;\A1;\U+220542
 11
0.0
 21
1.0
 31
0.0
 73
     1
 44
1.0
  0
LINE
  5
A3
100
AcDbEntity
  8
LY_3
390
0
  6
CONTINUOUS
 62
   110
100
AcDbLine
 10
144.079303
 20
143.340229
 30
0.0
 11
144.821522
 21
146.110229
 31
0.0
  0
LINE
  5
A4
100
AcDbEntity
  8
LY_3
390
0
  6
CONTINUOUS
 62
   110
100
AcDbLine
 10
144.821522
 20
146.110229
 30
0.0
 11
145.56374
 21
143.340229
 31
0.0
  0
LINE
  5
A5
100
AcDbEntity
  8
LY_3
390
0
  6
CONTINUOUS
 62
   110
100
AcDbLine
 10
145.56374
 20
106.880229
 30
0.0
 11
144.821522
 21
104.110229
 31
0.0
  0
LINE
  5
A6
100
AcDbEntity
  8
LY_3
390
0
  6
CONTINUOUS
 62
   110
100
AcDbLine
 10
144.821522
 20
104.110229
 30
0.0
 11
144.079303
 21
106.880229
 31
0.0
  0
LINE
  5
A7
100
AcDbEntity
  8
LY_3
390
0
  6
CONTINUOUS
 62
   110
100
AcDbLine
 10
152.625782
 20
144.110214
 30
0.0
 11
152.625782
 21
106.110222
 31
0.0
  0
MTEXT
  5
A8
100
AcDbEntity
  8
LY_3
390
0
  6
CONTINUOUS
 62
   110
100
AcDbMText
 10
147.425782
 20
119.987487
 30
0.0
 40
4.2
 41
0.0
 71
     1
 72
     1
  1
\W0.955;\A1;\U+220538
 11
0.0
 21
1.0
 31
0.0
 73
     1
 44
1.0
  0
LINE
  5
A9
100
AcDbEntity
  8
LY_3
390
0
  6
CONTINUOUS
 62
   110
100
AcDbLine
 10
151.883563
 20
141.340214
 30
0.0
 11
152.625782
 21
144.110214
 31
0.0
  0
LINE
  5
AA
100
AcDbEntity
  8
LY_3
390
0
  6
CONTINUOUS
 62
   110
100
AcDbLine
 10
152.625782
 20
144.110214
 30
0.0
 11
153.368001
 21
141.340214
 31
0.0
  0
LINE
  5
AB
100
AcDbEntity
  8
LY_3
390
0
  6
CONTINUOUS
 62
   110
100
AcDbLine
 10
153.368001
 20
108.880222
 30
0.0
 11
152.625782
 21
106.110222
 31
0.0
  0
LINE
  5
AC
100
AcDbEntity
  8
LY_3
390
0
  6
CONTINUOUS
 62
   110
100
AcDbLine
 10
152.625782
 20
106.110222
 30
0.0
 11
151.883563
 21
108.880222
 31
0.0
  0
LINE
  5
AD
100
AcDbEntity
  8
LY_3
390
0
  6
CONTINUOUS
 62
   110
100
AcDbLine
 10
50.534967
 20
121.110229
 30
0.0
 11
50.534967
 21
129.110229
 31
0.0
  0
LINE
  5
AE
100
AcDbEntity
  8
LY_3
390
0
  6
CONTINUOUS
 62
   110
100
AcDbLine
 10
50.534967
 20
129.110229
 30
0.0
 11
50.534967
 21
148.564715
 31
0.0
  0
LINE
  5
AF
100
AcDbEntity
  8
LY_3
390
0
  6
CONTINUOUS
 62
   110
100
AcDbLine
 10
58.46004
 20
121.110229
 30
0.0
 11
48.248972
 21
121.110229
 31
0.0
  0
LINE
  5
B0
100
AcDbEntity
  8
LY_3
390
0
  6
CONTINUOUS
 62
   110
100
AcDbLine
 10
58.46004
 20
129.110229
 30
0.0
 11
48.248972
 21
129.110229
 31
0.0
  0
LINE
  5
B1
100
AcDbEntity
  8
LY_3
390
0
  6
CONTINUOUS
 62
   110
100
AcDbLine
 10
50.534967
 20
121.110229
 30
0.0
 11
50.534967
 21
117.110229
 31
0.0
  0
MTEXT
  5
B2
100
AcDbEntity
  8
LY_3
390
0
  6
CONTINUOUS
 62
   110
100
AcDbMText
 10
45.334968
 20
134.645586
 30
0.0
 40
4.2
 41
0.0
 71
     1
 72
     1
  1
\T0.983;\W1.004;\A1;\U+22058h7
 11
0.0
 21
1.0
 31
0.0
 73
     1
 44
1.0
  0
LINE
  5
B3
100
AcDbEntity
  8
LY_3
390
0
  6
CONTINUOUS
 62
   110
100
AcDbLine
 10
49.792749
 20
118.340229
 30
0.0
 11
50.534967
 21
121.110229
 31
0.0
  0
LINE
  5
B4
100
AcDbEntity
  8
LY_3
390
0
  6
CONTINUOUS
 62
   110
100
AcDbLine
 10
50.534967
 20
121.110229
 30
0.0
 11
51.277186
 21
118.340229
 31
0.0
  0
LINE
  5
B5
100
AcDbEntity
  8
LY_3
390
0
  6
CONTINUOUS
 62
   110
100
AcDbLine
 10
51.277186
 20
131.880229
 30
0.0
 11
50.534967
 21
129.110229
 31
0.0
  0
LINE
  5
B6
100
AcDbEntity
  8
LY_3
390
0
  6
CONTINUOUS
 62
   110
100
AcDbLine
 10
50.534967
 20
129.110229
 30
0.0
 11
49.792749
 21
131.880229
 31
0.0
  0
LINE
  5
B7
100
AcDbEntity
  8
LY_3
390
0
  6
CONTINUOUS
 62
   110
100
AcDbLine
 10
389.0
 20
25.5
 30
0.0
 11
389.0
 21
-25.5
 31
0.0
  0
LINE
  5
B8
100
AcDbEntity
  8
LY_3
390
0
  6
CONTINUOUS
 62
   110
100
AcDbLine
 10
334.540057
 20
25.5
 30
0.0
 11
391.285999
 21
25.5
 31
0.0
  0
LINE
  5
B9
100
AcDbEntity
  8
LY_3
390
0
  6
CONTINUOUS
 62
   110
100
AcDbLine
 10
334.540057
 20
-25.5
 30
0.0
 11
391.285999
 21
-25.5
 31
0.0
  0
MTEXT
  5
BA
100
AcDbEntity
  8
LY_3
390
0
  6
CONTINUOUS
 62
   110
100
AcDbMText
 10
383.8
 20
-5.045762
 30
0.0
 40
4.2
 41
0.0
 71
     1
 72
     1
  1
\W1.017;\A1;\U+220551
 11
0.0
 21
1.0
 31
0.0
 73
     1
 44
1.0
  0
LINE
  5
BB
100
AcDbEntity
  8
LY_3
390
0
  6
CONTINUOUS
 62
   110
100
AcDbLine
 10
388.257781
 20
22.73
 30
0.0
 11
389.0
 21
25.5
 31
0.0
  0
LINE
  5
BC
100
AcDbEntity
  8
LY_3
390
0
  6
CONTINUOUS
 62
   110
100
AcDbLine
 10
389.0
 20
25.5
 30
0.0
 11
389.742219
 21
22.73
 31
0.0
  0
LINE
  5
BD
100
AcDbEntity
  8
LY_3
390
0
  6
CONTINUOUS
 62
   110
100
AcDbLine
 10
389.742219
 20
-22.73
 30
0.0
 11
389.0
 21
-25.5
 31
0.0
  0
LINE
  5
BE
100
AcDbEntity
  8
LY_3
390
0
  6
CONTINUOUS
 62
   110
100
AcDbLine
 10
389.0
 20
-25.5
 30
0.0
 11
388.257781
 21
-22.73
 31
0.0
  0
LINE
  5
BF
100
AcDbEntity
  8
LY_3
390
0
  6
CONTINUOUS
 62
   110
100
AcDbLine
 10
379.0
 20
17.0
 30
0.0
 11
379.0
 21
0.0
 31
0.0
  0
LINE
  5
C0
100
AcDbEntity
  8
LY_3
390
0
  6
CONTINUOUS
 62
   110
100
AcDbLine
 10
365.563798
 20
17.0
 30
0.0
 11
381.285999
 21
17.0
 31
0.0
  0
LINE
  5
C1
100
AcDbEntity
  8
LY_3
390
0
  6
CONTINUOUS
 62
   110
100
AcDbLine
 10
352.31714
 20
0.0
 30
0.0
 11
381.285999
 21
0.0
 31
0.0
  0
MTEXT
  5
C2
100
AcDbEntity
  8
LY_3
390
0
  6
CONTINUOUS
 62
   110
100
AcDbMText
 10
373.8
 20
5.533333
 30
0.0
 40
4.2
 41
0.0
 71
     1
 72
     1
  1
\A1;17
 11
0.0
 21
1.0
 31
0.0
 73
     1
 44
1.0
  0
LINE
  5
C3
100
AcDbEntity
  8
LY_3
390
0
  6
CONTINUOUS
 62
   110
100
AcDbLine
 10
378.257781
 20
14.23
 30
0.0
 11
379.0
 21
17.0
 31
0.0
  0
LINE
  5
C4
100
AcDbEntity
  8
LY_3
390
0
  6
CONTINUOUS
 62
   110
100
AcDbLine
 10
379.0
 20
17.0
 30
0.0
 11
379.742219
 21
14.23
 31
0.0
  0
LINE
  5
C5
100
AcDbEntity
  8
LY_3
390
0
  6
CONTINUOUS
 62
   110
100
AcDbLine
 10
379.742219
 20
2.77
 30
0.0
 11
379.0
 21
0.0
 31
0.0
  0
LINE
  5
C6
100
AcDbEntity
  8
LY_3
390
0
  6
CONTINUOUS
 62
   110
100
AcDbLine
 10
379.0
 20
0.0
 30
0.0
 11
378.257781
 21
2.77
 31
0.0
  0
LINE
  5
C7
100
AcDbEntity
  8
LY_3
390
0
  6
CONTINUOUS
 62
   110
100
AcDbLine
 10
338.000055
 20
44.816422
 30
0.0
 11
362.000055
 21
44.816422
 31
0.0
  0
LINE
  5
C8
100
AcDbEntity
  8
LY_3
390
0
  6
CONTINUOUS
 62
   110
100
AcDbLine
 10
362.000055
 20
23.79
 30
0.0
 11
362.000055
 21
47.102421
 31
0.0
  0
MTEXT
  5
C9
100
AcDbEntity
  8
LY_3
390
0
  6
CONTINUOUS
 62
   110
100
AcDbMText
 10
348.866702
 20
50.016421
 30
0.0
 40
4.2
 41
0.0
 71
     1
 72
     1
  1
\A1;24
 73
     1
 44
1.0
  0
LINE
  5
CA
100
AcDbEntity
  8
LY_3
390
0
  6
CONTINUOUS
 62
   110
100
AcDbLine
 10
340.770055
 20
44.074203
 30
0.0
 11
338.000055
 21
44.816422
 31
0.0
  0
LINE
  5
CB
100
AcDbEntity
  8
LY_3
390
0
  6
CONTINUOUS
 62
   110
100
AcDbLine
 10
338.000055
 20
44.816422
 30
0.0
 11
340.770055
 21
45.55864
 31
0.0
  0
LINE
  5
CC
100
AcDbEntity
  8
LY_3
390
0
  6
CONTINUOUS
 62
   110
100
AcDbLine
 10
359.230055
 20
45.55864
 30
0.0
 11
362.000055
 21
44.816422
 31
0.0
  0
LINE
  5
CD
100
AcDbEntity
  8
LY_3
390
0
  6
CONTINUOUS
 62
   110
100
AcDbLine
 10
362.000055
 20
44.816422
 30
0.0
 11
359.230055
 21
44.074203
 31
0.0
  0
LINE
  5
CE
100
AcDbEntity
  8
LY_3
390
0
  6
CONTINUOUS
 62
   110
100
AcDbLine
 10
338.000055
 20
59.816422
 30
0.0
 11
345.000055
 21
59.816422
 31
0.0
  0
LINE
  5
CF
100
AcDbEntity
  8
LY_3
390
0
  6
CONTINUOUS
 62
   110
100
AcDbLine
 10
345.000055
 20
59.816422
 30
0.0
 11
354.265618
 21
59.816422
 31
0.0
  0
MTEXT
  5
D0
100
AcDbEntity
  8
LY_3
390
0
  6
CONTINUOUS
 62
   110
100
AcDbMText
 10
350.900113
 20
65.016421
 30
0.0
 40
4.2
 41
0.0
 71
     1
 72
     1
  1
\W0.907;\A1;7
 73
     1
 44
1.0
  0
LINE
  5
D1
100
AcDbEntity
  8
LY_3
390
0
  6
CONTINUOUS
 62
   110
100
AcDbLine
 10
347.770055
 20
59.074203
 30
0.0
 11
345.000055
 21
59.816422
 31
0.0
  0
LINE
  5
D2
100
AcDbEntity
  8
LY_3
390
0
  6
CONTINUOUS
 62
   110
100
AcDbLine
 10
345.000055
 20
59.816422
 30
0.0
 11
347.770055
 21
60.55864
 31
0.0
  0
LINE
  5
D3
100
AcDbEntity
  8
LY_3
390
0
  6
CONTINUOUS
 62
   110
100
AcDbLine
 10
60.00004
 20
59.816422
 30
0.0
 11
110.00004
 21
59.816422
 31
0.0
  0
MTEXT
  5
D4
100
AcDbEntity
  8
LY_3
390
0
  6
CONTINUOUS
 62
   110
100
AcDbMText
 10
67.398061
 20
65.016421
 30
0.0
 40
4.2
 41
0.0
 71
     1
 72
     1
  1
\W0.988;\A1;50+100ｽﾄﾛ-ｸ
 73
     1
 44
1.0
  0
LINE
  5
D5
100
AcDbEntity
  8
LY_3
390
0
  6
CONTINUOUS
 62
   110
100
AcDbLine
 10
62.77004
 20
59.074203
 30
0.0
 11
60.00004
 21
59.816422
 31
0.0
  0
LINE
  5
D6
100
AcDbEntity
  8
LY_3
390
0
  6
CONTINUOUS
 62
   110
100
AcDbLine
 10
60.00004
 20
59.816422
 30
0.0
 11
62.77004
 21
60.55864
 31
0.0
  0
LINE
  5
D7
100
AcDbEntity
  8
LY_3
390
0
  6
CONTINUOUS
 62
   110
100
AcDbLine
 10
107.23004
 20
60.55864
 30
0.0
 11
110.00004
 21
59.816422
 31
0.0
  0
LINE
  5
D8
100
AcDbEntity
  8
LY_3
390
0
  6
CONTINUOUS
 62
   110
100
AcDbLine
 10
110.00004
 20
59.816422
 30
0.0
 11
107.23004
 21
59.074203
 31
0.0
  0
LINE
  5
D9
100
AcDbEntity
  8
LY_3
390
0
  6
CONTINUOUS
 62
   110
100
AcDbLine
 10
110.00004
 20
50.850468
 30
0.0
 11
122.700037
 21
50.850468
 31
0.0
  0
LINE
  5
DA
100
AcDbEntity
  8
LY_3
390
0
  6
CONTINUOUS
 62
   110
100
AcDbLine
 10
90.867268
 20
50.850468
 30
0.0
 11
110.00004
 21
50.850468
 31
0.0
  0
LINE
  5
DB
100
AcDbEntity
  8
LY_3
390
0
  6
CONTINUOUS
 62
   110
100
AcDbLine
 10
122.700037
 20
36.389991
 30
0.0
 11
122.700037
 21
53.136463
 31
0.0
  0
MTEXT
  5
DC
100
AcDbEntity
  8
LY_3
390
0
  6
CONTINUOUS
 62
   110
100
AcDbMText
 10
91.558626
 20
56.050467
 30
0.0
 40
4.2
 41
0.0
 71
     1
 72
     1
  1
\W0.988;\A1;12.7
 73
     1
 44
1.0
  0
LINE
  5
DD
100
AcDbEntity
  8
LY_3
390
0
  6
CONTINUOUS
 62
   110
100
AcDbLine
 10
112.77004
 20
50.108249
 30
0.0
 11
110.00004
 21
50.850468
 31
0.0
  0
LINE
  5
DE
100
AcDbEntity
  8
LY_3
390
0
  6
CONTINUOUS
 62
   110
100
AcDbLine
 10
110.00004
 20
50.850468
 30
0.0
 11
112.77004
 21
51.592686
 31
0.0
  0
LINE
  5
DF
100
AcDbEntity
  8
LY_3
390
0
  6
CONTINUOUS
 62
   110
100
AcDbLine
 10
119.930037
 20
51.592686
 30
0.0
 11
122.700037
 21
50.850468
 31
0.0
  0
LINE
  5
E0
100
AcDbEntity
  8
LY_3
390
0
  6
CONTINUOUS
 62
   110
100
AcDbLine
 10
122.700037
 20
50.850468
 30
0.0
 11
119.930037
 21
50.108249
 31
0.0
  0
LWPOLYLINE
  5
E1
100
AcDbEntity
  8
LY_3
390
0
  6
CONTINUOUS
 62
   110
100
AcDbPolyline
 90
        3
 70
     0
 10
145.17585
 20
-13.753087
 10
170.0
 20
-40.0
 10
234.486353
 20
-40.0
  0
MTEXT
  5
E2
100
AcDbEntity
  8
LY_3
390
0
  6
CONTINUOUS
 62
   110
100
AcDbMText
 10
171.788437
 20
-32.5
 30
0.0
 40
5.2
 41
0.0
 71
     1
 72
     1
  1
\W0.781;\A1;ベロ－ズ（ＳＵＳ３１６Ｌ）
 73
     1
 44
1.0
  0
LWPOLYLINE
  5
E3
100
AcDbEntity
  8
LY_3
390
0
  6
CONTINUOUS
 62
   110
100
AcDbPolyline
 90
        3
 70
     0
 10
120.918524
 20
-9.833539
 10
140.0
 20
-50.0
 10
187.520909
 20
-50.0
  0
MTEXT
  5
E4
100
AcDbEntity
  8
LY_3
390
0
  6
CONTINUOUS
 62
   110
100
AcDbMText
 10
144.322993
 20
-42.5
 30
0.0
 40
5.2
 41
0.0
 71
     1
 72
     1
  1
\W0.781;\A1;軸受（ポリイミド）
 73
     1
 44
1.0
  0
LWPOLYLINE
  5
E5
100
AcDbEntity
  8
LY_3
390
0
  6
CONTINUOUS
 62
   110
100
AcDbPolyline
 90
        3
 70
     0
 10
117.892383
 20
-9.329182
 10
100.0
 20
-50.0
 10
74.322538
 20
-50.0
  0
MTEXT
  5
E6
100
AcDbEntity
  8
LY_3
390
0
  6
CONTINUOUS
 62
   110
100
AcDbMText
 10
74.999621
 20
-42.5
 30
0.0
 40
5.2
 41
0.0
 71
     1
 72
     1
  1
\W0.781;\A1;Ｃ型止め輪
 73
     1
 44
1.0
  0
LWPOLYLINE
  5
E7
100
AcDbEntity
  8
LY_3
390
0
  6
CONTINUOUS
 62
   110
100
AcDbPolyline
 90
        3
 70
     0
 10
302.568116
 20
104.444133
 10
309.0
 20
80.0
 10
354.517221
 20
80.0
  0
MTEXT
  5
E8
100
AcDbEntity
  8
LY_3
390
0
  6
CONTINUOUS
 62
   110
100
AcDbMText
 10
311.319305
 20
87.5
 30
0.0
 40
5.2
 41
0.0
 71
     1
 72
     1
  1
\W0.781;\A1;目盛リング１０分割
 73
     1
 44
1.0
  0
LWPOLYLINE
  5
E9
100
AcDbEntity
  8
LY_3
390
0
  6
CONTINUOUS
 62
   110
100
AcDbPolyline
 90
        3
 70
     0
 10
226.065983
 20
118.775716
 10
239.0
 20
80.0
 10
273.347924
 20
80.0
  0
MTEXT
  5
EA
100
AcDbEntity
  8
LY_3
390
0
  6
CONTINUOUS
 62
   110
100
AcDbMText
 10
239.900007
 20
87.5
 30
0.0
 40
5.2
 41
0.0
 71
     1
 72
     1
  1
\W0.781;\A1;目盛１
 73
     1
 44
1.0
  0
MTEXT
  5
EB
100
AcDbEntity
  8
LY_3
390
0
  6
CONTINUOUS
 62
   110
100
AcDbMText
 10
254.186466
 20
84.25
 30
0.0
 40
2.6
 41
0.0
 71
     1
 72
     1
  1
\W0.781;\A1;ｍｍ
 73
     1
 44
1.0
  0
MTEXT
  5
EC
100
AcDbEntity
  8
LY_3
390
0
  6
CONTINUOUS
 62
   110
100
AcDbMText
 10
259.400007
 20
87.5
 30
0.0
 40
5.2
 41
0.0
 71
     1
 72
     1
  1
\W0.781;\A1;ピッチ
 73
     1
 44
1.0
  0
LWPOLYLINE
  5
ED
100
AcDbEntity
  8
LY_3
390
0
  6
CONTINUOUS
 62
   110
100
AcDbPolyline
 90
        3
 70
     0
 10
349.392273
 20
128.938178
 10
359.0
 20
150.0
 10
394.814815
 20
150.0
  0
MTEXT
  5
EE
100
AcDbEntity
  8
LY_3
390
0
  6
CONTINUOUS
 62
   110
100
AcDbMText
 10
361.366898
 20
157.5
 30
0.0
 40
5.2
 41
0.0
 71
     1
 72
     1
  1
\W0.781;\A1;グリップカラ－
 73
     1
 44
1.0
  0
LWPOLYLINE
  5
EF
100
AcDbEntity
  8
LY_3
390
0
  6
CONTINUOUS
 62
   110
100
AcDbPolyline
 90
        3
 70
     0
 10
320.301829
 20
149.420111
 10
329.0
 20
170.0
 10
350.007485
 20
170.0
  0
MTEXT
  5
F0
100
AcDbEntity
  8
LY_3
390
0
  6
CONTINUOUS
 62
   110
100
AcDbMText
 10
331.184568
 20
177.5
 30
0.0
 40
5.2
 41
0.0
 71
     1
 72
     1
  1
\W0.781;\A1;ハンドル
 73
     1
 44
1.0
  0
LWPOLYLINE
  5
F1
100
AcDbEntity
  8
LY_3
390
0
  6
CONTINUOUS
 62
   110
100
AcDbPolyline
 90
        3
 70
     0
 10
281.118831
 20
127.157073
 10
299.0
 20
180.0
 10
335.725466
 20
180.0
  0
MTEXT
  5
F2
100
AcDbEntity
  8
LY_3
390
0
  6
CONTINUOUS
 62
   110
100
AcDbMText
 10
302.277549
 20
187.5
 30
0.0
 40
5.2
 41
0.0
 71
     1
 72
     1
  1
\W0.781;\A1;インジケ－タ－
 73
     1
 44
1.0
  0
LWPOLYLINE
  5
F3
100
AcDbEntity
  8
LY_3
390
0
  6
CONTINUOUS
 62
   110
100
AcDbPolyline
 90
        3
 70
     0
 10
223.531875
 20
143.483309
 10
239.0
 20
180.0
 10
248.86029
 20
180.0
  0
MTEXT
  5
F4
100
AcDbEntity
  8
LY_3
390
0
  6
CONTINUOUS
 62
   110
100
AcDbMText
 10
239.787374
 20
187.5
 30
0.0
 40
5.2
 41
0.0
 71
     1
 72
     1
  1
\W0.781;\A1;本体
 73
     1
 44
1.0
  0
LWPOLYLINE
  5
F5
100
AcDbEntity
  8
LY_3
390
0
  6
CONTINUOUS
 62
   110
100
AcDbPolyline
 90
        3
 70
     0
 10
118.253311
 20
159.760241
 10
130.0
 20
180.0
 10
151.208966
 20
180.0
  0
MTEXT
  5
F6
100
AcDbEntity
  8
LY_3
390
0
  6
CONTINUOUS
 62
   110
100
AcDbMText
 10
132.38605
 20
187.5
 30
0.0
 40
5.2
 41
0.0
 71
     1
 72
     1
  1
\W0.781;\A1;ＣＦ７０
 73
     1
 44
1.0
  0
LINE
  5
F7
100
AcDbEntity
  8
LY_3
390
0
  6
CONTINUOUS
 62
   110
100
AcDbLine
 10
90.0
 20
131.110229
 30
0.0
 11
90.0
 21
119.110229
 31
0.0
  0
LINE
  5
F8
100
AcDbEntity
  8
LY_3
390
0
  6
CONTINUOUS
 62
   110
100
AcDbLine
 10
90.0
 20
146.842372
 30
0.0
 11
90.0
 21
131.110229
 31
0.0
  0
LINE
  5
F9
100
AcDbEntity
  8
LY_3
390
0
  6
CONTINUOUS
 62
   110
100
AcDbLine
 10
90.0
 20
119.110229
 30
0.0
 11
90.0
 21
115.110229
 31
0.0
  0
MTEXT
  5
FA
100
AcDbEntity
  8
LY_3
390
0
  6
CONTINUOUS
 62
   110
100
AcDbMText
 10
84.8
 20
134.954237
 30
0.0
 40
4.2
 41
0.0
 71
     1
 72
     1
  1
\W1.017;\A1;\U+220512
 11
0.0
 21
1.0
 31
0.0
 73
     1
 44
1.0
  0
LINE
  5
FB
100
AcDbEntity
  8
LY_3
390
0
  6
CONTINUOUS
 62
   110
100
AcDbLine
 10
90.742219
 20
133.880229
 30
0.0
 11
90.0
 21
131.110229
 31
0.0
  0
LINE
  5
FC
100
AcDbEntity
  8
LY_3
390
0
  6
CONTINUOUS
 62
   110
100
AcDbLine
 10
90.0
 20
131.110229
 30
0.0
 11
89.257781
 21
133.880229
 31
0.0
  0
LINE
  5
FD
100
AcDbEntity
  8
LY_3
390
0
  6
CONTINUOUS
 62
   110
100
AcDbLine
 10
89.257781
 20
116.340229
 30
0.0
 11
90.0
 21
119.110229
 31
0.0
  0
LINE
  5
FE
100
AcDbEntity
  8
LY_3
390
0
  6
CONTINUOUS
 62
   110
100
AcDbLine
 10
90.0
 20
119.110229
 30
0.0
 11
90.742219
 21
116.340229
 31
0.0
  0
LINE
  5
FF
100
AcDbEntity
  8
LY_3
390
0
  6
CONTINUOUS
 62
   110
100
AcDbLine
 10
50.0
 20
3.0
 30
0.0
 11
50.0
 21
-4.0
 31
0.0
  0
LINE
  5
100
100
AcDbEntity
  8
LY_3
390
0
  6
CONTINUOUS
 62
   110
100
AcDbLine
 10
50.0
 20
11.781748
 30
0.0
 11
50.0
 21
3.0
 31
0.0
  0
LINE
  5
101
100
AcDbEntity
  8
LY_3
390
0
  6
CONTINUOUS
 62
   110
100
AcDbLine
 10
5.185752
 20
3.0
 30
0.0
 11
52.285995
 21
3.0
 31
0.0
  0
LINE
  5
102
100
AcDbEntity
  8
LY_3
390
0
  6
CONTINUOUS
 62
   110
100
AcDbLine
 10
2.54
 20
-4.0
 30
0.0
 11
52.285995
 21
-4.0
 31
0.0
  0
LINE
  5
103
100
AcDbEntity
  8
LY_3
390
0
  6
CONTINUOUS
 62
   110
100
AcDbLine
 10
50.0
 20
-4.0
 30
0.0
 11
50.0
 21
-8.0
 31
0.0
  0
MTEXT
  5
104
100
AcDbEntity
  8
LY_3
390
0
  6
CONTINUOUS
 62
   110
100
AcDbMText
 10
44.8
 20
8.416661
 30
0.0
 40
4.2
 41
0.0
 71
     1
 72
     1
  1
\W0.907;\A1;7
 11
0.0
 21
1.0
 31
0.0
 73
     1
 44
1.0
  0
LINE
  5
105
100
AcDbEntity
  8
LY_3
390
0
  6
CONTINUOUS
 62
   110
100
AcDbLine
 10
50.742219
 20
5.77
 30
0.0
 11
50.0
 21
3.0
 31
0.0
  0
LINE
  5
106
100
AcDbEntity
  8
LY_3
390
0
  6
CONTINUOUS
 62
   110
100
AcDbLine
 10
50.0
 20
3.0
 30
0.0
 11
49.257781
 21
5.77
 31
0.0
  0
LINE
  5
107
100
AcDbEntity
  8
LY_3
390
0
  6
CONTINUOUS
 62
   110
100
AcDbLine
 10
49.257781
 20
-6.77
 30
0.0
 11
50.0
 21
-4.0
 31
0.0
  0
LINE
  5
108
100
AcDbEntity
  8
LY_3
390
0
  6
CONTINUOUS
 62
   110
100
AcDbLine
 10
50.0
 20
-4.0
 30
0.0
 11
50.742219
 21
-6.77
 31
0.0
  0
MTEXT
  5
109
100
AcDbEntity
  8
LY_3
390
0
  6
CONTINUOUS
 62
   110
100
AcDbMText
 10
304.38765
 20
104.697502
 30
0.0
 40
3.2
 41
0.0
 71
     2
 72
     1
  1
\W0.833;\A1;2
 11
0.0
 21
1.0
 31
0.0
 73
     1
 44
1.0
  0
MTEXT
  5
10A
100
AcDbEntity
  8
LY_3
390
0
  6
CONTINUOUS
 62
   110
100
AcDbMText
 10
304.400055
 20
112.744614
 30
0.0
 40
3.2
 41
0.0
 71
     2
 72
     1
  1
\W0.637;\A1;１
 11
0.0
 21
1.0
 31
0.0
 73
     1
 44
1.0
  0
MTEXT
  5
10B
100
AcDbEntity
  8
LY_3
390
0
  6
CONTINUOUS
 62
   110
100
AcDbMText
 10
304.400055
 20
125.110229
 30
0.0
 40
3.2
 41
0.0
 71
     2
 72
     1
  1
\A1;0
 11
0.0
 21
1.0
 31
0.0
 73
     1
 44
1.0
  0
MTEXT
  5
10C
100
AcDbEntity
  8
LY_3
390
0
  6
CONTINUOUS
 62
   110
100
AcDbMText
 10
304.400055
 20
137.47583
 30
0.0
 40
3.2
 41
0.0
 71
     2
 72
     1
  1
\W0.637;\A1;９
 11
0.0
 21
1.0
 31
0.0
 73
     1
 44
1.0
  0
MTEXT
  5
10D
100
AcDbEntity
  8
LY_3
390
0
  6
CONTINUOUS
 62
   110
100
AcDbMText
 10
304.400055
 20
145.522934
 30
0.0
 40
3.2
 41
0.0
 71
     2
 72
     1
  1
\W0.637;\A1;８
 11
0.0
 21
1.0
 31
0.0
 73
     1
 44
1.0
  0
MTEXT
  5
10E
100
AcDbEntity
  8
LY_3
390
0
  6
CONTINUOUS
 62
   110
100
AcDbMText
 10
291.775019
 20
125.110229
 30
0.0
 40
3.5
 41
0.0
 71
     2
 72
     1
  1
\W1.143;\A1;0
 11
0.0
 21
1.0
 31
0.0
 73
     1
 44
1.0
  0
MTEXT
  5
10F
100
AcDbEntity
  8
LY_3
390
0
  6
CONTINUOUS
 62
   110
100
AcDbMText
 10
181.000063
 20
116.710222
 30
0.0
 40
3.2
 41
0.0
 71
     2
 72
     1
  1
\W1.286;\A1;100
 73
     1
 44
1.0
  0
MTEXT
  5
110
100
AcDbEntity
  8
LY_3
390
0
  6
CONTINUOUS
 62
   110
100
AcDbMText
 10
191.000055
 20
116.710222
 30
0.0
 40
3.2
 41
0.0
 71
     2
 72
     1
  1
\W1.091;\A1;90
 73
     1
 44
1.0
  0
MTEXT
  5
111
100
AcDbEntity
  8
LY_3
390
0
  6
CONTINUOUS
 62
   110
100
AcDbMText
 10
201.000055
 20
116.710222
 30
0.0
 40
3.2
 41
0.0
 71
     2
 72
     1
  1
\W1.091;\A1;80
 73
     1
 44
1.0
  0
MTEXT
  5
112
100
AcDbEntity
  8
LY_3
390
0
  6
CONTINUOUS
 62
   110
100
AcDbMText
 10
211.000055
 20
116.710222
 30
0.0
 40
3.2
 41
0.0
 71
     2
 72
     1
  1
\W1.091;\A1;70
 73
     1
 44
1.0
  0
MTEXT
  5
113
100
AcDbEntity
  8
LY_3
390
0
  6
CONTINUOUS
 62
   110
100
AcDbMText
 10
221.000055
 20
116.710222
 30
0.0
 40
3.2
 41
0.0
 71
     2
 72
     1
  1
\W1.091;\A1;60
 73
     1
 44
1.0
  0
MTEXT
  5
114
100
AcDbEntity
  8
LY_3
390
0
  6
CONTINUOUS
 62
   110
100
AcDbMText
 10
231.000055
 20
116.710222
 30
0.0
 40
3.2
 41
0.0
 71
     2
 72
     1
  1
\W1.091;\A1;50
 73
     1
 44
1.0
  0
MTEXT
  5
115
100
AcDbEntity
  8
LY_3
390
0
  6
CONTINUOUS
 62
   110
100
AcDbMText
 10
241.000071
 20
116.710222
 30
0.0
 40
3.2
 41
0.0
 71
     2
 72
     1
  1
\W1.091;\A1;40
 73
     1
 44
1.0
  0
MTEXT
  5
116
100
AcDbEntity
  8
LY_3
390
0
  6
CONTINUOUS
 62
   110
100
AcDbMText
 10
251.000071
 20
116.710222
 30
0.0
 40
3.2
 41
0.0
 71
     2
 72
     1
  1
\W1.091;\A1;30
 73
     1
 44
1.0
  0
MTEXT
  5
117
100
AcDbEntity
  8
LY_3
390
0
  6
CONTINUOUS
 62
   110
100
AcDbMText
 10
261.000071
 20
116.710222
 30
0.0
 40
3.2
 41
0.0
 71
     2
 72
     1
  1
\W1.091;\A1;20
 73
     1
 44
1.0
  0
MTEXT
  5
118
100
AcDbEntity
  8
LY_3
390
0
  6
CONTINUOUS
 62
   110
100
AcDbMText
 10
271.000055
 20
116.710222
 30
0.0
 40
3.2
 41
0.0
 71
     2
 72
     1
  1
\W1.333;\A1;10
 73
     1
 44
1.0
  0
MTEXT
  5
119
100
AcDbEntity
  8
LY_3
390
0
  6
CONTINUOUS
 62
   110
100
AcDbMText
 10
281.000055
 20
116.710222
 30
0.0
 40
3.2
 41
0.0
 71
     2
 72
     1
  1
\W1.143;\A1;0
 73
     1
 44
1.0
  0
LWPOLYLINE
  5
11A
100
AcDbEntity
  8
LY_3
390
0
  6
CONTINUOUS
 62
   110
100
AcDbPolyline
 90
       40
 70
     0
 10
154.388088
 20
19.000007
 10
154.802853
 20
18.037979
 10
155.179814
 20
17.063735
 10
155.5148
 20
16.080375
 10
155.803637
 20
15.091
 10
156.042155
 20
14.098711
 10
156.226179
 20
13.106607
 10
156.351538
 20
12.11779
 10
156.41406
 20
11.135361
 10
156.409572
 20
10.162419
 10
156.333902
 20
9.202066
 10
156.182877
 20
8.257402
 10
155.952326
 20
7.331528
 10
155.656936
 20
6.467298
 10
155.297489
 20
5.619756
 10
154.886158
 20
4.78565
 10
154.435118
 20
3.961731
 10
153.956543
 20
3.144748
 10
153.462608
 20
2.33145
 10
152.965487
 20
1.518587
 10
152.477354
 20
0.702908
 10
152.010384
 20
-0.118836
 10
151.576752
 20
-0.949897
 10
151.18863
 20
-1.793524
 10
150.858194
 20
-2.652969
 10
150.55513
 20
-3.689627
 10
150.344403
 20
-4.749246
 10
150.22122
 20
-5.828279
 10
150.18079
 20
-6.923178
 10
150.218321
 20
-8.030394
 10
150.329021
 20
-9.14638
 10
150.508099
 20
-10.267586
 10
150.750761
 20
-11.390465
 10
151.052217
 20
-12.511469
 10
151.407675
 20
-13.627048
 10
151.812342
 20
-14.733656
 10
152.261427
 20
-15.827744
 10
152.750137
 20
-16.905763
 10
153.273681
 20
-17.964165
 10
153.827268
 20
-18.999403
  0
LWPOLYLINE
  5
11B
100
AcDbEntity
  8
LY_3
390
0
  6
CONTINUOUS
 62
     3
100
AcDbPolyline
 90
       34
 70
     0
 10
134.000036
 20
-14.5
 10
134.635786
 20
-14.064608
 10
135.000036
 20
-13.5
 10
134.765553
 20
-12.850278
 10
134.254979
 20
-12.177086
 10
134.000036
 20
-11.5
 10
134.344071
 20
-10.833369
 10
134.876918
 20
-10.170632
 10
135.000036
 20
-9.5
 10
134.448056
 20
-8.887804
 10
134.000036
 20
-8.5
 10
134.432016
 20
-8.527192
 10
135.349834
 20
-8.913572
 10
136.000036
 20
-9.5
 10
135.858415
 20
-10.150735
 10
135.317742
 20
-10.823646
 10
135.000036
 20
-11.5
 10
135.319729
 20
-12.166163
 10
135.860898
 20
-12.828881
 10
136.000036
 20
-13.5
 10
135.452384
 20
-14.112861
 10
135.000036
 20
-14.5
 10
135.4254
 20
-14.469814
 10
136.341072
 20
-14.081806
 10
137.000036
 20
-13.5
 10
136.878738
 20
-12.86131
 10
136.347482
 20
-12.194195
 10
136.000036
 20
-11.5
 10
136.245049
 20
-10.788649
 10
136.750697
 20
-10.104378
 10
137.000036
 20
-9.5
 10
136.622764
 20
-9.021131
 10
135.835133
 20
-8.684591
 10
135.000036
 20
-8.5
  0
LWPOLYLINE
  5
11C
100
AcDbEntity
  8
LY_3
390
0
  6
CONTINUOUS
 62
     3
100
AcDbPolyline
 90
       34
 70
     0
 10
134.000036
 20
14.5
 10
134.635786
 20
14.064608
 10
135.000036
 20
13.5
 10
134.765553
 20
12.850278
 10
134.254979
 20
12.177086
 10
134.000036
 20
11.5
 10
134.344071
 20
10.833369
 10
134.876918
 20
10.170632
 10
135.000036
 20
9.5
 10
134.448056
 20
8.887804
 10
134.000036
 20
8.5
 10
134.432016
 20
8.527192
 10
135.349834
 20
8.913572
 10
136.000036
 20
9.5
 10
135.858415
 20
10.150735
 10
135.317742
 20
10.823646
 10
135.000036
 20
11.5
 10
135.319729
 20
12.166163
 10
135.860898
 20
12.828881
 10
136.000036
 20
13.5
 10
135.452384
 20
14.112861
 10
135.000036
 20
14.5
 10
135.4254
 20
14.469814
 10
136.341072
 20
14.081806
 10
137.000036
 20
13.5
 10
136.878738
 20
12.86131
 10
136.347482
 20
12.194195
 10
136.000036
 20
11.5
 10
136.245049
 20
10.788649
 10
136.750697
 20
10.104378
 10
137.000036
 20
9.5
 10
136.622764
 20
9.021131
 10
135.835133
 20
8.684591
 10
135.000036
 20
8.5
  0
ARC
  5
11D
100
AcDbEntity
  8
LY_3
390
0
  6
CONTINUOUS
 62
     3
100
AcDbCircle
 10
130.000036
 20
-18.968628
 30
0.0
 40
0.8
100
AcDbArc
 50
179.999978
 51
225.00001
  0
ARC
  5
11E
100
AcDbEntity
  8
LY_3
390
0
  6
CONTINUOUS
 62
     3
100
AcDbCircle
 10
126.000036
 20
-18.968628
 30
0.0
 40
0.8
100
AcDbArc
 50
314.999985
 51
0.000018
  0
ARC
  5
11F
100
AcDbEntity
  8
LY_3
390
0
  6
CONTINUOUS
 62
     3
100
AcDbCircle
 10
130.000036
 20
18.968628
 30
0.0
 40
0.8
100
AcDbArc
 50
134.999987
 51
180.000019
  0
ARC
  5
120
100
AcDbEntity
  8
LY_3
390
0
  6
CONTINUOUS
 62
     3
100
AcDbCircle
 10
126.000036
 20
18.968628
 30
0.0
 40
0.8
100
AcDbArc
 50
359.999982
 51
45.000015
  0
ARC
  5
121
100
AcDbEntity
  8
LY_3
390
0
  6
CONTINUOUS
 62
     3
100
AcDbCircle
 10
122.500036
 20
111.910233
 30
0.0
 40
0.5
100
AcDbArc
 50
0.0
 51
66.421725
  0
ARC
  5
122
100
AcDbEntity
  8
LY_3
390
0
  6
CONTINUOUS
 62
     3
100
AcDbCircle
 10
122.500036
 20
138.310226
 30
0.0
 40
0.5
100
AcDbArc
 50
293.578275
 51
0.0
  0
CIRCLE
  5
123
100
AcDbEntity
  8
LY_3
390
0
  6
CONTINUOUS
 62
     3
100
AcDbCircle
 10
128.000036
 20
125.110229
 30
0.0
 40
3.000001
  0
ARC
  5
124
100
AcDbEntity
  8
LY_3
390
0
  6
CONTINUOUS
 62
     3
100
AcDbCircle
 10
122.500036
 20
-13.199997
 30
0.0
 40
0.5
100
AcDbArc
 50
0.0
 51
89.999982
  0
ARC
  5
125
100
AcDbEntity
  8
LY_3
390
0
  6
CONTINUOUS
 62
     3
100
AcDbCircle
 10
122.500036
 20
13.199997
 30
0.0
 40
0.5
100
AcDbArc
 50
270.000018
 51
0.0
  0
ARC
  5
126
100
AcDbEntity
  8
LY_3
390
0
  6
CONTINUOUS
 62
     3
100
AcDbCircle
 10
338.738642
 20
118.114304
 30
0.0
 40
0.5
100
AcDbArc
 50
91.953334
 51
156.302104
  0
ARC
  5
127
100
AcDbEntity
  8
LY_3
390
0
  6
CONTINUOUS
 62
     3
100
AcDbCircle
 10
338.500055
 20
125.110229
 30
0.0
 40
6.5
100
AcDbArc
 50
50.284864
 51
88.046657
  0
CIRCLE
  5
128
100
AcDbEntity
  8
LY_3
390
0
  6
CONTINUOUS
 62
   110
100
AcDbCircle
 10
316.000055
 20
125.110229
 30
0.0
 40
1.2
  0
CIRCLE
  5
129
100
AcDbEntity
  8
LY_3
390
0
  6
CONTINUOUS
 62
     3
100
AcDbCircle
 10
316.000055
 20
125.110229
 30
0.0
 40
1.5
  0
ARC
  5
12A
100
AcDbEntity
  8
LY_3
390
0
  6
CONTINUOUS
 62
     3
100
AcDbCircle
 10
335.900049
 20
130.860229
 30
0.0
 40
2.6
100
AcDbArc
 50
343.234126
 51
36.128695
  0
ARC
  5
12B
100
AcDbEntity
  8
LY_3
390
0
  6
CONTINUOUS
 62
     3
100
AcDbCircle
 10
336.000055
 20
148.110229
 30
0.0
 40
2.0
100
AcDbArc
 50
0.0
 51
90.000003
  0
ARC
  5
12C
100
AcDbEntity
  8
LY_3
390
0
  6
CONTINUOUS
 62
     3
100
AcDbCircle
 10
338.738642
 20
132.106155
 30
0.0
 40
0.5
100
AcDbArc
 50
203.697896
 51
268.046666
  0
ARC
  5
12D
100
AcDbEntity
  8
LY_3
390
0
  6
CONTINUOUS
 62
     3
100
AcDbCircle
 10
338.500055
 20
125.110229
 30
0.0
 40
6.5
100
AcDbArc
 50
271.953234
 51
309.715136
  0
ARC
  5
12E
100
AcDbEntity
  8
LY_3
390
0
  6
CONTINUOUS
 62
     3
100
AcDbCircle
 10
335.900049
 20
119.360229
 30
0.0
 40
2.6
100
AcDbArc
 50
323.871305
 51
16.765874
  0
ARC
  5
12F
100
AcDbEntity
  8
LY_3
390
0
  6
CONTINUOUS
 62
     3
100
AcDbCircle
 10
336.000055
 20
102.110229
 30
0.0
 40
2.0
100
AcDbArc
 50
269.999997
 51
0.0
  0
CIRCLE
  5
130
100
AcDbEntity
  8
LY_3
390
0
  6
CONTINUOUS
 62
     3
100
AcDbCircle
 10
288.000055
 20
125.110229
 30
0.0
 40
2.8
  0
ARC
  5
131
100
AcDbEntity
  8
LY_3
390
0
  6
CONTINUOUS
 62
     3
100
AcDbCircle
 10
288.809595
 20
125.919777
 30
0.0
 40
0.622046
100
AcDbArc
 50
179.999981
 51
270.000018
  0
ARC
  5
132
100
AcDbEntity
  8
LY_3
390
0
  6
CONTINUOUS
 62
     3
100
AcDbCircle
 10
288.809595
 20
124.300682
 30
0.0
 40
0.622046
100
AcDbArc
 50
89.999982
 51
179.999964
  0
ARC
  5
133
100
AcDbEntity
  8
LY_3
390
0
  6
CONTINUOUS
 62
     3
100
AcDbCircle
 10
287.190516
 20
124.300682
 30
0.0
 40
0.622046
100
AcDbArc
 50
0.0
 51
89.999982
  0
ARC
  5
134
100
AcDbEntity
  8
LY_3
390
0
  6
CONTINUOUS
 62
     3
100
AcDbCircle
 10
287.190516
 20
125.919777
 30
0.0
 40
0.622046
100
AcDbArc
 50
270.000018
 51
0.0
  0
ARC
  5
135
100
AcDbEntity
  8
LY_3
390
0
  6
CONTINUOUS
 62
     3
100
AcDbCircle
 10
175.000055
 20
125.110229
 30
0.0
 40
4.0
100
AcDbArc
 50
89.999982
 51
270.000001
  0
ARC
  5
136
100
AcDbEntity
  8
LY_3
390
0
  6
CONTINUOUS
 62
     3
100
AcDbCircle
 10
287.000055
 20
125.110229
 30
0.0
 40
4.0
100
AcDbArc
 50
270.000018
 51
0.0
  0
ARC
  5
137
100
AcDbEntity
  8
LY_3
390
0
  6
CONTINUOUS
 62
     3
100
AcDbCircle
 10
287.000055
 20
125.110229
 30
0.0
 40
4.0
100
AcDbArc
 50
0.0
 51
89.999982
  0
ARC
  5
138
100
AcDbEntity
  8
LY_3
390
0
  6
CONTINUOUS
 62
     3
100
AcDbCircle
 10
336.000055
 20
-23.0
 30
0.0
 40
2.0
100
AcDbArc
 50
269.999997
 51
0.0
  0
ARC
  5
139
100
AcDbEntity
  8
LY_3
390
0
  6
CONTINUOUS
 62
     3
100
AcDbCircle
 10
336.000055
 20
23.0
 30
0.0
 40
2.0
100
AcDbArc
 50
0.0
 51
90.000003
  0
ARC
  5
13A
100
AcDbEntity
  8
LY_3
390
0
  6
CONTINUOUS
 62
     3
100
AcDbCircle
 10
338.738642
 20
-6.995926
 30
0.0
 40
0.5
100
AcDbArc
 50
91.953334
 51
156.302104
  0
ARC
  5
13B
100
AcDbEntity
  8
LY_3
390
0
  6
CONTINUOUS
 62
     3
100
AcDbCircle
 10
326.500055
 20
0.0
 30
0.0
 40
12.0
100
AcDbArc
 50
343.402158
 51
16.597842
  0
ARC
  5
13C
100
AcDbEntity
  8
LY_3
390
0
  6
CONTINUOUS
 62
     3
100
AcDbCircle
 10
335.900049
 20
5.75
 30
0.0
 40
2.6
100
AcDbArc
 50
323.871304
 51
36.128696
  0
ARC
  5
13D
100
AcDbEntity
  8
LY_3
390
0
  6
CONTINUOUS
 62
     3
100
AcDbCircle
 10
335.900049
 20
-5.75
 30
0.0
 40
2.6
100
AcDbArc
 50
323.871304
 51
36.128696
  0
ARC
  5
13E
100
AcDbEntity
  8
LY_3
390
0
  6
CONTINUOUS
 62
     3
100
AcDbCircle
 10
338.500055
 20
0.0
 30
0.0
 40
6.5
100
AcDbArc
 50
271.953343
 51
88.046603
  0
ARC
  5
13F
100
AcDbEntity
  8
LY_3
390
0
  6
CONTINUOUS
 62
     3
100
AcDbCircle
 10
338.738642
 20
6.995926
 30
0.0
 40
0.5
100
AcDbArc
 50
203.697842
 51
268.046611
  0
ARC
  5
140
100
AcDbEntity
  8
LY_3
390
0
  6
CONTINUOUS
 62
     3
100
AcDbCircle
 10
123.300035
 20
-7.0
 30
0.0
 40
1.0
100
AcDbArc
 50
359.999945
 51
89.999927
  0
ARC
  5
141
100
AcDbEntity
  8
LY_3
390
0
  6
CONTINUOUS
 62
     3
100
AcDbCircle
 10
123.300035
 20
7.0
 30
0.0
 40
1.0
100
AcDbArc
 50
270.000018
 51
0.0
  0
ARC
  5
142
100
AcDbEntity
  8
LY_3
390
0
  6
CONTINUOUS
 62
     3
100
AcDbCircle
 10
119.300035
 20
7.0
 30
0.0
 40
1.0
100
AcDbArc
 50
179.999978
 51
270.000028
  0
ARC
  5
143
100
AcDbEntity
  8
LY_3
390
0
  6
CONTINUOUS
 62
     3
100
AcDbCircle
 10
111.407709
 20
-23.899994
 30
0.0
 40
0.25
100
AcDbArc
 50
270.000018
 51
19.999894
  0
ARC
  5
144
100
AcDbEntity
  8
LY_3
390
0
  6
CONTINUOUS
 62
     3
100
AcDbCircle
 10
111.407709
 20
23.899994
 30
0.0
 40
0.25
100
AcDbArc
 50
340.000106
 51
89.999982
  0
ARC
  5
145
100
AcDbEntity
  8
LY_3
390
0
  6
CONTINUOUS
 62
     3
100
AcDbCircle
 10
5.583344
 20
3.328117
 30
0.0
 40
0.5
100
AcDbArc
 50
210.798138
 51
251.970204
  0
ARC
  5
146
100
AcDbEntity
  8
LY_3
390
0
  6
CONTINUOUS
 62
     3
100
AcDbCircle
 10
3.328125
 20
5.583336
 30
0.0
 40
0.5
100
AcDbArc
 50
198.030561
 51
239.201452
  0
ARC
  5
147
100
AcDbEntity
  8
LY_3
390
0
  6
CONTINUOUS
 62
     3
100
AcDbCircle
 10
-3.328125
 20
5.583336
 30
0.0
 40
0.5
100
AcDbArc
 50
300.798529
 51
341.969419
  0
ARC
  5
148
100
AcDbEntity
  8
LY_3
390
0
  6
CONTINUOUS
 62
     3
100
AcDbCircle
 10
-5.583344
 20
3.328117
 30
0.0
 40
0.5
100
AcDbArc
 50
288.029778
 51
329.201847
  0
ARC
  5
149
100
AcDbEntity
  8
LY_3
390
0
  6
CONTINUOUS
 62
     3
100
AcDbCircle
 10
-5.583344
 20
-3.328117
 30
0.0
 40
0.5
100
AcDbArc
 50
30.798153
 51
71.970222
  0
ARC
  5
14A
100
AcDbEntity
  8
LY_3
390
0
  6
CONTINUOUS
 62
     3
100
AcDbCircle
 10
-3.328125
 20
-5.583336
 30
0.0
 40
0.5
100
AcDbArc
 50
18.030477
 51
59.201471
  0
ARC
  5
14B
100
AcDbEntity
  8
LY_3
390
0
  6
CONTINUOUS
 62
     3
100
AcDbCircle
 10
5.583344
 20
-3.328117
 30
0.0
 40
0.5
100
AcDbArc
 50
108.029796
 51
149.201862
  0
ARC
  5
14C
100
AcDbEntity
  8
LY_3
390
0
  6
CONTINUOUS
 62
     3
100
AcDbCircle
 10
3.328125
 20
-5.583336
 30
0.0
 40
0.5
100
AcDbArc
 50
120.798548
 51
161.969549
  0
CIRCLE
  5
14D
100
AcDbEntity
  8
LY_3
390
0
  6
CONTINUOUS
 62
     3
100
AcDbCircle
 10
0.0
 20
0.0
 30
0.0
 40
6.0
  0
ARC
  5
14E
100
AcDbEntity
  8
LY_3
390
0
  6
CONTINUOUS
 62
     3
100
AcDbCircle
 10
4.5
 20
0.0
 30
0.0
 40
3.0
100
AcDbArc
 50
288.03057
 51
71.96943
  0
ARC
  5
14F
100
AcDbEntity
  8
LY_3
390
0
  6
CONTINUOUS
 62
     3
100
AcDbCircle
 10
-4.5
 20
0.0
 30
0.0
 40
3.0
100
AcDbArc
 50
108.030589
 51
251.969394
  0
ARC
  5
150
100
AcDbEntity
  8
LY_3
390
0
  6
CONTINUOUS
 62
     3
100
AcDbCircle
 10
0.0
 20
-4.5
 30
0.0
 40
3.0
100
AcDbArc
 50
198.03052
 51
341.969467
  0
ARC
  5
151
100
AcDbEntity
  8
LY_3
390
0
  6
CONTINUOUS
 62
     3
100
AcDbCircle
 10
0.0
 20
4.5
 30
0.0
 40
3.0
100
AcDbArc
 50
18.030516
 51
161.969521
  0
CIRCLE
  5
152
100
AcDbEntity
  8
LY_3
390
0
  6
CONTINUOUS
 62
     3
100
AcDbCircle
 10
-3.0
 20
-8.485283
 30
0.0
 40
0.75
  0
CIRCLE
  5
153
100
AcDbEntity
  8
LY_3
390
0
  6
CONTINUOUS
 62
     3
100
AcDbCircle
 10
3.0
 20
-8.485283
 30
0.0
 40
0.75
  0
ARC
  5
154
100
AcDbEntity
  8
LY_3
390
0
  6
CONTINUOUS
 62
     3
100
AcDbCircle
 10
2.0
 20
-9.797958
 30
0.0
 40
1.0
100
AcDbArc
 50
179.999981
 51
281.536768
  0
ARC
  5
155
100
AcDbEntity
  8
LY_3
390
0
  6
CONTINUOUS
 62
     3
100
AcDbCircle
 10
-2.0
 20
-9.797958
 30
0.0
 40
1.0
100
AcDbArc
 50
258.463214
 51
0.0
  0
ARC
  5
156
100
AcDbEntity
  8
LY_3
390
0
  6
CONTINUOUS
 62
     3
100
AcDbCircle
 10
4.997528
 20
-6.246986
 30
0.0
 40
1.0
100
AcDbArc
 50
228.253615
 51
308.659671
  0
ARC
  5
157
100
AcDbEntity
  8
LY_3
390
0
  6
CONTINUOUS
 62
     3
100
AcDbCircle
 10
-4.997528
 20
-6.246986
 30
0.0
 40
1.0
100
AcDbArc
 50
231.340314
 51
311.746366
  0
ARC
  5
158
100
AcDbEntity
  8
LY_3
390
0
  6
CONTINUOUS
 62
     3
100
AcDbCircle
 10
0.0
 20
0.0
 30
0.0
 40
9.0
100
AcDbArc
 50
308.659398
 51
0.0
  0
ARC
  5
159
100
AcDbEntity
  8
LY_3
390
0
  6
CONTINUOUS
 62
     3
100
AcDbCircle
 10
-3.0
 20
-8.485283
 30
0.0
 40
2.0
100
AcDbArc
 50
0.0
 51
131.746754
  0
ARC
  5
15A
100
AcDbEntity
  8
LY_3
390
0
  6
CONTINUOUS
 62
     3
100
AcDbCircle
 10
3.0
 20
-8.485283
 30
0.0
 40
2.0
100
AcDbArc
 50
48.253272
 51
180.000005
  0
ARC
  5
15B
100
AcDbEntity
  8
LY_3
390
0
  6
CONTINUOUS
 62
     3
100
AcDbCircle
 10
0.0
 20
0.0
 30
0.0
 40
9.0
100
AcDbArc
 50
0.0
 51
231.340584
  0
CIRCLE
  5
15C
100
AcDbEntity
  8
LY_3
390
0
  6
CONTINUOUS
 62
     3
100
AcDbCircle
 10
0.0
 20
0.0
 30
0.0
 40
11.0
  0
CIRCLE
  5
15D
100
AcDbEntity
  8
LY_3
390
0
  6
CONTINUOUS
 62
     3
100
AcDbCircle
 10
0.0
 20
0.0
 30
0.0
 40
12.0
  0
CIRCLE
  5
15E
100
AcDbEntity
  8
LY_3
390
0
  6
CONTINUOUS
 62
     3
100
AcDbCircle
 10
0.0
 20
0.0
 30
0.0
 40
12.85
  0
CIRCLE
  5
15F
100
AcDbEntity
  8
LY_3
390
0
  6
CONTINUOUS
 62
     3
100
AcDbCircle
 10
0.0
 20
0.0
 30
0.0
 40
24.15
  0
CIRCLE
  5
160
100
AcDbEntity
  8
LY_3
390
0
  6
CONTINUOUS
 62
     3
100
AcDbCircle
 10
0.0
 20
0.0
 30
0.0
 40
21.0
  0
CIRCLE
  5
161
100
AcDbEntity
  8
LY_3
390
0
  6
CONTINUOUS
 62
     3
100
AcDbCircle
 10
-14.675018
 20
25.417847
 30
0.0
 40
3.4
  0
CIRCLE
  5
162
100
AcDbEntity
  8
LY_3
390
0
  6
CONTINUOUS
 62
     3
100
AcDbCircle
 10
-29.350006
 20
0.000008
 30
0.0
 40
3.4
  0
CIRCLE
  5
163
100
AcDbEntity
  8
LY_3
390
0
  6
CONTINUOUS
 62
     3
100
AcDbCircle
 10
-14.675018
 20
-25.417839
 30
0.0
 40
3.4
  0
CIRCLE
  5
164
100
AcDbEntity
  8
LY_3
390
0
  6
CONTINUOUS
 62
     3
100
AcDbCircle
 10
14.674988
 20
-25.417854
 30
0.0
 40
3.4
  0
CIRCLE
  5
165
100
AcDbEntity
  8
LY_3
390
0
  6
CONTINUOUS
 62
     3
100
AcDbCircle
 10
29.350006
 20
0.0
 30
0.0
 40
3.4
  0
CIRCLE
  5
166
100
AcDbEntity
  8
LY_3
390
0
  6
CONTINUOUS
 62
     3
100
AcDbCircle
 10
14.675018
 20
25.417847
 30
0.0
 40
3.4
  0
ARC
  5
167
100
AcDbEntity
  8
LY_3
390
0
  6
CONTINUOUS
 62
     3
100
AcDbCircle
 10
0.0
 20
0.0
 30
0.0
 40
4.0
100
AcDbArc
 50
131.409643
 51
48.590358
  0
CIRCLE
  5
169
100
AcDbEntity
  8
LY_3
390
0
  6
CENTER
 62
   110
100
AcDbCircle
 10
0.0
 20
0.0
 30
0.0
 40
29.35
  0
CIRCLE
  5
16A
100
AcDbEntity
  8
LY_3
390
0
  6
CONTINUOUS
 62
     3
100
AcDbCircle
 10
0.0
 20
0.0
 30
0.0
 40
34.650002
  0
LINE
  5
16B
100
AcDbEntity
  8
LY_3
390
0
  6
CONTINUOUS
 62
     3
100
AcDbLine
 10
300.000055
 20
112.744614
 30
0.0
 11
304.000055
 21
112.744614
 31
0.0
  0
LINE
  5
16C
100
AcDbEntity
  8
LY_3
390
0
  6
CONTINUOUS
 62
     3
100
AcDbLine
 10
132.400037
 20
-13.499998
 30
0.0
 11
133.400038
 21
-14.499999
 31
0.0
  0
LINE
  5
16D
100
AcDbEntity
  8
LY_3
390
0
  6
CONTINUOUS
 62
     3
100
AcDbLine
 10
131.400035
 20
-14.499999
 30
0.0
 11
132.400037
 21
-13.499998
 31
0.0
  0
LINE
  5
16E
100
AcDbEntity
  8
LY_3
390
0
  6
CONTINUOUS
 62
     3
100
AcDbLine
 10
131.400035
 20
14.499999
 30
0.0
 11
132.400036
 21
13.499999
 31
0.0
  0
LINE
  5
16F
100
AcDbEntity
  8
LY_3
390
0
  6
CONTINUOUS
 62
     3
100
AcDbLine
 10
132.400036
 20
13.499999
 30
0.0
 11
133.400037
 21
14.5
 31
0.0
  0
LINE
  5
170
100
AcDbEntity
  8
LY_3
390
0
  6
CONTINUOUS
 62
     3
100
AcDbLine
 10
134.000036
 20
6.0
 30
0.0
 11
134.000036
 21
14.5
 31
0.0
  0
LINE
  5
171
100
AcDbEntity
  8
LY_3
390
0
  6
CONTINUOUS
 62
     3
100
AcDbLine
 10
133.000013
 20
6.0
 30
0.0
 11
133.000013
 21
12.500053
 31
0.0
  0
LINE
  5
172
100
AcDbEntity
  8
LY_3
390
0
  6
CENTER
 62
   110
100
AcDbLine
 10
154.518258
 20
125.110229
 30
0.0
 11
291.807093
 21
125.110229
 31
0.0
  0
LINE
  5
173
100
AcDbEntity
  8
LY_3
390
0
  6
CONTINUOUS
 62
     3
100
AcDbLine
 10
110.800035
 20
159.760239
 30
0.0
 11
110.800035
 21
90.46022
 31
0.0
  0
LINE
  5
174
100
AcDbEntity
  8
LY_3
390
0
  6
CONTINUOUS
 62
     3
100
AcDbLine
 10
121.900034
 20
159.760239
 30
0.0
 11
121.900034
 21
90.460236
 31
0.0
  0
LINE
  5
175
100
AcDbEntity
  8
LY_3
390
0
  6
CENTER
 62
   110
100
AcDbLine
 10
309.260248
 20
125.110229
 30
0.0
 11
364.556147
 21
125.110229
 31
0.0
  0
LINE
  5
176
100
AcDbEntity
  8
LY_3
390
0
  6
CONTINUOUS
 62
     3
100
AcDbLine
 10
132.000036
 20
-17.0
 30
0.0
 11
152.795215
 21
-17.0
 31
0.0
  0
LINE
  5
177
100
AcDbEntity
  8
LY_3
390
0
  6
CONTINUOUS
 62
     3
100
AcDbLine
 10
132.000036
 20
-17.099998
 30
0.0
 11
132.000036
 21
-17.0
 31
0.0
  0
LINE
  5
178
100
AcDbEntity
  8
LY_3
390
0
  6
CONTINUOUS
 62
     3
100
AcDbLine
 10
129.200651
 20
-19.0
 30
0.0
 11
131.500036
 21
-19.0
 31
0.0
  0
LINE
  5
179
100
AcDbEntity
  8
LY_3
390
0
  6
CONTINUOUS
 62
     3
100
AcDbLine
 10
129.200033
 20
-18.949997
 30
0.0
 11
132.000036
 21
-18.949997
 31
0.0
  0
LINE
  5
17A
100
AcDbEntity
  8
LY_3
390
0
  6
CONTINUOUS
 62
   110
100
AcDbLine
 10
129.500036
 20
-18.949997
 30
0.0
 11
129.500036
 21
-18.349998
 31
0.0
  0
LINE
  5
17B
100
AcDbEntity
  8
LY_3
390
0
  6
CONTINUOUS
 62
     3
100
AcDbLine
 10
129.500034
 20
-18.350002
 30
0.0
 11
129.200035
 21
-18.778445
 31
0.0
  0
LINE
  5
17C
100
AcDbEntity
  8
LY_3
390
0
  6
CONTINUOUS
 62
     3
100
AcDbLine
 10
129.200033
 20
-18.968628
 30
0.0
 11
129.200033
 21
-18.778442
 31
0.0
  0
LINE
  5
17D
100
AcDbEntity
  8
LY_3
390
0
  6
CONTINUOUS
 62
     3
100
AcDbLine
 10
129.296789
 20
-19.349998
 30
0.0
 11
126.703283
 21
-19.349998
 31
0.0
  0
LINE
  5
17E
100
AcDbEntity
  8
LY_3
390
0
  6
CONTINUOUS
 62
     3
100
AcDbLine
 10
126.800039
 20
-18.968628
 30
0.0
 11
126.800039
 21
-18.778442
 31
0.0
  0
LINE
  5
17F
100
AcDbEntity
  8
LY_3
390
0
  6
CONTINUOUS
 62
     3
100
AcDbLine
 10
129.500036
 20
-18.349998
 30
0.0
 11
126.500036
 21
-18.349998
 31
0.0
  0
LINE
  5
180
100
AcDbEntity
  8
LY_3
390
0
  6
CONTINUOUS
 62
     3
100
AcDbLine
 10
126.500034
 20
-18.350006
 30
0.0
 11
126.800034
 21
-18.77845
 31
0.0
  0
LINE
  5
181
100
AcDbEntity
  8
LY_3
390
0
  6
CONTINUOUS
 62
   110
100
AcDbLine
 10
126.500036
 20
-18.949997
 30
0.0
 11
126.500036
 21
-18.349998
 31
0.0
  0
LINE
  5
182
100
AcDbEntity
  8
LY_3
390
0
  6
CONTINUOUS
 62
     3
100
AcDbLine
 10
125.300039
 20
-18.949997
 30
0.0
 11
126.800039
 21
-18.949997
 31
0.0
  0
LINE
  5
183
100
AcDbEntity
  8
LY_3
390
0
  6
CONTINUOUS
 62
     3
100
AcDbLine
 10
125.300031
 20
-18.950005
 30
0.0
 11
125.000032
 21
-18.650006
 31
0.0
  0
LINE
  5
184
100
AcDbEntity
  8
LY_3
390
0
  6
CONTINUOUS
 62
     3
100
AcDbLine
 10
125.000036
 20
-19.0
 30
0.0
 11
126.799421
 21
-19.0
 31
0.0
  0
LINE
  5
185
100
AcDbEntity
  8
LY_3
390
0
  6
CONTINUOUS
 62
     3
100
AcDbLine
 10
125.000036
 20
-19.0
 30
0.0
 11
125.000036
 21
-17.050003
 31
0.0
  0
LINE
  5
186
100
AcDbEntity
  8
LY_3
390
0
  6
CONTINUOUS
 62
     3
100
AcDbLine
 10
125.000036
 20
-17.050003
 30
0.0
 11
126.500036
 21
-17.050003
 31
0.0
  0
LINE
  5
187
100
AcDbEntity
  8
LY_3
390
0
  6
CONTINUOUS
 62
     3
100
AcDbLine
 10
125.000037
 20
-17.400004
 30
0.0
 11
125.300037
 21
-17.100005
 31
0.0
  0
LINE
  5
188
100
AcDbEntity
  8
LY_3
390
0
  6
CONTINUOUS
 62
     3
100
AcDbLine
 10
125.300039
 20
-17.099998
 30
0.0
 11
126.800039
 21
-17.099998
 31
0.0
  0
LINE
  5
189
100
AcDbEntity
  8
LY_3
390
0
  6
CONTINUOUS
 62
     3
100
AcDbLine
 10
130.500035
 20
-17.050006
 30
0.0
 11
131.000036
 21
-16.550005
 31
0.0
  0
LINE
  5
18A
100
AcDbEntity
  8
LY_3
390
0
  6
CONTINUOUS
 62
     3
100
AcDbLine
 10
129.500036
 20
-17.050003
 30
0.0
 11
130.500036
 21
-17.050003
 31
0.0
  0
LINE
  5
18B
100
AcDbEntity
  8
LY_3
390
0
  6
CONTINUOUS
 62
     3
100
AcDbLine
 10
129.200033
 20
-17.099998
 30
0.0
 11
132.000036
 21
-17.099998
 31
0.0
  0
LINE
  5
18C
100
AcDbEntity
  8
LY_3
390
0
  6
CONTINUOUS
 62
     3
100
AcDbLine
 10
126.500036
 20
-18.349998
 30
0.0
 11
126.500036
 21
-15.0
 31
0.0
  0
LINE
  5
18D
100
AcDbEntity
  8
LY_3
390
0
  6
CONTINUOUS
 62
   110
100
AcDbLine
 10
126.800039
 20
-18.778442
 30
0.0
 11
126.800039
 21
-15.0
 31
0.0
  0
LINE
  5
18E
100
AcDbEntity
  8
LY_3
390
0
  6
CONTINUOUS
 62
     3
100
AcDbLine
 10
129.500036
 20
-15.0
 30
0.0
 11
126.500036
 21
-15.0
 31
0.0
  0
LINE
  5
18F
100
AcDbEntity
  8
LY_3
390
0
  6
CONTINUOUS
 62
     3
100
AcDbLine
 10
129.500036
 20
-18.349998
 30
0.0
 11
129.500036
 21
-15.0
 31
0.0
  0
LINE
  5
190
100
AcDbEntity
  8
LY_3
390
0
  6
CONTINUOUS
 62
   110
100
AcDbLine
 10
129.200033
 20
-18.778442
 30
0.0
 11
129.200033
 21
-15.0
 31
0.0
  0
LINE
  5
191
100
AcDbEntity
  8
LY_3
390
0
  6
CONTINUOUS
 62
     3
100
AcDbLine
 10
129.600035
 20
-17.050003
 30
0.0
 11
129.600035
 21
-13.549999
 31
0.0
  0
LINE
  5
192
100
AcDbEntity
  8
LY_3
390
0
  6
CONTINUOUS
 62
     3
100
AcDbLine
 10
128.000033
 20
-12.62624
 30
0.0
 11
129.600035
 21
-13.550001
 31
0.0
  0
LINE
  5
193
100
AcDbEntity
  8
LY_3
390
0
  6
CENTER
 62
   110
100
AcDbLine
 10
128.000036
 20
-22.207977
 30
0.0
 11
128.000036
 21
-11.371395
 31
0.0
  0
LINE
  5
194
100
AcDbEntity
  8
LY_3
390
0
  6
CONTINUOUS
 62
     3
100
AcDbLine
 10
126.400035
 20
-13.549999
 30
0.0
 11
128.000034
 21
-12.62624
 31
0.0
  0
LINE
  5
195
100
AcDbEntity
  8
LY_3
390
0
  6
CONTINUOUS
 62
     3
100
AcDbLine
 10
126.400038
 20
-13.549999
 30
0.0
 11
129.600035
 21
-13.549999
 31
0.0
  0
LINE
  5
196
100
AcDbEntity
  8
LY_3
390
0
  6
CONTINUOUS
 62
     3
100
AcDbLine
 10
126.400038
 20
-17.050003
 30
0.0
 11
126.400038
 21
-13.549999
 31
0.0
  0
LINE
  5
197
100
AcDbEntity
  8
LY_3
390
0
  6
CONTINUOUS
 62
     3
100
AcDbLine
 10
132.000036
 20
17.0
 30
0.0
 11
155.202984
 21
17.0
 31
0.0
  0
LINE
  5
198
100
AcDbEntity
  8
LY_3
390
0
  6
CONTINUOUS
 62
     3
100
AcDbLine
 10
128.000038
 20
12.626239
 30
0.0
 11
129.600036
 21
13.549999
 31
0.0
  0
LINE
  5
199
100
AcDbEntity
  8
LY_3
390
0
  6
CONTINUOUS
 62
     3
100
AcDbLine
 10
126.400037
 20
13.550003
 30
0.0
 11
128.000035
 21
12.626243
 31
0.0
  0
LINE
  5
19A
100
AcDbEntity
  8
LY_3
390
0
  6
CONTINUOUS
 62
     3
100
AcDbLine
 10
126.400038
 20
17.049999
 30
0.0
 11
126.400038
 21
13.549999
 31
0.0
  0
LINE
  5
19B
100
AcDbEntity
  8
LY_3
390
0
  6
CONTINUOUS
 62
     3
100
AcDbLine
 10
129.600035
 20
17.049999
 30
0.0
 11
129.600035
 21
13.549999
 31
0.0
  0
LINE
  5
19C
100
AcDbEntity
  8
LY_3
390
0
  6
CONTINUOUS
 62
     3
100
AcDbLine
 10
129.500036
 20
18.35
 30
0.0
 11
129.500036
 21
15.0
 31
0.0
  0
LINE
  5
19D
100
AcDbEntity
  8
LY_3
390
0
  6
CONTINUOUS
 62
     3
100
AcDbLine
 10
126.500036
 20
18.35
 30
0.0
 11
126.500036
 21
15.0
 31
0.0
  0
LINE
  5
19E
100
AcDbEntity
  8
LY_3
390
0
  6
CONTINUOUS
 62
     3
100
AcDbLine
 10
133.000013
 20
12.500056
 30
0.0
 11
134.00002
 21
13.500062
 31
0.0
  0
LINE
  5
19F
100
AcDbEntity
  8
LY_3
390
0
  6
CONTINUOUS
 62
     3
100
AcDbLine
 10
133.000013
 20
-12.50005
 30
0.0
 11
133.000013
 21
-6.0
 31
0.0
  0
LINE
  5
1A0
100
AcDbEntity
  8
LY_3
390
0
  6
CONTINUOUS
 62
     3
100
AcDbLine
 10
132.000036
 20
-19.0
 30
0.0
 11
132.000036
 21
-18.949997
 31
0.0
  0
LINE
  5
1A1
100
AcDbEntity
  8
LY_3
390
0
  6
CONTINUOUS
 62
     3
100
AcDbLine
 10
132.000036
 20
17.099998
 30
0.0
 11
132.000036
 21
17.0
 31
0.0
  0
LINE
  5
1A2
100
AcDbEntity
  8
LY_3
390
0
  6
CONTINUOUS
 62
     3
100
AcDbLine
 10
130.500032
 20
17.050005
 30
0.0
 11
131.000032
 21
16.550004
 31
0.0
  0
LINE
  5
1A3
100
AcDbEntity
  8
LY_3
390
0
  6
CONTINUOUS
 62
     3
100
AcDbLine
 10
132.000037
 20
-19.499999
 30
0.0
 11
131.500036
 21
-18.999998
 31
0.0
  0
LINE
  5
1A4
100
AcDbEntity
  8
LY_3
390
0
  6
CONTINUOUS
 62
     3
100
AcDbLine
 10
129.500036
 20
-19.599998
 30
0.0
 11
129.600035
 21
-19.599998
 31
0.0
  0
LINE
  5
1A5
100
AcDbEntity
  8
LY_3
390
0
  6
CONTINUOUS
 62
     3
100
AcDbLine
 10
129.60004
 20
-19.599997
 30
0.0
 11
131.000038
 21
-20.999995
 31
0.0
  0
LINE
  5
1A6
100
AcDbEntity
  8
LY_3
390
0
  6
CONTINUOUS
 62
     3
100
AcDbLine
 10
126.400041
 20
-19.599997
 30
0.0
 11
125.000032
 21
-21.000006
 31
0.0
  0
LINE
  5
1A7
100
AcDbEntity
  8
LY_3
390
0
  6
CONTINUOUS
 62
     3
100
AcDbLine
 10
126.500036
 20
-19.599998
 30
0.0
 11
126.400038
 21
-19.599998
 31
0.0
  0
LINE
  5
1A8
100
AcDbEntity
  8
LY_3
390
0
  6
CONTINUOUS
 62
     3
100
AcDbLine
 10
126.400038
 20
-19.599998
 30
0.0
 11
126.400038
 21
-19.0
 31
0.0
  0
LINE
  5
1A9
100
AcDbEntity
  8
LY_3
390
0
  6
CONTINUOUS
 62
     3
100
AcDbLine
 10
125.261372
 20
-20.838661
 30
0.0
 11
126.56572
 21
-19.534312
 31
0.0
  0
LINE
  5
1AA
100
AcDbEntity
  8
LY_3
390
0
  6
CONTINUOUS
 62
     3
100
AcDbLine
 10
130.750043
 20
-20.849996
 30
0.0
 11
129.434355
 21
-19.534308
 31
0.0
  0
LINE
  5
1AB
100
AcDbEntity
  8
LY_3
390
0
  6
CONTINUOUS
 62
     3
100
AcDbLine
 10
125.250036
 20
-21.0
 30
0.0
 11
125.250036
 21
-20.849998
 31
0.0
  0
LINE
  5
1AC
100
AcDbEntity
  8
LY_3
390
0
  6
CONTINUOUS
 62
     3
100
AcDbLine
 10
130.750036
 20
-21.0
 30
0.0
 11
130.750036
 21
-20.849998
 31
0.0
  0
LINE
  5
1AD
100
AcDbEntity
  8
LY_3
390
0
  6
CONTINUOUS
 62
     3
100
AcDbLine
 10
130.750036
 20
-20.849998
 30
0.0
 11
125.250036
 21
-20.849998
 31
0.0
  0
LINE
  5
1AE
100
AcDbEntity
  8
LY_3
390
0
  6
CONTINUOUS
 62
     3
100
AcDbLine
 10
131.500036
 20
-21.0
 30
0.0
 11
124.000029
 21
-21.0
 31
0.0
  0
LINE
  5
1AF
100
AcDbEntity
  8
LY_3
390
0
  6
CONTINUOUS
 62
     3
100
AcDbLine
 10
129.600035
 20
-19.599998
 30
0.0
 11
129.600035
 21
-19.0
 31
0.0
  0
LINE
  5
1B0
100
AcDbEntity
  8
LY_3
390
0
  6
CONTINUOUS
 62
     3
100
AcDbLine
 10
132.000036
 20
-20.5
 30
0.0
 11
132.000036
 21
-19.5
 31
0.0
  0
LINE
  5
1B1
100
AcDbEntity
  8
LY_3
390
0
  6
CONTINUOUS
 62
     3
100
AcDbLine
 10
131.500036
 20
-21.0
 30
0.0
 11
132.000037
 21
-20.5
 31
0.0
  0
LINE
  5
1B2
100
AcDbEntity
  8
LY_3
390
0
  6
CONTINUOUS
 62
     3
100
AcDbLine
 10
125.00004
 20
17.4
 30
0.0
 11
125.300039
 21
17.1
 31
0.0
  0
LINE
  5
1B3
100
AcDbEntity
  8
LY_3
390
0
  6
CONTINUOUS
 62
     3
100
AcDbLine
 10
125.300034
 20
18.95
 30
0.0
 11
125.000034
 21
18.650001
 31
0.0
  0
LINE
  5
1B4
100
AcDbEntity
  8
LY_3
390
0
  6
CONTINUOUS
 62
     3
100
AcDbLine
 10
129.500036
 20
17.049999
 30
0.0
 11
130.500036
 21
17.049999
 31
0.0
  0
LINE
  5
1B5
100
AcDbEntity
  8
LY_3
390
0
  6
CONTINUOUS
 62
     3
100
AcDbLine
 10
125.000036
 20
17.049999
 30
0.0
 11
126.500036
 21
17.049999
 31
0.0
  0
LINE
  5
1B6
100
AcDbEntity
  8
LY_3
390
0
  6
CONTINUOUS
 62
     3
100
AcDbLine
 10
129.200033
 20
17.099998
 30
0.0
 11
132.000036
 21
17.099998
 31
0.0
  0
LINE
  5
1B7
100
AcDbEntity
  8
LY_3
390
0
  6
CONTINUOUS
 62
     3
100
AcDbLine
 10
125.300039
 20
17.099998
 30
0.0
 11
126.800039
 21
17.099998
 31
0.0
  0
LINE
  5
1B8
100
AcDbEntity
  8
LY_3
390
0
  6
CONTINUOUS
 62
     3
100
AcDbLine
 10
132.000036
 20
19.0
 30
0.0
 11
132.000036
 21
18.950001
 31
0.0
  0
LINE
  5
1B9
100
AcDbEntity
  8
LY_3
390
0
  6
CONTINUOUS
 62
     3
100
AcDbLine
 10
132.000034
 20
19.499998
 30
0.0
 11
131.500033
 21
18.999997
 31
0.0
  0
LINE
  5
1BA
100
AcDbEntity
  8
LY_3
390
0
  6
CONTINUOUS
 62
     3
100
AcDbLine
 10
129.200033
 20
18.950001
 30
0.0
 11
132.000036
 21
18.950001
 31
0.0
  0
LINE
  5
1BB
100
AcDbEntity
  8
LY_3
390
0
  6
CONTINUOUS
 62
     3
100
AcDbLine
 10
131.500033
 20
20.999999
 30
0.0
 11
132.000034
 21
20.499999
 31
0.0
  0
LINE
  5
1BC
100
AcDbEntity
  8
LY_3
390
0
  6
CONTINUOUS
 62
     3
100
AcDbLine
 10
132.000036
 20
20.5
 30
0.0
 11
132.000036
 21
19.5
 31
0.0
  0
LINE
  5
1BD
100
AcDbEntity
  8
LY_3
390
0
  6
CONTINUOUS
 62
     3
100
AcDbLine
 10
125.300039
 20
18.950001
 30
0.0
 11
126.800039
 21
18.950001
 31
0.0
  0
LINE
  5
1BE
100
AcDbEntity
  8
LY_3
390
0
  6
CONTINUOUS
 62
     3
100
AcDbLine
 10
126.400038
 20
13.549999
 30
0.0
 11
129.600035
 21
13.549999
 31
0.0
  0
LINE
  5
1BF
100
AcDbEntity
  8
LY_3
390
0
  6
CONTINUOUS
 62
     3
100
AcDbLine
 10
129.500036
 20
19.6
 30
0.0
 11
129.600035
 21
19.6
 31
0.0
  0
LINE
  5
1C0
100
AcDbEntity
  8
LY_3
390
0
  6
CONTINUOUS
 62
     3
100
AcDbLine
 10
129.600038
 20
19.599999
 30
0.0
 11
131.000042
 21
21.000003
 31
0.0
  0
LINE
  5
1C1
100
AcDbEntity
  8
LY_3
390
0
  6
CONTINUOUS
 62
     3
100
AcDbLine
 10
126.400039
 20
19.599999
 30
0.0
 11
125.000035
 21
21.000003
 31
0.0
  0
LINE
  5
1C2
100
AcDbEntity
  8
LY_3
390
0
  6
CONTINUOUS
 62
     3
100
AcDbLine
 10
126.500036
 20
19.6
 30
0.0
 11
126.400038
 21
19.6
 31
0.0
  0
LINE
  5
1C3
100
AcDbEntity
  8
LY_3
390
0
  6
CONTINUOUS
 62
     3
100
AcDbLine
 10
126.400038
 20
19.6
 30
0.0
 11
126.400038
 21
19.0
 31
0.0
  0
LINE
  5
1C4
100
AcDbEntity
  8
LY_3
390
0
  6
CONTINUOUS
 62
   110
100
AcDbLine
 10
126.800039
 20
18.778444
 30
0.0
 11
126.800039
 21
15.0
 31
0.0
  0
LINE
  5
1C5
100
AcDbEntity
  8
LY_3
390
0
  6
CONTINUOUS
 62
   110
100
AcDbLine
 10
129.200033
 20
18.778444
 30
0.0
 11
129.200033
 21
15.0
 31
0.0
  0
LINE
  5
1C6
100
AcDbEntity
  8
LY_3
390
0
  6
CONTINUOUS
 62
     3
100
AcDbLine
 10
126.500039
 20
18.350001
 30
0.0
 11
126.800039
 21
18.778445
 31
0.0
  0
LINE
  5
1C7
100
AcDbEntity
  8
LY_3
390
0
  6
CONTINUOUS
 62
     3
100
AcDbLine
 10
129.500036
 20
18.35
 30
0.0
 11
129.200037
 21
18.778444
 31
0.0
  0
LINE
  5
1C8
100
AcDbEntity
  8
LY_3
390
0
  6
CONTINUOUS
 62
     3
100
AcDbLine
 10
125.261376
 20
20.838667
 30
0.0
 11
126.565724
 21
19.534318
 31
0.0
  0
LINE
  5
1C9
100
AcDbEntity
  8
LY_3
390
0
  6
CONTINUOUS
 62
     3
100
AcDbLine
 10
130.750039
 20
20.850003
 30
0.0
 11
129.434351
 21
19.534314
 31
0.0
  0
LINE
  5
1CA
100
AcDbEntity
  8
LY_3
390
0
  6
CONTINUOUS
 62
     3
100
AcDbLine
 10
125.250036
 20
21.0
 30
0.0
 11
125.250036
 21
20.85
 31
0.0
  0
LINE
  5
1CB
100
AcDbEntity
  8
LY_3
390
0
  6
CONTINUOUS
 62
     3
100
AcDbLine
 10
130.750036
 20
21.0
 30
0.0
 11
130.750036
 21
20.85
 31
0.0
  0
LINE
  5
1CC
100
AcDbEntity
  8
LY_3
390
0
  6
CONTINUOUS
 62
     3
100
AcDbLine
 10
129.500036
 20
18.35
 30
0.0
 11
126.500036
 21
18.35
 31
0.0
  0
LINE
  5
1CD
100
AcDbEntity
  8
LY_3
390
0
  6
CONTINUOUS
 62
     3
100
AcDbLine
 10
129.500036
 20
15.0
 30
0.0
 11
126.500036
 21
15.0
 31
0.0
  0
LINE
  5
1CE
100
AcDbEntity
  8
LY_3
390
0
  6
CONTINUOUS
 62
     3
100
AcDbLine
 10
129.296789
 20
19.35
 30
0.0
 11
126.703283
 21
19.35
 31
0.0
  0
LINE
  5
1CF
100
AcDbEntity
  8
LY_3
390
0
  6
CONTINUOUS
 62
     3
100
AcDbLine
 10
126.800039
 20
18.968628
 30
0.0
 11
126.800039
 21
18.778444
 31
0.0
  0
LINE
  5
1D0
100
AcDbEntity
  8
LY_3
390
0
  6
CONTINUOUS
 62
     3
100
AcDbLine
 10
129.200033
 20
18.968628
 30
0.0
 11
129.200033
 21
18.778444
 31
0.0
  0
LINE
  5
1D1
100
AcDbEntity
  8
LY_3
390
0
  6
CONTINUOUS
 62
     3
100
AcDbLine
 10
130.750036
 20
20.85
 30
0.0
 11
125.250036
 21
20.85
 31
0.0
  0
LINE
  5
1D2
100
AcDbEntity
  8
LY_3
390
0
  6
CONTINUOUS
 62
   110
100
AcDbLine
 10
126.500036
 20
18.950001
 30
0.0
 11
126.500036
 21
18.35
 31
0.0
  0
LINE
  5
1D3
100
AcDbEntity
  8
LY_3
390
0
  6
CONTINUOUS
 62
   110
100
AcDbLine
 10
129.500036
 20
18.950001
 30
0.0
 11
129.500036
 21
18.35
 31
0.0
  0
LINE
  5
1D4
100
AcDbEntity
  8
LY_3
390
0
  6
CONTINUOUS
 62
     3
100
AcDbLine
 10
131.500036
 20
21.0
 30
0.0
 11
124.000029
 21
21.0
 31
0.0
  0
LINE
  5
1D5
100
AcDbEntity
  8
LY_3
390
0
  6
CONTINUOUS
 62
     3
100
AcDbLine
 10
129.600035
 20
19.6
 30
0.0
 11
129.600035
 21
19.0
 31
0.0
  0
LINE
  5
1D6
100
AcDbEntity
  8
LY_3
390
0
  6
CONTINUOUS
 62
     3
100
AcDbLine
 10
134.000036
 20
-14.5
 30
0.0
 11
134.000036
 21
-6.0
 31
0.0
  0
LINE
  5
1D7
100
AcDbEntity
  8
LY_3
390
0
  6
CENTER
 62
   110
100
AcDbLine
 10
128.000036
 20
22.207977
 30
0.0
 11
128.000036
 21
11.371395
 31
0.0
  0
LINE
  5
1D8
100
AcDbEntity
  8
LY_3
390
0
  6
CONTINUOUS
 62
     3
100
AcDbLine
 10
131.000036
 20
16.550003
 30
0.0
 11
131.000036
 21
14.5
 31
0.0
  0
LINE
  5
1D9
100
AcDbEntity
  8
LY_3
390
0
  6
CONTINUOUS
 62
     3
100
AcDbLine
 10
125.000036
 20
19.0
 30
0.0
 11
125.000036
 21
17.049999
 31
0.0
  0
LINE
  5
1DA
100
AcDbEntity
  8
LY_3
390
0
  6
CONTINUOUS
 62
     3
100
AcDbLine
 10
125.000036
 20
19.0
 30
0.0
 11
126.799421
 21
19.0
 31
0.0
  0
LINE
  5
1DB
100
AcDbEntity
  8
LY_3
390
0
  6
CONTINUOUS
 62
     3
100
AcDbLine
 10
133.000015
 20
-12.500054
 30
0.0
 11
134.000022
 21
-13.50006
 31
0.0
  0
LINE
  5
1DC
100
AcDbEntity
  8
LY_3
390
0
  6
CONTINUOUS
 62
     3
100
AcDbLine
 10
133.400036
 20
-14.5
 30
0.0
 11
134.000036
 21
-14.5
 31
0.0
  0
LINE
  5
1DD
100
AcDbEntity
  8
LY_3
390
0
  6
CONTINUOUS
 62
     3
100
AcDbLine
 10
131.000036
 20
-14.5
 30
0.0
 11
131.400036
 21
-14.5
 31
0.0
  0
LINE
  5
1DE
100
AcDbEntity
  8
LY_3
390
0
  6
CONTINUOUS
 62
     3
100
AcDbLine
 10
131.000036
 20
-16.550003
 30
0.0
 11
131.000036
 21
-14.5
 31
0.0
  0
LINE
  5
1DF
100
AcDbEntity
  8
LY_3
390
0
  6
CONTINUOUS
 62
     3
100
AcDbLine
 10
133.400036
 20
14.5
 30
0.0
 11
134.000036
 21
14.5
 31
0.0
  0
LINE
  5
1E0
100
AcDbEntity
  8
LY_3
390
0
  6
CONTINUOUS
 62
     3
100
AcDbLine
 10
131.000036
 20
14.5
 30
0.0
 11
131.400036
 21
14.5
 31
0.0
  0
LINE
  5
1E1
100
AcDbEntity
  8
LY_3
390
0
  6
CONTINUOUS
 62
     3
100
AcDbLine
 10
129.200651
 20
19.0
 30
0.0
 11
131.500036
 21
19.0
 31
0.0
  0
LINE
  5
1E2
100
AcDbEntity
  8
LY_3
390
0
  6
CONTINUOUS
 62
     3
100
AcDbLine
 10
124.000039
 20
-20.999998
 30
0.0
 11
123.000038
 21
-19.999997
 31
0.0
  0
LINE
  5
1E3
100
AcDbEntity
  8
LY_3
390
0
  6
CONTINUOUS
 62
     3
100
AcDbLine
 10
123.000036
 20
-20.0
 30
0.0
 11
123.000036
 21
-13.199997
 31
0.0
  0
LINE
  5
1E4
100
AcDbEntity
  8
LY_3
390
0
  6
CONTINUOUS
 62
     3
100
AcDbLine
 10
124.000036
 20
21.000004
 30
0.0
 11
123.000035
 21
20.000003
 31
0.0
  0
LINE
  5
1E5
100
AcDbEntity
  8
LY_3
390
0
  6
CONTINUOUS
 62
     3
100
AcDbLine
 10
123.000036
 20
20.0
 30
0.0
 11
123.000036
 21
13.199997
 31
0.0
  0
LINE
  5
1E6
100
AcDbEntity
  8
LY_3
390
0
  6
CONTINUOUS
 62
     3
100
AcDbLine
 10
124.300035
 20
-9.0
 30
0.0
 11
133.000013
 21
-9.0
 31
0.0
  0
LINE
  5
1E7
100
AcDbEntity
  8
LY_3
390
0
  6
CENTER
 62
   110
100
AcDbLine
 10
128.000036
 20
128.529251
 30
0.0
 11
128.000036
 21
121.664886
 31
0.0
  0
LINE
  5
1E8
100
AcDbEntity
  8
LY_3
390
0
  6
CONTINUOUS
 62
     3
100
AcDbLine
 10
131.500038
 20
104.110234
 30
0.0
 11
132.000038
 21
104.610234
 31
0.0
  0
LINE
  5
1E9
100
AcDbEntity
  8
LY_3
390
0
  6
CONTINUOUS
 62
     3
100
AcDbLine
 10
132.000036
 20
145.610229
 30
0.0
 11
132.000036
 21
104.610229
 31
0.0
  0
LINE
  5
1EA
100
AcDbEntity
  8
LY_3
390
0
  6
CONTINUOUS
 62
     3
100
AcDbLine
 10
131.500034
 20
146.110228
 30
0.0
 11
132.000035
 21
145.610228
 31
0.0
  0
LINE
  5
1EB
100
AcDbEntity
  8
LY_3
390
0
  6
CONTINUOUS
 62
     3
100
AcDbLine
 10
124.000036
 20
146.110234
 30
0.0
 11
123.000035
 21
145.110233
 31
0.0
  0
LINE
  5
1EC
100
AcDbEntity
  8
LY_3
390
0
  6
CONTINUOUS
 62
     3
100
AcDbLine
 10
124.000036
 20
146.110229
 30
0.0
 11
131.500036
 21
146.110229
 31
0.0
  0
LINE
  5
1ED
100
AcDbEntity
  8
LY_3
390
0
  6
CONTINUOUS
 62
     3
100
AcDbLine
 10
123.000036
 20
145.110229
 30
0.0
 11
123.000036
 21
105.110229
 31
0.0
  0
LINE
  5
1EE
100
AcDbEntity
  8
LY_3
390
0
  6
CONTINUOUS
 62
     3
100
AcDbLine
 10
124.000034
 20
104.110235
 30
0.0
 11
123.000033
 21
105.110236
 31
0.0
  0
LINE
  5
1EF
100
AcDbEntity
  8
LY_3
390
0
  6
CONTINUOUS
 62
     3
100
AcDbLine
 10
124.000036
 20
104.110229
 30
0.0
 11
131.500029
 21
104.110229
 31
0.0
  0
LINE
  5
1F0
100
AcDbEntity
  8
LY_3
390
0
  6
CONTINUOUS
 62
     3
100
AcDbLine
 10
124.300035
 20
9.0
 30
0.0
 11
133.000013
 21
9.0
 31
0.0
  0
LINE
  5
1F1
100
AcDbEntity
  8
LY_3
390
0
  6
CONTINUOUS
 62
   110
100
AcDbLine
 10
319.000055
 20
140.610229
 30
0.0
 11
332.000055
 21
140.610229
 31
0.0
  0
LINE
  5
1F2
100
AcDbEntity
  8
LY_3
390
0
  6
CONTINUOUS
 62
   110
100
AcDbLine
 10
319.000055
 20
141.610229
 30
0.0
 11
332.000055
 21
141.610229
 31
0.0
  0
LINE
  5
1F3
100
AcDbEntity
  8
LY_3
390
0
  6
CONTINUOUS
 62
   110
100
AcDbLine
 10
319.000055
 20
142.610229
 30
0.0
 11
332.000055
 21
142.610229
 31
0.0
  0
LINE
  5
1F4
100
AcDbEntity
  8
LY_3
390
0
  6
CONTINUOUS
 62
   110
100
AcDbLine
 10
319.000055
 20
143.610229
 30
0.0
 11
332.000055
 21
143.610229
 31
0.0
  0
LINE
  5
1F5
100
AcDbEntity
  8
LY_3
390
0
  6
CONTINUOUS
 62
   110
100
AcDbLine
 10
319.000055
 20
144.610229
 30
0.0
 11
332.000055
 21
144.610229
 31
0.0
  0
LINE
  5
1F6
100
AcDbEntity
  8
LY_3
390
0
  6
CONTINUOUS
 62
   110
100
AcDbLine
 10
319.000055
 20
145.610229
 30
0.0
 11
332.000055
 21
145.610229
 31
0.0
  0
LINE
  5
1F7
100
AcDbEntity
  8
LY_3
390
0
  6
CONTINUOUS
 62
   110
100
AcDbLine
 10
319.000055
 20
146.610229
 30
0.0
 11
332.000055
 21
146.610229
 31
0.0
  0
LINE
  5
1F8
100
AcDbEntity
  8
LY_3
390
0
  6
CONTINUOUS
 62
   110
100
AcDbLine
 10
319.000055
 20
147.610229
 30
0.0
 11
332.000055
 21
147.610229
 31
0.0
  0
LINE
  5
1F9
100
AcDbEntity
  8
LY_3
390
0
  6
CONTINUOUS
 62
   110
100
AcDbLine
 10
319.000055
 20
148.610229
 30
0.0
 11
332.000055
 21
148.610229
 31
0.0
  0
LINE
  5
1FA
100
AcDbEntity
  8
LY_3
390
0
  6
CONTINUOUS
 62
   110
100
AcDbLine
 10
319.000055
 20
149.610229
 30
0.0
 11
332.000055
 21
149.610229
 31
0.0
  0
LINE
  5
1FB
100
AcDbEntity
  8
LY_3
390
0
  6
CONTINUOUS
 62
     3
100
AcDbLine
 10
338.500055
 20
120.110229
 30
0.0
 11
338.500055
 21
119.360229
 31
0.0
  0
LINE
  5
1FC
100
AcDbEntity
  8
LY_3
390
0
  6
CONTINUOUS
 62
     3
100
AcDbLine
 10
332.500055
 20
150.110229
 30
0.0
 11
332.500055
 21
100.110229
 31
0.0
  0
LINE
  5
1FD
100
AcDbEntity
  8
LY_3
390
0
  6
CONTINUOUS
 62
     3
100
AcDbLine
 10
332.000055
 20
150.610229
 30
0.0
 11
332.000055
 21
99.610229
 31
0.0
  0
LINE
  5
1FE
100
AcDbEntity
  8
LY_3
390
0
  6
CONTINUOUS
 62
     3
100
AcDbLine
 10
319.000055
 20
150.610229
 30
0.0
 11
319.000055
 21
99.610229
 31
0.0
  0
LINE
  5
1FF
100
AcDbEntity
  8
LY_3
390
0
  6
CONTINUOUS
 62
     3
100
AcDbLine
 10
318.500055
 20
150.110229
 30
0.0
 11
318.500055
 21
100.110229
 31
0.0
  0
LINE
  5
200
100
AcDbEntity
  8
LY_3
390
0
  6
CONTINUOUS
 62
     3
100
AcDbLine
 10
312.999994
 20
150.110229
 30
0.0
 11
312.999994
 21
100.110229
 31
0.0
  0
LINE
  5
201
100
AcDbEntity
  8
LY_3
390
0
  6
CONTINUOUS
 62
     3
100
AcDbLine
 10
312.000055
 20
149.110229
 30
0.0
 11
312.000055
 21
101.1101
 31
0.0
  0
LINE
  5
202
100
AcDbEntity
  8
LY_3
390
0
  6
CONTINUOUS
 62
     3
100
AcDbLine
 10
312.000002
 20
149.11027
 30
0.0
 11
313.000002
 21
150.110272
 31
0.0
  0
LINE
  5
203
100
AcDbEntity
  8
LY_3
390
0
  6
CONTINUOUS
 62
     3
100
AcDbLine
 10
313.00004
 20
150.110229
 30
0.0
 11
318.500055
 21
150.110229
 31
0.0
  0
LINE
  5
204
100
AcDbEntity
  8
LY_3
390
0
  6
CONTINUOUS
 62
     3
100
AcDbLine
 10
318.50005
 20
150.110224
 30
0.0
 11
319.00005
 21
150.610224
 31
0.0
  0
LINE
  5
205
100
AcDbEntity
  8
LY_3
390
0
  6
CONTINUOUS
 62
     3
100
AcDbLine
 10
332.500046
 20
150.110221
 30
0.0
 11
332.000045
 21
150.610222
 31
0.0
  0
LINE
  5
206
100
AcDbEntity
  8
LY_3
390
0
  6
CONTINUOUS
 62
     3
100
AcDbLine
 10
319.000055
 20
150.610229
 30
0.0
 11
332.000055
 21
150.610229
 31
0.0
  0
LINE
  5
207
100
AcDbEntity
  8
LY_3
390
0
  6
CONTINUOUS
 62
     3
100
AcDbLine
 10
332.500055
 20
150.110229
 30
0.0
 11
336.000055
 21
150.110229
 31
0.0
  0
LINE
  5
208
100
AcDbEntity
  8
LY_3
390
0
  6
CONTINUOUS
 62
     3
100
AcDbLine
 10
338.500055
 20
130.860229
 30
0.0
 11
338.500055
 21
130.110229
 31
0.0
  0
LINE
  5
209
100
AcDbEntity
  8
LY_3
390
0
  6
CONTINUOUS
 62
     3
100
AcDbLine
 10
338.000055
 20
102.110229
 30
0.0
 11
338.000055
 21
148.110229
 31
0.0
  0
LINE
  5
20A
100
AcDbEntity
  8
LY_3
390
0
  6
CONTINUOUS
 62
     3
100
AcDbLine
 10
338.000055
 20
130.110229
 30
0.0
 11
361.700055
 21
130.110229
 31
0.0
  0
LINE
  5
20B
100
AcDbEntity
  8
LY_3
390
0
  6
CONTINUOUS
 62
     3
100
AcDbLine
 10
362.000055
 20
120.410229
 30
0.0
 11
362.000055
 21
129.810229
 31
0.0
  0
LINE
  5
20C
100
AcDbEntity
  8
LY_3
390
0
  6
CONTINUOUS
 62
     3
100
AcDbLine
 10
338.000055
 20
120.110229
 30
0.0
 11
361.700055
 21
120.110229
 31
0.0
  0
LINE
  5
20D
100
AcDbEntity
  8
LY_3
390
0
  6
CONTINUOUS
 62
     3
100
AcDbLine
 10
332.500055
 20
100.110229
 30
0.0
 11
336.000055
 21
100.110229
 31
0.0
  0
LINE
  5
20E
100
AcDbEntity
  8
LY_3
390
0
  6
CONTINUOUS
 62
     3
100
AcDbLine
 10
332.500051
 20
100.110227
 30
0.0
 11
332.00005
 21
99.610227
 31
0.0
  0
LINE
  5
20F
100
AcDbEntity
  8
LY_3
390
0
  6
CONTINUOUS
 62
     3
100
AcDbLine
 10
318.500047
 20
100.110217
 30
0.0
 11
319.000047
 21
99.610216
 31
0.0
  0
LINE
  5
210
100
AcDbEntity
  8
LY_3
390
0
  6
CONTINUOUS
 62
     3
100
AcDbLine
 10
319.000055
 20
99.610229
 30
0.0
 11
332.000055
 21
99.610229
 31
0.0
  0
LINE
  5
211
100
AcDbEntity
  8
LY_3
390
0
  6
CONTINUOUS
 62
     3
100
AcDbLine
 10
313.00004
 20
100.110229
 30
0.0
 11
318.500055
 21
100.110229
 31
0.0
  0
LINE
  5
212
100
AcDbEntity
  8
LY_3
390
0
  6
CENTER
 62
   110
100
AcDbLine
 10
316.000055
 20
120.922256
 30
0.0
 11
316.000055
 21
128.858696
 31
0.0
  0
LINE
  5
213
100
AcDbEntity
  8
LY_3
390
0
  6
CONTINUOUS
 62
     3
100
AcDbLine
 10
311.999997
 20
101.110166
 30
0.0
 11
313.0
 21
100.110162
 31
0.0
  0
LINE
  5
214
100
AcDbEntity
  8
LY_3
390
0
  6
CONTINUOUS
 62
     3
100
AcDbLine
 10
122.700037
 20
91.260239
 30
0.0
 11
122.700037
 21
158.96022
 31
0.0
  0
LINE
  5
215
100
AcDbEntity
  8
LY_3
390
0
  6
CENTER
 62
   110
100
AcDbLine
 10
104.350031
 20
154.460236
 30
0.0
 11
128.350035
 21
154.460236
 31
0.0
  0
LINE
  5
216
100
AcDbEntity
  8
LY_3
390
0
  6
CONTINUOUS
 62
     3
100
AcDbLine
 10
122.700037
 20
158.960206
 30
0.0
 11
121.900031
 21
159.76021
 31
0.0
  0
LINE
  5
217
100
AcDbEntity
  8
LY_3
390
0
  6
CONTINUOUS
 62
     3
100
AcDbLine
 10
110.800035
 20
159.760239
 30
0.0
 11
121.900034
 21
159.760239
 31
0.0
  0
LINE
  5
218
100
AcDbEntity
  8
LY_3
390
0
  6
CONTINUOUS
 62
     3
100
AcDbLine
 10
109.999896
 20
158.960351
 30
0.0
 11
110.799893
 21
159.760348
 31
0.0
  0
LINE
  5
219
100
AcDbEntity
  8
LY_3
390
0
  6
CONTINUOUS
 62
     3
100
AcDbLine
 10
110.00004
 20
91.260239
 30
0.0
 11
110.00004
 21
158.96022
 31
0.0
  0
LINE
  5
21A
100
AcDbEntity
  8
LY_3
390
0
  6
CONTINUOUS
 62
     3
100
AcDbLine
 10
122.700036
 20
91.260227
 30
0.0
 11
121.900036
 21
90.460228
 31
0.0
  0
LINE
  5
21B
100
AcDbEntity
  8
LY_3
390
0
  6
CENTER
 62
   110
100
AcDbLine
 10
104.350031
 20
95.760223
 30
0.0
 11
125.343817
 21
95.760223
 31
0.0
  0
LINE
  5
21C
100
AcDbEntity
  8
LY_3
390
0
  6
CONTINUOUS
 62
     3
100
AcDbLine
 10
110.800003
 20
90.460209
 30
0.0
 11
110.000003
 21
91.260209
 31
0.0
  0
LINE
  5
21D
100
AcDbEntity
  8
LY_3
390
0
  6
CONTINUOUS
 62
     3
100
AcDbLine
 10
110.800035
 20
90.460236
 30
0.0
 11
121.900034
 21
90.460236
 31
0.0
  0
LINE
  5
21E
100
AcDbEntity
  8
LY_3
390
0
  6
CONTINUOUS
 62
     3
100
AcDbLine
 10
288.809595
 20
125.297729
 30
0.0
 11
289.500055
 21
125.297729
 31
0.0
  0
LINE
  5
21F
100
AcDbEntity
  8
LY_3
390
0
  6
CONTINUOUS
 62
     3
100
AcDbLine
 10
288.809595
 20
124.922729
 30
0.0
 11
289.500055
 21
124.922729
 31
0.0
  0
LINE
  5
220
100
AcDbEntity
  8
LY_3
390
0
  6
CONTINUOUS
 62
     3
100
AcDbLine
 10
288.187555
 20
124.300682
 30
0.0
 11
288.187555
 21
123.610229
 31
0.0
  0
LINE
  5
221
100
AcDbEntity
  8
LY_3
390
0
  6
CONTINUOUS
 62
     3
100
AcDbLine
 10
287.812555
 20
124.300682
 30
0.0
 11
287.812555
 21
123.610229
 31
0.0
  0
LINE
  5
222
100
AcDbEntity
  8
LY_3
390
0
  6
CONTINUOUS
 62
     3
100
AcDbLine
 10
286.500055
 20
125.297729
 30
0.0
 11
287.190516
 21
125.297729
 31
0.0
  0
LINE
  5
223
100
AcDbEntity
  8
LY_3
390
0
  6
CONTINUOUS
 62
     3
100
AcDbLine
 10
286.500055
 20
124.922729
 30
0.0
 11
287.190516
 21
124.922729
 31
0.0
  0
LINE
  5
224
100
AcDbEntity
  8
LY_3
390
0
  6
CONTINUOUS
 62
     3
100
AcDbLine
 10
287.812555
 20
126.610229
 30
0.0
 11
287.812555
 21
125.919777
 31
0.0
  0
LINE
  5
225
100
AcDbEntity
  8
LY_3
390
0
  6
CONTINUOUS
 62
     3
100
AcDbLine
 10
288.187555
 20
126.610229
 30
0.0
 11
288.187555
 21
125.919777
 31
0.0
  0
LINE
  5
226
100
AcDbEntity
  8
LY_3
390
0
  6
CONTINUOUS
 62
     3
100
AcDbLine
 10
286.500055
 20
125.297729
 30
0.0
 11
286.500055
 21
124.922729
 31
0.0
  0
LINE
  5
227
100
AcDbEntity
  8
LY_3
390
0
  6
CONTINUOUS
 62
     3
100
AcDbLine
 10
289.500055
 20
125.297729
 30
0.0
 11
289.500055
 21
124.922729
 31
0.0
  0
LINE
  5
228
100
AcDbEntity
  8
LY_3
390
0
  6
CONTINUOUS
 62
     3
100
AcDbLine
 10
287.812555
 20
123.610229
 30
0.0
 11
288.187555
 21
123.610229
 31
0.0
  0
LINE
  5
229
100
AcDbEntity
  8
LY_3
390
0
  6
CONTINUOUS
 62
     3
100
AcDbLine
 10
287.812555
 20
126.610229
 30
0.0
 11
288.187555
 21
126.610229
 31
0.0
  0
LINE
  5
22A
100
AcDbEntity
  8
LY_3
390
0
  6
CONTINUOUS
 62
   110
100
AcDbLine
 10
61.00005
 20
128.110189
 30
0.0
 11
80.000041
 21
122.110189
 31
0.0
  0
LINE
  5
22B
100
AcDbEntity
  8
LY_3
390
0
  6
CONTINUOUS
 62
   110
100
AcDbLine
 10
61.000067
 20
122.110181
 30
0.0
 11
80.000059
 21
128.11018
 31
0.0
  0
LINE
  5
22C
100
AcDbEntity
  8
LY_3
390
0
  6
CONTINUOUS
 62
     3
100
AcDbLine
 10
61.000048
 20
121.110229
 30
0.0
 11
61.000048
 21
129.110229
 31
0.0
  0
LINE
  5
22D
100
AcDbEntity
  8
LY_3
390
0
  6
CONTINUOUS
 62
     3
100
AcDbLine
 10
60.000067
 20
122.110202
 30
0.0
 11
61.000068
 21
121.110201
 31
0.0
  0
LINE
  5
22E
100
AcDbEntity
  8
LY_3
390
0
  6
CONTINUOUS
 62
     3
100
AcDbLine
 10
60.000051
 20
128.110213
 30
0.0
 11
61.00005
 21
129.110212
 31
0.0
  0
LINE
  5
230
100
AcDbEntity
  8
LY_3
390
0
  6
PHANTOM
 62
   110
100
AcDbLine
 10
182.000055
 20
129.110229
 30
0.0
 11
182.000055
 21
121.110229
 31
0.0
  0
LINE
  5
231
100
AcDbEntity
  8
LY_3
390
0
  6
PHANTOM
 62
   110
100
AcDbLine
 10
180.000055
 20
129.110229
 30
0.0
 11
180.000055
 21
121.110229
 31
0.0
  0
LINE
  5
232
100
AcDbEntity
  8
LY_3
390
0
  6
PHANTOM
 62
   110
100
AcDbLine
 10
181.000055
 20
129.110229
 30
0.0
 11
181.000055
 21
121.110229
 31
0.0
  0
LINE
  5
233
100
AcDbEntity
  8
LY_3
390
0
  6
CENTER
 62
   110
100
AcDbLine
 10
299.000055
 20
125.110229
 30
0.0
 11
303.395975
 21
125.110229
 31
0.0
  0
LINE
  5
234
100
AcDbEntity
  8
LY_3
390
0
  6
CONTINUOUS
 62
     3
100
AcDbLine
 10
175.000055
 20
129.110229
 30
0.0
 11
287.000055
 21
129.110229
 31
0.0
  0
LINE
  5
235
100
AcDbEntity
  8
LY_3
390
0
  6
CONTINUOUS
 62
     3
100
AcDbLine
 10
175.000055
 20
121.110229
 30
0.0
 11
287.000055
 21
121.110229
 31
0.0
  0
LINE
  5
236
100
AcDbEntity
  8
LY_3
390
0
  6
CONTINUOUS
 62
     3
100
AcDbLine
 10
282.000055
 20
129.110229
 30
0.0
 11
282.000055
 21
121.110229
 31
0.0
  0
LINE
  5
237
100
AcDbEntity
  8
LY_3
390
0
  6
CONTINUOUS
 62
     3
100
AcDbLine
 10
280.000055
 20
129.110229
 30
0.0
 11
280.000055
 21
121.110229
 31
0.0
  0
LINE
  5
238
100
AcDbEntity
  8
LY_3
390
0
  6
CONTINUOUS
 62
   110
100
AcDbLine
 10
281.000055
 20
129.110229
 30
0.0
 11
281.000055
 21
121.110229
 31
0.0
  0
LINE
  5
239
100
AcDbEntity
  8
LY_3
390
0
  6
CONTINUOUS
 62
     3
100
AcDbLine
 10
61.000048
 20
128.110229
 30
0.0
 11
80.00004
 21
128.110229
 31
0.0
  0
LINE
  5
23A
100
AcDbEntity
  8
LY_3
390
0
  6
CONTINUOUS
 62
     3
100
AcDbLine
 10
61.000048
 20
122.110229
 30
0.0
 11
80.00004
 21
122.110229
 31
0.0
  0
LINE
  5
23B
100
AcDbEntity
  8
LY_3
390
0
  6
CONTINUOUS
 62
     3
100
AcDbLine
 10
300.000055
 20
125.110214
 30
0.0
 11
304.000055
 21
125.110214
 31
0.0
  0
LINE
  5
23C
100
AcDbEntity
  8
LY_3
390
0
  6
CONTINUOUS
 62
     3
100
AcDbLine
 10
300.000055
 20
104.697502
 30
0.0
 11
304.000055
 21
104.697502
 31
0.0
  0
LINE
  5
23D
100
AcDbEntity
  8
LY_3
390
0
  6
CONTINUOUS
 62
     3
100
AcDbLine
 10
300.000055
 20
137.47583
 30
0.0
 11
304.000055
 21
137.47583
 31
0.0
  0
LINE
  5
23E
100
AcDbEntity
  8
LY_3
390
0
  6
CONTINUOUS
 62
     3
100
AcDbLine
 10
300.000055
 20
145.522934
 30
0.0
 11
304.000055
 21
145.522934
 31
0.0
  0
LINE
  5
23F
100
AcDbEntity
  8
LY_3
390
0
  6
CONTINUOUS
 62
     3
100
AcDbLine
 10
300.000021
 20
146.147984
 30
0.0
 11
311.000011
 21
147.110359
 31
0.0
  0
LINE
  5
240
100
AcDbEntity
  8
LY_3
390
0
  6
CONTINUOUS
 62
     3
100
AcDbLine
 10
300.000134
 20
104.072729
 30
0.0
 11
311.000124
 21
103.110354
 31
0.0
  0
LINE
  5
241
100
AcDbEntity
  8
LY_3
390
0
  6
CONTINUOUS
 62
     3
100
AcDbLine
 10
311.00004
 20
103.110222
 30
0.0
 11
311.947733
 21
103.110222
 31
0.0
  0
LINE
  5
242
100
AcDbEntity
  8
LY_3
390
0
  6
CONTINUOUS
 62
     3
100
AcDbLine
 10
311.000055
 20
147.110214
 30
0.0
 11
311.947733
 21
147.110214
 31
0.0
  0
LINE
  5
243
100
AcDbEntity
  8
LY_3
390
0
  6
CONTINUOUS
 62
     3
100
AcDbLine
 10
300.000055
 20
146.147842
 30
0.0
 11
300.000055
 21
104.072594
 31
0.0
  0
LINE
  5
244
100
AcDbEntity
  8
LY_3
390
0
  6
CONTINUOUS
 62
     3
100
AcDbLine
 10
296.000055
 20
125.110229
 30
0.0
 11
299.000055
 21
125.110229
 31
0.0
  0
LINE
  5
245
100
AcDbEntity
  8
LY_3
390
0
  6
CONTINUOUS
 62
   110
100
AcDbLine
 10
181.000063
 20
121.110222
 30
0.0
 11
181.000063
 21
117.110222
 31
0.0
  0
LINE
  5
246
100
AcDbEntity
  8
LY_3
390
0
  6
CONTINUOUS
 62
   110
100
AcDbLine
 10
182.000063
 20
121.110222
 30
0.0
 11
182.000063
 21
119.110222
 31
0.0
  0
LINE
  5
247
100
AcDbEntity
  8
LY_3
390
0
  6
CONTINUOUS
 62
   110
100
AcDbLine
 10
183.000063
 20
121.110222
 30
0.0
 11
183.000063
 21
119.110222
 31
0.0
  0
LINE
  5
248
100
AcDbEntity
  8
LY_3
390
0
  6
CONTINUOUS
 62
   110
100
AcDbLine
 10
184.000063
 20
121.110222
 30
0.0
 11
184.000063
 21
119.110222
 31
0.0
  0
LINE
  5
249
100
AcDbEntity
  8
LY_3
390
0
  6
CONTINUOUS
 62
   110
100
AcDbLine
 10
185.000063
 20
121.110222
 30
0.0
 11
185.000063
 21
119.110222
 31
0.0
  0
LINE
  5
24A
100
AcDbEntity
  8
LY_3
390
0
  6
CONTINUOUS
 62
   110
100
AcDbLine
 10
186.000063
 20
121.110222
 30
0.0
 11
186.000063
 21
118.145615
 31
0.0
  0
LINE
  5
24B
100
AcDbEntity
  8
LY_3
390
0
  6
CONTINUOUS
 62
   110
100
AcDbLine
 10
187.000059
 20
121.110222
 30
0.0
 11
187.000059
 21
119.110222
 31
0.0
  0
LINE
  5
24C
100
AcDbEntity
  8
LY_3
390
0
  6
CONTINUOUS
 62
   110
100
AcDbLine
 10
188.000059
 20
121.110222
 30
0.0
 11
188.000059
 21
119.110222
 31
0.0
  0
LINE
  5
24D
100
AcDbEntity
  8
LY_3
390
0
  6
CONTINUOUS
 62
   110
100
AcDbLine
 10
189.000059
 20
121.110222
 30
0.0
 11
189.000059
 21
119.110222
 31
0.0
  0
LINE
  5
24E
100
AcDbEntity
  8
LY_3
390
0
  6
CONTINUOUS
 62
   110
100
AcDbLine
 10
190.000059
 20
121.110222
 30
0.0
 11
190.000059
 21
119.110222
 31
0.0
  0
LINE
  5
24F
100
AcDbEntity
  8
LY_3
390
0
  6
CONTINUOUS
 62
   110
100
AcDbLine
 10
191.000055
 20
121.110222
 30
0.0
 11
191.000055
 21
117.110222
 31
0.0
  0
LINE
  5
250
100
AcDbEntity
  8
LY_3
390
0
  6
CONTINUOUS
 62
   110
100
AcDbLine
 10
192.000055
 20
121.110222
 30
0.0
 11
192.000055
 21
119.110222
 31
0.0
  0
LINE
  5
251
100
AcDbEntity
  8
LY_3
390
0
  6
CONTINUOUS
 62
   110
100
AcDbLine
 10
193.000055
 20
121.110222
 30
0.0
 11
193.000055
 21
119.110222
 31
0.0
  0
LINE
  5
252
100
AcDbEntity
  8
LY_3
390
0
  6
CONTINUOUS
 62
   110
100
AcDbLine
 10
194.000055
 20
121.110222
 30
0.0
 11
194.000055
 21
119.110222
 31
0.0
  0
LINE
  5
253
100
AcDbEntity
  8
LY_3
390
0
  6
CONTINUOUS
 62
   110
100
AcDbLine
 10
195.000055
 20
121.110222
 30
0.0
 11
195.000055
 21
119.110222
 31
0.0
  0
LINE
  5
254
100
AcDbEntity
  8
LY_3
390
0
  6
CONTINUOUS
 62
   110
100
AcDbLine
 10
196.000055
 20
121.110222
 30
0.0
 11
196.000055
 21
118.145615
 31
0.0
  0
LINE
  5
255
100
AcDbEntity
  8
LY_3
390
0
  6
CONTINUOUS
 62
   110
100
AcDbLine
 10
197.000055
 20
121.110222
 30
0.0
 11
197.000055
 21
119.110222
 31
0.0
  0
LINE
  5
256
100
AcDbEntity
  8
LY_3
390
0
  6
CONTINUOUS
 62
   110
100
AcDbLine
 10
198.000055
 20
121.110222
 30
0.0
 11
198.000055
 21
119.110222
 31
0.0
  0
LINE
  5
257
100
AcDbEntity
  8
LY_3
390
0
  6
CONTINUOUS
 62
   110
100
AcDbLine
 10
199.000055
 20
121.110222
 30
0.0
 11
199.000055
 21
119.110222
 31
0.0
  0
LINE
  5
258
100
AcDbEntity
  8
LY_3
390
0
  6
CONTINUOUS
 62
   110
100
AcDbLine
 10
200.000055
 20
121.110222
 30
0.0
 11
200.000055
 21
119.110222
 31
0.0
  0
LINE
  5
259
100
AcDbEntity
  8
LY_3
390
0
  6
CONTINUOUS
 62
   110
100
AcDbLine
 10
201.000055
 20
121.110222
 30
0.0
 11
201.000055
 21
117.110222
 31
0.0
  0
LINE
  5
25A
100
AcDbEntity
  8
LY_3
390
0
  6
CONTINUOUS
 62
   110
100
AcDbLine
 10
202.000055
 20
121.110222
 30
0.0
 11
202.000055
 21
119.110222
 31
0.0
  0
LINE
  5
25B
100
AcDbEntity
  8
LY_3
390
0
  6
CONTINUOUS
 62
   110
100
AcDbLine
 10
203.000055
 20
121.110222
 30
0.0
 11
203.000055
 21
119.110222
 31
0.0
  0
LINE
  5
25C
100
AcDbEntity
  8
LY_3
390
0
  6
CONTINUOUS
 62
   110
100
AcDbLine
 10
204.000055
 20
121.110222
 30
0.0
 11
204.000055
 21
119.110222
 31
0.0
  0
LINE
  5
25D
100
AcDbEntity
  8
LY_3
390
0
  6
CONTINUOUS
 62
   110
100
AcDbLine
 10
205.000055
 20
121.110222
 30
0.0
 11
205.000055
 21
119.110222
 31
0.0
  0
LINE
  5
25E
100
AcDbEntity
  8
LY_3
390
0
  6
CONTINUOUS
 62
   110
100
AcDbLine
 10
206.000055
 20
121.110222
 30
0.0
 11
206.000055
 21
118.110222
 31
0.0
  0
LINE
  5
25F
100
AcDbEntity
  8
LY_3
390
0
  6
CONTINUOUS
 62
   110
100
AcDbLine
 10
207.000055
 20
121.110222
 30
0.0
 11
207.000055
 21
119.110222
 31
0.0
  0
LINE
  5
260
100
AcDbEntity
  8
LY_3
390
0
  6
CONTINUOUS
 62
   110
100
AcDbLine
 10
208.000055
 20
121.110222
 30
0.0
 11
208.000055
 21
119.110222
 31
0.0
  0
LINE
  5
261
100
AcDbEntity
  8
LY_3
390
0
  6
CONTINUOUS
 62
   110
100
AcDbLine
 10
209.000055
 20
121.110222
 30
0.0
 11
209.000055
 21
119.110222
 31
0.0
  0
LINE
  5
262
100
AcDbEntity
  8
LY_3
390
0
  6
CONTINUOUS
 62
   110
100
AcDbLine
 10
210.000055
 20
121.110222
 30
0.0
 11
210.000055
 21
119.110222
 31
0.0
  0
LINE
  5
263
100
AcDbEntity
  8
LY_3
390
0
  6
CONTINUOUS
 62
   110
100
AcDbLine
 10
211.000055
 20
121.110222
 30
0.0
 11
211.000055
 21
117.110222
 31
0.0
  0
LINE
  5
264
100
AcDbEntity
  8
LY_3
390
0
  6
CONTINUOUS
 62
   110
100
AcDbLine
 10
212.000055
 20
121.110222
 30
0.0
 11
212.000055
 21
119.110222
 31
0.0
  0
LINE
  5
265
100
AcDbEntity
  8
LY_3
390
0
  6
CONTINUOUS
 62
   110
100
AcDbLine
 10
213.000055
 20
121.110222
 30
0.0
 11
213.000055
 21
119.110222
 31
0.0
  0
LINE
  5
266
100
AcDbEntity
  8
LY_3
390
0
  6
CONTINUOUS
 62
   110
100
AcDbLine
 10
214.000055
 20
121.110222
 30
0.0
 11
214.000055
 21
119.110222
 31
0.0
  0
LINE
  5
267
100
AcDbEntity
  8
LY_3
390
0
  6
CONTINUOUS
 62
   110
100
AcDbLine
 10
215.000055
 20
121.110222
 30
0.0
 11
215.000055
 21
119.110222
 31
0.0
  0
LINE
  5
268
100
AcDbEntity
  8
LY_3
390
0
  6
CONTINUOUS
 62
   110
100
AcDbLine
 10
216.000055
 20
121.110222
 30
0.0
 11
216.000055
 21
118.219711
 31
0.0
  0
LINE
  5
269
100
AcDbEntity
  8
LY_3
390
0
  6
CONTINUOUS
 62
   110
100
AcDbLine
 10
217.000055
 20
121.110222
 30
0.0
 11
217.000055
 21
119.110222
 31
0.0
  0
LINE
  5
26A
100
AcDbEntity
  8
LY_3
390
0
  6
CONTINUOUS
 62
   110
100
AcDbLine
 10
218.000055
 20
121.110222
 30
0.0
 11
218.000055
 21
119.110222
 31
0.0
  0
LINE
  5
26B
100
AcDbEntity
  8
LY_3
390
0
  6
CONTINUOUS
 62
   110
100
AcDbLine
 10
219.000055
 20
121.110222
 30
0.0
 11
219.000055
 21
119.110222
 31
0.0
  0
LINE
  5
26C
100
AcDbEntity
  8
LY_3
390
0
  6
CONTINUOUS
 62
   110
100
AcDbLine
 10
220.000055
 20
121.110222
 30
0.0
 11
220.000055
 21
119.110222
 31
0.0
  0
LINE
  5
26D
100
AcDbEntity
  8
LY_3
390
0
  6
CONTINUOUS
 62
   110
100
AcDbLine
 10
221.000055
 20
121.110222
 30
0.0
 11
221.000055
 21
117.108368
 31
0.0
  0
LINE
  5
26E
100
AcDbEntity
  8
LY_3
390
0
  6
CONTINUOUS
 62
   110
100
AcDbLine
 10
222.000055
 20
121.110222
 30
0.0
 11
222.000055
 21
119.110222
 31
0.0
  0
LINE
  5
26F
100
AcDbEntity
  8
LY_3
390
0
  6
CONTINUOUS
 62
   110
100
AcDbLine
 10
223.000055
 20
121.110222
 30
0.0
 11
223.000055
 21
119.110222
 31
0.0
  0
LINE
  5
270
100
AcDbEntity
  8
LY_3
390
0
  6
CONTINUOUS
 62
   110
100
AcDbLine
 10
224.000055
 20
121.110222
 30
0.0
 11
224.000055
 21
119.110222
 31
0.0
  0
LINE
  5
271
100
AcDbEntity
  8
LY_3
390
0
  6
CONTINUOUS
 62
   110
100
AcDbLine
 10
225.000055
 20
121.110222
 30
0.0
 11
225.000055
 21
119.110222
 31
0.0
  0
LINE
  5
272
100
AcDbEntity
  8
LY_3
390
0
  6
CONTINUOUS
 62
   110
100
AcDbLine
 10
226.000055
 20
121.110222
 30
0.0
 11
226.000055
 21
118.219711
 31
0.0
  0
LINE
  5
273
100
AcDbEntity
  8
LY_3
390
0
  6
CONTINUOUS
 62
   110
100
AcDbLine
 10
227.000055
 20
121.110222
 30
0.0
 11
227.000055
 21
119.110222
 31
0.0
  0
LINE
  5
274
100
AcDbEntity
  8
LY_3
390
0
  6
CONTINUOUS
 62
   110
100
AcDbLine
 10
228.000055
 20
121.110222
 30
0.0
 11
228.000055
 21
119.110222
 31
0.0
  0
LINE
  5
275
100
AcDbEntity
  8
LY_3
390
0
  6
CONTINUOUS
 62
   110
100
AcDbLine
 10
229.000055
 20
121.110222
 30
0.0
 11
229.000055
 21
119.110222
 31
0.0
  0
LINE
  5
276
100
AcDbEntity
  8
LY_3
390
0
  6
CONTINUOUS
 62
   110
100
AcDbLine
 10
230.000055
 20
121.110222
 30
0.0
 11
230.000055
 21
119.110222
 31
0.0
  0
LINE
  5
277
100
AcDbEntity
  8
LY_3
390
0
  6
CONTINUOUS
 62
   110
100
AcDbLine
 10
231.000055
 20
121.110222
 30
0.0
 11
231.000055
 21
117.182457
 31
0.0
  0
LINE
  5
278
100
AcDbEntity
  8
LY_3
390
0
  6
CONTINUOUS
 62
   110
100
AcDbLine
 10
232.000055
 20
121.110222
 30
0.0
 11
232.000055
 21
119.110222
 31
0.0
  0
LINE
  5
279
100
AcDbEntity
  8
LY_3
390
0
  6
CONTINUOUS
 62
   110
100
AcDbLine
 10
233.000055
 20
121.110222
 30
0.0
 11
233.000055
 21
119.110222
 31
0.0
  0
LINE
  5
27A
100
AcDbEntity
  8
LY_3
390
0
  6
CONTINUOUS
 62
   110
100
AcDbLine
 10
234.000055
 20
121.110222
 30
0.0
 11
234.000055
 21
119.110222
 31
0.0
  0
LINE
  5
27B
100
AcDbEntity
  8
LY_3
390
0
  6
CONTINUOUS
 62
   110
100
AcDbLine
 10
235.000071
 20
121.110222
 30
0.0
 11
235.000071
 21
119.110222
 31
0.0
  0
LINE
  5
27C
100
AcDbEntity
  8
LY_3
390
0
  6
CONTINUOUS
 62
   110
100
AcDbLine
 10
236.000071
 20
121.110222
 30
0.0
 11
236.000071
 21
118.293793
 31
0.0
  0
LINE
  5
27D
100
AcDbEntity
  8
LY_3
390
0
  6
CONTINUOUS
 62
   110
100
AcDbLine
 10
237.000071
 20
121.110222
 30
0.0
 11
237.000071
 21
119.110222
 31
0.0
  0
LINE
  5
27E
100
AcDbEntity
  8
LY_3
390
0
  6
CONTINUOUS
 62
   110
100
AcDbLine
 10
238.000071
 20
121.110222
 30
0.0
 11
238.000071
 21
119.110222
 31
0.0
  0
LINE
  5
27F
100
AcDbEntity
  8
LY_3
390
0
  6
CONTINUOUS
 62
   110
100
AcDbLine
 10
239.000071
 20
121.110222
 30
0.0
 11
239.000071
 21
119.110222
 31
0.0
  0
LINE
  5
280
100
AcDbEntity
  8
LY_3
390
0
  6
CONTINUOUS
 62
   110
100
AcDbLine
 10
240.000071
 20
121.110222
 30
0.0
 11
240.000071
 21
119.110222
 31
0.0
  0
LINE
  5
281
100
AcDbEntity
  8
LY_3
390
0
  6
CONTINUOUS
 62
   110
100
AcDbLine
 10
241.000071
 20
121.110222
 30
0.0
 11
241.000071
 21
117.256546
 31
0.0
  0
LINE
  5
282
100
AcDbEntity
  8
LY_3
390
0
  6
CONTINUOUS
 62
   110
100
AcDbLine
 10
242.000071
 20
121.110222
 30
0.0
 11
242.000071
 21
119.110222
 31
0.0
  0
LINE
  5
283
100
AcDbEntity
  8
LY_3
390
0
  6
CONTINUOUS
 62
   110
100
AcDbLine
 10
243.000071
 20
121.110222
 30
0.0
 11
243.000071
 21
119.110222
 31
0.0
  0
LINE
  5
284
100
AcDbEntity
  8
LY_3
390
0
  6
CONTINUOUS
 62
   110
100
AcDbLine
 10
244.000071
 20
121.110222
 30
0.0
 11
244.000071
 21
119.110222
 31
0.0
  0
LINE
  5
285
100
AcDbEntity
  8
LY_3
390
0
  6
CONTINUOUS
 62
   110
100
AcDbLine
 10
245.000071
 20
121.110222
 30
0.0
 11
245.000071
 21
119.110222
 31
0.0
  0
LINE
  5
286
100
AcDbEntity
  8
LY_3
390
0
  6
CONTINUOUS
 62
   110
100
AcDbLine
 10
246.000071
 20
121.110222
 30
0.0
 11
246.000071
 21
118.219711
 31
0.0
  0
LINE
  5
287
100
AcDbEntity
  8
LY_3
390
0
  6
CONTINUOUS
 62
   110
100
AcDbLine
 10
247.000071
 20
121.110222
 30
0.0
 11
247.000071
 21
119.110222
 31
0.0
  0
LINE
  5
288
100
AcDbEntity
  8
LY_3
390
0
  6
CONTINUOUS
 62
   110
100
AcDbLine
 10
248.000071
 20
121.110222
 30
0.0
 11
248.000071
 21
119.110222
 31
0.0
  0
LINE
  5
289
100
AcDbEntity
  8
LY_3
390
0
  6
CONTINUOUS
 62
   110
100
AcDbLine
 10
249.000071
 20
121.110222
 30
0.0
 11
249.000071
 21
119.110222
 31
0.0
  0
LINE
  5
28A
100
AcDbEntity
  8
LY_3
390
0
  6
CONTINUOUS
 62
   110
100
AcDbLine
 10
250.000071
 20
121.110222
 30
0.0
 11
250.000071
 21
119.110222
 31
0.0
  0
LINE
  5
28B
100
AcDbEntity
  8
LY_3
390
0
  6
CONTINUOUS
 62
   110
100
AcDbLine
 10
251.000071
 20
121.110222
 30
0.0
 11
251.000071
 21
117.108368
 31
0.0
  0
LINE
  5
28C
100
AcDbEntity
  8
LY_3
390
0
  6
CONTINUOUS
 62
   110
100
AcDbLine
 10
252.000071
 20
121.110222
 30
0.0
 11
252.000071
 21
119.110222
 31
0.0
  0
LINE
  5
28D
100
AcDbEntity
  8
LY_3
390
0
  6
CONTINUOUS
 62
   110
100
AcDbLine
 10
253.000071
 20
121.110222
 30
0.0
 11
253.000071
 21
119.110222
 31
0.0
  0
LINE
  5
28E
100
AcDbEntity
  8
LY_3
390
0
  6
CONTINUOUS
 62
   110
100
AcDbLine
 10
254.000071
 20
121.110222
 30
0.0
 11
254.000071
 21
119.110222
 31
0.0
  0
LINE
  5
28F
100
AcDbEntity
  8
LY_3
390
0
  6
CONTINUOUS
 62
   110
100
AcDbLine
 10
255.000071
 20
121.110222
 30
0.0
 11
255.000071
 21
119.110222
 31
0.0
  0
LINE
  5
290
100
AcDbEntity
  8
LY_3
390
0
  6
CONTINUOUS
 62
   110
100
AcDbLine
 10
256.000071
 20
121.110222
 30
0.0
 11
256.000071
 21
118.145615
 31
0.0
  0
LINE
  5
291
100
AcDbEntity
  8
LY_3
390
0
  6
CONTINUOUS
 62
   110
100
AcDbLine
 10
257.000071
 20
121.110222
 30
0.0
 11
257.000071
 21
119.110222
 31
0.0
  0
LINE
  5
292
100
AcDbEntity
  8
LY_3
390
0
  6
CONTINUOUS
 62
   110
100
AcDbLine
 10
258.000071
 20
121.110222
 30
0.0
 11
258.000071
 21
119.110222
 31
0.0
  0
LINE
  5
293
100
AcDbEntity
  8
LY_3
390
0
  6
CONTINUOUS
 62
   110
100
AcDbLine
 10
259.000071
 20
121.110222
 30
0.0
 11
259.000071
 21
119.110222
 31
0.0
  0
LINE
  5
294
100
AcDbEntity
  8
LY_3
390
0
  6
CONTINUOUS
 62
   110
100
AcDbLine
 10
260.000071
 20
121.110222
 30
0.0
 11
260.000071
 21
119.110222
 31
0.0
  0
LINE
  5
295
100
AcDbEntity
  8
LY_3
390
0
  6
CONTINUOUS
 62
   110
100
AcDbLine
 10
261.000071
 20
121.110222
 30
0.0
 11
261.000071
 21
117.110222
 31
0.0
  0
LINE
  5
296
100
AcDbEntity
  8
LY_3
390
0
  6
CONTINUOUS
 62
   110
100
AcDbLine
 10
262.000071
 20
121.110222
 30
0.0
 11
262.000071
 21
119.110222
 31
0.0
  0
LINE
  5
297
100
AcDbEntity
  8
LY_3
390
0
  6
CONTINUOUS
 62
   110
100
AcDbLine
 10
263.000071
 20
121.110222
 30
0.0
 11
263.000071
 21
119.110222
 31
0.0
  0
LINE
  5
298
100
AcDbEntity
  8
LY_3
390
0
  6
CONTINUOUS
 62
   110
100
AcDbLine
 10
264.000071
 20
121.110222
 30
0.0
 11
264.000071
 21
119.110222
 31
0.0
  0
LINE
  5
299
100
AcDbEntity
  8
LY_3
390
0
  6
CONTINUOUS
 62
   110
100
AcDbLine
 10
265.000071
 20
121.110222
 30
0.0
 11
265.000071
 21
119.110222
 31
0.0
  0
LINE
  5
29A
100
AcDbEntity
  8
LY_3
390
0
  6
CONTINUOUS
 62
   110
100
AcDbLine
 10
266.000071
 20
121.110222
 30
0.0
 11
266.000071
 21
118.110222
 31
0.0
  0
LINE
  5
29B
100
AcDbEntity
  8
LY_3
390
0
  6
CONTINUOUS
 62
   110
100
AcDbLine
 10
267.000071
 20
121.110222
 30
0.0
 11
267.000071
 21
119.110222
 31
0.0
  0
LINE
  5
29C
100
AcDbEntity
  8
LY_3
390
0
  6
CONTINUOUS
 62
   110
100
AcDbLine
 10
268.000071
 20
121.110222
 30
0.0
 11
268.000071
 21
119.110222
 31
0.0
  0
LINE
  5
29D
100
AcDbEntity
  8
LY_3
390
0
  6
CONTINUOUS
 62
   110
100
AcDbLine
 10
269.000071
 20
121.110222
 30
0.0
 11
269.000071
 21
119.110222
 31
0.0
  0
LINE
  5
29E
100
AcDbEntity
  8
LY_3
390
0
  6
CONTINUOUS
 62
   110
100
AcDbLine
 10
270.000055
 20
121.110222
 30
0.0
 11
270.000055
 21
119.110222
 31
0.0
  0
LINE
  5
29F
100
AcDbEntity
  8
LY_3
390
0
  6
CONTINUOUS
 62
   110
100
AcDbLine
 10
272.000055
 20
121.110222
 30
0.0
 11
272.000055
 21
119.110222
 31
0.0
  0
LINE
  5
2A0
100
AcDbEntity
  8
LY_3
390
0
  6
CONTINUOUS
 62
   110
100
AcDbLine
 10
273.000055
 20
121.110222
 30
0.0
 11
273.000055
 21
119.110222
 31
0.0
  0
LINE
  5
2A1
100
AcDbEntity
  8
LY_3
390
0
  6
CONTINUOUS
 62
   110
100
AcDbLine
 10
274.000055
 20
121.110222
 30
0.0
 11
274.000055
 21
119.110222
 31
0.0
  0
LINE
  5
2A2
100
AcDbEntity
  8
LY_3
390
0
  6
CONTINUOUS
 62
   110
100
AcDbLine
 10
275.000055
 20
121.110222
 30
0.0
 11
275.000055
 21
119.110222
 31
0.0
  0
LINE
  5
2A3
100
AcDbEntity
  8
LY_3
390
0
  6
CONTINUOUS
 62
   110
100
AcDbLine
 10
276.000055
 20
121.110222
 30
0.0
 11
276.000055
 21
118.110222
 31
0.0
  0
LINE
  5
2A4
100
AcDbEntity
  8
LY_3
390
0
  6
CONTINUOUS
 62
   110
100
AcDbLine
 10
277.000055
 20
121.110222
 30
0.0
 11
277.000055
 21
119.110222
 31
0.0
  0
LINE
  5
2A5
100
AcDbEntity
  8
LY_3
390
0
  6
CONTINUOUS
 62
   110
100
AcDbLine
 10
278.000055
 20
121.110222
 30
0.0
 11
278.000055
 21
119.110222
 31
0.0
  0
LINE
  5
2A6
100
AcDbEntity
  8
LY_3
390
0
  6
CONTINUOUS
 62
   110
100
AcDbLine
 10
279.000055
 20
121.110222
 30
0.0
 11
279.000055
 21
119.110222
 31
0.0
  0
LINE
  5
2A7
100
AcDbEntity
  8
LY_3
390
0
  6
CONTINUOUS
 62
   110
100
AcDbLine
 10
280.000055
 20
121.110222
 30
0.0
 11
280.000055
 21
119.110222
 31
0.0
  0
LINE
  5
2A8
100
AcDbEntity
  8
LY_3
390
0
  6
CONTINUOUS
 62
   110
100
AcDbLine
 10
271.000055
 20
121.110222
 30
0.0
 11
271.000055
 21
117.110222
 31
0.0
  0
LINE
  5
2A9
100
AcDbEntity
  8
LY_3
390
0
  6
CONTINUOUS
 62
   110
100
AcDbLine
 10
281.000055
 20
121.110222
 30
0.0
 11
281.000055
 21
117.110222
 31
0.0
  0
LINE
  5
2AA
100
AcDbEntity
  8
LY_3
390
0
  6
CONTINUOUS
 62
     3
100
AcDbLine
 10
132.000036
 20
106.110222
 30
0.0
 11
300.000055
 21
106.110222
 31
0.0
  0
LINE
  5
2AB
100
AcDbEntity
  8
LY_3
390
0
  6
CONTINUOUS
 62
     3
100
AcDbLine
 10
132.000036
 20
144.110214
 30
0.0
 11
300.000055
 21
144.110214
 31
0.0
  0
LINE
  5
2AC
100
AcDbEntity
  8
LY_3
390
0
  6
CONTINUOUS
 62
     3
100
AcDbLine
 10
81.00004
 20
131.110214
 30
0.0
 11
81.00004
 21
119.110222
 31
0.0
  0
LINE
  5
2AD
100
AcDbEntity
  8
LY_3
390
0
  6
CONTINUOUS
 62
     3
100
AcDbLine
 10
81.00004
 20
119.110229
 30
0.0
 11
110.00004
 21
119.110229
 31
0.0
  0
LINE
  5
2AE
100
AcDbEntity
  8
LY_3
390
0
  6
CONTINUOUS
 62
     3
100
AcDbLine
 10
80.000058
 20
120.11023
 30
0.0
 11
81.000058
 21
119.110228
 31
0.0
  0
LINE
  5
2AF
100
AcDbEntity
  8
LY_3
390
0
  6
CONTINUOUS
 62
     3
100
AcDbLine
 10
61.00004
 20
121.110229
 30
0.0
 11
80.00004
 21
121.110229
 31
0.0
  0
LINE
  5
2B0
100
AcDbEntity
  8
LY_3
390
0
  6
CONTINUOUS
 62
     3
100
AcDbLine
 10
80.000119
 20
130.110165
 30
0.0
 11
81.00012
 21
131.110166
 31
0.0
  0
LINE
  5
2B1
100
AcDbEntity
  8
LY_3
390
0
  6
CONTINUOUS
 62
     3
100
AcDbLine
 10
61.00004
 20
129.110229
 30
0.0
 11
80.00004
 21
129.110229
 31
0.0
  0
LINE
  5
2B2
100
AcDbEntity
  8
LY_3
390
0
  6
CONTINUOUS
 62
     3
100
AcDbLine
 10
80.00004
 20
120.110222
 30
0.0
 11
80.00004
 21
130.110214
 31
0.0
  0
LINE
  5
2B3
100
AcDbEntity
  8
LY_3
390
0
  6
CONTINUOUS
 62
     3
100
AcDbLine
 10
81.00004
 20
131.110229
 30
0.0
 11
110.00004
 21
131.110229
 31
0.0
  0
LINE
  5
2B4
100
AcDbEntity
  8
LY_3
390
0
  6
CONTINUOUS
 62
     3
100
AcDbLine
 10
60.00004
 20
122.110229
 30
0.0
 11
60.00004
 21
128.110229
 31
0.0
  0
LINE
  5
2B5
100
AcDbEntity
  8
LY_3
390
0
  6
CENTER
 62
   110
100
AcDbLine
 10
55.666704
 20
125.110229
 30
0.0
 11
138.481499
 21
125.110229
 31
0.0
  0
LINE
  5
2B6
100
AcDbEntity
  8
LY_3
390
0
  6
CONTINUOUS
 62
     3
100
AcDbLine
 10
338.000055
 20
12.0
 30
0.0
 11
361.700055
 21
12.0
 31
0.0
  0
LINE
  5
2B7
100
AcDbEntity
  8
LY_3
390
0
  6
CONTINUOUS
 62
     3
100
AcDbLine
 10
362.000055
 20
12.3
 30
0.0
 11
362.000055
 21
21.7
 31
0.0
  0
LINE
  5
2B8
100
AcDbEntity
  8
LY_3
390
0
  6
CONTINUOUS
 62
     3
100
AcDbLine
 10
338.000055
 20
22.0
 30
0.0
 11
361.700055
 21
22.0
 31
0.0
  0
LINE
  5
2B9
100
AcDbEntity
  8
LY_3
390
0
  6
CENTER
 62
   110
100
AcDbLine
 10
335.054418
 20
17.0
 30
0.0
 11
365.04693
 21
17.0
 31
0.0
  0
LINE
  5
2BA
100
AcDbEntity
  8
LY_3
390
0
  6
CONTINUOUS
 62
     3
100
AcDbLine
 10
338.500055
 20
-5.75
 30
0.0
 11
338.500055
 21
5.75
 31
0.0
  0
LINE
  5
2BB
100
AcDbEntity
  8
LY_3
390
0
  6
CONTINUOUS
 62
     3
100
AcDbLine
 10
338.000055
 20
-23.0
 30
0.0
 11
338.000055
 21
23.0
 31
0.0
  0
LINE
  5
2BC
100
AcDbEntity
  8
LY_3
390
0
  6
CONTINUOUS
 62
     3
100
AcDbLine
 10
124.300035
 20
-11.0
 30
0.0
 11
124.300035
 21
-6.004379
 31
0.0
  0
LINE
  5
2BD
100
AcDbEntity
  8
LY_3
390
0
  6
CONTINUOUS
 62
   110
100
AcDbLine
 10
118.620096
 20
-6.266735
 30
0.0
 11
124.300037
 21
-11.00002
 31
0.0
  0
LINE
  5
2BE
100
AcDbEntity
  8
LY_3
390
0
  6
CONTINUOUS
 62
   110
100
AcDbLine
 10
118.300014
 20
-11.00003
 30
0.0
 11
123.979977
 21
-6.266729
 31
0.0
  0
LINE
  5
2BF
100
AcDbEntity
  8
LY_3
390
0
  6
CONTINUOUS
 62
     3
100
AcDbLine
 10
118.300039
 20
-11.0
 30
0.0
 11
124.300035
 21
-11.0
 31
0.0
  0
LINE
  5
2C0
100
AcDbEntity
  8
LY_3
390
0
  6
CONTINUOUS
 62
     3
100
AcDbLine
 10
118.450037
 20
-11.584858
 30
0.0
 11
118.450037
 21
-11.0
 31
0.0
  0
LINE
  5
2C1
100
AcDbEntity
  8
LY_3
390
0
  6
CONTINUOUS
 62
     3
100
AcDbLine
 10
117.300035
 20
-11.584854
 30
0.0
 11
118.450037
 21
-11.584854
 31
0.0
  0
LINE
  5
2C2
100
AcDbEntity
  8
LY_3
390
0
  6
CONTINUOUS
 62
     3
100
AcDbLine
 10
118.300035
 20
-11.584858
 30
0.0
 11
118.300035
 21
-6.0
 31
0.0
  0
LINE
  5
2C3
100
AcDbEntity
  8
LY_3
390
0
  6
CONTINUOUS
 62
     3
100
AcDbLine
 10
117.300035
 20
-11.584854
 30
0.0
 11
117.300035
 21
-6.0
 31
0.0
  0
LINE
  5
2C4
100
AcDbEntity
  8
LY_3
390
0
  6
CONTINUOUS
 62
     3
100
AcDbLine
 10
118.300035
 20
11.584858
 30
0.0
 11
118.300035
 21
6.0
 31
0.0
  0
LINE
  5
2C5
100
AcDbEntity
  8
LY_3
390
0
  6
CONTINUOUS
 62
     3
100
AcDbLine
 10
110.00004
 20
-6.0
 30
0.0
 11
110.00004
 21
-33.849991
 31
0.0
  0
LINE
  5
2C6
100
AcDbEntity
  8
LY_3
390
0
  6
CONTINUOUS
 62
     3
100
AcDbLine
 10
110.00004
 20
33.849991
 30
0.0
 11
110.00004
 21
6.0
 31
0.0
  0
LINE
  5
2C7
100
AcDbEntity
  8
LY_3
390
0
  6
CONTINUOUS
 62
     3
100
AcDbLine
 10
117.300035
 20
11.584854
 30
0.0
 11
117.300035
 21
6.0
 31
0.0
  0
LINE
  5
2C8
100
AcDbEntity
  8
LY_3
390
0
  6
CONTINUOUS
 62
     3
100
AcDbLine
 10
117.300035
 20
11.584854
 30
0.0
 11
118.450037
 21
11.584854
 31
0.0
  0
LINE
  5
2C9
100
AcDbEntity
  8
LY_3
390
0
  6
CONTINUOUS
 62
     3
100
AcDbLine
 10
118.450037
 20
11.584858
 30
0.0
 11
118.450037
 21
11.0
 31
0.0
  0
LINE
  5
2CA
100
AcDbEntity
  8
LY_3
390
0
  6
CONTINUOUS
 62
     3
100
AcDbLine
 10
60.00004
 20
3.0
 30
0.0
 11
80.00004
 21
3.0
 31
0.0
  0
LINE
  5
2CB
100
AcDbEntity
  8
LY_3
390
0
  6
CONTINUOUS
 62
     3
100
AcDbLine
 10
81.000025
 20
6.0
 30
0.0
 11
81.000025
 21
-6.0
 31
0.0
  0
LINE
  5
2CC
100
AcDbEntity
  8
LY_3
390
0
  6
CONTINUOUS
 62
     3
100
AcDbLine
 10
61.00004
 20
3.0
 30
0.0
 11
61.00004
 21
-4.0
 31
0.0
  0
LINE
  5
2CD
100
AcDbEntity
  8
LY_3
390
0
  6
CONTINUOUS
 62
     3
100
AcDbLine
 10
60.000063
 20
-2.999957
 30
0.0
 11
61.000064
 21
-3.999958
 31
0.0
  0
LINE
  5
2CE
100
AcDbEntity
  8
LY_3
390
0
  6
CONTINUOUS
 62
     3
100
AcDbLine
 10
81.000025
 20
-6.0
 30
0.0
 11
150.20947
 21
-6.0
 31
0.0
  0
LINE
  5
2CF
100
AcDbEntity
  8
LY_3
390
0
  6
CONTINUOUS
 62
     3
100
AcDbLine
 10
80.000145
 20
-4.99987
 30
0.0
 11
81.000146
 21
-5.999872
 31
0.0
  0
LINE
  5
2D0
100
AcDbEntity
  8
LY_3
390
0
  6
CONTINUOUS
 62
     3
100
AcDbLine
 10
61.00004
 20
-4.0
 30
0.0
 11
80.00004
 21
-4.0
 31
0.0
  0
LINE
  5
2D1
100
AcDbEntity
  8
LY_3
390
0
  6
CONTINUOUS
 62
     3
100
AcDbLine
 10
80.000068
 20
5.000003
 30
0.0
 11
81.000069
 21
6.000004
 31
0.0
  0
LINE
  5
2D2
100
AcDbEntity
  8
LY_3
390
0
  6
CONTINUOUS
 62
     3
100
AcDbLine
 10
80.00004
 20
5.0
 30
0.0
 11
80.00004
 21
-4.999763
 31
0.0
  0
LINE
  5
2D3
100
AcDbEntity
  8
LY_3
390
0
  6
CONTINUOUS
 62
     3
100
AcDbLine
 10
81.000025
 20
6.0
 30
0.0
 11
155.466691
 21
6.0
 31
0.0
  0
LINE
  5
2D4
100
AcDbEntity
  8
LY_3
390
0
  6
CONTINUOUS
 62
     3
100
AcDbLine
 10
60.00004
 20
-3.0
 30
0.0
 11
60.00004
 21
3.0
 31
0.0
  0
LINE
  5
2D5
100
AcDbEntity
  8
LY_3
390
0
  6
CONTINUOUS
 62
   110
100
AcDbLine
 10
118.620095
 20
6.266734
 30
0.0
 11
124.300037
 21
11.000019
 31
0.0
  0
LINE
  5
2D6
100
AcDbEntity
  8
LY_3
390
0
  6
CONTINUOUS
 62
   110
100
AcDbLine
 10
118.30001
 20
11.000041
 30
0.0
 11
123.979973
 21
6.266739
 31
0.0
  0
LINE
  5
2D7
100
AcDbEntity
  8
LY_3
390
0
  6
CONTINUOUS
 62
     3
100
AcDbLine
 10
124.300035
 20
11.0
 30
0.0
 11
124.300035
 21
6.004379
 31
0.0
  0
LINE
  5
2D8
100
AcDbEntity
  8
LY_3
390
0
  6
CONTINUOUS
 62
     3
100
AcDbLine
 10
118.300035
 20
11.0
 30
0.0
 11
124.300035
 21
11.0
 31
0.0
  0
LINE
  5
2D9
100
AcDbEntity
  8
LY_3
390
0
  6
CONTINUOUS
 62
     3
100
AcDbLine
 10
115.300035
 20
-12.699997
 30
0.0
 11
122.500036
 21
-12.699997
 31
0.0
  0
LINE
  5
2DA
100
AcDbEntity
  8
LY_3
390
0
  6
CONTINUOUS
 62
     3
100
AcDbLine
 10
115.300035
 20
-11.0
 30
0.0
 11
117.300035
 21
-11.0
 31
0.0
  0
LINE
  5
2DB
100
AcDbEntity
  8
LY_3
390
0
  6
CONTINUOUS
 62
     3
100
AcDbLine
 10
115.300035
 20
11.0
 30
0.0
 11
117.300035
 21
11.0
 31
0.0
  0
LINE
  5
2DC
100
AcDbEntity
  8
LY_3
390
0
  6
CONTINUOUS
 62
     3
100
AcDbLine
 10
115.300035
 20
12.699997
 30
0.0
 11
122.500036
 21
12.699997
 31
0.0
  0
LINE
  5
2DD
100
AcDbEntity
  8
LY_3
390
0
  6
CONTINUOUS
 62
     3
100
AcDbLine
 10
110.600031
 20
-6.0
 30
0.0
 11
110.600031
 21
-20.949997
 31
0.0
  0
LINE
  5
2DE
100
AcDbEntity
  8
LY_3
390
0
  6
CONTINUOUS
 62
     3
100
AcDbLine
 10
111.200037
 20
-6.0
 30
0.0
 11
111.200037
 21
-12.850006
 31
0.0
  0
LINE
  5
2DF
100
AcDbEntity
  8
LY_3
390
0
  6
CONTINUOUS
 62
     3
100
AcDbLine
 10
122.700037
 20
-12.699997
 30
0.0
 11
122.700037
 21
-33.849991
 31
0.0
  0
LINE
  5
2E0
100
AcDbEntity
  8
LY_3
390
0
  6
CONTINUOUS
 62
     3
100
AcDbLine
 10
110.600037
 20
20.949999
 30
0.0
 11
111.20004
 21
20.897506
 31
0.0
  0
LINE
  5
2E1
100
AcDbEntity
  8
LY_3
390
0
  6
CONTINUOUS
 62
     3
100
AcDbLine
 10
110.600038
 20
20.949991
 30
0.0
 11
111.642629
 21
23.814487
 31
0.0
  0
LINE
  5
2E2
100
AcDbEntity
  8
LY_3
390
0
  6
CONTINUOUS
 62
     3
100
AcDbLine
 10
110.600021
 20
-20.950013
 30
0.0
 11
111.642609
 21
-23.814497
 31
0.0
  0
LINE
  5
2E3
100
AcDbEntity
  8
LY_3
390
0
  6
CONTINUOUS
 62
     3
100
AcDbLine
 10
110.600044
 20
-20.95002
 30
0.0
 11
111.200047
 21
-20.897526
 31
0.0
  0
LINE
  5
2E4
100
AcDbEntity
  8
LY_3
390
0
  6
CONTINUOUS
 62
     3
100
AcDbLine
 10
122.700037
 20
33.849991
 30
0.0
 11
122.700037
 21
12.699997
 31
0.0
  0
LINE
  5
2E5
100
AcDbEntity
  8
LY_3
390
0
  6
CONTINUOUS
 62
     3
100
AcDbLine
 10
113.300035
 20
-6.0
 30
0.0
 11
113.300035
 21
-12.850006
 31
0.0
  0
LINE
  5
2E6
100
AcDbEntity
  8
LY_3
390
0
  6
CONTINUOUS
 62
     3
100
AcDbLine
 10
111.200037
 20
-12.850006
 30
0.0
 11
111.200037
 21
-20.897507
 31
0.0
  0
LINE
  5
2E7
100
AcDbEntity
  8
LY_3
390
0
  6
CONTINUOUS
 62
     3
100
AcDbLine
 10
111.200037
 20
12.849991
 30
0.0
 11
111.200037
 21
6.0
 31
0.0
  0
LINE
  5
2E8
100
AcDbEntity
  8
LY_3
390
0
  6
CENTER
 62
   110
100
AcDbLine
 10
104.350031
 20
-29.350006
 30
0.0
 11
128.350035
 21
-29.350006
 31
0.0
  0
LINE
  5
2E9
100
AcDbEntity
  8
LY_3
390
0
  6
CENTER
 62
   110
100
AcDbLine
 10
104.350031
 20
29.350006
 30
0.0
 11
125.343817
 21
29.350006
 31
0.0
  0
LINE
  5
2EA
100
AcDbEntity
  8
LY_3
390
0
  6
CONTINUOUS
 62
     3
100
AcDbLine
 10
115.300035
 20
-12.850006
 30
0.0
 11
122.700037
 21
-12.850006
 31
0.0
  0
LINE
  5
2EB
100
AcDbEntity
  8
LY_3
390
0
  6
CONTINUOUS
 62
     3
100
AcDbLine
 10
115.300035
 20
12.850006
 30
0.0
 11
122.700037
 21
12.850006
 31
0.0
  0
LINE
  5
2EC
100
AcDbEntity
  8
LY_3
390
0
  6
CONTINUOUS
 62
     3
100
AcDbLine
 10
113.300035
 20
12.849991
 30
0.0
 11
113.300035
 21
6.0
 31
0.0
  0
LINE
  5
2ED
100
AcDbEntity
  8
LY_3
390
0
  6
CONTINUOUS
 62
     3
100
AcDbLine
 10
113.300035
 20
-12.0
 30
0.0
 11
115.300035
 21
-12.0
 31
0.0
  0
LINE
  5
2EE
100
AcDbEntity
  8
LY_3
390
0
  6
CONTINUOUS
 62
     3
100
AcDbLine
 10
113.300035
 20
12.0
 30
0.0
 11
115.300035
 21
12.0
 31
0.0
  0
LINE
  5
2EF
100
AcDbEntity
  8
LY_3
390
0
  6
CONTINUOUS
 62
     3
100
AcDbLine
 10
111.200037
 20
-12.850006
 30
0.0
 11
113.300035
 21
-12.850006
 31
0.0
  0
LINE
  5
2F0
100
AcDbEntity
  8
LY_3
390
0
  6
CONTINUOUS
 62
     3
100
AcDbLine
 10
111.200037
 20
12.850006
 30
0.0
 11
113.300035
 21
12.850006
 31
0.0
  0
LINE
  5
2F1
100
AcDbEntity
  8
LY_3
390
0
  6
CONTINUOUS
 62
     3
100
AcDbLine
 10
122.700033
 20
-33.849976
 30
0.0
 11
121.900027
 21
-34.64998
 31
0.0
  0
LINE
  5
2F2
100
AcDbEntity
  8
LY_3
390
0
  6
CONTINUOUS
 62
     3
100
AcDbLine
 10
109.99989
 20
-33.850129
 30
0.0
 11
110.79989
 21
-34.650129
 31
0.0
  0
LINE
  5
2F3
100
AcDbEntity
  8
LY_3
390
0
  6
CONTINUOUS
 62
     3
100
AcDbLine
 10
110.8
 20
34.650015
 30
0.0
 11
110.0
 21
33.850016
 31
0.0
  0
LINE
  5
2F4
100
AcDbEntity
  8
LY_3
390
0
  6
CONTINUOUS
 62
     3
100
AcDbLine
 10
122.700036
 20
33.850002
 30
0.0
 11
121.900035
 21
34.65
 31
0.0
  0
LINE
  5
2F5
100
AcDbEntity
  8
LY_3
390
0
  6
CONTINUOUS
 62
     3
100
AcDbLine
 10
110.00004
 20
32.75
 30
0.0
 11
122.700037
 21
32.75
 31
0.0
  0
LINE
  5
2F6
100
AcDbEntity
  8
LY_3
390
0
  6
CONTINUOUS
 62
     3
100
AcDbLine
 10
110.00004
 20
25.949997
 30
0.0
 11
122.700037
 21
25.949997
 31
0.0
  0
LINE
  5
2F7
100
AcDbEntity
  8
LY_3
390
0
  6
CONTINUOUS
 62
     3
100
AcDbLine
 10
111.200037
 20
20.897507
 30
0.0
 11
111.200037
 21
12.849991
 31
0.0
  0
LINE
  5
2F8
100
AcDbEntity
  8
LY_3
390
0
  6
CONTINUOUS
 62
     3
100
AcDbLine
 10
110.600031
 20
20.949997
 30
0.0
 11
110.600031
 21
6.0
 31
0.0
  0
LINE
  5
2F9
100
AcDbEntity
  8
LY_3
390
0
  6
CONTINUOUS
 62
     3
100
AcDbLine
 10
110.00004
 20
-24.149994
 30
0.0
 11
111.407709
 21
-24.149994
 31
0.0
  0
LINE
  5
2FA
100
AcDbEntity
  8
LY_3
390
0
  6
CONTINUOUS
 62
     3
100
AcDbLine
 10
110.00004
 20
24.149994
 30
0.0
 11
111.407709
 21
24.149994
 31
0.0
  0
LINE
  5
2FB
100
AcDbEntity
  8
LY_3
390
0
  6
CONTINUOUS
 62
     3
100
AcDbLine
 10
110.800035
 20
34.649994
 30
0.0
 11
121.900034
 21
34.649994
 31
0.0
  0
LINE
  5
2FC
100
AcDbEntity
  8
LY_3
390
0
  6
CONTINUOUS
 62
     3
100
AcDbLine
 10
110.800035
 20
-34.650009
 30
0.0
 11
121.900034
 21
-34.650009
 31
0.0
  0
LINE
  5
2FD
100
AcDbEntity
  8
LY_3
390
0
  6
PHANTOM
 62
   110
100
AcDbLine
 10
151.722695
 20
-14.5
 30
0.0
 11
134.000036
 21
-14.5
 31
0.0
  0
LINE
  5
2FE
100
AcDbEntity
  8
LY_3
390
0
  6
CONTINUOUS
 62
     3
100
AcDbLine
 10
295.966471
 20
19.0
 30
0.0
 11
300.000055
 21
19.0
 31
0.0
  0
LINE
  5
2FF
100
AcDbEntity
  8
LY_3
390
0
  6
PHANTOM
 62
   110
100
AcDbLine
 10
134.000036
 20
-8.5
 30
0.0
 11
150.256346
 21
-8.5
 31
0.0
  0
LINE
  5
300
100
AcDbEntity
  8
LY_3
390
0
  6
PHANTOM
 62
   110
100
AcDbLine
 10
134.000036
 20
8.5
 30
0.0
 11
156.229319
 21
8.5
 31
0.0
  0
LINE
  5
301
100
AcDbEntity
  8
LY_3
390
0
  6
PHANTOM
 62
   110
100
AcDbLine
 10
155.952059
 20
14.5
 30
0.0
 11
134.000036
 21
14.5
 31
0.0
  0
LINE
  5
302
100
AcDbEntity
  8
LY_3
390
0
  6
CONTINUOUS
 62
     3
100
AcDbLine
 10
-0.75
 20
24.138351
 30
0.0
 11
-0.75
 21
34.641884
 31
0.0
  0
LINE
  5
303
100
AcDbEntity
  8
LY_3
390
0
  6
CONTINUOUS
 62
     3
100
AcDbLine
 10
0.75
 20
24.138351
 30
0.0
 11
0.75
 21
34.641884
 31
0.0
  0
LINE
  5
304
100
AcDbEntity
  8
LY_3
390
0
  6
CONTINUOUS
 62
     3
100
AcDbLine
 10
0.75
 20
-34.641884
 30
0.0
 11
0.75
 21
-24.138359
 31
0.0
  0
LINE
  5
305
100
AcDbEntity
  8
LY_3
390
0
  6
CONTINUOUS
 62
     3
100
AcDbLine
 10
-0.75
 20
-34.641884
 30
0.0
 11
-0.75
 21
-24.138359
 31
0.0
  0
LINE
  5
306
100
AcDbEntity
  8
LY_3
390
0
  6
CONTINUOUS
 62
     3
100
AcDbLine
 10
-2.645752
 20
3.0
 30
0.0
 11
2.645752
 21
3.0
 31
0.0
  0
LINE
  5
307
100
AcDbEntity
  8
LY_3
390
0
  6
CONTINUOUS
 62
     3
100
AcDbLine
 10
1.0
 20
-9.797958
 30
0.0
 11
1.0
 21
-8.485283
 31
0.0
  0
LINE
  5
308
100
AcDbEntity
  8
LY_3
390
0
  6
CONTINUOUS
 62
     3
100
AcDbLine
 10
-1.0
 20
-9.797958
 30
0.0
 11
-1.0
 21
-8.485283
 31
0.0
  0
LINE
  5
309
100
AcDbEntity
  8
LY_3
390
0
  6
CENTER
 62
   110
100
AcDbLine
 10
-17.175089
 20
29.747967
 30
0.0
 11
-12.17508
 21
21.0877
 31
0.0
  0
LINE
  5
30A
100
AcDbEntity
  8
LY_3
390
0
  6
CENTER
 62
   110
100
AcDbLine
 10
12.174942
 20
-21.08777
 30
0.0
 11
17.174943
 21
-29.748024
 31
0.0
  0
LINE
  5
30B
100
AcDbEntity
  8
LY_3
390
0
  6
CENTER
 62
   110
100
AcDbLine
 10
-17.175081
 20
-29.747947
 30
0.0
 11
-12.17508
 21
-21.087693
 31
0.0
  0
LINE
  5
30C
100
AcDbEntity
  8
LY_3
390
0
  6
CENTER
 62
   110
100
AcDbLine
 10
12.174913
 20
21.087728
 30
0.0
 11
17.174918
 21
29.747988
 31
0.0
  0
LINE
  5
30D
100
AcDbEntity
  8
LY_3
390
0
  6
CENTER
 62
   110
100
AcDbLine
 10
0.0
 20
-44.516289
 30
0.0
 11
0.0
 21
40.983704
 31
0.0
  0
LINE
  5
30E
100
AcDbEntity
  8
LY_3
390
0
  6
CENTER
 62
   110
100
AcDbLine
 10
-42.568176
 20
0.0
 30
0.0
 11
35.431824
 21
0.0
 31
0.0
  0
LINE
  5
30F
100
AcDbEntity
  8
LY_3
390
0
  6
CENTER
 62
   110
100
AcDbLine
 10
55.02994
 20
0.0
 30
0.0
 11
349.77714
 21
0.0
 31
0.0
  0
LINE
  5
310
100
AcDbEntity
  8
LY_3
390
0
  6
CONTINUOUS
 62
     3
100
AcDbLine
 10
132.000036
 20
19.0
 30
0.0
 11
295.966471
 21
19.0
 31
0.0
  0
LINE
  5
311
100
AcDbEntity
  8
LY_3
390
0
  6
CONTINUOUS
 62
     3
100
AcDbLine
 10
132.000036
 20
-19.0
 30
0.0
 11
300.000055
 21
-19.0
 31
0.0
  0
ENDSEC
  0
SECTION
  2
OBJECTS
  0
DICTIONARY
  5
19
100
AcDbDictionary
280
     0
281
     1
  3
ACAD_GROUP
350
1A
  3
ACAD_MLINESTYLE
350
1B
  3
ACAD_LAYOUT
350
1E
  3
ACAD_PLOTSETTINGS
350
22
  3
ACAD_PLOTSTYLENAME
350
1F
  0
DICTIONARY
  5
1A
102
{ACAD_REACTORS
330
19
102
}
100
AcDbDictionary
280
     0
281
     1
  0
DICTIONARY
  5
1B
102
{ACAD_REACTORS
330
19
102
}
100
AcDbDictionary
280
     0
281
     1
  3
Standard
350
1C
  0
MLINESTYLE
  5
1C
102
{ACAD_REACTORS
330
1B
102
}
100
AcDbMlineStyle
  2
Standard
 70
     0
  3

 62
     0
 51
90.0
 52
90.0
 71
     2
 49
0.5
 62
   256
  6
ByLayer
 49
-0.5
 62
   256
  6
ByLayer
  0
ACDBDICTIONARYWDFLT
  5
1F
102
{ACAD_REACTORS
330
19
102
}
100
AcDbDictionary
281
     1
  3
Normal
350
1D
100
AcDbDictionaryWithDefault
340
1D
  0
ACDBPLACEHOLDER
  5
1D
102
{ACAD_REACTORS
330
1F
102
}
  0
LAYOUT
  5
20
102
{ACAD_REACTORS
330
1E
102
}
100
AcDbPlotSettings
  1

  2

  4

  6

 40
0.0
 41
0.0
 42
0.0
 43
0.0
 44
0.0
 45
0.0
 46
0.0
 47
0.0
 48
0.0
 49
0.0
140
0.0
141
0.0
142
1.0
143
1.0
 70
  1024
 72
     0
 73
     0
 74
     0
  7

 75
     0
147
1.0
148
0.0
149
0.0
100
AcDbLayout
  1
Model
 70
     0
 71
     0
 10
0.0
 20
0.0
 11
0.0
 21
0.0
 12
0.0
 22
0.0
 32
0.0
 14
0.0
 24
0.0
 34
0.0
 15
0.0
 25
0.0
 35
0.0
146
0.0
 13
0.0
 23
0.0
 33
0.0
 16
0.0
 26
0.0
 36
0.0
 17
0.0
 27
0.0
 37
0.0
 76
     0
330
A
331
0
345
0
346
0
  0
LAYOUT
  5
21
102
{ACAD_REACTORS
330
1E
102
}
100
AcDbPlotSettings
  1

  2

  4

  6

 40
0.0
 41
0.0
 42
0.0
 43
0.0
 44
0.0
 45
0.0
 46
0.0
 47
0.0
 48
0.0
 49
0.0
140
0.0
141
0.0
142
1.0
143
1.0
 70
     0
 72
     0
 73
     0
 74
     0
  7

 75
     0
147
1.0
148
0.0
149
0.0
100
AcDbLayout
  1
Layout1
 70
     0
 71
     0
 10
0.0
 20
0.0
 11
0.0
 21
0.0
 12
0.0
 22
0.0
 32
0.0
 14
0.0
 24
0.0
 34
0.0
 15
0.0
 25
0.0
 35
0.0
146
0.0
 13
0.0
 23
0.0
 33
0.0
 16
0.0
 26
0.0
 36
0.0
 17
0.0
 27
0.0
 37
0.0
 76
     0
330
B
331
0
345
0
346
0
  0
DICTIONARY
  5
1E
102
{ACAD_REACTORS
330
19
102
}
100
AcDbDictionary
280
     0
281
     1
  3
Layout1
350
21
  3
Model
350
20
  0
DICTIONARY
  5
22
102
{ACAD_REACTORS
330
19
102
}
100
AcDbDictionary
280
     0
281
     1
  0
ENDSEC
  0
EOF
