  0
SECTION
  2
HEADER
  9
$ACADVER
  1
AC1015
  9
$ACADMAINTVER
 70
     6
  9
$DWGCODEPAGE
  3
ANSI_932
  9
$INSBASE
 10
0.0
 20
0.0
 30
0.0
  9
$EXTMIN
 10
-39.999985
 20
-50.0
 30
0.0
  9
$EXTMAX
 10
344.312851
 20
179.233333
 30
0.0
  9
$LIMMIN
 10
-39.999985
 20
-50.0
  9
$LIMMAX
 10
344.312851
 20
179.233333
  9
$ORTHOMODE
 70
     0
  9
$REGENMODE
 70
     1
  9
$FILLMODE
 70
     1
  9
$QTEXTMODE
 70
     0
  9
$MIRRTEXT
 70
     1
  9
$LTSCALE
 40
1.0
  9
$ATTMODE
 70
     1
  9
$TEXTSIZE
 40
3.2
  9
$TRACEWID
 40
0.05
  9
$TEXTSTYLE
  7
MX_NOTE_STANDARD
  9
$CLAYER
  8
0
  9
$CELTYPE
  6
CONTINUOUS
  9
$CECOLOR
 62
   256
  9
$CELTSCALE
 40
1.0
  9
$DISPSILH
 70
     0
  9
$DIMSCALE
 40
1.0
  9
$DIMASZ
 40
2.5
  9
$DIMEXO
 40
2.0
  9
$DIMDLI
 40
3.75
  9
$DIMRND
 40
0.0
  9
$DIMDLE
 40
0.0
  9
$DIMEXE
 40
1.0
  9
$DIMTP
 40
0.0
  9
$DIMTM
 40
0.0
  9
$DIMTXT
 40
4.1656
  9
$DIMCEN
 40
2.5
  9
$DIMTSZ
 40
0.0
  9
$DIMTOL
 70
     0
  9
$DIMLIM
 70
     0
  9
$DIMTIH
 70
     0
  9
$DIMTOH
 70
     0
  9
$DIMSE1
 70
     0
  9
$DIMSE2
 70
     0
  9
$DIMTAD
 70
     1
  9
$DIMZIN
 70
     8
  9
$DIMBLK
  1

  9
$DIMASO
 70
     1
  9
$DIMSHO
 70
     1
  9
$DIMPOST
  1

  9
$DIMAPOST
  1

  9
$DIMALT
 70
     0
  9
$DIMALTD
 70
     4
  9
$DIMALTF
 40
0.03937
  9
$DIMLFAC
 40
1.0
  9
$DIMTOFL
 70
     1
  9
$DIMTVP
 40
0.0
  9
$DIMTIX
 70
     0
  9
$DIMSOXD
 70
     0
  9
$DIMSAH
 70
     1
  9
$DIMBLK1
  1
_OPEN30
  9
$DIMBLK2
  1
_OPEN30
  9
$DIMSTYLE
  2
MXDIMSTYLE
  9
$DIMCLRD
 70
     0
  9
$DIMCLRE
 70
     0
  9
$DIMCLRT
 70
     0
  9
$DIMTFAC
 40
1.0
  9
$DIMGAP
 40
1.0
  9
$DIMJUST
 70
     0
  9
$DIMSD1
 70
     0
  9
$DIMSD2
 70
     0
  9
$DIMTOLJ
 70
     0
  9
$DIMTZIN
 70
     0
  9
$DIMALTZ
 70
     0
  9
$DIMALTTZ
 70
     0
  9
$DIMUPT
 70
     0
  9
$DIMDEC
 70
     2
  9
$DIMTDEC
 70
     2
  9
$DIMALTU
 70
     2
  9
$DIMALTTD
 70
     4
  9
$DIMTXSTY
  7
MX_NOTE_STANDARD
  9
$DIMAUNIT
 70
     0
  9
$DIMADEC
 70
     0
  9
$DIMALTRND
 40
0.0
  9
$DIMAZIN
 70
     0
  9
$DIMDSEP
 70
    46
  9
$DIMATFIT
 70
     3
  9
$DIMFRAC
 70
     0
  9
$DIMLDRBLK
  1
_OPEN30
  9
$DIMLUNIT
 70
     2
  9
$DIMLWD
 70
    -2
  9
$DIMLWE
 70
    -2
  9
$DIMTMOVE
 70
     0
  9
$LUNITS
 70
     2
  9
$LUPREC
 70
     4
  9
$SKETCHINC
 40
0.1
  9
$FILLETRAD
 40
0.0
  9
$AUNITS
 70
     0
  9
$AUPREC
 70
     0
  9
$MENU
  1
acad
  9
$ELEVATION
 40
0.0
  9
$PELEVATION
 40
0.0
  9
$THICKNESS
 40
0.0
  9
$LIMCHECK
 70
     0
  9
$CHAMFERA
 40
0.0
  9
$CHAMFERB
 40
0.0
  9
$CHAMFERC
 40
0.0
  9
$CHAMFERD
 40
0.0
  9
$SKPOLY
 70
     0
  9
$TDCREATE
 40
2456119.550879630
  9
$TDUCREATE
 40
0.000000000
  9
$TDUPDATE
 40
2456119.550879630
  9
$TDUUPDATE
 40
0.000000000
  9
$TDINDWG
 40
0.0000000000
  9
$TDUSRTIMER
 40
0.0000000000
  9
$USRTIMER
 70
     1
  9
$ANGBASE
 50
0.0
  9
$ANGDIR
 70
     0
  9
$PDMODE
 70
     0
  9
$PDSIZE
 40
0.0
  9
$PLINEWID
 40
0.0
  9
$SPLFRAME
 70
     0
  9
$SPLINETYPE
 70
     6
  9
$SPLINESEGS
 70
     8
  9
$HANDSEED
  5
303
  9
$SURFTAB1
 70
     6
  9
$SURFTAB2
 70
     6
  9
$SURFTYPE
 70
     6
  9
$SURFU
 70
     6
  9
$SURFV
 70
     6
  9
$UCSBASE
  2

  9
$UCSNAME
  2

  9
$UCSORG
 10
0.0
 20
0.0
 30
0.0
  9
$UCSXDIR
 10
1.0
 20
0.0
 30
0.0
  9
$UCSYDIR
 10
0.0
 20
1.0
 30
0.0
  9
$UCSORTHOREF
  2

  9
$UCSORTHOVIEW
 70
     0
  9
$UCSORGTOP
 10
0.0
 20
0.0
 30
0.0
  9
$UCSORGBOTTOM
 10
0.0
 20
0.0
 30
0.0
  9
$UCSORGLEFT
 10
0.0
 20
0.0
 30
0.0
  9
$UCSORGRIGHT
 10
0.0
 20
0.0
 30
0.0
  9
$UCSORGFRONT
 10
0.0
 20
0.0
 30
0.0
  9
$UCSORGBACK
 10
0.0
 20
0.0
 30
0.0
  9
$PUCSBASE
  2

  9
$PUCSNAME
  2

  9
$PUCSORG
 10
0.0
 20
0.0
 30
0.0
  9
$PUCSXDIR
 10
1.0
 20
0.0
 30
0.0
  9
$PUCSYDIR
 10
0.0
 20
1.0
 30
0.0
  9
$PUCSORTHOREF
  2

  9
$PUCSORTHOVIEW
 70
     0
  9
$PUCSORGTOP
 10
0.0
 20
0.0
 30
0.0
  9
$PUCSORGBOTTOM
 10
0.0
 20
0.0
 30
0.0
  9
$PUCSORGLEFT
 10
0.0
 20
0.0
 30
0.0
  9
$PUCSORGRIGHT
 10
0.0
 20
0.0
 30
0.0
  9
$PUCSORGFRONT
 10
0.0
 20
0.0
 30
0.0
  9
$PUCSORGBACK
 10
0.0
 20
0.0
 30
0.0
  9
$USERI1
 70
     0
  9
$USERI2
 70
     0
  9
$USERI3
 70
     0
  9
$USERI4
 70
     0
  9
$USERI5
 70
     0
  9
$USERR1
 40
0.0
  9
$USERR2
 40
0.0
  9
$USERR3
 40
0.0
  9
$USERR4
 40
0.0
  9
$USERR5
 40
0.0
  9
$WORLDVIEW
 70
     1
  9
$SHADEDGE
 70
     3
  9
$SHADEDIF
 70
    70
  9
$TILEMODE
 70
     1
  9
$MAXACTVP
 70
    16
  9
$PINSBASE
 10
0.0
 20
0.0
 30
0.0
  9
$PLIMCHECK
 70
     0
  9
$PEXTMIN
 10
1.000000E+20
 20
1.000000E+20
 30
1.000000E+20
  9
$PEXTMAX
 10
-1.000000E+20
 20
-1.000000E+20
 30
-1.000000E+20
  9
$PLIMMIN
 10
0.0
 20
0.0
  9
$PLIMMAX
 10
12.0
 20
9.0
  9
$UNITMODE
 70
     0
  9
$VISRETAIN
 70
     0
  9
$PLINEGEN
 70
     1
  9
$PSLTSCALE
 70
     0
  9
$TREEDEPTH
 70
  3020
  9
$CMLSTYLE
  2
Standard
  9
$CMLJUST
 70
     0
  9
$CMLSCALE
 40
1.0
  9
$PROXYGRAPHICS
 70
     0
  9
$MEASUREMENT
 70
     1
  9
$CELWEIGHT
370
     0
  9
$ENDCAPS
280
     0
  9
$JOINSTYLE
280
     0
  9
$LWDISPLAY
290
     0
  9
$INSUNITS
 70
     0
  9
$HYPERLINKBASE
  1

  9
$STYLESHEET
  1

  9
$XEDIT
290
     1
  9
$CEPSNTYPE
380
     0
  9
$PSTYLEMODE
290
     1
  9
$FINGERPRINTGUID
  2

  9
$VERSIONGUID
  2

  9
$EXTNAMES
290
     1
  9
$PSVPSCALE
 40
0.0
  0
ENDSEC
  0
SECTION
  2
CLASSES
  0
CLASS
  1
LWPOLYLINE
  2
AcDbPolyline
  3
AutoCAD 2000
 90
        0
280
     0
281
     1
  0
CLASS
  1
IMAGE
  2
AcDbRasterImage
  3
ISM
 90
      127
280
     0
281
     1
  0
CLASS
  1
OLE2FRAME
  2
AcDbOle2Frame
  3
AutoCAD 2000
 90
        0
280
     0
281
     1
  0
CLASS
  1
HATCH
  2
AcDbHatch
  3
AutoCAD 2000
 90
        0
280
     0
281
     1
  0
CLASS
  1
DICTIONARYVAR
  2
AcDbDictionaryVar
  3
AutoCAD 2000
 90
        0
280
     0
281
     0
  0
CLASS
  1
RASTERVARIABLES
  2
AcDbRasterVariables
  3
ISM
 90
        0
280
     0
281
     0
  0
CLASS
  1
IMAGEDEF
  2
AcDbRasterImageDef
  3
ISM
 90
        0
280
     0
281
     0
  0
CLASS
  1
IMAGEDEF_REACTOR
  2
AcDbRasterImageDefReactor
  3
ISM
 90
        1
280
     0
281
     0
  0
CLASS
  1
IDBUFFER
  2
AcDbIdBuffer
  3
AutoCAD 2000
 90
        0
280
     0
281
     0
  0
CLASS
  1
SPATIAL_FILTER
  2
AcDbSpatialFilter
  3
AutoCAD 2000
 90
        0
280
     0
281
     0
  0
CLASS
  1
XRECORD
  2
AcDbXrecord
  3
AutoCAD 2000
 90
        0
280
     0
281
     0
  0
CLASS
  1
SORTENTSTABLE
  2
AcDbSortentsTable
  3
AutoCAD 2000
 90
        0
280
     0
281
     0
  0
CLASS
  1
LAYER_INDEX
  2
AcDbLayerIndex
  3
AutoCAD 2000
 90
        0
280
     0
281
     0
  0
CLASS
  1
SPATIAL_INDEX
  2
AcDbSpatialIndex
  3
AutoCAD 2000
 90
        0
280
     0
281
     0
  0
CLASS
  1
OBJECT_PTR
  2
CAseDLPNTableRecord
  3
"ASE-LPNTableRecord"
 90
        1
280
     0
281
     0
  0
CLASS
  1
LAYOUT
  2
AcDbLayout
  3
AutoCAD 2000
 90
        0
280
     0
281
     0
  0
CLASS
  1
PLOTSETTINGS
  2
AcDbPlotSettings
  3
AutoCAD 2000
 90
        0
280
     0
281
     0
  0
CLASS
  1
ACDBDICTIONARYWDFLT
  2
AcDbDictionaryWithDefault
  3
AutoCAD 2000
 90
        0
280
     0
281
     0
  0
CLASS
  1
ACDBPLACEHOLDER
  2
AcDbPlaceHolder
  3
AutoCAD 2000
 90
        0
280
     0
281
     0
  0
ENDSEC
  0
SECTION
  2
TABLES
  0
TABLE
  2
VPORT
  5
7
100
AcDbSymbolTable
 70
     1
  0
VPORT
  5
15
100
AcDbSymbolTableRecord
100
AcDbViewportTableRecord
  2
*ACTIVE
 70
     0
 10
0.0
 20
0.0
 11
1.0
 21
1.0
 12
152.156433
 22
64.616667
 13
0.0
 23
0.0
 14
1.0
 24
1.0
 15
0.0
 25
0.0
 16
0.0
 26
0.0
 36
1.0
 17
0.0
 27
0.0
 37
0.0
 40
231.525666
 41
1.732051
 42
50.0
 43
0.0
 44
0.0
 50
0.0
 51
0.0
 71
     0
 72
   100
 73
     1
 74
     1
 75
     0
 76
     0
 77
     0
 78
     0
281
     0
 65
     0
110
0.0
120
0.0
130
0.0
111
1.0
121
0.0
131
0.0
112
0.0
122
1.0
132
0.0
345
0
346
0
 79
     0
146
0.0
  0
ENDTAB
  0
TABLE
  2
LTYPE
  5
4
100
AcDbSymbolTable
 70
     5
  0
LTYPE
  5
11
100
AcDbSymbolTableRecord
100
AcDbLinetypeTableRecord
  2
BYBLOCK
 70
    64
  3

 72
    65
 73
     0
 40
0.0
  0
LTYPE
  5
12
100
AcDbSymbolTableRecord
100
AcDbLinetypeTableRecord
  2
BYLAYER
 70
    64
  3

 72
    65
 73
     0
 40
0.0
  0
LTYPE
  5
13
100
AcDbSymbolTableRecord
100
AcDbLinetypeTableRecord
  2
CONTINUOUS
 70
    64
  3
Solid line
 72
    65
 73
     0
 40
0.0
  0
LTYPE
  5
C9
100
AcDbSymbolTableRecord
100
AcDbLinetypeTableRecord
  2
CENTER
 70
    64
  3
Center ____ _ ____ _ ____ _ ____ _ ____ _ ____
 72
    65
 73
     4
 40
50.8
 49
31.75
 74
     0
 49
-6.35
 74
     0
 49
6.35
 74
     0
 49
-6.35
 74
     0
  0
LTYPE
  5
14E
100
AcDbSymbolTableRecord
100
AcDbLinetypeTableRecord
  2
PHANTOM
 70
    64
  3
Phantom ______  __  __  ______  __  __  ______
 72
    65
 73
     6
 40
63.5
 49
31.75
 74
     0
 49
-6.35
 74
     0
 49
6.35
 74
     0
 49
-6.35
 74
     0
 49
6.35
 74
     0
 49
-6.35
 74
     0
  0
ENDTAB
  0
TABLE
  2
LAYER
  5
2
100
AcDbSymbolTable
 70
     3
  0
LAYER
  5
14
100
AcDbSymbolTableRecord
100
AcDbLayerTableRecord
  2
0
 70
     0
 62
     7
  6
CONTINUOUS
290
     1
370
    -3
390
1D
  0
LAYER
  5
23
100
AcDbSymbolTableRecord
100
AcDbLayerTableRecord
  2
DEFPOINTS
 70
     0
 62
     7
  6
CONTINUOUS
290
     0
370
    -3
390
1D
  0
LAYER
  5
24
100
AcDbSymbolTableRecord
100
AcDbLayerTableRecord
  2
LY_3
 70
     0
 62
     7
  6
CONTINUOUS
290
     1
370
    -3
390
1D
  0
ENDTAB
  0
TABLE
  2
STYLE
  5
3
100
AcDbSymbolTable
 70
     3
  0
STYLE
  5
17
100
AcDbSymbolTableRecord
100
AcDbTextStyleTableRecord
  2
MX_NOTE_STANDARD
 70
     0
 40
0.0
 41
1.0
 50
0.0
 71
     0
 42
3.2
  3
txt.shx
  4
extfont.shx
  0
STYLE
  5
36
100
AcDbSymbolTableRecord
100
AcDbTextStyleTableRecord
  2
MX_DIMTXSTY_2
 70
     0
 40
0.0
 41
1.05
 50
0.0
 71
     0
 42
3.2
  3
txt.shx
  4
extfont.shx
  0
STYLE
  5
44
100
AcDbSymbolTableRecord
100
AcDbTextStyleTableRecord
  2
MX_DIMTXSTY_3
 70
     0
 40
0.0
 41
0.85
 50
0.0
 71
     0
 42
3.2
  3
txt.shx
  4
extfont.shx
  0
ENDTAB
  0
TABLE
  2
VIEW
  5
5
100
AcDbSymbolTable
 70
     0
  0
ENDTAB
  0
TABLE
  2
UCS
  5
6
100
AcDbSymbolTable
 70
     0
  0
ENDTAB
  0
TABLE
  2
APPID
  5
8
100
AcDbSymbolTable
 70
     1
  0
APPID
  5
16
100
AcDbSymbolTableRecord
100
AcDbRegAppTableRecord
  2
ACAD
 70
     0
  0
ENDTAB
  0
TABLE
  2
DIMSTYLE
  5
9
100
AcDbSymbolTable
 70
     1
100
AcDbDimStyleTable
 71
     0
  0
DIMSTYLE
105
18
100
AcDbSymbolTableRecord
100
AcDbDimStyleTableRecord
  2
MXDIMSTYLE
 70
     0
  3

  4

 40
1.0
 41
2.5
 42
2.0
 43
3.75
 44
1.0
 45
0.0
 46
0.0
 47
0.0
 48
0.0
 71
     0
 72
     0
 73
     0
 74
     0
 75
     0
 76
     0
 77
     1
 78
     8
 79
     0
140
4.1656
141
2.5
142
0.0
143
0.03937
144
1.0
145
0.0
146
1.0
147
1.0
148
0.0
170
     0
171
     4
172
     1
173
     1
174
     0
175
     0
176
     0
177
     0
178
     0
179
     0
271
     2
272
     2
273
     2
274
     4
275
     0
276
     0
277
     2
278
    46
279
     0
280
     0
281
     0
282
     0
283
     0
284
     0
285
     0
286
     0
288
     0
289
     3
340
17
341
26
342
0
343
26
344
26
371
    -2
372
    -2
  0
ENDTAB
  0
TABLE
  2
BLOCK_RECORD
  5
1
100
AcDbSymbolTable
 70
     5
  0
BLOCK_RECORD
  5
A
100
AcDbSymbolTableRecord
100
AcDbBlockTableRecord
  2
*MODEL_SPACE
340
20
  0
BLOCK_RECORD
  5
B
100
AcDbSymbolTableRecord
100
AcDbBlockTableRecord
  2
*PAPER_SPACE
340
21
  0
BLOCK_RECORD
  5
25
100
AcDbSymbolTableRecord
100
AcDbBlockTableRecord
  2
*U0
340
0
102
{BLKREFS
331
BA
331
BB
331
BC
331
BD
331
BE
331
BF
331
C0
331
C1
331
C2
331
C3
102
}
  0
BLOCK_RECORD
  5
26
100
AcDbSymbolTableRecord
100
AcDbBlockTableRecord
  2
_OPEN30
340
0
102
{BLKREFS
331
34
331
35
331
42
331
43
331
50
331
51
102
}
  0
BLOCK_RECORD
  5
31
100
AcDbSymbolTableRecord
100
AcDbBlockTableRecord
  2
*D2
340
0
  0
BLOCK_RECORD
  5
3D
100
AcDbSymbolTableRecord
100
AcDbBlockTableRecord
  2
*D3
340
0
  0
BLOCK_RECORD
  5
4B
100
AcDbSymbolTableRecord
100
AcDbBlockTableRecord
  2
*D4
340
0
  0
ENDTAB
  0
ENDSEC
  0
SECTION
  2
BLOCKS
  0
BLOCK
  5
D
100
AcDbEntity
  8
0
390
0
100
AcDbBlockBegin
  2
*MODEL_SPACE
 70
     0
 10
0.0
 20
0.0
 30
0.0
  3
*MODEL_SPACE
  1

  0
ENDBLK
  5
E
100
AcDbEntity
  8
0
390
0
100
AcDbBlockEnd
  0
BLOCK
  5
F
100
AcDbEntity
 67
     1
  8
0
390
0
100
AcDbBlockBegin
  2
*PAPER_SPACE
 70
     0
 10
0.0
 20
0.0
 30
0.0
  3
*PAPER_SPACE
  1

  0
ENDBLK
  5
10
100
AcDbEntity
 67
     1
  8
0
390
0
100
AcDbBlockEnd
  0
BLOCK
  5
2C
100
AcDbEntity
  8
0
370
    -2
390
0
100
AcDbBlockBegin
  2
*U0
 70
     1
 10
0.0
 20
0.0
 30
0.0
  3
*U0
  1

  0
LINE
  5
2D
100
AcDbEntity
  8
0
390
0
  6
CONTINUOUS
 62
   110
100
AcDbLine
 10
0.0
 20
0.0
 30
0.0
 11
-1.0
 21
0.0
 31
0.0
  0
LINE
  5
2E
100
AcDbEntity
  8
0
390
0
  6
CONTINUOUS
 62
   110
100
AcDbLine
 10
0.0
 20
0.0
 30
0.0
 11
-1.0
 21
-0.267949
 31
0.0
  0
LINE
  5
2F
100
AcDbEntity
  8
0
390
0
  6
CONTINUOUS
 62
   110
100
AcDbLine
 10
-1.0
 20
0.267949
 30
0.0
 11
0.0
 21
0.0
 31
0.0
  0
ENDBLK
  5
30
100
AcDbEntity
  8
0
370
    -2
390
0
100
AcDbBlockEnd
  0
BLOCK
  5
27
100
AcDbEntity
  8
0
370
    -2
390
0
  6
ByBlock
 62
     0
100
AcDbBlockBegin
  2
_OPEN30
 70
     2
 10
0.0
 20
0.0
 30
0.0
  3
_OPEN30
  1

  0
LINE
  5
28
100
AcDbEntity
  8
0
370
    -2
390
0
  6
ByBlock
 62
     0
100
AcDbLine
 10
-1.0
 20
0.267949
 30
0.0
 11
0.0
 21
0.0
 31
0.0
  0
LINE
  5
29
100
AcDbEntity
  8
0
370
    -2
390
0
  6
ByBlock
 62
     0
100
AcDbLine
 10
0.0
 20
0.0
 30
0.0
 11
-1.0
 21
-0.267949
 31
0.0
  0
LINE
  5
2A
100
AcDbEntity
  8
0
370
    -2
390
0
  6
ByBlock
 62
     0
100
AcDbLine
 10
0.0
 20
0.0
 30
0.0
 11
-1.0
 21
0.0
 31
0.0
  0
ENDBLK
  5
2B
100
AcDbEntity
  8
0
370
    -2
390
0
  6
ByBlock
 62
     0
100
AcDbBlockEnd
  0
BLOCK
  5
32
100
AcDbEntity
  8
0
370
    -2
390
0
  6
ByBlock
 62
     0
100
AcDbBlockBegin
  2
*D2
 70
     1
 10
0.0
 20
0.0
 30
0.0
  3
*D2
  1

  0
LINE
  5
33
100
AcDbEntity
  8
0
390
0
  6
CONTINUOUS
 62
   110
100
AcDbLine
 10
130.0
 20
132.7
 30
0.0
 11
130.0
 21
107.3
 31
0.0
  0
INSERT
  5
34
100
AcDbEntity
  8
0
390
0
  6
CONTINUOUS
 62
   110
100
AcDbBlockReference
  2
_OPEN30
 10
130.0
 20
132.7
 30
0.0
 41
2.77
 42
2.77
 43
2.77
 50
90.0
  0
INSERT
  5
35
100
AcDbEntity
  8
0
390
0
  6
CONTINUOUS
 62
   110
100
AcDbBlockReference
  2
_OPEN30
 10
130.0
 20
107.3
 30
0.0
 41
2.77
 42
2.77
 43
2.77
 50
270.0
  0
MTEXT
  5
37
100
AcDbEntity
  8
0
390
0
  6
CONTINUOUS
 62
   110
100
AcDbMText
 10
126.9
 20
119.999999
 30
0.0
 40
4.2
 41
0.0
 71
     5
 72
     1
  1
\A1;\U+220525.4
  7
MX_DIMTXSTY_2
 11
0.0
 21
1.0
 31
0.0
 73
     1
 44
0.9
  0
POINT
  5
38
100
AcDbEntity
  8
DEFPOINTS
390
0
  6
CONTINUOUS
 62
     0
100
AcDbPoint
 10
122.699997
 20
132.7
 30
0.0
  0
POINT
  5
39
100
AcDbEntity
  8
DEFPOINTS
390
0
  6
CONTINUOUS
 62
     0
100
AcDbPoint
 10
122.699997
 20
107.3
 30
0.0
  0
POINT
  5
3A
100
AcDbEntity
  8
DEFPOINTS
390
0
  6
CONTINUOUS
 62
     0
100
AcDbPoint
 10
130.0
 20
107.3
 30
0.0
  0
ENDBLK
  5
3B
100
AcDbEntity
  8
0
370
    -2
390
0
  6
ByBlock
 62
     0
100
AcDbBlockEnd
  0
BLOCK
  5
3E
100
AcDbEntity
  8
0
370
    -2
390
0
  6
ByBlock
 62
     0
100
AcDbBlockBegin
  2
*D3
 70
     1
 10
0.0
 20
0.0
 30
0.0
  3
*D3
  1

  0
LINE
  5
3F
100
AcDbEntity
  8
0
390
0
  6
CONTINUOUS
 62
   110
100
AcDbLine
 10
60.0
 20
70.0
 30
0.0
 11
296.0
 21
70.0
 31
0.0
  0
LINE
  5
40
100
AcDbEntity
  8
0
390
0
  6
CONTINUOUS
 62
   110
100
AcDbLine
 10
60.0
 20
5.0
 30
0.0
 11
60.0
 21
71.0
 31
0.0
  0
LINE
  5
41
100
AcDbEntity
  8
0
390
0
  6
CONTINUOUS
 62
   110
100
AcDbLine
 10
296.0
 20
2.0
 30
0.0
 11
296.0
 21
71.0
 31
0.0
  0
INSERT
  5
42
100
AcDbEntity
  8
0
390
0
  6
CONTINUOUS
 62
   110
100
AcDbBlockReference
  2
_OPEN30
 10
60.0
 20
70.0
 30
0.0
 41
2.77
 42
2.77
 43
2.77
 50
180.0
  0
INSERT
  5
43
100
AcDbEntity
  8
0
390
0
  6
CONTINUOUS
 62
   110
100
AcDbBlockReference
  2
_OPEN30
 10
296.0
 20
70.0
 30
0.0
 41
2.77
 42
2.77
 43
2.77
  0
MTEXT
  5
45
100
AcDbEntity
  8
0
390
0
  6
CONTINUOUS
 62
   110
100
AcDbMText
 10
178.0
 20
73.1
 30
0.0
 40
4.2
 41
0.0
 71
     5
 72
     1
  1
\A1;286～236（50ストローク）
  7
MX_DIMTXSTY_3
 73
     1
 44
0.9
  0
POINT
  5
46
100
AcDbEntity
  8
DEFPOINTS
390
0
  6
CONTINUOUS
 62
     0
100
AcDbPoint
 10
60.0
 20
3.0
 30
0.0
  0
POINT
  5
47
100
AcDbEntity
  8
DEFPOINTS
390
0
  6
CONTINUOUS
 62
     0
100
AcDbPoint
 10
296.0
 20
0.0
 30
0.0
  0
POINT
  5
48
100
AcDbEntity
  8
DEFPOINTS
390
0
  6
CONTINUOUS
 62
     0
100
AcDbPoint
 10
296.0
 20
70.0
 30
0.0
  0
ENDBLK
  5
49
100
AcDbEntity
  8
0
370
    -2
390
0
  6
ByBlock
 62
     0
100
AcDbBlockEnd
  0
BLOCK
  5
4C
100
AcDbEntity
  8
0
370
    -2
390
0
  6
ByBlock
 62
     0
100
AcDbBlockBegin
  2
*D4
 70
     1
 10
0.0
 20
0.0
 30
0.0
  3
*D4
  1

  0
LINE
  5
4D
100
AcDbEntity
  8
0
390
0
  6
CONTINUOUS
 62
   110
100
AcDbLine
 10
110.0
 20
60.0
 30
0.0
 11
289.0
 21
60.0
 31
0.0
  0
LINE
  5
4E
100
AcDbEntity
  8
0
390
0
  6
CONTINUOUS
 62
   110
100
AcDbLine
 10
110.0
 20
35.849976
 30
0.0
 11
110.0
 21
61.0
 31
0.0
  0
LINE
  5
4F
100
AcDbEntity
  8
0
390
0
  6
CONTINUOUS
 62
   110
100
AcDbLine
 10
289.0
 20
25.0
 30
0.0
 11
289.0
 21
61.0
 31
0.0
  0
INSERT
  5
50
100
AcDbEntity
  8
0
390
0
  6
CONTINUOUS
 62
   110
100
AcDbBlockReference
  2
_OPEN30
 10
110.0
 20
60.0
 30
0.0
 41
2.77
 42
2.77
 43
2.77
 50
180.0
  0
INSERT
  5
51
100
AcDbEntity
  8
0
390
0
  6
CONTINUOUS
 62
   110
100
AcDbBlockReference
  2
_OPEN30
 10
289.0
 20
60.0
 30
0.0
 41
2.77
 42
2.77
 43
2.77
  0
MTEXT
  5
52
100
AcDbEntity
  8
0
390
0
  6
CONTINUOUS
 62
   110
100
AcDbMText
 10
199.5
 20
63.1
 30
0.0
 40
4.2
 41
0.0
 71
     5
 72
     1
  1
\A1;179
  7
MX_DIMTXSTY_2
 73
     1
 44
0.9
  0
POINT
  5
53
100
AcDbEntity
  8
DEFPOINTS
390
0
  6
CONTINUOUS
 62
     0
100
AcDbPoint
 10
110.0
 20
33.849976
 30
0.0
  0
POINT
  5
54
100
AcDbEntity
  8
DEFPOINTS
390
0
  6
CONTINUOUS
 62
     0
100
AcDbPoint
 10
289.0
 20
23.0
 30
0.0
  0
POINT
  5
55
100
AcDbEntity
  8
DEFPOINTS
390
0
  6
CONTINUOUS
 62
     0
100
AcDbPoint
 10
289.0
 20
60.0
 30
0.0
  0
ENDBLK
  5
56
100
AcDbEntity
  8
0
370
    -2
390
0
  6
ByBlock
 62
     0
100
AcDbBlockEnd
  0
ENDSEC
  0
SECTION
  2
ENTITIES
  0
DIMENSION
  5
3C
100
AcDbEntity
  8
0
390
0
  6
CONTINUOUS
 62
   110
100
AcDbDimension
  2
*D2
 10
130.0
 20
107.3
 30
0.0
 11
130.0
 21
119.999999
 31
0.0
 70
   128
 71
     5
 72
     1
 41
0.9
 42
25.4
  1
\A1;\U+2205<>
  3
MXDIMSTYLE
100
AcDbAlignedDimension
 13
122.699997
 23
132.7
 33
0.0
 14
122.699997
 24
107.3
 34
0.0
 50
90.0
100
AcDbRotatedDimension
1001
ACAD
1000
DSTYLE
1002
{
1070
    41
1040
2.77
1070
    75
1070
     1
1070
    76
1070
     1
1070
   140
1040
4.2
1070
   284
1070
     8
1070
   340
1005
36
1002
}
  0
DIMENSION
  5
4A
100
AcDbEntity
  8
0
390
0
  6
CONTINUOUS
 62
   110
100
AcDbDimension
  2
*D3
 10
296.0
 20
70.0
 30
0.0
 11
178.0
 21
70.0
 31
0.0
 70
   128
 71
     5
 72
     1
 41
0.9
 42
236.0
  1
\A1;286～<>（50ストローク）
  3
MXDIMSTYLE
100
AcDbAlignedDimension
 13
60.0
 23
3.0
 33
0.0
 14
296.0
 24
0.0
 34
0.0
100
AcDbRotatedDimension
1001
ACAD
1000
DSTYLE
1002
{
1070
    41
1040
2.77
1070
   140
1040
4.2
1070
   284
1070
     8
1070
   340
1005
44
1002
}
  0
DIMENSION
  5
57
100
AcDbEntity
  8
0
390
0
  6
CONTINUOUS
 62
   110
100
AcDbDimension
  2
*D4
 10
289.0
 20
60.0
 30
0.0
 11
199.5
 21
60.0
 31
0.0
 70
   128
 71
     5
 72
     1
 41
0.9
 42
179.0
  1
\A1;<>
  3
MXDIMSTYLE
100
AcDbAlignedDimension
 13
110.0
 23
33.849976
 33
0.0
 14
289.0
 24
23.0
 34
0.0
100
AcDbRotatedDimension
1001
ACAD
1000
DSTYLE
1002
{
1070
    41
1040
2.77
1070
   140
1040
4.2
1070
   284
1070
     8
1070
   340
1005
36
1002
}
  0
LINE
  5
58
100
AcDbEntity
  8
0
390
0
  6
CONTINUOUS
 62
   110
100
AcDbLine
 10
329.0
 20
17.0
 30
0.0
 11
329.0
 21
0.0
 31
0.0
  0
LINE
  5
59
100
AcDbEntity
  8
0
390
0
  6
CONTINUOUS
 62
   110
100
AcDbLine
 10
318.072513
 20
17.0
 30
0.0
 11
330.0
 21
17.0
 31
0.0
  0
LINE
  5
5A
100
AcDbEntity
  8
0
390
0
  6
CONTINUOUS
 62
   110
100
AcDbLine
 10
301.0
 20
0.0
 30
0.0
 11
330.0
 21
0.0
 31
0.0
  0
MTEXT
  5
5B
100
AcDbEntity
  8
0
390
0
  6
CONTINUOUS
 62
   110
100
AcDbMText
 10
323.8
 20
5.278409
 30
0.0
 40
4.2
 41
0.0
 71
     1
 72
     1
  1
\W1.023;\A1;17
 11
0.0
 21
1.0
 31
0.0
 73
     1
 44
1.0
  0
LINE
  5
5C
100
AcDbEntity
  8
0
390
0
  6
CONTINUOUS
 62
   110
100
AcDbLine
 10
328.257781
 20
14.23
 30
0.0
 11
329.0
 21
17.0
 31
0.0
  0
LINE
  5
5D
100
AcDbEntity
  8
0
390
0
  6
CONTINUOUS
 62
   110
100
AcDbLine
 10
329.0
 20
17.0
 30
0.0
 11
329.742219
 21
14.23
 31
0.0
  0
LINE
  5
5E
100
AcDbEntity
  8
0
390
0
  6
CONTINUOUS
 62
   110
100
AcDbLine
 10
329.742219
 20
2.77
 30
0.0
 11
329.0
 21
0.0
 31
0.0
  0
LINE
  5
5F
100
AcDbEntity
  8
0
390
0
  6
CONTINUOUS
 62
   110
100
AcDbLine
 10
329.0
 20
0.0
 30
0.0
 11
328.257781
 21
2.77
 31
0.0
  0
LINE
  5
60
100
AcDbEntity
  8
0
390
0
  6
CONTINUOUS
 62
   110
100
AcDbLine
 10
339.0
 20
25.5
 30
0.0
 11
339.0
 21
-25.5
 31
0.0
  0
LINE
  5
61
100
AcDbEntity
  8
0
390
0
  6
CONTINUOUS
 62
   110
100
AcDbLine
 10
284.5
 20
25.5
 30
0.0
 11
340.0
 21
25.5
 31
0.0
  0
LINE
  5
62
100
AcDbEntity
  8
0
390
0
  6
CONTINUOUS
 62
   110
100
AcDbLine
 10
284.5
 20
-25.5
 30
0.0
 11
340.0
 21
-25.5
 31
0.0
  0
MTEXT
  5
63
100
AcDbEntity
  8
0
390
0
  6
CONTINUOUS
 62
   110
100
AcDbMText
 10
333.8
 20
-5.205508
 30
0.0
 40
4.2
 41
0.0
 71
     1
 72
     1
  1
\W1.001;\A1;\U+220551
 11
0.0
 21
1.0
 31
0.0
 73
     1
 44
1.0
  0
LINE
  5
64
100
AcDbEntity
  8
0
390
0
  6
CONTINUOUS
 62
   110
100
AcDbLine
 10
338.257781
 20
22.73
 30
0.0
 11
339.0
 21
25.5
 31
0.0
  0
LINE
  5
65
100
AcDbEntity
  8
0
390
0
  6
CONTINUOUS
 62
   110
100
AcDbLine
 10
339.0
 20
25.5
 30
0.0
 11
339.742219
 21
22.73
 31
0.0
  0
LINE
  5
66
100
AcDbEntity
  8
0
390
0
  6
CONTINUOUS
 62
   110
100
AcDbLine
 10
339.742219
 20
-22.73
 30
0.0
 11
339.0
 21
-25.5
 31
0.0
  0
LINE
  5
67
100
AcDbEntity
  8
0
390
0
  6
CONTINUOUS
 62
   110
100
AcDbLine
 10
339.0
 20
-25.5
 30
0.0
 11
338.257781
 21
-22.73
 31
0.0
  0
LINE
  5
68
100
AcDbEntity
  8
0
390
0
  6
CONTINUOUS
 62
   110
100
AcDbLine
 10
90.0
 20
6.0
 30
0.0
 11
90.0
 21
-6.0
 31
0.0
  0
LINE
  5
69
100
AcDbEntity
  8
0
390
0
  6
CONTINUOUS
 62
   110
100
AcDbLine
 10
90.0
 20
22.68793
 30
0.0
 11
90.0
 21
6.0
 31
0.0
  0
LINE
  5
6A
100
AcDbEntity
  8
0
390
0
  6
CONTINUOUS
 62
   110
100
AcDbLine
 10
90.0
 20
-6.0
 30
0.0
 11
90.0
 21
-10.0
 31
0.0
  0
MTEXT
  5
6B
100
AcDbEntity
  8
0
390
0
  6
CONTINUOUS
 62
   110
100
AcDbMText
 10
84.8
 20
11.576172
 30
0.0
 40
4.2
 41
0.0
 71
     1
 72
     1
  1
\W1.001;\A1;\U+220512
 11
0.0
 21
1.0
 31
0.0
 73
     1
 44
1.0
  0
LINE
  5
6C
100
AcDbEntity
  8
0
390
0
  6
CONTINUOUS
 62
   110
100
AcDbLine
 10
90.742219
 20
8.77
 30
0.0
 11
90.0
 21
6.0
 31
0.0
  0
LINE
  5
6D
100
AcDbEntity
  8
0
390
0
  6
CONTINUOUS
 62
   110
100
AcDbLine
 10
90.0
 20
6.0
 30
0.0
 11
89.257781
 21
8.77
 31
0.0
  0
LINE
  5
6E
100
AcDbEntity
  8
0
390
0
  6
CONTINUOUS
 62
   110
100
AcDbLine
 10
89.257781
 20
-8.77
 30
0.0
 11
90.0
 21
-6.0
 31
0.0
  0
LINE
  5
6F
100
AcDbEntity
  8
0
390
0
  6
CONTINUOUS
 62
   110
100
AcDbLine
 10
90.0
 20
-6.0
 30
0.0
 11
90.742219
 21
-8.77
 31
0.0
  0
LINE
  5
70
100
AcDbEntity
  8
0
390
0
  6
CONTINUOUS
 62
   110
100
AcDbLine
 10
50.0
 20
3.0
 30
0.0
 11
50.0
 21
-4.0
 31
0.0
  0
LINE
  5
71
100
AcDbEntity
  8
0
390
0
  6
CONTINUOUS
 62
   110
100
AcDbLine
 10
50.0
 20
9.895175
 30
0.0
 11
50.0
 21
3.0
 31
0.0
  0
LINE
  5
72
100
AcDbEntity
  8
0
390
0
  6
CONTINUOUS
 62
   110
100
AcDbLine
 10
4.645752
 20
3.0
 30
0.0
 11
51.0
 21
3.0
 31
0.0
  0
LINE
  5
73
100
AcDbEntity
  8
0
390
0
  6
CONTINUOUS
 62
   110
100
AcDbLine
 10
2.0
 20
-4.0
 30
0.0
 11
51.0
 21
-4.0
 31
0.0
  0
LINE
  5
74
100
AcDbEntity
  8
0
390
0
  6
CONTINUOUS
 62
   110
100
AcDbLine
 10
50.0
 20
-4.0
 30
0.0
 11
50.0
 21
-8.0
 31
0.0
  0
MTEXT
  5
75
100
AcDbEntity
  8
0
390
0
  6
CONTINUOUS
 62
   110
100
AcDbMText
 10
44.8
 20
6.657675
 30
0.0
 40
4.2
 41
0.0
 71
     1
 72
     1
  1
\A1;7
 11
0.0
 21
1.0
 31
0.0
 73
     1
 44
1.0
  0
LINE
  5
76
100
AcDbEntity
  8
0
390
0
  6
CONTINUOUS
 62
   110
100
AcDbLine
 10
50.742219
 20
5.77
 30
0.0
 11
50.0
 21
3.0
 31
0.0
  0
LINE
  5
77
100
AcDbEntity
  8
0
390
0
  6
CONTINUOUS
 62
   110
100
AcDbLine
 10
50.0
 20
3.0
 30
0.0
 11
49.257781
 21
5.77
 31
0.0
  0
LINE
  5
78
100
AcDbEntity
  8
0
390
0
  6
CONTINUOUS
 62
   110
100
AcDbLine
 10
49.257781
 20
-6.77
 30
0.0
 11
50.0
 21
-4.0
 31
0.0
  0
LINE
  5
79
100
AcDbEntity
  8
0
390
0
  6
CONTINUOUS
 62
   110
100
AcDbLine
 10
50.0
 20
-4.0
 30
0.0
 11
50.742219
 21
-6.77
 31
0.0
  0
LINE
  5
7A
100
AcDbEntity
  8
0
390
0
  6
CONTINUOUS
 62
   110
100
AcDbLine
 10
60.0
 20
30.0
 30
0.0
 11
80.0
 21
30.0
 31
0.0
  0
LINE
  5
7B
100
AcDbEntity
  8
0
390
0
  6
CONTINUOUS
 62
   110
100
AcDbLine
 10
80.0
 20
7.0
 30
0.0
 11
80.0
 21
31.0
 31
0.0
  0
MTEXT
  5
7C
100
AcDbEntity
  8
0
390
0
  6
CONTINUOUS
 62
   110
100
AcDbMText
 10
66.778409
 20
35.2
 30
0.0
 40
4.2
 41
0.0
 71
     1
 72
     1
  1
\W1.023;\A1;20
 73
     1
 44
1.0
  0
LINE
  5
7D
100
AcDbEntity
  8
0
390
0
  6
CONTINUOUS
 62
   110
100
AcDbLine
 10
62.77
 20
29.257781
 30
0.0
 11
60.0
 21
30.0
 31
0.0
  0
LINE
  5
7E
100
AcDbEntity
  8
0
390
0
  6
CONTINUOUS
 62
   110
100
AcDbLine
 10
60.0
 20
30.0
 30
0.0
 11
62.77
 21
30.742219
 31
0.0
  0
LINE
  5
7F
100
AcDbEntity
  8
0
390
0
  6
CONTINUOUS
 62
   110
100
AcDbLine
 10
77.23
 20
30.742219
 30
0.0
 11
80.0
 21
30.0
 31
0.0
  0
LINE
  5
80
100
AcDbEntity
  8
0
390
0
  6
CONTINUOUS
 62
   110
100
AcDbLine
 10
80.0
 20
30.0
 30
0.0
 11
77.23
 21
29.257781
 31
0.0
  0
LINE
  5
81
100
AcDbEntity
  8
0
390
0
  6
CONTINUOUS
 62
   110
100
AcDbLine
 10
122.699997
 20
50.0
 30
0.0
 11
143.0
 21
50.0
 31
0.0
  0
LINE
  5
82
100
AcDbEntity
  8
0
390
0
  6
CONTINUOUS
 62
   110
100
AcDbLine
 10
122.699997
 20
35.850018
 30
0.0
 11
122.699997
 21
51.0
 31
0.0
  0
LINE
  5
83
100
AcDbEntity
  8
0
390
0
  6
CONTINUOUS
 62
   110
100
AcDbLine
 10
143.0
 20
22.0
 30
0.0
 11
143.0
 21
51.0
 31
0.0
  0
MTEXT
  5
84
100
AcDbEntity
  8
0
390
0
  6
CONTINUOUS
 62
   110
100
AcDbMText
 10
125.665788
 20
55.2
 30
0.0
 40
4.2
 41
0.0
 71
     1
 72
     1
  1
\W0.987;\A1;20.3
 73
     1
 44
1.0
  0
LINE
  5
85
100
AcDbEntity
  8
0
390
0
  6
CONTINUOUS
 62
   110
100
AcDbLine
 10
125.469997
 20
49.257781
 30
0.0
 11
122.699997
 21
50.0
 31
0.0
  0
LINE
  5
86
100
AcDbEntity
  8
0
390
0
  6
CONTINUOUS
 62
   110
100
AcDbLine
 10
122.699997
 20
50.0
 30
0.0
 11
125.469997
 21
50.742219
 31
0.0
  0
LINE
  5
87
100
AcDbEntity
  8
0
390
0
  6
CONTINUOUS
 62
   110
100
AcDbLine
 10
140.23
 20
50.742219
 30
0.0
 11
143.0
 21
50.0
 31
0.0
  0
LINE
  5
88
100
AcDbEntity
  8
0
390
0
  6
CONTINUOUS
 62
   110
100
AcDbLine
 10
143.0
 20
50.0
 30
0.0
 11
140.23
 21
49.257781
 31
0.0
  0
LINE
  5
89
100
AcDbEntity
  8
0
390
0
  6
CONTINUOUS
 62
   110
100
AcDbLine
 10
289.0
 20
50.0
 30
0.0
 11
296.0
 21
50.0
 31
0.0
  0
LINE
  5
8A
100
AcDbEntity
  8
0
390
0
  6
CONTINUOUS
 62
   110
100
AcDbLine
 10
289.0
 20
25.0
 30
0.0
 11
289.0
 21
51.0
 31
0.0
  0
LINE
  5
8B
100
AcDbEntity
  8
0
390
0
  6
CONTINUOUS
 62
   110
100
AcDbLine
 10
296.0
 20
2.0
 30
0.0
 11
296.0
 21
51.0
 31
0.0
  0
LINE
  5
8C
100
AcDbEntity
  8
0
390
0
  6
CONTINUOUS
 62
   110
100
AcDbLine
 10
289.0
 20
50.0
 30
0.0
 11
285.0
 21
50.0
 31
0.0
  0
LINE
  5
8D
100
AcDbEntity
  8
0
390
0
  6
CONTINUOUS
 62
   110
100
AcDbLine
 10
296.0
 20
50.0
 30
0.0
 11
300.0
 21
50.0
 31
0.0
  0
MTEXT
  5
8E
100
AcDbEntity
  8
0
390
0
  6
CONTINUOUS
 62
   110
100
AcDbMText
 10
291.23125
 20
55.2
 30
0.0
 40
4.2
 41
0.0
 71
     1
 72
     1
  1
\A1;7
 73
     1
 44
1.0
  0
LINE
  5
8F
100
AcDbEntity
  8
0
390
0
  6
CONTINUOUS
 62
   110
100
AcDbLine
 10
286.23
 20
50.742219
 30
0.0
 11
289.0
 21
50.0
 31
0.0
  0
LINE
  5
90
100
AcDbEntity
  8
0
390
0
  6
CONTINUOUS
 62
   110
100
AcDbLine
 10
289.0
 20
50.0
 30
0.0
 11
286.23
 21
49.257781
 31
0.0
  0
LINE
  5
91
100
AcDbEntity
  8
0
390
0
  6
CONTINUOUS
 62
   110
100
AcDbLine
 10
298.77
 20
49.257781
 30
0.0
 11
296.0
 21
50.0
 31
0.0
  0
LINE
  5
92
100
AcDbEntity
  8
0
390
0
  6
CONTINUOUS
 62
   110
100
AcDbLine
 10
296.0
 20
50.0
 30
0.0
 11
298.77
 21
50.742219
 31
0.0
  0
LINE
  5
93
100
AcDbEntity
  8
0
390
0
  6
CONTINUOUS
 62
   110
100
AcDbLine
 10
289.0
 20
60.0
 30
0.0
 11
313.0
 21
60.0
 31
0.0
  0
LINE
  5
94
100
AcDbEntity
  8
0
390
0
  6
CONTINUOUS
 62
   110
100
AcDbLine
 10
313.0
 20
23.700039
 30
0.0
 11
313.0
 21
61.0
 31
0.0
  0
MTEXT
  5
95
100
AcDbEntity
  8
0
390
0
  6
CONTINUOUS
 62
   110
100
AcDbMText
 10
297.71875
 20
65.2
 30
0.0
 40
4.2
 41
0.0
 71
     1
 72
     1
  1
\W0.938;\A1;24
 73
     1
 44
1.0
  0
LINE
  5
96
100
AcDbEntity
  8
0
390
0
  6
CONTINUOUS
 62
   110
100
AcDbLine
 10
291.77
 20
59.257781
 30
0.0
 11
289.0
 21
60.0
 31
0.0
  0
LINE
  5
97
100
AcDbEntity
  8
0
390
0
  6
CONTINUOUS
 62
   110
100
AcDbLine
 10
289.0
 20
60.0
 30
0.0
 11
291.77
 21
60.742219
 31
0.0
  0
LINE
  5
98
100
AcDbEntity
  8
0
390
0
  6
CONTINUOUS
 62
   110
100
AcDbLine
 10
310.23
 20
60.742219
 30
0.0
 11
313.0
 21
60.0
 31
0.0
  0
LINE
  5
99
100
AcDbEntity
  8
0
390
0
  6
CONTINUOUS
 62
   110
100
AcDbLine
 10
313.0
 20
60.0
 30
0.0
 11
310.23
 21
59.257781
 31
0.0
  0
LINE
  5
9A
100
AcDbEntity
  8
0
390
0
  6
CONTINUOUS
 62
   110
100
AcDbLine
 10
60.0
 20
60.0
 30
0.0
 11
110.0
 21
60.0
 31
0.0
  0
LINE
  5
9B
100
AcDbEntity
  8
0
390
0
  6
CONTINUOUS
 62
   110
100
AcDbLine
 10
60.0
 20
5.0
 30
0.0
 11
60.0
 21
61.0
 31
0.0
  0
MTEXT
  5
9C
100
AcDbEntity
  8
0
390
0
  6
CONTINUOUS
 62
   110
100
AcDbMText
 10
65.951256
 20
65.2
 30
0.0
 40
4.2
 41
0.0
 71
     1
 72
     1
  1
\T0.968;\W1.009;\A1;50+50ストローク
 73
     1
 44
1.0
  0
LINE
  5
9D
100
AcDbEntity
  8
0
390
0
  6
CONTINUOUS
 62
   110
100
AcDbLine
 10
62.77
 20
59.257781
 30
0.0
 11
60.0
 21
60.0
 31
0.0
  0
LINE
  5
9E
100
AcDbEntity
  8
0
390
0
  6
CONTINUOUS
 62
   110
100
AcDbLine
 10
60.0
 20
60.0
 30
0.0
 11
62.77
 21
60.742219
 31
0.0
  0
LINE
  5
9F
100
AcDbEntity
  8
0
390
0
  6
CONTINUOUS
 62
   110
100
AcDbLine
 10
107.23
 20
60.742219
 30
0.0
 11
110.0
 21
60.0
 31
0.0
  0
LINE
  5
A0
100
AcDbEntity
  8
0
390
0
  6
CONTINUOUS
 62
   110
100
AcDbLine
 10
110.0
 20
60.0
 30
0.0
 11
107.23
 21
59.257781
 31
0.0
  0
LINE
  5
A1
100
AcDbEntity
  8
0
390
0
  6
CONTINUOUS
 62
   110
100
AcDbLine
 10
170.0
 20
139.0
 30
0.0
 11
170.0
 21
101.0
 31
0.0
  0
MTEXT
  5
A2
100
AcDbEntity
  8
0
390
0
  6
CONTINUOUS
 62
   110
100
AcDbMText
 10
164.8
 20
123.68124
 30
0.0
 40
4.2
 41
0.0
 71
     1
 72
     1
  1
\T0.977;\W1.018;\A1;\U+220538
 11
0.0
 21
1.0
 31
0.0
 73
     1
 44
1.0
  0
LINE
  5
A3
100
AcDbEntity
  8
0
390
0
  6
CONTINUOUS
 62
   110
100
AcDbLine
 10
169.257781
 20
136.23
 30
0.0
 11
170.0
 21
139.0
 31
0.0
  0
LINE
  5
A4
100
AcDbEntity
  8
0
390
0
  6
CONTINUOUS
 62
   110
100
AcDbLine
 10
170.0
 20
139.0
 30
0.0
 11
170.742219
 21
136.23
 31
0.0
  0
LINE
  5
A5
100
AcDbEntity
  8
0
390
0
  6
CONTINUOUS
 62
   110
100
AcDbLine
 10
170.742219
 20
103.77
 30
0.0
 11
170.0
 21
101.0
 31
0.0
  0
LINE
  5
A6
100
AcDbEntity
  8
0
390
0
  6
CONTINUOUS
 62
   110
100
AcDbLine
 10
170.0
 20
101.0
 30
0.0
 11
169.257781
 21
103.77
 31
0.0
  0
LINE
  5
A7
100
AcDbEntity
  8
0
390
0
  6
CONTINUOUS
 62
   110
100
AcDbLine
 10
140.0
 20
99.0
 30
0.0
 11
140.0
 21
141.0
 31
0.0
  0
LINE
  5
A8
100
AcDbEntity
  8
0
390
0
  6
CONTINUOUS
 62
   110
100
AcDbLine
 10
140.0
 20
141.0
 30
0.0
 11
140.0
 21
154.254627
 31
0.0
  0
LINE
  5
A9
100
AcDbEntity
  8
0
390
0
  6
CONTINUOUS
 62
   110
100
AcDbLine
 10
142.0
 20
99.0
 30
0.0
 11
139.0
 21
99.0
 31
0.0
  0
LINE
  5
AA
100
AcDbEntity
  8
0
390
0
  6
CONTINUOUS
 62
   110
100
AcDbLine
 10
142.0
 20
141.0
 30
0.0
 11
139.0
 21
141.0
 31
0.0
  0
MTEXT
  5
AB
100
AcDbEntity
  8
0
390
0
  6
CONTINUOUS
 62
   110
100
AcDbMText
 10
134.8
 20
143.105391
 30
0.0
 40
4.2
 41
0.0
 71
     1
 72
     1
  1
\T0.977;\W1.018;\A1;\U+220542
 11
0.0
 21
1.0
 31
0.0
 73
     1
 44
1.0
  0
LINE
  5
AC
100
AcDbEntity
  8
0
390
0
  6
CONTINUOUS
 62
   110
100
AcDbLine
 10
140.742219
 20
101.77
 30
0.0
 11
140.0
 21
99.0
 31
0.0
  0
LINE
  5
AD
100
AcDbEntity
  8
0
390
0
  6
CONTINUOUS
 62
   110
100
AcDbLine
 10
140.0
 20
99.0
 30
0.0
 11
139.257781
 21
101.77
 31
0.0
  0
LINE
  5
AE
100
AcDbEntity
  8
0
390
0
  6
CONTINUOUS
 62
   110
100
AcDbLine
 10
139.257781
 20
138.23
 30
0.0
 11
140.0
 21
141.0
 31
0.0
  0
LINE
  5
AF
100
AcDbEntity
  8
0
390
0
  6
CONTINUOUS
 62
   110
100
AcDbLine
 10
140.0
 20
141.0
 30
0.0
 11
140.742219
 21
138.23
 31
0.0
  0
LINE
  5
B0
100
AcDbEntity
  8
0
390
0
  6
CONTINUOUS
 62
   110
100
AcDbLine
 10
40.0
 20
116.0
 30
0.0
 11
40.0
 21
124.0
 31
0.0
  0
LINE
  5
B1
100
AcDbEntity
  8
0
390
0
  6
CONTINUOUS
 62
   110
100
AcDbLine
 10
40.0
 20
124.0
 30
0.0
 11
40.0
 21
142.609821
 31
0.0
  0
LINE
  5
B2
100
AcDbEntity
  8
0
390
0
  6
CONTINUOUS
 62
   110
100
AcDbLine
 10
59.000015
 20
116.0
 30
0.0
 11
39.0
 21
116.0
 31
0.0
  0
LINE
  5
B3
100
AcDbEntity
  8
0
390
0
  6
CONTINUOUS
 62
   110
100
AcDbLine
 10
59.000015
 20
124.0
 30
0.0
 11
39.0
 21
124.0
 31
0.0
  0
LINE
  5
B4
100
AcDbEntity
  8
0
390
0
  6
CONTINUOUS
 62
   110
100
AcDbLine
 10
40.0
 20
116.0
 30
0.0
 11
40.0
 21
112.0
 31
0.0
  0
MTEXT
  5
B5
100
AcDbEntity
  8
0
390
0
  6
CONTINUOUS
 62
   110
100
AcDbMText
 10
34.8
 20
127.538921
 30
0.0
 40
4.2
 41
0.0
 71
     1
 72
     1
  1
\T0.983;\W1.024;\A1;\U+22058h7
 11
0.0
 21
1.0
 31
0.0
 73
     1
 44
1.0
  0
LINE
  5
B6
100
AcDbEntity
  8
0
390
0
  6
CONTINUOUS
 62
   110
100
AcDbLine
 10
39.257781
 20
113.23
 30
0.0
 11
40.0
 21
116.0
 31
0.0
  0
LINE
  5
B7
100
AcDbEntity
  8
0
390
0
  6
CONTINUOUS
 62
   110
100
AcDbLine
 10
40.0
 20
116.0
 30
0.0
 11
40.742219
 21
113.23
 31
0.0
  0
LINE
  5
B8
100
AcDbEntity
  8
0
390
0
  6
CONTINUOUS
 62
   110
100
AcDbLine
 10
40.742219
 20
126.77
 30
0.0
 11
40.0
 21
124.0
 31
0.0
  0
LINE
  5
B9
100
AcDbEntity
  8
0
390
0
  6
CONTINUOUS
 62
   110
100
AcDbLine
 10
40.0
 20
124.0
 30
0.0
 11
39.257781
 21
126.77
 31
0.0
  0
INSERT
  5
BA
100
AcDbEntity
  8
LY_3
390
0
  6
ByBlock
100
AcDbBlockReference
  2
*U0
 10
120.500001
 20
153.904286
 30
0.0
 41
2.77
 42
2.77
 43
2.77
 50
239.450082
  0
INSERT
  5
BB
100
AcDbEntity
  8
LY_3
390
0
  6
ByBlock
100
AcDbBlockReference
  2
*U0
 10
191.499996
 20
137.904276
 30
0.0
 41
2.77
 42
2.77
 43
2.77
 50
256.847352
  0
INSERT
  5
BC
100
AcDbEntity
  8
LY_3
390
0
  6
ByBlock
100
AcDbBlockReference
  2
*U0
 10
232.060428
 20
122.112151
 30
0.0
 41
2.77
 42
2.77
 43
2.77
 50
261.754495
  0
INSERT
  5
BD
100
AcDbEntity
  8
LY_3
390
0
  6
ByBlock
100
AcDbBlockReference
  2
*U0
 10
272.865608
 20
144.714297
 30
0.0
 41
2.77
 42
2.77
 43
2.77
 50
256.363322
  0
INSERT
  5
BE
100
AcDbEntity
  8
LY_3
390
0
  6
ByBlock
100
AcDbBlockReference
  2
*U0
 10
300.460886
 20
124.644991
 30
0.0
 41
2.77
 42
2.77
 43
2.77
 50
259.337577
  0
INSERT
  5
BF
100
AcDbEntity
  8
LY_3
390
0
  6
ByBlock
100
AcDbBlockReference
  2
*U0
 10
186.831672
 20
113.318354
 30
0.0
 41
2.77
 42
2.77
 43
2.77
 50
110.062899
  0
INSERT
  5
C0
100
AcDbEntity
  8
LY_3
390
0
  6
ByBlock
100
AcDbBlockReference
  2
*U0
 10
253.330571
 20
99.43397
 30
0.0
 41
2.77
 42
2.77
 43
2.77
 50
106.263431
  0
INSERT
  5
C1
100
AcDbEntity
  8
LY_3
390
0
  6
ByBlock
100
AcDbBlockReference
  2
*U0
 10
119.617237
 20
-9.508452
 30
0.0
 41
2.77
 42
2.77
 43
2.77
 50
64.150863
  0
INSERT
  5
C2
100
AcDbEntity
  8
LY_3
390
0
  6
ByBlock
100
AcDbBlockReference
  2
*U0
 10
124.11328
 20
-10.75735
 30
0.0
 41
2.77
 42
2.77
 43
2.77
 50
112.039727
  0
INSERT
  5
C3
100
AcDbEntity
  8
LY_3
390
0
  6
ByBlock
100
AcDbBlockReference
  2
*U0
 10
159.082519
 20
-13.255157
 30
0.0
 41
2.77
 42
2.77
 43
2.77
 50
128.029413
  0
LINE
  5
C4
100
AcDbEntity
  8
LY_3
390
0
  6
CONTINUOUS
 62
     3
100
AcDbLine
 10
60.000015
 20
117.0
 30
0.0
 11
60.000015
 21
123.0
 31
0.0
  0
LINE
  5
C5
100
AcDbEntity
  8
LY_3
390
0
  6
CONTINUOUS
 62
     3
100
AcDbLine
 10
80.0
 20
115.0
 30
0.0
 11
80.0
 21
125.0
 31
0.0
  0
LINE
  5
C6
100
AcDbEntity
  8
LY_3
390
0
  6
CONTINUOUS
 62
     3
100
AcDbLine
 10
81.0
 20
126.0
 30
0.0
 11
110.0
 21
126.0
 31
0.0
  0
LINE
  5
C7
100
AcDbEntity
  8
LY_3
390
0
  6
CONTINUOUS
 62
     3
100
AcDbLine
 10
81.0
 20
114.0
 30
0.0
 11
110.0
 21
114.0
 31
0.0
  0
LINE
  5
C8
100
AcDbEntity
  8
LY_3
390
0
  6
CONTINUOUS
 62
     3
100
AcDbLine
 10
-2.645752
 20
3.0
 30
0.0
 11
2.645752
 21
3.0
 31
0.0
  0
LINE
  5
CA
100
AcDbEntity
  8
LY_3
390
0
  6
CENTER
 62
   110
100
AcDbLine
 10
57.000015
 20
120.0
 30
0.0
 11
122.935373
 21
120.0
 31
0.0
  0
LINE
  5
CB
100
AcDbEntity
  8
LY_3
390
0
  6
CONTINUOUS
 62
     3
100
AcDbLine
 10
110.800003
 20
154.650009
 30
0.0
 11
121.900009
 21
154.650009
 31
0.0
  0
LINE
  5
CC
100
AcDbEntity
  8
LY_3
390
0
  6
CONTINUOUS
 62
     3
100
AcDbLine
 10
110.800003
 20
85.349998
 30
0.0
 11
121.899994
 21
85.349998
 31
0.0
  0
LINE
  5
CD
100
AcDbEntity
  8
LY_3
390
0
  6
CONTINUOUS
 62
     3
100
AcDbLine
 10
122.700016
 20
86.149955
 30
0.0
 11
121.90001
 21
85.349951
 31
0.0
  0
LINE
  5
CE
100
AcDbEntity
  8
LY_3
390
0
  6
CONTINUOUS
 62
     3
100
AcDbLine
 10
110.80001
 20
85.349997
 30
0.0
 11
110.000005
 21
86.150002
 31
0.0
  0
LINE
  5
CF
100
AcDbEntity
  8
LY_3
390
0
  6
CONTINUOUS
 62
     3
100
AcDbLine
 10
110.000106
 20
153.849889
 30
0.0
 11
110.800111
 21
154.649894
 31
0.0
  0
LINE
  5
D0
100
AcDbEntity
  8
LY_3
390
0
  6
CONTINUOUS
 62
     3
100
AcDbLine
 10
122.699979
 20
153.849948
 30
0.0
 11
121.899973
 21
154.649953
 31
0.0
  0
LINE
  5
D1
100
AcDbEntity
  8
LY_3
390
0
  6
CENTER
 62
   110
100
AcDbLine
 10
104.349991
 20
90.650002
 30
0.0
 11
128.349991
 21
90.650002
 31
0.0
  0
LINE
  5
D2
100
AcDbEntity
  8
LY_3
390
0
  6
CONTINUOUS
 62
     3
100
AcDbLine
 10
122.699997
 20
86.150009
 30
0.0
 11
122.699997
 21
153.849991
 31
0.0
  0
LINE
  5
D3
100
AcDbEntity
  8
LY_3
390
0
  6
CONTINUOUS
 62
     3
100
AcDbLine
 10
60.0
 20
-3.0
 30
0.0
 11
60.0
 21
3.0
 31
0.0
  0
LINE
  5
D4
100
AcDbEntity
  8
LY_3
390
0
  6
CONTINUOUS
 62
     3
100
AcDbLine
 10
80.0
 20
-5.0
 30
0.0
 11
80.0
 21
5.0
 31
0.0
  0
LINE
  5
D5
100
AcDbEntity
  8
LY_3
390
0
  6
CONTINUOUS
 62
     3
100
AcDbLine
 10
81.0
 20
6.0
 30
0.0
 11
169.384022
 21
6.0
 31
0.0
  0
LINE
  5
D6
100
AcDbEntity
  8
LY_3
390
0
  6
CONTINUOUS
 62
     3
100
AcDbLine
 10
61.0
 20
-4.0
 30
0.0
 11
80.0
 21
-4.0
 31
0.0
  0
LINE
  5
D7
100
AcDbEntity
  8
LY_3
390
0
  6
CONTINUOUS
 62
     3
100
AcDbLine
 10
81.0
 20
-6.0
 30
0.0
 11
165.213867
 21
-6.0
 31
0.0
  0
LINE
  5
D8
100
AcDbEntity
  8
LY_3
390
0
  6
CONTINUOUS
 62
     3
100
AcDbLine
 10
60.0
 20
3.0
 30
0.0
 11
80.0
 21
3.0
 31
0.0
  0
LINE
  5
D9
100
AcDbEntity
  8
LY_3
390
0
  6
CENTER
 62
   110
100
AcDbLine
 10
56.833328
 20
0.0
 30
0.0
 11
299.0
 21
0.0
 31
0.0
  0
LINE
  5
DA
100
AcDbEntity
  8
LY_3
390
0
  6
CONTINUOUS
 62
     3
100
AcDbLine
 10
110.800003
 20
34.650002
 30
0.0
 11
121.900002
 21
34.650002
 31
0.0
  0
LINE
  5
DB
100
AcDbEntity
  8
LY_3
390
0
  6
CONTINUOUS
 62
     3
100
AcDbLine
 10
110.799995
 20
-34.650002
 30
0.0
 11
121.899994
 21
-34.650002
 31
0.0
  0
LINE
  5
DC
100
AcDbEntity
  8
LY_3
390
0
  6
CONTINUOUS
 62
     3
100
AcDbLine
 10
110.0
 20
-24.150002
 30
0.0
 11
111.407661
 21
-24.150002
 31
0.0
  0
LINE
  5
DD
100
AcDbEntity
  8
LY_3
390
0
  6
CONTINUOUS
 62
     3
100
AcDbLine
 10
110.0
 20
24.150002
 30
0.0
 11
111.407669
 21
24.150002
 31
0.0
  0
LINE
  5
DE
100
AcDbEntity
  8
LY_3
390
0
  6
CONTINUOUS
 62
     3
100
AcDbLine
 10
110.0
 20
-33.850006
 30
0.0
 11
110.0
 21
-6.0
 31
0.0
  0
LINE
  5
DF
100
AcDbEntity
  8
LY_3
390
0
  6
CONTINUOUS
 62
     3
100
AcDbLine
 10
122.699997
 20
-33.850006
 30
0.0
 11
122.699997
 21
-12.7
 31
0.0
  0
LINE
  5
E0
100
AcDbEntity
  8
LY_3
390
0
  6
CONTINUOUS
 62
   110
100
AcDbLine
 10
110.599998
 20
-20.949997
 30
0.0
 11
110.599998
 21
-6.0
 31
0.0
  0
LINE
  5
E1
100
AcDbEntity
  8
LY_3
390
0
  6
CONTINUOUS
 62
     3
100
AcDbLine
 10
110.0
 20
25.950001
 30
0.0
 11
122.700005
 21
25.950001
 31
0.0
  0
LINE
  5
E2
100
AcDbEntity
  8
LY_3
390
0
  6
CONTINUOUS
 62
     3
100
AcDbLine
 10
110.0
 20
32.75
 30
0.0
 11
122.700005
 21
32.75
 31
0.0
  0
LINE
  5
E3
100
AcDbEntity
  8
LY_3
390
0
  6
CONTINUOUS
 62
     3
100
AcDbLine
 10
122.699962
 20
-33.850007
 30
0.0
 11
121.899967
 21
-34.650001
 31
0.0
  0
LINE
  5
E4
100
AcDbEntity
  8
LY_3
390
0
  6
CONTINUOUS
 62
     3
100
AcDbLine
 10
110.800041
 20
-34.649938
 30
0.0
 11
110.000042
 21
-33.849939
 31
0.0
  0
LINE
  5
E5
100
AcDbEntity
  8
LY_3
390
0
  6
CONTINUOUS
 62
     3
100
AcDbLine
 10
110.00003
 20
33.849978
 30
0.0
 11
110.800025
 21
34.649972
 31
0.0
  0
LINE
  5
E6
100
AcDbEntity
  8
LY_3
390
0
  6
CONTINUOUS
 62
     3
100
AcDbLine
 10
122.700021
 20
33.850007
 30
0.0
 11
121.900026
 21
34.650001
 31
0.0
  0
LINE
  5
E7
100
AcDbEntity
  8
LY_3
390
0
  6
CONTINUOUS
 62
     3
100
AcDbLine
 10
111.199997
 20
-12.850006
 30
0.0
 11
113.299995
 21
-12.850006
 31
0.0
  0
LINE
  5
E8
100
AcDbEntity
  8
LY_3
390
0
  6
CONTINUOUS
 62
     3
100
AcDbLine
 10
111.199997
 20
12.849998
 30
0.0
 11
113.300003
 21
12.849998
 31
0.0
  0
LINE
  5
E9
100
AcDbEntity
  8
LY_3
390
0
  6
CONTINUOUS
 62
     3
100
AcDbLine
 10
113.299995
 20
-12.0
 30
0.0
 11
115.299995
 21
-12.0
 31
0.0
  0
LINE
  5
EA
100
AcDbEntity
  8
LY_3
390
0
  6
CONTINUOUS
 62
     3
100
AcDbLine
 10
113.300003
 20
12.0
 30
0.0
 11
115.300003
 21
12.0
 31
0.0
  0
LINE
  5
EB
100
AcDbEntity
  8
LY_3
390
0
  6
CONTINUOUS
 62
     3
100
AcDbLine
 10
113.300003
 20
-12.850006
 30
0.0
 11
113.300003
 21
-6.0
 31
0.0
  0
LINE
  5
EC
100
AcDbEntity
  8
LY_3
390
0
  6
CONTINUOUS
 62
     3
100
AcDbLine
 10
115.299995
 20
-12.850006
 30
0.0
 11
122.699997
 21
-12.850006
 31
0.0
  0
LINE
  5
ED
100
AcDbEntity
  8
LY_3
390
0
  6
CONTINUOUS
 62
     3
100
AcDbLine
 10
115.300003
 20
12.849998
 30
0.0
 11
122.699997
 21
12.849998
 31
0.0
  0
LINE
  5
EE
100
AcDbEntity
  8
LY_3
390
0
  6
CENTER
 62
   110
100
AcDbLine
 10
104.349991
 20
-29.349998
 30
0.0
 11
128.349991
 21
-29.349998
 31
0.0
  0
LINE
  5
EF
100
AcDbEntity
  8
LY_3
390
0
  6
CENTER
 62
   110
100
AcDbLine
 10
104.350006
 20
29.35
 30
0.0
 11
128.350006
 21
29.35
 31
0.0
  0
LINE
  5
F0
100
AcDbEntity
  8
LY_3
390
0
  6
CONTINUOUS
 62
   110
100
AcDbLine
 10
111.199997
 20
-20.89756
 30
0.0
 11
111.199997
 21
-6.0
 31
0.0
  0
LINE
  5
F1
100
AcDbEntity
  8
LY_3
390
0
  6
CONTINUOUS
 62
     3
100
AcDbLine
 10
111.199997
 20
6.0
 30
0.0
 11
111.199997
 21
20.897507
 31
0.0
  0
LINE
  5
F2
100
AcDbEntity
  8
LY_3
390
0
  6
CONTINUOUS
 62
     3
100
AcDbLine
 10
113.300003
 20
6.0
 30
0.0
 11
113.300003
 21
12.849998
 31
0.0
  0
LINE
  5
F3
100
AcDbEntity
  8
LY_3
390
0
  6
CONTINUOUS
 62
     3
100
AcDbLine
 10
110.600006
 20
20.949899
 30
0.0
 11
111.200002
 21
20.897407
 31
0.0
  0
LINE
  5
F4
100
AcDbEntity
  8
LY_3
390
0
  6
CONTINUOUS
 62
     3
100
AcDbLine
 10
110.600193
 20
20.949949
 30
0.0
 11
111.642784
 21
23.814444
 31
0.0
  0
LINE
  5
F5
100
AcDbEntity
  8
LY_3
390
0
  6
CONTINUOUS
 62
     3
100
AcDbLine
 10
110.600131
 20
-20.949946
 30
0.0
 11
111.64272
 21
-23.814438
 31
0.0
  0
LINE
  5
F6
100
AcDbEntity
  8
LY_3
390
0
  6
CONTINUOUS
 62
     3
100
AcDbLine
 10
110.600003
 20
-20.950089
 30
0.0
 11
111.200006
 21
-20.897596
 31
0.0
  0
LINE
  5
F7
100
AcDbEntity
  8
LY_3
390
0
  6
CONTINUOUS
 62
   110
100
AcDbLine
 10
110.599998
 20
6.0
 30
0.0
 11
110.599998
 21
20.950001
 31
0.0
  0
LINE
  5
F8
100
AcDbEntity
  8
LY_3
390
0
  6
CONTINUOUS
 62
     3
100
AcDbLine
 10
126.300011
 20
11.0
 30
0.0
 11
126.300011
 21
6.0
 31
0.0
  0
LINE
  5
F9
100
AcDbEntity
  8
LY_3
390
0
  6
CONTINUOUS
 62
     3
100
AcDbLine
 10
120.300011
 20
11.0
 30
0.0
 11
126.300011
 21
11.0
 31
0.0
  0
LINE
  5
FA
100
AcDbEntity
  8
LY_3
390
0
  6
CONTINUOUS
 62
     3
100
AcDbLine
 10
120.300011
 20
-11.0
 30
0.0
 11
126.300011
 21
-11.0
 31
0.0
  0
LINE
  5
FB
100
AcDbEntity
  8
LY_3
390
0
  6
CONTINUOUS
 62
     3
100
AcDbLine
 10
126.300011
 20
-6.0
 30
0.0
 11
126.300011
 21
-11.0
 31
0.0
  0
LINE
  5
FC
100
AcDbEntity
  8
LY_3
390
0
  6
CONTINUOUS
 62
     3
100
AcDbLine
 10
152.0
 20
19.0
 30
0.0
 11
251.0
 21
19.0
 31
0.0
  0
LINE
  5
FD
100
AcDbEntity
  8
LY_3
390
0
  6
CONTINUOUS
 62
     3
100
AcDbLine
 10
152.0
 20
-19.0
 30
0.0
 11
251.0
 21
-19.0
 31
0.0
  0
LINE
  5
FE
100
AcDbEntity
  8
LY_3
390
0
  6
CENTER
 62
   110
100
AcDbLine
 10
104.349991
 20
149.349991
 30
0.0
 11
128.349991
 21
149.349991
 31
0.0
  0
LINE
  5
FF
100
AcDbEntity
  8
LY_3
390
0
  6
CONTINUOUS
 62
     3
100
AcDbLine
 10
251.0
 20
98.962372
 30
0.0
 11
251.0
 21
141.037628
 31
0.0
  0
LINE
  5
100
100
AcDbEntity
  8
LY_3
390
0
  6
CONTINUOUS
 62
   110
100
AcDbLine
 10
251.0
 20
140.674423
 30
0.0
 11
255.0
 21
140.674423
 31
0.0
  0
LINE
  5
101
100
AcDbEntity
  8
LY_3
390
0
  6
CONTINUOUS
 62
     3
100
AcDbLine
 10
250.999956
 20
141.037787
 30
0.0
 11
261.999946
 21
142.000161
 31
0.0
  0
LINE
  5
102
100
AcDbEntity
  8
LY_3
390
0
  6
CONTINUOUS
 62
   110
100
AcDbLine
 10
251.0
 20
132.93074
 30
0.0
 11
255.0
 21
132.93074
 31
0.0
  0
LINE
  5
103
100
AcDbEntity
  8
LY_3
390
0
  6
CONTINUOUS
 62
   110
100
AcDbLine
 10
251.0
 20
120.000023
 30
0.0
 11
255.0
 21
120.000023
 31
0.0
  0
LINE
  5
104
100
AcDbEntity
  8
LY_3
390
0
  6
CONTINUOUS
 62
   110
100
AcDbLine
 10
251.0
 20
99.326767
 30
0.0
 11
255.0
 21
99.326767
 31
0.0
  0
LINE
  5
105
100
AcDbEntity
  8
LY_3
390
0
  6
CONTINUOUS
 62
     3
100
AcDbLine
 10
250.999985
 20
98.962379
 30
0.0
 11
261.999975
 21
98.000007
 31
0.0
  0
LINE
  5
106
100
AcDbEntity
  8
LY_3
390
0
  6
CONTINUOUS
 62
     3
100
AcDbLine
 10
262.0
 20
98.0
 30
0.0
 11
263.0
 21
98.0
 31
0.0
  0
LINE
  5
107
100
AcDbEntity
  8
LY_3
390
0
  6
CONTINUOUS
 62
     3
100
AcDbLine
 10
262.0
 20
142.0
 30
0.0
 11
263.0
 21
142.0
 31
0.0
  0
LINE
  5
108
100
AcDbEntity
  8
LY_3
390
0
  6
CONTINUOUS
 62
     3
100
AcDbLine
 10
152.0
 20
139.0
 30
0.0
 11
251.0
 21
139.0
 31
0.0
  0
LINE
  5
109
100
AcDbEntity
  8
LY_3
390
0
  6
CONTINUOUS
 62
     3
100
AcDbLine
 10
152.0
 20
101.0
 30
0.0
 11
251.0
 21
101.0
 31
0.0
  0
LINE
  5
10A
100
AcDbEntity
  8
LY_3
390
0
  6
CONTINUOUS
 62
   110
100
AcDbLine
 10
232.0
 20
112.0
 30
0.0
 11
232.0
 21
116.0
 31
0.0
  0
LINE
  5
10B
100
AcDbEntity
  8
LY_3
390
0
  6
CONTINUOUS
 62
   110
100
AcDbLine
 10
231.0
 20
114.0
 30
0.0
 11
231.0
 21
116.0
 31
0.0
  0
LINE
  5
10C
100
AcDbEntity
  8
LY_3
390
0
  6
CONTINUOUS
 62
   110
100
AcDbLine
 10
230.0
 20
114.0
 30
0.0
 11
230.0
 21
116.0
 31
0.0
  0
LINE
  5
10D
100
AcDbEntity
  8
LY_3
390
0
  6
CONTINUOUS
 62
   110
100
AcDbLine
 10
229.0
 20
114.0
 30
0.0
 11
229.0
 21
116.0
 31
0.0
  0
LINE
  5
10E
100
AcDbEntity
  8
LY_3
390
0
  6
CONTINUOUS
 62
   110
100
AcDbLine
 10
228.0
 20
114.0
 30
0.0
 11
228.0
 21
116.0
 31
0.0
  0
LINE
  5
10F
100
AcDbEntity
  8
LY_3
390
0
  6
CONTINUOUS
 62
   110
100
AcDbLine
 10
227.0
 20
113.0
 30
0.0
 11
227.0
 21
116.0
 31
0.0
  0
LINE
  5
110
100
AcDbEntity
  8
LY_3
390
0
  6
CONTINUOUS
 62
   110
100
AcDbLine
 10
226.0
 20
114.0
 30
0.0
 11
226.0
 21
116.0
 31
0.0
  0
LINE
  5
111
100
AcDbEntity
  8
LY_3
390
0
  6
CONTINUOUS
 62
   110
100
AcDbLine
 10
225.0
 20
114.0
 30
0.0
 11
225.0
 21
116.0
 31
0.0
  0
LINE
  5
112
100
AcDbEntity
  8
LY_3
390
0
  6
CONTINUOUS
 62
   110
100
AcDbLine
 10
224.0
 20
114.0
 30
0.0
 11
224.0
 21
116.0
 31
0.0
  0
LINE
  5
113
100
AcDbEntity
  8
LY_3
390
0
  6
CONTINUOUS
 62
   110
100
AcDbLine
 10
223.0
 20
114.0
 30
0.0
 11
223.0
 21
116.0
 31
0.0
  0
LINE
  5
114
100
AcDbEntity
  8
LY_3
390
0
  6
CONTINUOUS
 62
   110
100
AcDbLine
 10
222.0
 20
112.0
 30
0.0
 11
222.0
 21
116.0
 31
0.0
  0
LINE
  5
115
100
AcDbEntity
  8
LY_3
390
0
  6
CONTINUOUS
 62
   110
100
AcDbLine
 10
221.0
 20
114.0
 30
0.0
 11
221.0
 21
116.0
 31
0.0
  0
LINE
  5
116
100
AcDbEntity
  8
LY_3
390
0
  6
CONTINUOUS
 62
   110
100
AcDbLine
 10
220.0
 20
114.0
 30
0.0
 11
220.0
 21
116.0
 31
0.0
  0
LINE
  5
117
100
AcDbEntity
  8
LY_3
390
0
  6
CONTINUOUS
 62
   110
100
AcDbLine
 10
219.0
 20
114.0
 30
0.0
 11
219.0
 21
116.0
 31
0.0
  0
LINE
  5
118
100
AcDbEntity
  8
LY_3
390
0
  6
CONTINUOUS
 62
   110
100
AcDbLine
 10
218.0
 20
114.0
 30
0.0
 11
218.0
 21
116.0
 31
0.0
  0
LINE
  5
119
100
AcDbEntity
  8
LY_3
390
0
  6
CONTINUOUS
 62
   110
100
AcDbLine
 10
217.0
 20
113.0
 30
0.0
 11
217.0
 21
116.0
 31
0.0
  0
LINE
  5
11A
100
AcDbEntity
  8
LY_3
390
0
  6
CONTINUOUS
 62
   110
100
AcDbLine
 10
216.0
 20
114.0
 30
0.0
 11
216.0
 21
116.0
 31
0.0
  0
LINE
  5
11B
100
AcDbEntity
  8
LY_3
390
0
  6
CONTINUOUS
 62
   110
100
AcDbLine
 10
215.0
 20
114.0
 30
0.0
 11
215.0
 21
116.0
 31
0.0
  0
LINE
  5
11C
100
AcDbEntity
  8
LY_3
390
0
  6
CONTINUOUS
 62
   110
100
AcDbLine
 10
214.0
 20
114.0
 30
0.0
 11
214.0
 21
116.0
 31
0.0
  0
LINE
  5
11D
100
AcDbEntity
  8
LY_3
390
0
  6
CONTINUOUS
 62
   110
100
AcDbLine
 10
213.0
 20
114.0
 30
0.0
 11
213.0
 21
116.0
 31
0.0
  0
LINE
  5
11E
100
AcDbEntity
  8
LY_3
390
0
  6
CONTINUOUS
 62
   110
100
AcDbLine
 10
212.0
 20
112.0
 30
0.0
 11
212.0
 21
116.0
 31
0.0
  0
LINE
  5
11F
100
AcDbEntity
  8
LY_3
390
0
  6
CONTINUOUS
 62
   110
100
AcDbLine
 10
211.0
 20
114.0
 30
0.0
 11
211.0
 21
116.0
 31
0.0
  0
LINE
  5
120
100
AcDbEntity
  8
LY_3
390
0
  6
CONTINUOUS
 62
   110
100
AcDbLine
 10
210.0
 20
114.0
 30
0.0
 11
210.0
 21
116.0
 31
0.0
  0
LINE
  5
121
100
AcDbEntity
  8
LY_3
390
0
  6
CONTINUOUS
 62
   110
100
AcDbLine
 10
209.0
 20
114.0
 30
0.0
 11
209.0
 21
116.0
 31
0.0
  0
LINE
  5
122
100
AcDbEntity
  8
LY_3
390
0
  6
CONTINUOUS
 62
   110
100
AcDbLine
 10
208.0
 20
114.0
 30
0.0
 11
208.0
 21
116.0
 31
0.0
  0
LINE
  5
123
100
AcDbEntity
  8
LY_3
390
0
  6
CONTINUOUS
 62
   110
100
AcDbLine
 10
207.0
 20
113.0
 30
0.0
 11
207.0
 21
116.0
 31
0.0
  0
LINE
  5
124
100
AcDbEntity
  8
LY_3
390
0
  6
CONTINUOUS
 62
   110
100
AcDbLine
 10
206.0
 20
114.0
 30
0.0
 11
206.0
 21
116.0
 31
0.0
  0
LINE
  5
125
100
AcDbEntity
  8
LY_3
390
0
  6
CONTINUOUS
 62
   110
100
AcDbLine
 10
205.0
 20
114.0
 30
0.0
 11
205.0
 21
116.0
 31
0.0
  0
LINE
  5
126
100
AcDbEntity
  8
LY_3
390
0
  6
CONTINUOUS
 62
   110
100
AcDbLine
 10
204.0
 20
114.0
 30
0.0
 11
204.0
 21
116.0
 31
0.0
  0
LINE
  5
127
100
AcDbEntity
  8
LY_3
390
0
  6
CONTINUOUS
 62
   110
100
AcDbLine
 10
203.0
 20
114.0
 30
0.0
 11
203.0
 21
116.0
 31
0.0
  0
LINE
  5
128
100
AcDbEntity
  8
LY_3
390
0
  6
CONTINUOUS
 62
   110
100
AcDbLine
 10
202.0
 20
112.0
 30
0.0
 11
202.0
 21
116.0
 31
0.0
  0
LINE
  5
129
100
AcDbEntity
  8
LY_3
390
0
  6
CONTINUOUS
 62
   110
100
AcDbLine
 10
201.0
 20
114.0
 30
0.0
 11
201.0
 21
116.0
 31
0.0
  0
LINE
  5
12A
100
AcDbEntity
  8
LY_3
390
0
  6
CONTINUOUS
 62
   110
100
AcDbLine
 10
200.0
 20
114.0
 30
0.0
 11
200.0
 21
116.0
 31
0.0
  0
LINE
  5
12B
100
AcDbEntity
  8
LY_3
390
0
  6
CONTINUOUS
 62
   110
100
AcDbLine
 10
199.0
 20
114.0
 30
0.0
 11
199.0
 21
116.0
 31
0.0
  0
LINE
  5
12C
100
AcDbEntity
  8
LY_3
390
0
  6
CONTINUOUS
 62
   110
100
AcDbLine
 10
198.0
 20
114.0
 30
0.0
 11
198.0
 21
116.0
 31
0.0
  0
LINE
  5
12D
100
AcDbEntity
  8
LY_3
390
0
  6
CONTINUOUS
 62
   110
100
AcDbLine
 10
197.0
 20
113.0
 30
0.0
 11
197.0
 21
116.0
 31
0.0
  0
LINE
  5
12E
100
AcDbEntity
  8
LY_3
390
0
  6
CONTINUOUS
 62
   110
100
AcDbLine
 10
196.0
 20
114.0
 30
0.0
 11
196.0
 21
116.0
 31
0.0
  0
LINE
  5
12F
100
AcDbEntity
  8
LY_3
390
0
  6
CONTINUOUS
 62
   110
100
AcDbLine
 10
195.0
 20
114.0
 30
0.0
 11
195.0
 21
116.0
 31
0.0
  0
LINE
  5
130
100
AcDbEntity
  8
LY_3
390
0
  6
CONTINUOUS
 62
   110
100
AcDbLine
 10
194.0
 20
114.0
 30
0.0
 11
194.0
 21
116.0
 31
0.0
  0
LINE
  5
131
100
AcDbEntity
  8
LY_3
390
0
  6
CONTINUOUS
 62
   110
100
AcDbLine
 10
193.0
 20
114.0
 30
0.0
 11
193.0
 21
116.0
 31
0.0
  0
LINE
  5
132
100
AcDbEntity
  8
LY_3
390
0
  6
CONTINUOUS
 62
   110
100
AcDbLine
 10
192.0
 20
112.0
 30
0.0
 11
192.0
 21
116.0
 31
0.0
  0
LINE
  5
133
100
AcDbEntity
  8
LY_3
390
0
  6
CONTINUOUS
 62
   110
100
AcDbLine
 10
191.0
 20
114.0
 30
0.0
 11
191.0
 21
116.0
 31
0.0
  0
LINE
  5
134
100
AcDbEntity
  8
LY_3
390
0
  6
CONTINUOUS
 62
   110
100
AcDbLine
 10
190.0
 20
114.0
 30
0.0
 11
190.0
 21
116.0
 31
0.0
  0
LINE
  5
135
100
AcDbEntity
  8
LY_3
390
0
  6
CONTINUOUS
 62
   110
100
AcDbLine
 10
189.0
 20
114.0
 30
0.0
 11
189.0
 21
116.0
 31
0.0
  0
LINE
  5
136
100
AcDbEntity
  8
LY_3
390
0
  6
CONTINUOUS
 62
   110
100
AcDbLine
 10
188.0
 20
114.0
 30
0.0
 11
188.0
 21
116.0
 31
0.0
  0
LINE
  5
137
100
AcDbEntity
  8
LY_3
390
0
  6
CONTINUOUS
 62
   110
100
AcDbLine
 10
187.0
 20
113.0
 30
0.0
 11
187.0
 21
116.0
 31
0.0
  0
LINE
  5
138
100
AcDbEntity
  8
LY_3
390
0
  6
CONTINUOUS
 62
   110
100
AcDbLine
 10
186.0
 20
114.0
 30
0.0
 11
186.0
 21
116.0
 31
0.0
  0
LINE
  5
139
100
AcDbEntity
  8
LY_3
390
0
  6
CONTINUOUS
 62
   110
100
AcDbLine
 10
185.0
 20
114.0
 30
0.0
 11
185.0
 21
116.0
 31
0.0
  0
LINE
  5
13A
100
AcDbEntity
  8
LY_3
390
0
  6
CONTINUOUS
 62
   110
100
AcDbLine
 10
184.0
 20
114.0
 30
0.0
 11
184.0
 21
116.0
 31
0.0
  0
LINE
  5
13B
100
AcDbEntity
  8
LY_3
390
0
  6
CONTINUOUS
 62
   110
100
AcDbLine
 10
183.0
 20
114.0
 30
0.0
 11
183.0
 21
116.0
 31
0.0
  0
LINE
  5
13C
100
AcDbEntity
  8
LY_3
390
0
  6
CONTINUOUS
 62
   110
100
AcDbLine
 10
182.0
 20
112.0
 30
0.0
 11
182.0
 21
116.0
 31
0.0
  0
LINE
  5
13D
100
AcDbEntity
  8
LY_3
390
0
  6
CONTINUOUS
 62
     3
100
AcDbLine
 10
247.0
 20
120.0
 30
0.0
 11
250.0
 21
120.0
 31
0.0
  0
LINE
  5
13E
100
AcDbEntity
  8
LY_3
390
0
  6
CONTINUOUS
 62
     3
100
AcDbLine
 10
-4.167612
 20
-10.718284
 30
0.0
 11
-2.675722
 21
-8.134255
 31
0.0
  0
LINE
  5
13F
100
AcDbEntity
  8
LY_3
390
0
  6
CONTINUOUS
 62
     3
100
AcDbLine
 10
2.67542
 20
-8.134353
 30
0.0
 11
4.167314
 21
-10.718388
 31
0.0
  0
LINE
  5
140
100
AcDbEntity
  8
LY_3
390
0
  6
CENTER
 62
   110
100
AcDbLine
 10
-39.999985
 20
0.0
 30
0.0
 11
40.0
 21
0.0
 31
0.0
  0
LINE
  5
141
100
AcDbEntity
  8
LY_3
390
0
  6
CENTER
 62
   110
100
AcDbLine
 10
0.0
 20
40.0
 30
0.0
 11
0.0
 21
-40.0
 31
0.0
  0
LINE
  5
142
100
AcDbEntity
  8
LY_3
390
0
  6
CENTER
 62
   110
100
AcDbLine
 10
18.424413
 20
31.913356
 30
0.0
 11
10.924409
 21
18.922978
 31
0.0
  0
LINE
  5
143
100
AcDbEntity
  8
LY_3
390
0
  6
CENTER
 62
   110
100
AcDbLine
 10
-18.425097
 20
31.912963
 30
0.0
 11
-10.925097
 21
18.922582
 31
0.0
  0
LINE
  5
144
100
AcDbEntity
  8
LY_3
390
0
  6
CENTER
 62
   110
100
AcDbLine
 10
-18.425245
 20
-31.912931
 30
0.0
 11
-10.925244
 21
-18.922551
 31
0.0
  0
LINE
  5
145
100
AcDbEntity
  8
LY_3
390
0
  6
CENTER
 62
   110
100
AcDbLine
 10
18.424425
 20
-31.913371
 30
0.0
 11
10.924432
 21
-18.922996
 31
0.0
  0
LINE
  5
146
100
AcDbEntity
  8
LY_3
390
0
  6
CONTINUOUS
 62
     3
100
AcDbLine
 10
-1.0
 20
34.635567
 30
0.0
 11
-1.0
 21
24.129288
 31
0.0
  0
LINE
  5
147
100
AcDbEntity
  8
LY_3
390
0
  6
CONTINUOUS
 62
     3
100
AcDbLine
 10
1.0
 20
34.635567
 30
0.0
 11
1.0
 21
24.129288
 31
0.0
  0
LINE
  5
148
100
AcDbEntity
  8
LY_3
390
0
  6
CONTINUOUS
 62
     3
100
AcDbLine
 10
-1.0
 20
-24.129288
 30
0.0
 11
-1.0
 21
-34.635567
 31
0.0
  0
LINE
  5
149
100
AcDbEntity
  8
LY_3
390
0
  6
CONTINUOUS
 62
     3
100
AcDbLine
 10
1.0
 20
-24.129288
 30
0.0
 11
1.0
 21
-34.635567
 31
0.0
  0
LINE
  5
14A
100
AcDbEntity
  8
LY_3
390
0
  6
CONTINUOUS
 62
     3
100
AcDbLine
 10
61.000015
 20
116.0
 30
0.0
 11
80.0
 21
116.0
 31
0.0
  0
LINE
  5
14B
100
AcDbEntity
  8
LY_3
390
0
  6
CONTINUOUS
 62
     3
100
AcDbLine
 10
61.000015
 20
124.0
 30
0.0
 11
80.0
 21
124.0
 31
0.0
  0
LINE
  5
14C
100
AcDbEntity
  8
LY_3
390
0
  6
CONTINUOUS
 62
     3
100
AcDbLine
 10
61.000015
 20
117.0
 30
0.0
 11
80.0
 21
117.0
 31
0.0
  0
LINE
  5
14D
100
AcDbEntity
  8
LY_3
390
0
  6
CONTINUOUS
 62
     3
100
AcDbLine
 10
61.000015
 20
123.0
 30
0.0
 11
80.0
 21
123.0
 31
0.0
  0
LINE
  5
14F
100
AcDbEntity
  8
LY_3
390
0
  6
PHANTOM
 62
   110
100
AcDbLine
 10
161.999985
 20
14.5
 30
0.0
 11
168.586861
 21
14.5
 31
0.0
  0
LINE
  5
150
100
AcDbEntity
  8
LY_3
390
0
  6
PHANTOM
 62
   110
100
AcDbLine
 10
161.999985
 20
-14.5
 30
0.0
 11
165.586956
 21
-14.5
 31
0.0
  0
LINE
  5
151
100
AcDbEntity
  8
LY_3
390
0
  6
PHANTOM
 62
   110
100
AcDbLine
 10
161.499985
 20
7.0
 30
0.0
 11
169.482754
 21
7.0
 31
0.0
  0
LINE
  5
152
100
AcDbEntity
  8
LY_3
390
0
  6
PHANTOM
 62
   110
100
AcDbLine
 10
161.499985
 20
-7.0
 30
0.0
 11
164.954418
 21
-7.0
 31
0.0
  0
LINE
  5
153
100
AcDbEntity
  8
LY_3
390
0
  6
CONTINUOUS
 62
     3
100
AcDbLine
 10
154.000003
 20
14.499998
 30
0.0
 11
154.500003
 21
7.000003
 31
0.0
  0
LINE
  5
154
100
AcDbEntity
  8
LY_3
390
0
  6
CONTINUOUS
 62
     3
100
AcDbLine
 10
154.500009
 20
7.000004
 30
0.0
 11
155.000009
 21
14.500003
 31
0.0
  0
LINE
  5
155
100
AcDbEntity
  8
LY_3
390
0
  6
CONTINUOUS
 62
     3
100
AcDbLine
 10
155.000006
 20
14.499996
 30
0.0
 11
155.500005
 21
7.000001
 31
0.0
  0
LINE
  5
156
100
AcDbEntity
  8
LY_3
390
0
  6
CONTINUOUS
 62
     3
100
AcDbLine
 10
155.5
 20
7.000006
 30
0.0
 11
156.0
 21
14.500003
 31
0.0
  0
LINE
  5
157
100
AcDbEntity
  8
LY_3
390
0
  6
CONTINUOUS
 62
     3
100
AcDbLine
 10
155.500001
 20
-7.000001
 30
0.0
 11
156.000001
 21
-14.5
 31
0.0
  0
LINE
  5
158
100
AcDbEntity
  8
LY_3
390
0
  6
CONTINUOUS
 62
     3
100
AcDbLine
 10
155.000011
 20
-14.500003
 30
0.0
 11
155.500011
 21
-7.000004
 31
0.0
  0
LINE
  5
159
100
AcDbEntity
  8
LY_3
390
0
  6
CONTINUOUS
 62
     3
100
AcDbLine
 10
154.500018
 20
-6.999995
 30
0.0
 11
155.000016
 21
-14.499994
 31
0.0
  0
LINE
  5
15A
100
AcDbEntity
  8
LY_3
390
0
  6
CONTINUOUS
 62
     3
100
AcDbLine
 10
153.999998
 20
-14.499989
 30
0.0
 11
154.499998
 21
-6.99999
 31
0.0
  0
LINE
  5
15B
100
AcDbEntity
  8
LY_3
390
0
  6
CONTINUOUS
 62
     3
100
AcDbLine
 10
156.499997
 20
7.000008
 30
0.0
 11
155.999998
 21
14.499999
 31
0.0
  0
LINE
  5
15C
100
AcDbEntity
  8
LY_3
390
0
  6
CONTINUOUS
 62
     3
100
AcDbLine
 10
156.999991
 20
14.500007
 30
0.0
 11
156.499991
 21
7.000008
 31
0.0
  0
LINE
  5
15D
100
AcDbEntity
  8
LY_3
390
0
  6
CONTINUOUS
 62
     3
100
AcDbLine
 10
157.500005
 20
7.000004
 30
0.0
 11
157.000005
 21
14.500003
 31
0.0
  0
LINE
  5
15E
100
AcDbEntity
  8
LY_3
390
0
  6
CONTINUOUS
 62
     3
100
AcDbLine
 10
158.000007
 20
14.500006
 30
0.0
 11
157.500008
 21
7.000015
 31
0.0
  0
LINE
  5
15F
100
AcDbEntity
  8
LY_3
390
0
  6
CONTINUOUS
 62
     3
100
AcDbLine
 10
157.999994
 20
-14.499994
 30
0.0
 11
157.499994
 21
-7.000003
 31
0.0
  0
LINE
  5
160
100
AcDbEntity
  8
LY_3
390
0
  6
CONTINUOUS
 62
     3
100
AcDbLine
 10
157.499985
 20
-7.000001
 30
0.0
 11
156.999989
 21
-14.500001
 31
0.0
  0
LINE
  5
161
100
AcDbEntity
  8
LY_3
390
0
  6
CONTINUOUS
 62
     3
100
AcDbLine
 10
157.000007
 20
-14.500001
 30
0.0
 11
156.500007
 21
-6.999995
 31
0.0
  0
LINE
  5
162
100
AcDbEntity
  8
LY_3
390
0
  6
CONTINUOUS
 62
     3
100
AcDbLine
 10
156.499995
 20
-6.999994
 30
0.0
 11
155.999995
 21
-14.499993
 31
0.0
  0
LINE
  5
163
100
AcDbEntity
  8
LY_3
390
0
  6
CONTINUOUS
 62
     3
100
AcDbLine
 10
157.999994
 20
14.500007
 30
0.0
 11
158.499994
 21
7.000012
 31
0.0
  0
LINE
  5
164
100
AcDbEntity
  8
LY_3
390
0
  6
CONTINUOUS
 62
     3
100
AcDbLine
 10
158.499992
 20
7.000008
 30
0.0
 11
158.999992
 21
14.500009
 31
0.0
  0
LINE
  5
165
100
AcDbEntity
  8
LY_3
390
0
  6
CONTINUOUS
 62
     3
100
AcDbLine
 10
158.999996
 20
14.5
 30
0.0
 11
159.499996
 21
6.999997
 31
0.0
  0
LINE
  5
166
100
AcDbEntity
  8
LY_3
390
0
  6
CONTINUOUS
 62
     3
100
AcDbLine
 10
159.49998
 20
6.999997
 30
0.0
 11
159.99998
 21
14.499992
 31
0.0
  0
LINE
  5
167
100
AcDbEntity
  8
LY_3
390
0
  6
CONTINUOUS
 62
     3
100
AcDbLine
 10
160.499996
 20
6.999997
 30
0.0
 11
159.999996
 21
14.499989
 31
0.0
  0
LINE
  5
168
100
AcDbEntity
  8
LY_3
390
0
  6
CONTINUOUS
 62
     3
100
AcDbLine
 10
160.999999
 20
14.499996
 30
0.0
 11
160.499999
 21
6.999995
 31
0.0
  0
LINE
  5
169
100
AcDbEntity
  8
LY_3
390
0
  6
CONTINUOUS
 62
     3
100
AcDbLine
 10
161.499995
 20
7.000004
 30
0.0
 11
160.999995
 21
14.500003
 31
0.0
  0
LINE
  5
16A
100
AcDbEntity
  8
LY_3
390
0
  6
CONTINUOUS
 62
     3
100
AcDbLine
 10
161.999989
 20
14.499999
 30
0.0
 11
161.499989
 21
7.0
 31
0.0
  0
LINE
  5
16B
100
AcDbEntity
  8
LY_3
390
0
  6
CONTINUOUS
 62
     3
100
AcDbLine
 10
161.999988
 20
-14.499997
 30
0.0
 11
161.499989
 21
-7.000006
 31
0.0
  0
LINE
  5
16C
100
AcDbEntity
  8
LY_3
390
0
  6
CONTINUOUS
 62
     3
100
AcDbLine
 10
161.499972
 20
-6.999999
 30
0.0
 11
160.999975
 21
-14.499998
 31
0.0
  0
LINE
  5
16D
100
AcDbEntity
  8
LY_3
390
0
  6
CONTINUOUS
 62
     3
100
AcDbLine
 10
160.999993
 20
-14.499998
 30
0.0
 11
160.499993
 21
-6.999999
 31
0.0
  0
LINE
  5
16E
100
AcDbEntity
  8
LY_3
390
0
  6
CONTINUOUS
 62
     3
100
AcDbLine
 10
160.499977
 20
-7.000001
 30
0.0
 11
159.999977
 21
-14.5
 31
0.0
  0
LINE
  5
16F
100
AcDbEntity
  8
LY_3
390
0
  6
CONTINUOUS
 62
     3
100
AcDbLine
 10
159.499999
 20
-7.000004
 30
0.0
 11
159.999999
 21
-14.500003
 31
0.0
  0
LINE
  5
170
100
AcDbEntity
  8
LY_3
390
0
  6
CONTINUOUS
 62
     3
100
AcDbLine
 10
158.999991
 20
-14.499988
 30
0.0
 11
159.499991
 21
-6.999981
 31
0.0
  0
LINE
  5
171
100
AcDbEntity
  8
LY_3
390
0
  6
CONTINUOUS
 62
     3
100
AcDbLine
 10
158.49997
 20
-7.000011
 30
0.0
 11
158.999966
 21
-14.500003
 31
0.0
  0
LINE
  5
172
100
AcDbEntity
  8
LY_3
390
0
  6
CONTINUOUS
 62
     3
100
AcDbLine
 10
158.0
 20
-14.499986
 30
0.0
 11
158.5
 21
-6.999994
 31
0.0
  0
LINE
  5
173
100
AcDbEntity
  8
LY_3
390
0
  6
CONTINUOUS
 62
     3
100
AcDbLine
 10
176.0
 20
116.0
 30
0.0
 11
238.0
 21
116.0
 31
0.0
  0
LINE
  5
174
100
AcDbEntity
  8
LY_3
390
0
  6
CONTINUOUS
 62
     3
100
AcDbLine
 10
176.0
 20
124.0
 30
0.0
 11
238.0
 21
124.0
 31
0.0
  0
LINE
  5
175
100
AcDbEntity
  8
LY_3
390
0
  6
CONTINUOUS
 62
     3
100
AcDbLine
 10
60.000031
 20
-2.99997
 30
0.0
 11
61.000032
 21
-3.999971
 31
0.0
  0
LINE
  5
176
100
AcDbEntity
  8
LY_3
390
0
  6
CONTINUOUS
 62
     3
100
AcDbLine
 10
61.000015
 20
3.0
 30
0.0
 11
61.000015
 21
-4.0
 31
0.0
  0
LINE
  5
177
100
AcDbEntity
  8
LY_3
390
0
  6
CONTINUOUS
 62
     3
100
AcDbLine
 10
80.000017
 20
4.999987
 30
0.0
 11
81.000018
 21
5.999988
 31
0.0
  0
LINE
  5
178
100
AcDbEntity
  8
LY_3
390
0
  6
CONTINUOUS
 62
     3
100
AcDbLine
 10
80.000017
 20
-4.99998
 30
0.0
 11
81.000018
 21
-5.999981
 31
0.0
  0
LINE
  5
179
100
AcDbEntity
  8
LY_3
390
0
  6
CONTINUOUS
 62
     3
100
AcDbLine
 10
81.0
 20
6.0
 30
0.0
 11
81.0
 21
-6.0
 31
0.0
  0
LINE
  5
17A
100
AcDbEntity
  8
LY_3
390
0
  6
CONTINUOUS
 62
     3
100
AcDbLine
 10
60.000048
 20
122.999965
 30
0.0
 11
61.000049
 21
123.999966
 31
0.0
  0
LINE
  5
17B
100
AcDbEntity
  8
LY_3
390
0
  6
CONTINUOUS
 62
     3
100
AcDbLine
 10
60.000005
 20
117.000024
 30
0.0
 11
61.000006
 21
116.000023
 31
0.0
  0
LINE
  5
17C
100
AcDbEntity
  8
LY_3
390
0
  6
CONTINUOUS
 62
     3
100
AcDbLine
 10
61.000015
 20
124.0
 30
0.0
 11
61.000015
 21
116.0
 31
0.0
  0
LINE
  5
17D
100
AcDbEntity
  8
LY_3
390
0
  6
CONTINUOUS
 62
     3
100
AcDbLine
 10
79.999991
 20
115.000008
 30
0.0
 11
80.999992
 21
114.000007
 31
0.0
  0
LINE
  5
17E
100
AcDbEntity
  8
LY_3
390
0
  6
CONTINUOUS
 62
     3
100
AcDbLine
 10
80.000039
 20
124.999959
 30
0.0
 11
81.000041
 21
125.99996
 31
0.0
  0
LINE
  5
17F
100
AcDbEntity
  8
LY_3
390
0
  6
CONTINUOUS
 62
     3
100
AcDbLine
 10
81.0
 20
126.0
 30
0.0
 11
81.0
 21
114.0
 31
0.0
  0
LINE
  5
180
100
AcDbEntity
  8
LY_3
390
0
  6
CONTINUOUS
 62
     3
100
AcDbLine
 10
120.300011
 20
-6.0
 30
0.0
 11
120.300011
 21
-11.0
 31
0.0
  0
LINE
  5
181
100
AcDbEntity
  8
LY_3
390
0
  6
CONTINUOUS
 62
     3
100
AcDbLine
 10
120.300011
 20
11.0
 30
0.0
 11
120.300011
 21
6.0
 31
0.0
  0
LINE
  5
182
100
AcDbEntity
  8
LY_3
390
0
  6
CONTINUOUS
 62
   110
100
AcDbLine
 10
120.300004
 20
-10.999997
 30
0.0
 11
125.979936
 21
-6.266719
 31
0.0
  0
LINE
  5
183
100
AcDbEntity
  8
LY_3
390
0
  6
CONTINUOUS
 62
   110
100
AcDbLine
 10
126.300042
 20
-10.999974
 30
0.0
 11
120.620106
 21
-6.266694
 31
0.0
  0
LINE
  5
184
100
AcDbEntity
  8
LY_3
390
0
  6
CONTINUOUS
 62
   110
100
AcDbLine
 10
120.62008
 20
6.266713
 30
0.0
 11
126.300015
 21
10.999992
 31
0.0
  0
LINE
  5
185
100
AcDbEntity
  8
LY_3
390
0
  6
CONTINUOUS
 62
   110
100
AcDbLine
 10
125.979952
 20
6.266747
 30
0.0
 11
120.300024
 21
11.00002
 31
0.0
  0
LINE
  5
186
100
AcDbEntity
  8
LY_3
390
0
  6
CONTINUOUS
 62
     3
100
AcDbLine
 10
238.8125
 20
121.5
 30
0.0
 11
239.1875
 21
121.5
 31
0.0
  0
LINE
  5
187
100
AcDbEntity
  8
LY_3
390
0
  6
CONTINUOUS
 62
     3
100
AcDbLine
 10
238.8125
 20
118.5
 30
0.0
 11
239.1875
 21
118.5
 31
0.0
  0
LINE
  5
188
100
AcDbEntity
  8
LY_3
390
0
  6
CONTINUOUS
 62
     3
100
AcDbLine
 10
240.5
 20
120.1875
 30
0.0
 11
240.5
 21
119.8125
 31
0.0
  0
LINE
  5
189
100
AcDbEntity
  8
LY_3
390
0
  6
CONTINUOUS
 62
     3
100
AcDbLine
 10
237.5
 20
120.1875
 30
0.0
 11
237.5
 21
119.8125
 31
0.0
  0
LINE
  5
18A
100
AcDbEntity
  8
LY_3
390
0
  6
CONTINUOUS
 62
     3
100
AcDbLine
 10
239.1875
 20
121.5
 30
0.0
 11
239.1875
 21
120.809555
 31
0.0
  0
LINE
  5
18B
100
AcDbEntity
  8
LY_3
390
0
  6
CONTINUOUS
 62
     3
100
AcDbLine
 10
238.8125
 20
121.5
 30
0.0
 11
238.8125
 21
120.809555
 31
0.0
  0
LINE
  5
18C
100
AcDbEntity
  8
LY_3
390
0
  6
CONTINUOUS
 62
     3
100
AcDbLine
 10
237.5
 20
119.8125
 30
0.0
 11
238.190453
 21
119.8125
 31
0.0
  0
LINE
  5
18D
100
AcDbEntity
  8
LY_3
390
0
  6
CONTINUOUS
 62
     3
100
AcDbLine
 10
237.5
 20
120.1875
 30
0.0
 11
238.190453
 21
120.1875
 31
0.0
  0
LINE
  5
18E
100
AcDbEntity
  8
LY_3
390
0
  6
CONTINUOUS
 62
     3
100
AcDbLine
 10
238.8125
 20
119.190445
 30
0.0
 11
238.8125
 21
118.5
 31
0.0
  0
LINE
  5
18F
100
AcDbEntity
  8
LY_3
390
0
  6
CONTINUOUS
 62
     3
100
AcDbLine
 10
239.1875
 20
119.190445
 30
0.0
 11
239.1875
 21
118.5
 31
0.0
  0
LINE
  5
190
100
AcDbEntity
  8
LY_3
390
0
  6
CONTINUOUS
 62
     3
100
AcDbLine
 10
239.809547
 20
119.8125
 30
0.0
 11
240.5
 21
119.8125
 31
0.0
  0
LINE
  5
191
100
AcDbEntity
  8
LY_3
390
0
  6
CONTINUOUS
 62
     3
100
AcDbLine
 10
239.809547
 20
120.1875
 30
0.0
 11
240.5
 21
120.1875
 31
0.0
  0
LINE
  5
192
100
AcDbEntity
  8
LY_3
390
0
  6
CONTINUOUS
 62
   110
100
AcDbLine
 10
232.0
 20
124.0
 30
0.0
 11
232.0
 21
116.0
 31
0.0
  0
LINE
  5
193
100
AcDbEntity
  8
LY_3
390
0
  6
CONTINUOUS
 62
     3
100
AcDbLine
 10
233.0
 20
124.0
 30
0.0
 11
233.0
 21
116.0
 31
0.0
  0
LINE
  5
194
100
AcDbEntity
  8
LY_3
390
0
  6
CONTINUOUS
 62
     3
100
AcDbLine
 10
231.0
 20
124.0
 30
0.0
 11
231.0
 21
116.0
 31
0.0
  0
LINE
  5
195
100
AcDbEntity
  8
LY_3
390
0
  6
PHANTOM
 62
   110
100
AcDbLine
 10
182.0
 20
124.0
 30
0.0
 11
182.0
 21
116.0
 31
0.0
  0
LINE
  5
196
100
AcDbEntity
  8
LY_3
390
0
  6
PHANTOM
 62
   110
100
AcDbLine
 10
183.0
 20
124.0
 30
0.0
 11
183.0
 21
116.0
 31
0.0
  0
LINE
  5
197
100
AcDbEntity
  8
LY_3
390
0
  6
PHANTOM
 62
   110
100
AcDbLine
 10
181.0
 20
124.0
 30
0.0
 11
181.0
 21
116.0
 31
0.0
  0
LINE
  5
198
100
AcDbEntity
  8
LY_3
390
0
  6
CONTINUOUS
 62
     3
100
AcDbLine
 10
110.0
 20
86.150009
 30
0.0
 11
110.0
 21
153.849991
 31
0.0
  0
LINE
  5
199
100
AcDbEntity
  8
LY_3
390
0
  6
CONTINUOUS
 62
     3
100
AcDbLine
 10
110.0
 20
6.0
 30
0.0
 11
110.0
 21
33.849976
 31
0.0
  0
LINE
  5
19A
100
AcDbEntity
  8
LY_3
390
0
  6
CONTINUOUS
 62
     3
100
AcDbLine
 10
122.699997
 20
12.7
 30
0.0
 11
122.699997
 21
33.850018
 31
0.0
  0
LINE
  5
19B
100
AcDbEntity
  8
LY_3
390
0
  6
CONTINUOUS
 62
     3
100
AcDbLine
 10
110.800011
 20
154.650009
 30
0.0
 11
110.800011
 21
85.349998
 31
0.0
  0
LINE
  5
19C
100
AcDbEntity
  8
LY_3
390
0
  6
CONTINUOUS
 62
     3
100
AcDbLine
 10
121.900002
 20
154.650009
 30
0.0
 11
121.900002
 21
85.349998
 31
0.0
  0
LINE
  5
19D
100
AcDbEntity
  8
LY_3
390
0
  6
CONTINUOUS
 62
   110
100
AcDbLine
 10
61.0
 20
122.999966
 30
0.0
 11
79.999976
 21
116.999969
 31
0.0
  0
LINE
  5
19E
100
AcDbEntity
  8
LY_3
390
0
  6
CONTINUOUS
 62
   110
100
AcDbLine
 10
80.000007
 20
122.999955
 30
0.0
 11
61.000029
 21
116.999958
 31
0.0
  0
LINE
  5
19F
100
AcDbEntity
  8
LY_3
390
0
  6
CONTINUOUS
 62
     3
100
AcDbLine
 10
115.300003
 20
12.7
 30
0.0
 11
142.5
 21
12.7
 31
0.0
  0
LINE
  5
1A0
100
AcDbEntity
  8
LY_3
390
0
  6
CONTINUOUS
 62
     3
100
AcDbLine
 10
126.300011
 20
9.0
 30
0.0
 11
152.999977
 21
9.0
 31
0.0
  0
LINE
  5
1A1
100
AcDbEntity
  8
LY_3
390
0
  6
CONTINUOUS
 62
     3
100
AcDbLine
 10
115.300003
 20
11.0
 30
0.0
 11
119.300003
 21
11.0
 31
0.0
  0
LINE
  5
1A2
100
AcDbEntity
  8
LY_3
390
0
  6
CONTINUOUS
 62
     3
100
AcDbLine
 10
115.300003
 20
-11.0
 30
0.0
 11
119.300003
 21
-11.0
 31
0.0
  0
LINE
  5
1A3
100
AcDbEntity
  8
LY_3
390
0
  6
CONTINUOUS
 62
     3
100
AcDbLine
 10
115.300003
 20
-12.7
 30
0.0
 11
142.5
 21
-12.7
 31
0.0
  0
LINE
  5
1A4
100
AcDbEntity
  8
LY_3
390
0
  6
CONTINUOUS
 62
     3
100
AcDbLine
 10
126.300011
 20
-9.0
 30
0.0
 11
152.999977
 21
-9.0
 31
0.0
  0
LINE
  5
1A5
100
AcDbEntity
  8
LY_3
390
0
  6
CONTINUOUS
 62
     3
100
AcDbLine
 10
119.300003
 20
-11.5
 30
0.0
 11
120.449997
 21
-11.5
 31
0.0
  0
LINE
  5
1A6
100
AcDbEntity
  8
LY_3
390
0
  6
CONTINUOUS
 62
     3
100
AcDbLine
 10
119.300003
 20
11.5
 30
0.0
 11
120.449997
 21
11.5
 31
0.0
  0
LINE
  5
1A7
100
AcDbEntity
  8
LY_3
390
0
  6
CONTINUOUS
 62
     3
100
AcDbLine
 10
119.300003
 20
11.5
 30
0.0
 11
119.300003
 21
6.0
 31
0.0
  0
LINE
  5
1A8
100
AcDbEntity
  8
LY_3
390
0
  6
CONTINUOUS
 62
     3
100
AcDbLine
 10
119.300003
 20
-6.0
 30
0.0
 11
119.300003
 21
-11.5
 31
0.0
  0
LINE
  5
1A9
100
AcDbEntity
  8
LY_3
390
0
  6
CONTINUOUS
 62
     3
100
AcDbLine
 10
120.450005
 20
11.5
 30
0.0
 11
120.450005
 21
11.0
 31
0.0
  0
LINE
  5
1AA
100
AcDbEntity
  8
LY_3
390
0
  6
CONTINUOUS
 62
     3
100
AcDbLine
 10
120.450005
 20
-11.0
 30
0.0
 11
120.450005
 21
-11.5
 31
0.0
  0
LINE
  5
1AB
100
AcDbEntity
  8
LY_3
390
0
  6
CONTINUOUS
 62
     3
100
AcDbLine
 10
289.0
 20
-23.0
 30
0.0
 11
289.0
 21
23.0
 31
0.0
  0
LINE
  5
1AC
100
AcDbEntity
  8
LY_3
390
0
  6
CONTINUOUS
 62
     3
100
AcDbLine
 10
289.5
 20
-5.75
 30
0.0
 11
289.5
 21
5.75
 31
0.0
  0
LINE
  5
1AD
100
AcDbEntity
  8
LY_3
390
0
  6
CENTER
 62
   110
100
AcDbLine
 10
286.025394
 20
17.0
 30
0.0
 11
316.072512
 21
17.0
 31
0.0
  0
LINE
  5
1AE
100
AcDbEntity
  8
LY_3
390
0
  6
CONTINUOUS
 62
     3
100
AcDbLine
 10
289.0
 20
22.0
 30
0.0
 11
312.699997
 21
22.0
 31
0.0
  0
LINE
  5
1AF
100
AcDbEntity
  8
LY_3
390
0
  6
CONTINUOUS
 62
     3
100
AcDbLine
 10
313.0
 20
12.299956
 30
0.0
 11
313.0
 21
21.700038
 31
0.0
  0
LINE
  5
1B0
100
AcDbEntity
  8
LY_3
390
0
  6
CONTINUOUS
 62
     3
100
AcDbLine
 10
289.0
 20
12.0
 30
0.0
 11
312.699997
 21
12.0
 31
0.0
  0
LINE
  5
1B1
100
AcDbEntity
  8
LY_3
390
0
  6
CONTINUOUS
 62
     3
100
AcDbLine
 10
312.700012
 20
22.000029
 30
0.0
 11
313.000026
 21
21.700012
 31
0.0
  0
LINE
  5
1B2
100
AcDbEntity
  8
LY_3
390
0
  6
CONTINUOUS
 62
     3
100
AcDbLine
 10
312.700025
 20
11.999972
 30
0.0
 11
313.000025
 21
12.299982
 31
0.0
  0
LINE
  5
1B3
100
AcDbEntity
  8
LY_3
390
0
  6
CENTER
 62
   110
100
AcDbLine
 10
267.0
 20
123.382469
 30
0.0
 11
267.0
 21
116.389854
 31
0.0
  0
LINE
  5
1B4
100
AcDbEntity
  8
LY_3
390
0
  6
CONTINUOUS
 62
     3
100
AcDbLine
 10
122.699997
 20
107.3
 30
0.0
 11
142.5
 21
107.3
 31
0.0
  0
LINE
  5
1B5
100
AcDbEntity
  8
LY_3
390
0
  6
CONTINUOUS
 62
     3
100
AcDbLine
 10
122.699997
 20
132.7
 30
0.0
 11
142.5
 21
132.7
 31
0.0
  0
LINE
  5
1B6
100
AcDbEntity
  8
LY_3
390
0
  6
CONTINUOUS
 62
     3
100
AcDbLine
 10
262.999968
 20
95.999974
 30
0.0
 11
263.999969
 21
94.999973
 31
0.0
  0
LINE
  5
1B7
100
AcDbEntity
  8
LY_3
390
0
  6
CONTINUOUS
 62
     3
100
AcDbLine
 10
263.999969
 20
95.0
 30
0.0
 11
270.0
 21
95.0
 31
0.0
  0
LINE
  5
1B8
100
AcDbEntity
  8
LY_3
390
0
  6
CONTINUOUS
 62
     3
100
AcDbLine
 10
270.000003
 20
95.000002
 30
0.0
 11
270.500004
 21
94.500001
 31
0.0
  0
LINE
  5
1B9
100
AcDbEntity
  8
LY_3
390
0
  6
CONTINUOUS
 62
     3
100
AcDbLine
 10
270.5
 20
94.5
 30
0.0
 11
282.5
 21
94.5
 31
0.0
  0
LINE
  5
1BA
100
AcDbEntity
  8
LY_3
390
0
  6
CONTINUOUS
 62
     3
100
AcDbLine
 10
282.999999
 20
94.999991
 30
0.0
 11
282.499998
 21
94.49999
 31
0.0
  0
LINE
  5
1BB
100
AcDbEntity
  8
LY_3
390
0
  6
CONTINUOUS
 62
     3
100
AcDbLine
 10
283.0
 20
95.0
 30
0.0
 11
287.0
 21
95.0
 31
0.0
  0
LINE
  5
1BC
100
AcDbEntity
  8
LY_3
390
0
  6
CONTINUOUS
 62
     3
100
AcDbLine
 10
289.0
 20
115.0
 30
0.0
 11
312.699997
 21
115.0
 31
0.0
  0
LINE
  5
1BD
100
AcDbEntity
  8
LY_3
390
0
  6
CONTINUOUS
 62
     3
100
AcDbLine
 10
312.700017
 20
114.999975
 30
0.0
 11
313.000031
 21
115.299992
 31
0.0
  0
LINE
  5
1BE
100
AcDbEntity
  8
LY_3
390
0
  6
CONTINUOUS
 62
     3
100
AcDbLine
 10
313.0
 20
124.700035
 30
0.0
 11
313.0
 21
115.299973
 31
0.0
  0
LINE
  5
1BF
100
AcDbEntity
  8
LY_3
390
0
  6
CONTINUOUS
 62
     3
100
AcDbLine
 10
312.700025
 20
125.000037
 30
0.0
 11
313.000025
 21
124.700028
 31
0.0
  0
LINE
  5
1C0
100
AcDbEntity
  8
LY_3
390
0
  6
CONTINUOUS
 62
     3
100
AcDbLine
 10
289.0
 20
125.0
 30
0.0
 11
312.699997
 21
125.0
 31
0.0
  0
LINE
  5
1C1
100
AcDbEntity
  8
LY_3
390
0
  6
CONTINUOUS
 62
     3
100
AcDbLine
 10
289.5
 20
125.75
 30
0.0
 11
289.5
 21
125.0
 31
0.0
  0
LINE
  5
1C2
100
AcDbEntity
  8
LY_3
390
0
  6
CONTINUOUS
 62
     3
100
AcDbLine
 10
289.0
 20
143.0
 30
0.0
 11
289.0
 21
97.0
 31
0.0
  0
LINE
  5
1C3
100
AcDbEntity
  8
LY_3
390
0
  6
CONTINUOUS
 62
     3
100
AcDbLine
 10
283.0
 20
145.0
 30
0.0
 11
287.0
 21
145.0
 31
0.0
  0
LINE
  5
1C4
100
AcDbEntity
  8
LY_3
390
0
  6
CONTINUOUS
 62
     3
100
AcDbLine
 10
283.000005
 20
145.000003
 30
0.0
 11
282.500004
 21
145.500004
 31
0.0
  0
LINE
  5
1C5
100
AcDbEntity
  8
LY_3
390
0
  6
CONTINUOUS
 62
     3
100
AcDbLine
 10
270.5
 20
145.5
 30
0.0
 11
282.5
 21
145.5
 31
0.0
  0
LINE
  5
1C6
100
AcDbEntity
  8
LY_3
390
0
  6
CONTINUOUS
 62
     3
100
AcDbLine
 10
269.999996
 20
144.999994
 30
0.0
 11
270.499997
 21
145.499994
 31
0.0
  0
LINE
  5
1C7
100
AcDbEntity
  8
LY_3
390
0
  6
CONTINUOUS
 62
     3
100
AcDbLine
 10
263.999954
 20
145.0
 30
0.0
 11
270.0
 21
145.0
 31
0.0
  0
LINE
  5
1C8
100
AcDbEntity
  8
LY_3
390
0
  6
CONTINUOUS
 62
     3
100
AcDbLine
 10
262.999966
 20
144.000027
 30
0.0
 11
263.999967
 21
145.000028
 31
0.0
  0
LINE
  5
1C9
100
AcDbEntity
  8
LY_3
390
0
  6
CONTINUOUS
 62
     3
100
AcDbLine
 10
263.0
 20
144.0
 30
0.0
 11
263.0
 21
95.999939
 31
0.0
  0
LINE
  5
1CA
100
AcDbEntity
  8
LY_3
390
0
  6
CONTINUOUS
 62
     3
100
AcDbLine
 10
263.999969
 20
145.0
 30
0.0
 11
263.999969
 21
95.0
 31
0.0
  0
LINE
  5
1CB
100
AcDbEntity
  8
LY_3
390
0
  6
CONTINUOUS
 62
     3
100
AcDbLine
 10
270.0
 20
145.0
 30
0.0
 11
270.0
 21
95.0
 31
0.0
  0
LINE
  5
1CC
100
AcDbEntity
  8
LY_3
390
0
  6
CONTINUOUS
 62
     3
100
AcDbLine
 10
270.5
 20
145.5
 30
0.0
 11
270.5
 21
94.5
 31
0.0
  0
LINE
  5
1CD
100
AcDbEntity
  8
LY_3
390
0
  6
CONTINUOUS
 62
     3
100
AcDbLine
 10
282.5
 20
145.5
 30
0.0
 11
282.5
 21
94.5
 31
0.0
  0
LINE
  5
1CE
100
AcDbEntity
  8
LY_3
390
0
  6
CONTINUOUS
 62
     3
100
AcDbLine
 10
283.0
 20
145.0
 30
0.0
 11
283.0
 21
95.0
 31
0.0
  0
LINE
  5
1CF
100
AcDbEntity
  8
LY_3
390
0
  6
CONTINUOUS
 62
     3
100
AcDbLine
 10
289.5
 20
115.0
 30
0.0
 11
289.5
 21
114.25
 31
0.0
  0
LINE
  5
1D0
100
AcDbEntity
  8
LY_3
390
0
  6
CONTINUOUS
 62
   110
100
AcDbLine
 10
270.5
 20
144.5
 30
0.0
 11
282.5
 21
144.5
 31
0.0
  0
LINE
  5
1D1
100
AcDbEntity
  8
LY_3
390
0
  6
CONTINUOUS
 62
   110
100
AcDbLine
 10
270.5
 20
143.5
 30
0.0
 11
282.5
 21
143.5
 31
0.0
  0
LINE
  5
1D2
100
AcDbEntity
  8
LY_3
390
0
  6
CONTINUOUS
 62
   110
100
AcDbLine
 10
270.5
 20
142.5
 30
0.0
 11
282.5
 21
142.5
 31
0.0
  0
LINE
  5
1D3
100
AcDbEntity
  8
LY_3
390
0
  6
CONTINUOUS
 62
   110
100
AcDbLine
 10
270.5
 20
141.5
 30
0.0
 11
282.5
 21
141.5
 31
0.0
  0
LINE
  5
1D4
100
AcDbEntity
  8
LY_3
390
0
  6
CONTINUOUS
 62
   110
100
AcDbLine
 10
270.5
 20
140.5
 30
0.0
 11
282.5
 21
140.5
 31
0.0
  0
LINE
  5
1D5
100
AcDbEntity
  8
LY_3
390
0
  6
CONTINUOUS
 62
   110
100
AcDbLine
 10
270.5
 20
139.5
 30
0.0
 11
282.5
 21
139.5
 31
0.0
  0
LINE
  5
1D6
100
AcDbEntity
  8
LY_3
390
0
  6
CONTINUOUS
 62
   110
100
AcDbLine
 10
270.5
 20
138.5
 30
0.0
 11
282.5
 21
138.5
 31
0.0
  0
LINE
  5
1D7
100
AcDbEntity
  8
LY_3
390
0
  6
CONTINUOUS
 62
   110
100
AcDbLine
 10
270.5
 20
137.5
 30
0.0
 11
282.5
 21
137.5
 31
0.0
  0
LINE
  5
1D8
100
AcDbEntity
  8
LY_3
390
0
  6
CONTINUOUS
 62
   110
100
AcDbLine
 10
270.5
 20
136.5
 30
0.0
 11
282.5
 21
136.5
 31
0.0
  0
LINE
  5
1D9
100
AcDbEntity
  8
LY_3
390
0
  6
CONTINUOUS
 62
   110
100
AcDbLine
 10
270.5
 20
135.5
 30
0.0
 11
282.5
 21
135.5
 31
0.0
  0
LINE
  5
1DA
100
AcDbEntity
  8
LY_3
390
0
  6
CONTINUOUS
 62
     3
100
AcDbLine
 10
144.0
 20
99.0
 30
0.0
 11
151.499992
 21
99.0
 31
0.0
  0
LINE
  5
1DB
100
AcDbEntity
  8
LY_3
390
0
  6
CONTINUOUS
 62
     3
100
AcDbLine
 10
144.000001
 20
98.999996
 30
0.0
 11
143.0
 21
99.999997
 31
0.0
  0
LINE
  5
1DC
100
AcDbEntity
  8
LY_3
390
0
  6
CONTINUOUS
 62
     3
100
AcDbLine
 10
143.0
 20
140.0
 30
0.0
 11
143.0
 21
100.0
 31
0.0
  0
LINE
  5
1DD
100
AcDbEntity
  8
LY_3
390
0
  6
CONTINUOUS
 62
     3
100
AcDbLine
 10
144.0
 20
141.0
 30
0.0
 11
151.5
 21
141.0
 31
0.0
  0
LINE
  5
1DE
100
AcDbEntity
  8
LY_3
390
0
  6
CONTINUOUS
 62
     3
100
AcDbLine
 10
143.999999
 20
141.000006
 30
0.0
 11
142.999998
 21
140.000005
 31
0.0
  0
LINE
  5
1DF
100
AcDbEntity
  8
LY_3
390
0
  6
CONTINUOUS
 62
     3
100
AcDbLine
 10
151.5
 20
140.999998
 30
0.0
 11
152.000001
 21
140.499998
 31
0.0
  0
LINE
  5
1E0
100
AcDbEntity
  8
LY_3
390
0
  6
CONTINUOUS
 62
     3
100
AcDbLine
 10
152.0
 20
140.5
 30
0.0
 11
152.0
 21
99.5
 31
0.0
  0
LINE
  5
1E1
100
AcDbEntity
  8
LY_3
390
0
  6
CONTINUOUS
 62
     3
100
AcDbLine
 10
151.499998
 20
99.000004
 30
0.0
 11
151.999998
 21
99.500004
 31
0.0
  0
LINE
  5
1E2
100
AcDbEntity
  8
LY_3
390
0
  6
CENTER
 62
   110
100
AcDbLine
 10
148.0
 20
123.419022
 30
0.0
 11
148.0
 21
116.554657
 31
0.0
  0
LINE
  5
1E3
100
AcDbEntity
  8
LY_3
390
0
  6
CONTINUOUS
 62
     3
100
AcDbLine
 10
143.0
 20
20.0
 30
0.0
 11
143.0
 21
13.2
 31
0.0
  0
LINE
  5
1E4
100
AcDbEntity
  8
LY_3
390
0
  6
CONTINUOUS
 62
     3
100
AcDbLine
 10
144.000004
 20
21.000005
 30
0.0
 11
143.000002
 21
20.000004
 31
0.0
  0
LINE
  5
1E5
100
AcDbEntity
  8
LY_3
390
0
  6
CONTINUOUS
 62
     3
100
AcDbLine
 10
143.0
 20
-20.0
 30
0.0
 11
143.0
 21
-13.2
 31
0.0
  0
LINE
  5
1E6
100
AcDbEntity
  8
LY_3
390
0
  6
CONTINUOUS
 62
     3
100
AcDbLine
 10
144.000006
 20
-21.0
 30
0.0
 11
143.000005
 21
-19.999998
 31
0.0
  0
LINE
  5
1E7
100
AcDbEntity
  8
LY_3
390
0
  6
CONTINUOUS
 62
     3
100
AcDbLine
 10
149.200615
 20
19.0
 30
0.0
 11
151.5
 21
19.0
 31
0.0
  0
LINE
  5
1E8
100
AcDbEntity
  8
LY_3
390
0
  6
CONTINUOUS
 62
     3
100
AcDbLine
 10
154.0
 20
14.5
 30
0.0
 11
154.0
 21
6.0
 31
0.0
  0
LINE
  5
1E9
100
AcDbEntity
  8
LY_3
390
0
  6
CONTINUOUS
 62
     3
100
AcDbLine
 10
151.0
 20
14.5
 30
0.0
 11
151.2202
 21
14.5
 31
0.0
  0
LINE
  5
1EA
100
AcDbEntity
  8
LY_3
390
0
  6
CONTINUOUS
 62
     3
100
AcDbLine
 10
153.179794
 20
14.5
 30
0.0
 11
154.0
 21
14.5
 31
0.0
  0
LINE
  5
1EB
100
AcDbEntity
  8
LY_3
390
0
  6
CONTINUOUS
 62
     3
100
AcDbLine
 10
151.0
 20
-16.550003
 30
0.0
 11
151.0
 21
-14.5
 31
0.0
  0
LINE
  5
1EC
100
AcDbEntity
  8
LY_3
390
0
  6
CONTINUOUS
 62
     3
100
AcDbLine
 10
151.0
 20
-14.5
 30
0.0
 11
151.2202
 21
-14.5
 31
0.0
  0
LINE
  5
1ED
100
AcDbEntity
  8
LY_3
390
0
  6
CONTINUOUS
 62
     3
100
AcDbLine
 10
153.179794
 20
-14.5
 30
0.0
 11
154.0
 21
-14.5
 31
0.0
  0
LINE
  5
1EE
100
AcDbEntity
  8
LY_3
390
0
  6
CONTINUOUS
 62
     3
100
AcDbLine
 10
152.999979
 20
-12.500051
 30
0.0
 11
153.999986
 21
-13.500057
 31
0.0
  0
LINE
  5
1EF
100
AcDbEntity
  8
LY_3
390
0
  6
CONTINUOUS
 62
     3
100
AcDbLine
 10
145.0
 20
19.0
 30
0.0
 11
146.799385
 21
19.0
 31
0.0
  0
LINE
  5
1F0
100
AcDbEntity
  8
LY_3
390
0
  6
CONTINUOUS
 62
     3
100
AcDbLine
 10
145.0
 20
19.0
 30
0.0
 11
145.0
 21
17.049999
 31
0.0
  0
LINE
  5
1F1
100
AcDbEntity
  8
LY_3
390
0
  6
CONTINUOUS
 62
     3
100
AcDbLine
 10
151.0
 20
16.550003
 30
0.0
 11
151.0
 21
14.5
 31
0.0
  0
LINE
  5
1F2
100
AcDbEntity
  8
LY_3
390
0
  6
CENTER
 62
   110
100
AcDbLine
 10
148.0
 20
22.207977
 30
0.0
 11
148.0
 21
11.371395
 31
0.0
  0
LINE
  5
1F3
100
AcDbEntity
  8
LY_3
390
0
  6
CONTINUOUS
 62
     3
100
AcDbLine
 10
154.0
 20
-14.5
 30
0.0
 11
154.0
 21
-6.0
 31
0.0
  0
LINE
  5
1F4
100
AcDbEntity
  8
LY_3
390
0
  6
CONTINUOUS
 62
     3
100
AcDbLine
 10
149.599998
 20
19.599998
 30
0.0
 11
149.599998
 21
19.0
 31
0.0
  0
LINE
  5
1F5
100
AcDbEntity
  8
LY_3
390
0
  6
CONTINUOUS
 62
     3
100
AcDbLine
 10
151.5
 20
21.0
 30
0.0
 11
143.999992
 21
21.0
 31
0.0
  0
LINE
  5
1F6
100
AcDbEntity
  8
LY_3
390
0
  6
CONTINUOUS
 62
   110
100
AcDbLine
 10
149.5
 20
18.950001
 30
0.0
 11
149.5
 21
18.349998
 31
0.0
  0
LINE
  5
1F7
100
AcDbEntity
  8
LY_3
390
0
  6
CONTINUOUS
 62
   110
100
AcDbLine
 10
146.5
 20
18.950001
 30
0.0
 11
146.5
 21
18.349998
 31
0.0
  0
LINE
  5
1F8
100
AcDbEntity
  8
LY_3
390
0
  6
CONTINUOUS
 62
     3
100
AcDbLine
 10
150.75
 20
20.849998
 30
0.0
 11
145.25
 21
20.849998
 31
0.0
  0
LINE
  5
1F9
100
AcDbEntity
  8
LY_3
390
0
  6
CONTINUOUS
 62
     3
100
AcDbLine
 10
149.199997
 20
18.968628
 30
0.0
 11
149.199997
 21
18.778442
 31
0.0
  0
LINE
  5
1FA
100
AcDbEntity
  8
LY_3
390
0
  6
CONTINUOUS
 62
     3
100
AcDbLine
 10
146.800003
 20
18.968628
 30
0.0
 11
146.800003
 21
18.778442
 31
0.0
  0
LINE
  5
1FB
100
AcDbEntity
  8
LY_3
390
0
  6
CONTINUOUS
 62
     3
100
AcDbLine
 10
149.296753
 20
19.349998
 30
0.0
 11
146.703247
 21
19.349998
 31
0.0
  0
LINE
  5
1FC
100
AcDbEntity
  8
LY_3
390
0
  6
CONTINUOUS
 62
     3
100
AcDbLine
 10
149.5
 20
15.0
 30
0.0
 11
146.5
 21
15.0
 31
0.0
  0
LINE
  5
1FD
100
AcDbEntity
  8
LY_3
390
0
  6
CONTINUOUS
 62
     3
100
AcDbLine
 10
149.5
 20
18.349998
 30
0.0
 11
146.5
 21
18.349998
 31
0.0
  0
LINE
  5
1FE
100
AcDbEntity
  8
LY_3
390
0
  6
CONTINUOUS
 62
     3
100
AcDbLine
 10
150.75
 20
21.0
 30
0.0
 11
150.75
 21
20.849998
 31
0.0
  0
LINE
  5
1FF
100
AcDbEntity
  8
LY_3
390
0
  6
CONTINUOUS
 62
     3
100
AcDbLine
 10
145.25
 20
21.0
 30
0.0
 11
145.25
 21
20.849998
 31
0.0
  0
LINE
  5
200
100
AcDbEntity
  8
LY_3
390
0
  6
CONTINUOUS
 62
     3
100
AcDbLine
 10
150.75
 20
20.850001
 30
0.0
 11
149.434312
 21
19.534312
 31
0.0
  0
LINE
  5
201
100
AcDbEntity
  8
LY_3
390
0
  6
CONTINUOUS
 62
     3
100
AcDbLine
 10
145.261335
 20
20.838665
 30
0.0
 11
146.565683
 21
19.534317
 31
0.0
  0
LINE
  5
202
100
AcDbEntity
  8
LY_3
390
0
  6
CONTINUOUS
 62
     3
100
AcDbLine
 10
149.500003
 20
18.35
 30
0.0
 11
149.200003
 21
18.778444
 31
0.0
  0
LINE
  5
203
100
AcDbEntity
  8
LY_3
390
0
  6
CONTINUOUS
 62
     3
100
AcDbLine
 10
146.500006
 20
18.350002
 30
0.0
 11
146.800005
 21
18.778446
 31
0.0
  0
LINE
  5
204
100
AcDbEntity
  8
LY_3
390
0
  6
CONTINUOUS
 62
   110
100
AcDbLine
 10
149.199997
 20
18.778442
 30
0.0
 11
149.199997
 21
15.0
 31
0.0
  0
LINE
  5
205
100
AcDbEntity
  8
LY_3
390
0
  6
CONTINUOUS
 62
   110
100
AcDbLine
 10
146.800003
 20
18.778442
 30
0.0
 11
146.800003
 21
15.0
 31
0.0
  0
LINE
  5
206
100
AcDbEntity
  8
LY_3
390
0
  6
CONTINUOUS
 62
     3
100
AcDbLine
 10
146.400002
 20
19.599998
 30
0.0
 11
146.400002
 21
19.0
 31
0.0
  0
LINE
  5
207
100
AcDbEntity
  8
LY_3
390
0
  6
CONTINUOUS
 62
     3
100
AcDbLine
 10
146.5
 20
19.599998
 30
0.0
 11
146.400002
 21
19.599998
 31
0.0
  0
LINE
  5
208
100
AcDbEntity
  8
LY_3
390
0
  6
CONTINUOUS
 62
     3
100
AcDbLine
 10
146.399999
 20
19.6
 30
0.0
 11
144.999996
 21
21.000004
 31
0.0
  0
LINE
  5
209
100
AcDbEntity
  8
LY_3
390
0
  6
CONTINUOUS
 62
     3
100
AcDbLine
 10
149.599999
 20
19.6
 30
0.0
 11
151.000002
 21
21.000004
 31
0.0
  0
LINE
  5
20A
100
AcDbEntity
  8
LY_3
390
0
  6
CONTINUOUS
 62
     3
100
AcDbLine
 10
149.5
 20
19.599998
 30
0.0
 11
149.599998
 21
19.599998
 31
0.0
  0
LINE
  5
20B
100
AcDbEntity
  8
LY_3
390
0
  6
CONTINUOUS
 62
     3
100
AcDbLine
 10
146.400002
 20
13.549999
 30
0.0
 11
149.599998
 21
13.549999
 31
0.0
  0
LINE
  5
20C
100
AcDbEntity
  8
LY_3
390
0
  6
CONTINUOUS
 62
     3
100
AcDbLine
 10
145.300003
 20
18.950001
 30
0.0
 11
146.800003
 21
18.950001
 31
0.0
  0
LINE
  5
20D
100
AcDbEntity
  8
LY_3
390
0
  6
CONTINUOUS
 62
     3
100
AcDbLine
 10
152.0
 20
20.5
 30
0.0
 11
152.0
 21
19.5
 31
0.0
  0
LINE
  5
20E
100
AcDbEntity
  8
LY_3
390
0
  6
CONTINUOUS
 62
     3
100
AcDbLine
 10
151.499997
 20
21.0
 30
0.0
 11
152.0
 21
20.499997
 31
0.0
  0
LINE
  5
20F
100
AcDbEntity
  8
LY_3
390
0
  6
CONTINUOUS
 62
     3
100
AcDbLine
 10
149.199997
 20
18.950001
 30
0.0
 11
152.0
 21
18.950001
 31
0.0
  0
LINE
  5
210
100
AcDbEntity
  8
LY_3
390
0
  6
CONTINUOUS
 62
     3
100
AcDbLine
 10
152.0
 20
19.499996
 30
0.0
 11
151.499999
 21
18.999995
 31
0.0
  0
LINE
  5
211
100
AcDbEntity
  8
LY_3
390
0
  6
CONTINUOUS
 62
     3
100
AcDbLine
 10
152.0
 20
19.0
 30
0.0
 11
152.0
 21
18.950001
 31
0.0
  0
LINE
  5
212
100
AcDbEntity
  8
LY_3
390
0
  6
CONTINUOUS
 62
     3
100
AcDbLine
 10
145.300003
 20
17.099998
 30
0.0
 11
146.800003
 21
17.099998
 31
0.0
  0
LINE
  5
213
100
AcDbEntity
  8
LY_3
390
0
  6
CONTINUOUS
 62
     3
100
AcDbLine
 10
149.199997
 20
17.099998
 30
0.0
 11
152.0
 21
17.099998
 31
0.0
  0
LINE
  5
214
100
AcDbEntity
  8
LY_3
390
0
  6
CONTINUOUS
 62
     3
100
AcDbLine
 10
145.0
 20
17.049999
 30
0.0
 11
146.5
 21
17.049999
 31
0.0
  0
LINE
  5
215
100
AcDbEntity
  8
LY_3
390
0
  6
CONTINUOUS
 62
     3
100
AcDbLine
 10
149.5
 20
17.049999
 30
0.0
 11
150.5
 21
17.049999
 31
0.0
  0
LINE
  5
216
100
AcDbEntity
  8
LY_3
390
0
  6
CONTINUOUS
 62
     3
100
AcDbLine
 10
145.300001
 20
18.950001
 30
0.0
 11
145.000002
 21
18.650002
 31
0.0
  0
LINE
  5
217
100
AcDbEntity
  8
LY_3
390
0
  6
CONTINUOUS
 62
     3
100
AcDbLine
 10
145.000008
 20
17.400001
 30
0.0
 11
145.300007
 21
17.100001
 31
0.0
  0
LINE
  5
218
100
AcDbEntity
  8
LY_3
390
0
  6
CONTINUOUS
 62
     3
100
AcDbLine
 10
151.500005
 20
-21.000001
 30
0.0
 11
152.000006
 21
-20.5
 31
0.0
  0
LINE
  5
219
100
AcDbEntity
  8
LY_3
390
0
  6
CONTINUOUS
 62
     3
100
AcDbLine
 10
152.0
 20
-20.5
 30
0.0
 11
152.0
 21
-19.5
 31
0.0
  0
LINE
  5
21A
100
AcDbEntity
  8
LY_3
390
0
  6
CONTINUOUS
 62
     3
100
AcDbLine
 10
149.599998
 20
-19.599998
 30
0.0
 11
149.599998
 21
-19.0
 31
0.0
  0
LINE
  5
21B
100
AcDbEntity
  8
LY_3
390
0
  6
CONTINUOUS
 62
     3
100
AcDbLine
 10
151.5
 20
-21.0
 30
0.0
 11
143.999992
 21
-21.0
 31
0.0
  0
LINE
  5
21C
100
AcDbEntity
  8
LY_3
390
0
  6
CONTINUOUS
 62
     3
100
AcDbLine
 10
150.75
 20
-20.849998
 30
0.0
 11
145.25
 21
-20.849998
 31
0.0
  0
LINE
  5
21D
100
AcDbEntity
  8
LY_3
390
0
  6
CONTINUOUS
 62
     3
100
AcDbLine
 10
150.75
 20
-21.0
 30
0.0
 11
150.75
 21
-20.849998
 31
0.0
  0
LINE
  5
21E
100
AcDbEntity
  8
LY_3
390
0
  6
CONTINUOUS
 62
     3
100
AcDbLine
 10
145.25
 20
-21.0
 30
0.0
 11
145.25
 21
-20.849998
 31
0.0
  0
LINE
  5
21F
100
AcDbEntity
  8
LY_3
390
0
  6
CONTINUOUS
 62
     3
100
AcDbLine
 10
150.750005
 20
-20.85
 30
0.0
 11
149.434317
 21
-19.534312
 31
0.0
  0
LINE
  5
220
100
AcDbEntity
  8
LY_3
390
0
  6
CONTINUOUS
 62
     3
100
AcDbLine
 10
145.261333
 20
-20.838662
 30
0.0
 11
146.565681
 21
-19.534313
 31
0.0
  0
LINE
  5
221
100
AcDbEntity
  8
LY_3
390
0
  6
CONTINUOUS
 62
     3
100
AcDbLine
 10
146.400002
 20
-19.599998
 30
0.0
 11
146.400002
 21
-19.0
 31
0.0
  0
LINE
  5
222
100
AcDbEntity
  8
LY_3
390
0
  6
CONTINUOUS
 62
     3
100
AcDbLine
 10
146.5
 20
-19.599998
 30
0.0
 11
146.400002
 21
-19.599998
 31
0.0
  0
LINE
  5
223
100
AcDbEntity
  8
LY_3
390
0
  6
CONTINUOUS
 62
     3
100
AcDbLine
 10
146.400004
 20
-19.6
 30
0.0
 11
144.999995
 21
-21.000009
 31
0.0
  0
LINE
  5
224
100
AcDbEntity
  8
LY_3
390
0
  6
CONTINUOUS
 62
     3
100
AcDbLine
 10
149.600003
 20
-19.6
 30
0.0
 11
151.000002
 21
-20.999998
 31
0.0
  0
LINE
  5
225
100
AcDbEntity
  8
LY_3
390
0
  6
CONTINUOUS
 62
     3
100
AcDbLine
 10
149.5
 20
-19.599998
 30
0.0
 11
149.599998
 21
-19.599998
 31
0.0
  0
LINE
  5
226
100
AcDbEntity
  8
LY_3
390
0
  6
CONTINUOUS
 62
     3
100
AcDbLine
 10
152.000006
 20
-19.499999
 30
0.0
 11
151.500005
 21
-18.999999
 31
0.0
  0
LINE
  5
227
100
AcDbEntity
  8
LY_3
390
0
  6
CONTINUOUS
 62
     3
100
AcDbLine
 10
150.499998
 20
17.050003
 30
0.0
 11
150.999999
 21
16.550002
 31
0.0
  0
LINE
  5
228
100
AcDbEntity
  8
LY_3
390
0
  6
CONTINUOUS
 62
     3
100
AcDbLine
 10
152.0
 20
17.099998
 30
0.0
 11
152.0
 21
17.0
 31
0.0
  0
LINE
  5
229
100
AcDbEntity
  8
LY_3
390
0
  6
CONTINUOUS
 62
     3
100
AcDbLine
 10
152.0
 20
-19.0
 30
0.0
 11
152.0
 21
-18.949997
 31
0.0
  0
LINE
  5
22A
100
AcDbEntity
  8
LY_3
390
0
  6
CONTINUOUS
 62
     3
100
AcDbLine
 10
152.999977
 20
-6.0
 30
0.0
 11
152.999977
 21
-12.500053
 31
0.0
  0
LINE
  5
22B
100
AcDbEntity
  8
LY_3
390
0
  6
CONTINUOUS
 62
     3
100
AcDbLine
 10
152.999977
 20
6.0
 30
0.0
 11
152.999977
 21
12.500053
 31
0.0
  0
LINE
  5
22C
100
AcDbEntity
  8
LY_3
390
0
  6
CONTINUOUS
 62
     3
100
AcDbLine
 10
152.999979
 20
12.500056
 30
0.0
 11
153.999986
 21
13.500062
 31
0.0
  0
LINE
  5
22D
100
AcDbEntity
  8
LY_3
390
0
  6
CONTINUOUS
 62
     3
100
AcDbLine
 10
146.5
 20
18.349998
 30
0.0
 11
146.5
 21
15.0
 31
0.0
  0
LINE
  5
22E
100
AcDbEntity
  8
LY_3
390
0
  6
CONTINUOUS
 62
     3
100
AcDbLine
 10
149.5
 20
18.349998
 30
0.0
 11
149.5
 21
15.0
 31
0.0
  0
LINE
  5
22F
100
AcDbEntity
  8
LY_3
390
0
  6
CONTINUOUS
 62
     3
100
AcDbLine
 10
149.599998
 20
17.049999
 30
0.0
 11
149.599998
 21
13.549999
 31
0.0
  0
LINE
  5
230
100
AcDbEntity
  8
LY_3
390
0
  6
CONTINUOUS
 62
     3
100
AcDbLine
 10
146.400002
 20
17.049999
 30
0.0
 11
146.400002
 21
13.549999
 31
0.0
  0
LINE
  5
231
100
AcDbEntity
  8
LY_3
390
0
  6
CONTINUOUS
 62
     3
100
AcDbLine
 10
146.4
 20
13.550001
 30
0.0
 11
147.999998
 21
12.626242
 31
0.0
  0
LINE
  5
232
100
AcDbEntity
  8
LY_3
390
0
  6
CONTINUOUS
 62
     3
100
AcDbLine
 10
148.000001
 20
12.626238
 30
0.0
 11
149.599999
 21
13.549997
 31
0.0
  0
LINE
  5
233
100
AcDbEntity
  8
LY_3
390
0
  6
CONTINUOUS
 62
     3
100
AcDbLine
 10
152.0
 20
17.0
 30
0.0
 11
167.759811
 21
17.0
 31
0.0
  0
LINE
  5
234
100
AcDbEntity
  8
LY_3
390
0
  6
CONTINUOUS
 62
     3
100
AcDbLine
 10
146.400002
 20
-17.050003
 30
0.0
 11
146.400002
 21
-13.550003
 31
0.0
  0
LINE
  5
235
100
AcDbEntity
  8
LY_3
390
0
  6
CONTINUOUS
 62
     3
100
AcDbLine
 10
146.400002
 20
-13.550003
 30
0.0
 11
149.599998
 21
-13.550003
 31
0.0
  0
LINE
  5
236
100
AcDbEntity
  8
LY_3
390
0
  6
CONTINUOUS
 62
     3
100
AcDbLine
 10
146.399998
 20
-13.55
 30
0.0
 11
147.999996
 21
-12.626241
 31
0.0
  0
LINE
  5
237
100
AcDbEntity
  8
LY_3
390
0
  6
CENTER
 62
   110
100
AcDbLine
 10
148.0
 20
-22.207977
 30
0.0
 11
148.0
 21
-11.371399
 31
0.0
  0
LINE
  5
238
100
AcDbEntity
  8
LY_3
390
0
  6
CONTINUOUS
 62
     3
100
AcDbLine
 10
147.999996
 20
-12.626241
 30
0.0
 11
149.599998
 21
-13.550003
 31
0.0
  0
LINE
  5
239
100
AcDbEntity
  8
LY_3
390
0
  6
CONTINUOUS
 62
     3
100
AcDbLine
 10
149.599998
 20
-17.050003
 30
0.0
 11
149.599998
 21
-13.550003
 31
0.0
  0
LINE
  5
23A
100
AcDbEntity
  8
LY_3
390
0
  6
CONTINUOUS
 62
   110
100
AcDbLine
 10
149.199997
 20
-18.778442
 30
0.0
 11
149.199997
 21
-15.0
 31
0.0
  0
LINE
  5
23B
100
AcDbEntity
  8
LY_3
390
0
  6
CONTINUOUS
 62
     3
100
AcDbLine
 10
149.5
 20
-18.349998
 30
0.0
 11
149.5
 21
-15.0
 31
0.0
  0
LINE
  5
23C
100
AcDbEntity
  8
LY_3
390
0
  6
CONTINUOUS
 62
     3
100
AcDbLine
 10
149.5
 20
-15.0
 30
0.0
 11
146.5
 21
-15.0
 31
0.0
  0
LINE
  5
23D
100
AcDbEntity
  8
LY_3
390
0
  6
CONTINUOUS
 62
   110
100
AcDbLine
 10
146.800003
 20
-18.778442
 30
0.0
 11
146.800003
 21
-15.0
 31
0.0
  0
LINE
  5
23E
100
AcDbEntity
  8
LY_3
390
0
  6
CONTINUOUS
 62
     3
100
AcDbLine
 10
146.5
 20
-18.349998
 30
0.0
 11
146.5
 21
-15.0
 31
0.0
  0
LINE
  5
23F
100
AcDbEntity
  8
LY_3
390
0
  6
CONTINUOUS
 62
     3
100
AcDbLine
 10
149.199997
 20
-17.099998
 30
0.0
 11
152.0
 21
-17.099998
 31
0.0
  0
LINE
  5
240
100
AcDbEntity
  8
LY_3
390
0
  6
CONTINUOUS
 62
     3
100
AcDbLine
 10
149.5
 20
-17.050003
 30
0.0
 11
150.5
 21
-17.050003
 31
0.0
  0
LINE
  5
241
100
AcDbEntity
  8
LY_3
390
0
  6
CONTINUOUS
 62
     3
100
AcDbLine
 10
150.500004
 20
-17.050006
 30
0.0
 11
151.000004
 21
-16.550006
 31
0.0
  0
LINE
  5
242
100
AcDbEntity
  8
LY_3
390
0
  6
CONTINUOUS
 62
     3
100
AcDbLine
 10
145.300003
 20
-17.099998
 30
0.0
 11
146.800003
 21
-17.099998
 31
0.0
  0
LINE
  5
243
100
AcDbEntity
  8
LY_3
390
0
  6
CONTINUOUS
 62
     3
100
AcDbLine
 10
145.000002
 20
-17.400003
 30
0.0
 11
145.300001
 21
-17.100004
 31
0.0
  0
LINE
  5
244
100
AcDbEntity
  8
LY_3
390
0
  6
CONTINUOUS
 62
     3
100
AcDbLine
 10
145.0
 20
-17.050003
 30
0.0
 11
146.5
 21
-17.050003
 31
0.0
  0
LINE
  5
245
100
AcDbEntity
  8
LY_3
390
0
  6
CONTINUOUS
 62
     3
100
AcDbLine
 10
145.0
 20
-19.0
 30
0.0
 11
145.0
 21
-17.050003
 31
0.0
  0
LINE
  5
246
100
AcDbEntity
  8
LY_3
390
0
  6
CONTINUOUS
 62
     3
100
AcDbLine
 10
145.0
 20
-19.0
 30
0.0
 11
146.799385
 21
-19.0
 31
0.0
  0
LINE
  5
247
100
AcDbEntity
  8
LY_3
390
0
  6
CONTINUOUS
 62
     3
100
AcDbLine
 10
145.299996
 20
-18.950004
 30
0.0
 11
144.999996
 21
-18.650005
 31
0.0
  0
LINE
  5
248
100
AcDbEntity
  8
LY_3
390
0
  6
CONTINUOUS
 62
     3
100
AcDbLine
 10
145.300003
 20
-18.949997
 30
0.0
 11
146.800003
 21
-18.949997
 31
0.0
  0
LINE
  5
249
100
AcDbEntity
  8
LY_3
390
0
  6
CONTINUOUS
 62
   110
100
AcDbLine
 10
146.5
 20
-18.949997
 30
0.0
 11
146.5
 21
-18.349998
 31
0.0
  0
LINE
  5
24A
100
AcDbEntity
  8
LY_3
390
0
  6
CONTINUOUS
 62
     3
100
AcDbLine
 10
146.499996
 20
-18.350009
 30
0.0
 11
146.799996
 21
-18.778453
 31
0.0
  0
LINE
  5
24B
100
AcDbEntity
  8
LY_3
390
0
  6
CONTINUOUS
 62
     3
100
AcDbLine
 10
149.5
 20
-18.349998
 30
0.0
 11
146.5
 21
-18.349998
 31
0.0
  0
LINE
  5
24C
100
AcDbEntity
  8
LY_3
390
0
  6
CONTINUOUS
 62
     3
100
AcDbLine
 10
146.800003
 20
-18.968628
 30
0.0
 11
146.800003
 21
-18.778442
 31
0.0
  0
LINE
  5
24D
100
AcDbEntity
  8
LY_3
390
0
  6
CONTINUOUS
 62
     3
100
AcDbLine
 10
149.296753
 20
-19.349998
 30
0.0
 11
146.703247
 21
-19.349998
 31
0.0
  0
LINE
  5
24E
100
AcDbEntity
  8
LY_3
390
0
  6
CONTINUOUS
 62
     3
100
AcDbLine
 10
149.199997
 20
-18.968628
 30
0.0
 11
149.199997
 21
-18.778442
 31
0.0
  0
LINE
  5
24F
100
AcDbEntity
  8
LY_3
390
0
  6
CONTINUOUS
 62
     3
100
AcDbLine
 10
149.500001
 20
-18.350001
 30
0.0
 11
149.200002
 21
-18.778445
 31
0.0
  0
LINE
  5
250
100
AcDbEntity
  8
LY_3
390
0
  6
CONTINUOUS
 62
   110
100
AcDbLine
 10
149.5
 20
-18.949997
 30
0.0
 11
149.5
 21
-18.349998
 31
0.0
  0
LINE
  5
251
100
AcDbEntity
  8
LY_3
390
0
  6
CONTINUOUS
 62
     3
100
AcDbLine
 10
149.199997
 20
-18.949997
 30
0.0
 11
152.0
 21
-18.949997
 31
0.0
  0
LINE
  5
252
100
AcDbEntity
  8
LY_3
390
0
  6
CONTINUOUS
 62
     3
100
AcDbLine
 10
149.200615
 20
-19.0
 30
0.0
 11
151.5
 21
-19.0
 31
0.0
  0
LINE
  5
253
100
AcDbEntity
  8
LY_3
390
0
  6
CONTINUOUS
 62
     3
100
AcDbLine
 10
152.0
 20
-17.099998
 30
0.0
 11
152.0
 21
-17.0
 31
0.0
  0
LINE
  5
254
100
AcDbEntity
  8
LY_3
390
0
  6
CONTINUOUS
 62
     3
100
AcDbLine
 10
152.0
 20
-17.0
 30
0.0
 11
166.729866
 21
-17.0
 31
0.0
  0
LINE
  5
255
100
AcDbEntity
  8
LY_3
390
0
  6
CENTER
 62
   110
100
AcDbLine
 10
250.854416
 20
120.0
 30
0.0
 11
256.069458
 21
120.0
 31
0.0
  0
LINE
  5
256
100
AcDbEntity
  8
LY_3
390
0
  6
CENTER
 62
   110
100
AcDbLine
 10
260.816483
 20
120.0
 30
0.0
 11
320.706329
 21
120.0
 31
0.0
  0
LINE
  5
257
100
AcDbEntity
  8
LY_3
390
0
  6
CONTINUOUS
 62
     3
100
AcDbLine
 10
151.5
 20
141.0
 30
0.0
 11
151.5
 21
99.0
 31
0.0
  0
LINE
  5
258
100
AcDbEntity
  8
LY_3
390
0
  6
CONTINUOUS
 62
     3
100
AcDbLine
 10
144.0
 20
141.0
 30
0.0
 11
144.0
 21
99.0
 31
0.0
  0
LINE
  5
259
100
AcDbEntity
  8
LY_3
390
0
  6
CONTINUOUS
 62
   110
100
AcDbLine
 10
251.0
 20
107.068726
 30
0.0
 11
255.0
 21
107.068726
 31
0.0
  0
ARC
  5
25A
100
AcDbEntity
  8
LY_3
390
0
  6
CONTINUOUS
 62
     3
100
AcDbCircle
 10
0.0
 20
0.0
 30
0.0
 40
4.0
100
AcDbArc
 50
0.0
 51
48.590372
  0
ARC
  5
25B
100
AcDbEntity
  8
LY_3
390
0
  6
CONTINUOUS
 62
     3
100
AcDbCircle
 10
0.0
 20
0.0
 30
0.0
 40
4.0
100
AcDbArc
 50
131.409643
 51
0.00001
  0
ARC
  5
25C
100
AcDbEntity
  8
LY_3
390
0
  6
CONTINUOUS
 62
     3
100
AcDbCircle
 10
111.407661
 20
-23.900002
 30
0.0
 40
0.25
100
AcDbArc
 50
270.000018
 51
19.999887
  0
ARC
  5
25D
100
AcDbEntity
  8
LY_3
390
0
  6
CONTINUOUS
 62
     3
100
AcDbCircle
 10
111.407669
 20
23.900002
 30
0.0
 40
0.25
100
AcDbArc
 50
340.000113
 51
89.999982
  0
ARC
  5
25E
100
AcDbEntity
  8
LY_3
390
0
  6
CONTINUOUS
 62
     3
100
AcDbCircle
 10
121.300011
 20
-7.0
 30
0.0
 40
1.0
100
AcDbArc
 50
89.999982
 51
179.999964
  0
ARC
  5
25F
100
AcDbEntity
  8
LY_3
390
0
  6
CONTINUOUS
 62
     3
100
AcDbCircle
 10
125.300011
 20
-7.0
 30
0.0
 40
1.0
100
AcDbArc
 50
0.0
 51
89.999982
  0
ARC
  5
260
100
AcDbEntity
  8
LY_3
390
0
  6
CONTINUOUS
 62
     3
100
AcDbCircle
 10
121.300011
 20
7.0
 30
0.0
 40
1.0
100
AcDbArc
 50
179.999981
 51
270.000018
  0
ARC
  5
261
100
AcDbEntity
  8
LY_3
390
0
  6
CONTINUOUS
 62
     3
100
AcDbCircle
 10
125.300011
 20
7.0
 30
0.0
 40
1.0
100
AcDbArc
 50
270.000018
 51
0.0
  0
ARC
  5
262
100
AcDbEntity
  8
LY_3
390
0
  6
CONTINUOUS
 62
     3
100
AcDbCircle
 10
0.0
 20
-4.5
 30
0.0
 40
3.0
100
AcDbArc
 50
194.477496
 51
345.522458
  0
ARC
  5
263
100
AcDbEntity
  8
LY_3
390
0
  6
CONTINUOUS
 62
     3
100
AcDbCircle
 10
4.5
 20
0.0
 30
0.0
 40
3.0
100
AcDbArc
 50
284.477492
 51
75.522481
  0
ARC
  5
264
100
AcDbEntity
  8
LY_3
390
0
  6
CONTINUOUS
 62
     3
100
AcDbCircle
 10
0.0
 20
4.5
 30
0.0
 40
3.0
100
AcDbArc
 50
14.477488
 51
165.522476
  0
ARC
  5
265
100
AcDbEntity
  8
LY_3
390
0
  6
CONTINUOUS
 62
     3
100
AcDbCircle
 10
-4.5
 20
0.0
 30
0.0
 40
3.0
100
AcDbArc
 50
104.477483
 51
255.522459
  0
CIRCLE
  5
266
100
AcDbEntity
  8
LY_3
390
0
  6
CONTINUOUS
 62
     3
100
AcDbCircle
 10
0.0
 20
0.0
 30
0.0
 40
6.0
  0
ARC
  5
267
100
AcDbEntity
  8
LY_3
390
0
  6
CONTINUOUS
 62
     3
100
AcDbCircle
 10
0.0
 20
0.0
 30
0.0
 40
11.0
100
AcDbArc
 50
249.154083
 51
290.845817
  0
ARC
  5
268
100
AcDbEntity
  8
LY_3
390
0
  6
CONTINUOUS
 62
     3
100
AcDbCircle
 10
0.0
 20
0.0
 30
0.0
 40
11.5
100
AcDbArc
 50
291.24707
 51
248.752894
  0
ARC
  5
269
100
AcDbEntity
  8
LY_3
390
0
  6
CONTINUOUS
 62
     3
100
AcDbCircle
 10
0.0
 20
-0.625
 30
0.0
 40
9.625
100
AcDbArc
 50
322.129162
 51
217.870808
  0
CIRCLE
  5
26A
100
AcDbEntity
  8
LY_3
390
0
  6
CONTINUOUS
 62
     3
100
AcDbCircle
 10
-4.725006
 20
-8.183945
 30
0.0
 40
1.0
  0
CIRCLE
  5
26B
100
AcDbEntity
  8
LY_3
390
0
  6
CONTINUOUS
 62
     3
100
AcDbCircle
 10
4.725006
 20
-8.183945
 30
0.0
 40
1.0
  0
ARC
  5
26C
100
AcDbEntity
  8
LY_3
390
0
  6
CONTINUOUS
 62
     3
100
AcDbCircle
 10
-4.725006
 20
-8.183945
 30
0.0
 40
2.05
100
AcDbArc
 50
1.388137
 51
132.156538
  0
ARC
  5
26D
100
AcDbEntity
  8
LY_3
390
0
  6
CONTINUOUS
 62
     3
100
AcDbCircle
 10
4.725006
 20
-8.183945
 30
0.0
 40
2.05
100
AcDbArc
 50
47.843494
 51
178.611878
  0
ARC
  5
26E
100
AcDbEntity
  8
LY_3
390
0
  6
CONTINUOUS
 62
     3
100
AcDbCircle
 10
-6.788818
 20
-5.904404
 30
0.0
 40
1.025
100
AcDbArc
 50
217.870826
 51
312.156516
  0
ARC
  5
26F
100
AcDbEntity
  8
LY_3
390
0
  6
CONTINUOUS
 62
     3
100
AcDbCircle
 10
6.788818
 20
-5.904396
 30
0.0
 40
1.025
100
AcDbArc
 50
227.843462
 51
322.129169
  0
CIRCLE
  5
270
100
AcDbEntity
  8
LY_3
390
0
  6
CONTINUOUS
 62
     3
100
AcDbCircle
 10
0.0
 20
0.0
 30
0.0
 40
12.0
  0
CIRCLE
  5
271
100
AcDbEntity
  8
LY_3
390
0
  6
CONTINUOUS
 62
     3
100
AcDbCircle
 10
0.0
 20
0.0
 30
0.0
 40
12.85
  0
CIRCLE
  5
272
100
AcDbEntity
  8
LY_3
390
0
  6
CONTINUOUS
 62
     3
100
AcDbCircle
 10
0.0
 20
0.0
 30
0.0
 40
20.950001
  0
CIRCLE
  5
273
100
AcDbEntity
  8
LY_3
390
0
  6
CONTINUOUS
 62
     3
100
AcDbCircle
 10
0.0
 20
0.0
 30
0.0
 40
24.15
  0
CIRCLE
  5
274
100
AcDbEntity
  8
LY_3
390
0
  6
CENTER
 62
   110
100
AcDbCircle
 10
0.0
 20
0.0
 30
0.0
 40
29.35
  0
ARC
  5
275
100
AcDbEntity
  8
LY_3
390
0
  6
CONTINUOUS
 62
     3
100
AcDbCircle
 10
0.0
 20
0.0
 30
0.0
 40
33.849998
100
AcDbArc
 50
91.692906
 51
268.30707
  0
CIRCLE
  5
276
100
AcDbEntity
  8
LY_3
390
0
  6
CONTINUOUS
 62
     3
100
AcDbCircle
 10
0.0
 20
0.0
 30
0.0
 40
34.650002
  0
CIRCLE
  5
277
100
AcDbEntity
  8
LY_3
390
0
  6
CONTINUOUS
 62
     3
100
AcDbCircle
 10
14.675003
 20
25.417847
 30
0.0
 40
3.4
  0
CIRCLE
  5
278
100
AcDbEntity
  8
LY_3
390
0
  6
CONTINUOUS
 62
     3
100
AcDbCircle
 10
-14.675003
 20
25.417847
 30
0.0
 40
3.4
  0
CIRCLE
  5
279
100
AcDbEntity
  8
LY_3
390
0
  6
CONTINUOUS
 62
     3
100
AcDbCircle
 10
-29.350006
 20
0.000004
 30
0.0
 40
3.4
  0
CIRCLE
  5
27A
100
AcDbEntity
  8
LY_3
390
0
  6
CONTINUOUS
 62
     3
100
AcDbCircle
 10
-14.675003
 20
-25.417847
 30
0.0
 40
3.4
  0
CIRCLE
  5
27B
100
AcDbEntity
  8
LY_3
390
0
  6
CONTINUOUS
 62
     3
100
AcDbCircle
 10
14.675003
 20
-25.417854
 30
0.0
 40
3.4
  0
CIRCLE
  5
27C
100
AcDbEntity
  8
LY_3
390
0
  6
CONTINUOUS
 62
     3
100
AcDbCircle
 10
29.350006
 20
-0.000008
 30
0.0
 40
3.4
  0
ARC
  5
27D
100
AcDbEntity
  8
LY_3
390
0
  6
CONTINUOUS
 62
     3
100
AcDbCircle
 10
0.0
 20
0.0
 30
0.0
 40
33.849998
100
AcDbArc
 50
271.692887
 51
88.307113
  0
ARC
  5
27E
100
AcDbEntity
  8
LY_3
390
0
  6
CONTINUOUS
 62
     3
100
AcDbCircle
 10
238.190453
 20
120.809555
 30
0.0
 40
0.622046
100
AcDbArc
 50
270.000018
 51
0.0
  0
ARC
  5
27F
100
AcDbEntity
  8
LY_3
390
0
  6
CONTINUOUS
 62
     3
100
AcDbCircle
 10
238.190453
 20
119.190445
 30
0.0
 40
0.622046
100
AcDbArc
 50
0.0
 51
89.999982
  0
ARC
  5
280
100
AcDbEntity
  8
LY_3
390
0
  6
CONTINUOUS
 62
     3
100
AcDbCircle
 10
239.809547
 20
119.190445
 30
0.0
 40
0.622046
100
AcDbArc
 50
89.999982
 51
179.999964
  0
ARC
  5
281
100
AcDbEntity
  8
LY_3
390
0
  6
CONTINUOUS
 62
     3
100
AcDbCircle
 10
239.809547
 20
120.809555
 30
0.0
 40
0.622046
100
AcDbArc
 50
179.999981
 51
270.000018
  0
CIRCLE
  5
282
100
AcDbEntity
  8
LY_3
390
0
  6
CONTINUOUS
 62
     3
100
AcDbCircle
 10
239.0
 20
120.0
 30
0.0
 40
2.8
  0
ARC
  5
283
100
AcDbEntity
  8
LY_3
390
0
  6
CONTINUOUS
 62
     3
100
AcDbCircle
 10
176.0
 20
120.0
 30
0.0
 40
4.0
100
AcDbArc
 50
89.999982
 51
270.000001
  0
ARC
  5
284
100
AcDbEntity
  8
LY_3
390
0
  6
CONTINUOUS
 62
     3
100
AcDbCircle
 10
238.0
 20
120.0
 30
0.0
 40
4.0
100
AcDbArc
 50
0.0
 51
89.999982
  0
ARC
  5
285
100
AcDbEntity
  8
LY_3
390
0
  6
CONTINUOUS
 62
     3
100
AcDbCircle
 10
238.0
 20
120.0
 30
0.0
 40
4.0
100
AcDbArc
 50
270.000018
 51
0.0
  0
ARC
  5
286
100
AcDbEntity
  8
LY_3
390
0
  6
CONTINUOUS
 62
     3
100
AcDbCircle
 10
286.899994
 20
5.75
 30
0.0
 40
2.6
100
AcDbArc
 50
323.871304
 51
36.128696
  0
ARC
  5
287
100
AcDbEntity
  8
LY_3
390
0
  6
CONTINUOUS
 62
     3
100
AcDbCircle
 10
277.5
 20
0.0
 30
0.0
 40
12.0
100
AcDbArc
 50
343.402158
 51
16.597842
  0
ARC
  5
288
100
AcDbEntity
  8
LY_3
390
0
  6
CONTINUOUS
 62
     3
100
AcDbCircle
 10
289.738586
 20
6.995934
 30
0.0
 40
0.5
100
AcDbArc
 50
203.697842
 51
268.046611
  0
ARC
  5
289
100
AcDbEntity
  8
LY_3
390
0
  6
CONTINUOUS
 62
     3
100
AcDbCircle
 10
289.5
 20
0.0
 30
0.0
 40
6.5
100
AcDbArc
 50
271.953343
 51
88.046603
  0
ARC
  5
28A
100
AcDbEntity
  8
LY_3
390
0
  6
CONTINUOUS
 62
     3
100
AcDbCircle
 10
286.899994
 20
-5.75
 30
0.0
 40
2.6
100
AcDbArc
 50
323.871304
 51
36.128696
  0
ARC
  5
28B
100
AcDbEntity
  8
LY_3
390
0
  6
CONTINUOUS
 62
     3
100
AcDbCircle
 10
289.738586
 20
-6.995934
 30
0.0
 40
0.5
100
AcDbArc
 50
91.953334
 51
156.302104
  0
ARC
  5
28C
100
AcDbEntity
  8
LY_3
390
0
  6
CONTINUOUS
 62
     3
100
AcDbCircle
 10
287.0
 20
23.0
 30
0.0
 40
2.0
100
AcDbArc
 50
0.0
 51
90.000003
  0
ARC
  5
28D
100
AcDbEntity
  8
LY_3
390
0
  6
CONTINUOUS
 62
     3
100
AcDbCircle
 10
287.0
 20
-23.0
 30
0.0
 40
2.0
100
AcDbArc
 50
269.999997
 51
0.0
  0
ARC
  5
28E
100
AcDbEntity
  8
LY_3
390
0
  6
CONTINUOUS
 62
     3
100
AcDbCircle
 10
142.5
 20
106.8
 30
0.0
 40
0.5
100
AcDbArc
 50
0.0
 51
90.000003
  0
ARC
  5
28F
100
AcDbEntity
  8
LY_3
390
0
  6
CONTINUOUS
 62
     3
100
AcDbCircle
 10
142.5
 20
133.2
 30
0.0
 40
0.5
100
AcDbArc
 50
269.999997
 51
0.0
  0
ARC
  5
290
100
AcDbEntity
  8
LY_3
390
0
  6
CONTINUOUS
 62
     3
100
AcDbCircle
 10
287.0
 20
97.0
 30
0.0
 40
2.0
100
AcDbArc
 50
269.999997
 51
0.0
  0
ARC
  5
291
100
AcDbEntity
  8
LY_3
390
0
  6
CONTINUOUS
 62
     3
100
AcDbCircle
 10
289.5
 20
120.0
 30
0.0
 40
6.5
100
AcDbArc
 50
269.028157
 51
309.715136
  0
ARC
  5
292
100
AcDbEntity
  8
LY_3
390
0
  6
CONTINUOUS
 62
     3
100
AcDbCircle
 10
286.899994
 20
114.25
 30
0.0
 40
2.6
100
AcDbArc
 50
323.871305
 51
16.765874
  0
ARC
  5
293
100
AcDbEntity
  8
LY_3
390
0
  6
CONTINUOUS
 62
     3
100
AcDbCircle
 10
286.899994
 20
125.75
 30
0.0
 40
2.6
100
AcDbArc
 50
343.234126
 51
36.128695
  0
ARC
  5
294
100
AcDbEntity
  8
LY_3
390
0
  6
CONTINUOUS
 62
     3
100
AcDbCircle
 10
287.0
 20
143.0
 30
0.0
 40
2.0
100
AcDbArc
 50
0.0
 51
90.000003
  0
ARC
  5
295
100
AcDbEntity
  8
LY_3
390
0
  6
CONTINUOUS
 62
     3
100
AcDbCircle
 10
289.5
 20
120.0
 30
0.0
 40
6.5
100
AcDbArc
 50
50.284864
 51
90.971843
  0
CIRCLE
  5
296
100
AcDbEntity
  8
LY_3
390
0
  6
CONTINUOUS
 62
     3
100
AcDbCircle
 10
267.0
 20
120.0
 30
0.0
 40
1.5
  0
CIRCLE
  5
297
100
AcDbEntity
  8
LY_3
390
0
  6
CONTINUOUS
 62
   110
100
AcDbCircle
 10
267.0
 20
120.0
 30
0.0
 40
1.2
  0
ARC
  5
298
100
AcDbEntity
  8
LY_3
390
0
  6
CONTINUOUS
 62
     3
100
AcDbCircle
 10
142.5
 20
13.2
 30
0.0
 40
0.5
100
AcDbArc
 50
269.999997
 51
0.0
  0
ARC
  5
299
100
AcDbEntity
  8
LY_3
390
0
  6
CONTINUOUS
 62
     3
100
AcDbCircle
 10
142.5
 20
-13.2
 30
0.0
 40
0.5
100
AcDbArc
 50
0.0
 51
90.000003
  0
CIRCLE
  5
29A
100
AcDbEntity
  8
LY_3
390
0
  6
CONTINUOUS
 62
     3
100
AcDbCircle
 10
148.0
 20
120.0
 30
0.0
 40
3.000001
  0
ARC
  5
29B
100
AcDbEntity
  8
LY_3
390
0
  6
CONTINUOUS
 62
     3
100
AcDbCircle
 10
152.199997
 20
14.699997
 30
0.0
 40
1.0
100
AcDbArc
 50
191.536936
 51
348.463052
  0
ARC
  5
29C
100
AcDbEntity
  8
LY_3
390
0
  6
CONTINUOUS
 62
     3
100
AcDbCircle
 10
146.0
 20
18.968628
 30
0.0
 40
0.8
100
AcDbArc
 50
359.999982
 51
45.000015
  0
ARC
  5
29D
100
AcDbEntity
  8
LY_3
390
0
  6
CONTINUOUS
 62
     3
100
AcDbCircle
 10
150.0
 20
18.968628
 30
0.0
 40
0.8
100
AcDbArc
 50
134.999987
 51
180.000019
  0
ARC
  5
29E
100
AcDbEntity
  8
LY_3
390
0
  6
CONTINUOUS
 62
     3
100
AcDbCircle
 10
152.199997
 20
-14.699997
 30
0.0
 40
1.0
100
AcDbArc
 50
11.536948
 51
168.463064
  0
ARC
  5
29F
100
AcDbEntity
  8
LY_3
390
0
  6
CONTINUOUS
 62
     3
100
AcDbCircle
 10
146.0
 20
-18.968628
 30
0.0
 40
0.8
100
AcDbArc
 50
314.999985
 51
0.000018
  0
ARC
  5
2A0
100
AcDbEntity
  8
LY_3
390
0
  6
CONTINUOUS
 62
     3
100
AcDbCircle
 10
150.0
 20
-18.968628
 30
0.0
 40
0.8
100
AcDbArc
 50
179.999978
 51
225.00001
  0
LWPOLYLINE
  5
2A1
100
AcDbEntity
  8
LY_3
390
0
  6
CONTINUOUS
 62
   110
100
AcDbPolyline
 90
       42
 70
     0
 10
166.940627
 20
18.999292
 10
167.339717
 20
18.065636
 10
167.713114
 20
17.123169
 10
168.058433
 20
16.173082
 10
168.373287
 20
15.216569
 10
168.655292
 20
14.25482
 10
168.902061
 20
13.289029
 10
169.111208
 20
12.320387
 10
169.280348
 20
11.350086
 10
169.407095
 20
10.379318
 10
169.489063
 20
9.409276
 10
169.523867
 20
8.441152
 10
169.50912
 20
7.476137
 10
169.442437
 20
6.515424
 10
169.321432
 20
5.560205
 10
169.143719
 20
4.611671
 10
168.911108
 20
3.678712
 10
168.629522
 20
2.752635
 10
168.308073
 20
1.832581
 10
167.95587
 20
0.91769
 10
167.582022
 20
0.007101
 10
167.195641
 20
-0.900046
 10
166.805835
 20
-1.804611
 10
166.421716
 20
-2.707455
 10
166.052392
 20
-3.609438
 10
165.706975
 20
-4.51142
 10
165.394573
 20
-5.414262
 10
165.124297
 20
-6.318823
 10
164.905257
 20
-7.225965
 10
164.746564
 20
-8.136547
 10
164.657326
 20
-9.05143
 10
164.644412
 20
-9.969369
 10
164.705732
 20
-10.890489
 10
164.837231
 20
-11.812828
 10
165.034855
 20
-12.734422
 10
165.294551
 20
-13.653311
 10
165.612263
 20
-14.567531
 10
165.983938
 20
-15.475121
 10
166.405521
 20
-16.374118
 10
166.872958
 20
-17.26256
 10
167.382195
 20
-18.138485
 10
167.929178
 20
-18.99993
  0
MTEXT
  5
2A2
100
AcDbEntity
  8
LY_3
390
0
  6
CONTINUOUS
 62
   110
100
AcDbMText
 10
256.372321
 20
120.0
 30
0.0
 40
3.2
 41
0.0
 71
     2
 72
     1
  1
\W1.143;\A1;0
 11
0.0
 21
1.0
 31
0.0
 73
     1
 44
1.0
  0
MTEXT
  5
2A3
100
AcDbEntity
  8
LY_3
390
0
  6
CONTINUOUS
 62
   110
100
AcDbMText
 10
256.4
 20
132.93074
 30
0.0
 40
3.2
 41
0.0
 71
     2
 72
     1
  1
\W0.952;\A1;9
 11
0.0
 21
1.0
 31
0.0
 73
     1
 44
1.0
  0
MTEXT
  5
2A4
100
AcDbEntity
  8
LY_3
390
0
  6
CONTINUOUS
 62
   110
100
AcDbMText
 10
256.372321
 20
140.674423
 30
0.0
 40
3.2
 41
0.0
 71
     2
 72
     1
  1
\W0.952;\A1;8
 11
0.0
 21
1.0
 31
0.0
 73
     1
 44
1.0
  0
MTEXT
  5
2A5
100
AcDbEntity
  8
LY_3
390
0
  6
CONTINUOUS
 62
   110
100
AcDbMText
 10
256.372321
 20
99.326767
 30
0.0
 40
3.2
 41
0.0
 71
     2
 72
     1
  1
\W0.952;\A1;2
 11
0.0
 21
1.0
 31
0.0
 73
     1
 44
1.0
  0
MTEXT
  5
2A6
100
AcDbEntity
  8
LY_3
390
0
  6
CONTINUOUS
 62
   110
100
AcDbMText
 10
256.372321
 20
107.068726
 30
0.0
 40
3.2
 41
0.0
 71
     2
 72
     1
  1
\T1.166;\W1.350;\A1;1
 11
0.0
 21
1.0
 31
0.0
 73
     1
 44
1.0
  0
MTEXT
  5
2A7
100
AcDbEntity
  8
LY_3
390
0
  6
CONTINUOUS
 62
   110
100
AcDbMText
 10
232.0
 20
111.6
 30
0.0
 40
3.2
 41
0.0
 71
     2
 72
     1
  1
\W1.143;\A1;0
 73
     1
 44
1.0
  0
MTEXT
  5
2A8
100
AcDbEntity
  8
LY_3
390
0
  6
CONTINUOUS
 62
   110
100
AcDbMText
 10
222.0
 20
111.6
 30
0.0
 40
3.2
 41
0.0
 71
     2
 72
     1
  1
\W1.333;\A1;10
 73
     1
 44
1.0
  0
MTEXT
  5
2A9
100
AcDbEntity
  8
LY_3
390
0
  6
CONTINUOUS
 62
   110
100
AcDbMText
 10
212.0
 20
111.6
 30
0.0
 40
3.2
 41
0.0
 71
     2
 72
     1
  1
\W1.091;\A1;20
 73
     1
 44
1.0
  0
MTEXT
  5
2AA
100
AcDbEntity
  8
LY_3
390
0
  6
CONTINUOUS
 62
   110
100
AcDbMText
 10
202.0
 20
111.6
 30
0.0
 40
3.2
 41
0.0
 71
     2
 72
     1
  1
\W1.091;\A1;30
 73
     1
 44
1.0
  0
MTEXT
  5
2AB
100
AcDbEntity
  8
LY_3
390
0
  6
CONTINUOUS
 62
   110
100
AcDbMText
 10
192.0
 20
111.6
 30
0.0
 40
3.2
 41
0.0
 71
     2
 72
     1
  1
\W1.091;\A1;40
 73
     1
 44
1.0
  0
MTEXT
  5
2AC
100
AcDbEntity
  8
LY_3
390
0
  6
CONTINUOUS
 62
   110
100
AcDbMText
 10
182.0
 20
111.6
 30
0.0
 40
3.2
 41
0.0
 71
     2
 72
     1
  1
\W1.091;\A1;50
 73
     1
 44
1.0
  0
MTEXT
  5
2AD
100
AcDbEntity
  8
LY_3
390
0
  6
CONTINUOUS
 62
   110
100
AcDbMText
 10
242.78653
 20
120.0
 30
0.0
 40
3.5
 41
0.0
 71
     2
 72
     1
  1
\W1.143;\A1;0
 11
0.0
 21
1.0
 31
0.0
 73
     1
 44
1.0
  0
MTEXT
  5
2AE
100
AcDbEntity
  8
LY_3
390
0
  6
CONTINUOUS
 62
   110
100
AcDbMText
 10
132.308252
 20
177.5
 30
0.0
 40
5.2
 41
0.0
 71
     1
 72
     1
  1
\W0.781;\A1;ＣＦ７０
 73
     1
 44
1.0
  0
LWPOLYLINE
  5
2AF
100
AcDbEntity
  8
LY_3
390
0
  6
CONTINUOUS
 62
   110
100
AcDbPolyline
 90
        3
 70
     0
 10
120.500001
 20
153.904286
 10
130.0
 20
170.0
 10
151.131169
 20
170.0
  0
MTEXT
  5
2B0
100
AcDbEntity
  8
LY_3
390
0
  6
CONTINUOUS
 62
   110
100
AcDbMText
 10
199.996261
 20
177.5
 30
0.0
 40
5.2
 41
0.0
 71
     1
 72
     1
  1
\W0.781;\A1;本体
 73
     1
 44
1.0
  0
LWPOLYLINE
  5
2B1
100
AcDbEntity
  8
LY_3
390
0
  6
CONTINUOUS
 62
   110
100
AcDbPolyline
 90
        3
 70
     0
 10
191.499996
 20
137.904276
 10
199.0
 20
170.0
 10
209.069178
 20
170.0
  0
MTEXT
  5
2B2
100
AcDbEntity
  8
LY_3
390
0
  6
CONTINUOUS
 62
   110
100
AcDbMText
 10
240.566372
 20
177.5
 30
0.0
 40
5.2
 41
0.0
 71
     1
 72
     1
  1
\W0.781;\A1;インジケ－タ－
 73
     1
 44
1.0
  0
LWPOLYLINE
  5
2B3
100
AcDbEntity
  8
LY_3
390
0
  6
CONTINUOUS
 62
   110
100
AcDbPolyline
 90
        3
 70
     0
 10
232.060428
 20
122.112151
 10
239.0
 20
170.0
 10
274.014289
 20
170.0
  0
MTEXT
  5
2B4
100
AcDbEntity
  8
LY_3
390
0
  6
CONTINUOUS
 62
   110
100
AcDbMText
 10
281.610585
 20
177.5
 30
0.0
 40
5.2
 41
0.0
 71
     1
 72
     1
  1
\W0.781;\A1;ハンドル
 73
     1
 44
1.0
  0
LWPOLYLINE
  5
2B5
100
AcDbEntity
  8
LY_3
390
0
  6
CONTINUOUS
 62
   110
100
AcDbPolyline
 90
        3
 70
     0
 10
272.865608
 20
144.714297
 10
279.0
 20
170.0
 10
300.433502
 20
170.0
  0
MTEXT
  5
2B6
100
AcDbEntity
  8
LY_3
390
0
  6
CONTINUOUS
 62
   110
100
AcDbMText
 10
310.864934
 20
177.5
 30
0.0
 40
5.2
 41
0.0
 71
     1
 72
     1
  1
\W0.781;\A1;グリップカラ－
 73
     1
 44
1.0
  0
LWPOLYLINE
  5
2B7
100
AcDbEntity
  8
LY_3
390
0
  6
CONTINUOUS
 62
   110
100
AcDbPolyline
 90
        3
 70
     0
 10
300.460886
 20
124.644991
 10
309.0
 20
170.0
 10
344.312851
 20
170.0
  0
MTEXT
  5
2B8
100
AcDbEntity
  8
LY_3
390
0
  6
CONTINUOUS
 62
   110
100
AcDbMText
 10
220.710446
 20
87.5
 30
0.0
 40
5.2
 41
0.0
 71
     1
 72
     1
  1
\W0.781;\A1;ピッチ
 73
     1
 44
1.0
  0
MTEXT
  5
2B9
100
AcDbEntity
  8
LY_3
390
0
  6
CONTINUOUS
 62
   110
100
AcDbMText
 10
215.496905
 20
84.25
 30
0.0
 40
2.6
 41
0.0
 71
     1
 72
     1
  1
\W0.781;\A1;ｍｍ
 73
     1
 44
1.0
  0
MTEXT
  5
2BA
100
AcDbEntity
  8
LY_3
390
0
  6
CONTINUOUS
 62
   110
100
AcDbMText
 10
201.210446
 20
87.5
 30
0.0
 40
5.2
 41
0.0
 71
     1
 72
     1
  1
\W0.781;\A1;目盛１
 73
     1
 44
1.0
  0
LWPOLYLINE
  5
2BB
100
AcDbEntity
  8
LY_3
390
0
  6
CONTINUOUS
 62
   110
100
AcDbPolyline
 90
        3
 70
     0
 10
186.831672
 20
113.318354
 10
199.0
 20
80.0
 10
234.658363
 20
80.0
  0
MTEXT
  5
2BC
100
AcDbEntity
  8
LY_3
390
0
  6
CONTINUOUS
 62
   110
100
AcDbMText
 10
263.507512
 20
87.5
 30
0.0
 40
5.2
 41
0.0
 71
     1
 72
     1
  1
\W0.781;\A1;目盛リング１０分割
 73
     1
 44
1.0
  0
LWPOLYLINE
  5
2BD
100
AcDbEntity
  8
LY_3
390
0
  6
CONTINUOUS
 62
   110
100
AcDbPolyline
 90
        3
 70
     0
 10
253.330571
 20
99.43397
 10
259.0
 20
80.0
 10
306.705429
 20
80.0
  0
MTEXT
  5
2BE
100
AcDbEntity
  8
LY_3
390
0
  6
CONTINUOUS
 62
   110
100
AcDbMText
 10
74.937776
 20
-42.5
 30
0.0
 40
5.2
 41
0.0
 71
     1
 72
     1
  1
\W0.781;\A1;Ｃ型止め輪
 73
     1
 44
1.0
  0
LWPOLYLINE
  5
2BF
100
AcDbEntity
  8
LY_3
390
0
  6
CONTINUOUS
 62
   110
100
AcDbPolyline
 90
        3
 70
     0
 10
119.617237
 20
-9.508452
 10
100.0
 20
-50.0
 10
74.260693
 20
-50.0
  0
MTEXT
  5
2C0
100
AcDbEntity
  8
LY_3
390
0
  6
CONTINUOUS
 62
   110
100
AcDbMText
 10
143.271461
 20
-42.5
 30
0.0
 40
5.2
 41
0.0
 71
     1
 72
     1
  1
\W0.781;\A1;軸受（ポリイミド）
 73
     1
 44
1.0
  0
LWPOLYLINE
  5
2C1
100
AcDbEntity
  8
LY_3
390
0
  6
CONTINUOUS
 62
   110
100
AcDbPolyline
 90
        3
 70
     0
 10
124.11328
 20
-10.75735
 10
140.0
 20
-50.0
 10
186.469378
 20
-50.0
  0
MTEXT
  5
2C2
100
AcDbEntity
  8
LY_3
390
0
  6
CONTINUOUS
 62
   110
100
AcDbMText
 10
180.911002
 20
-32.5
 30
0.0
 40
5.2
 41
0.0
 71
     1
 72
     1
  1
\W0.781;\A1;ベロ－ズ（ＳＵＳ３１６Ｌ）
 73
     1
 44
1.0
  0
LWPOLYLINE
  5
2C3
100
AcDbEntity
  8
LY_3
390
0
  6
CONTINUOUS
 62
   110
100
AcDbPolyline
 90
        3
 70
     0
 10
159.082519
 20
-13.255157
 10
180.0
 20
-40.0
 10
243.608918
 20
-40.0
  0
LINE
  5
2C4
100
AcDbEntity
  8
LY_3
390
0
  6
CONTINUOUS
 62
     3
100
AcDbLine
 10
283.0
 20
25.0
 30
0.0
 11
287.0
 21
25.0
 31
0.0
  0
LINE
  5
2C5
100
AcDbEntity
  8
LY_3
390
0
  6
CONTINUOUS
 62
     3
100
AcDbLine
 10
270.5
 20
25.5
 30
0.0
 11
282.5
 21
25.5
 31
0.0
  0
LINE
  5
2C6
100
AcDbEntity
  8
LY_3
390
0
  6
CONTINUOUS
 62
     3
100
AcDbLine
 10
282.5
 20
25.5
 30
0.0
 11
282.5
 21
-25.5
 31
0.0
  0
LINE
  5
2C7
100
AcDbEntity
  8
LY_3
390
0
  6
CONTINUOUS
 62
     3
100
AcDbLine
 10
283.0
 20
25.0
 30
0.0
 11
283.0
 21
-25.0
 31
0.0
  0
LINE
  5
2C8
100
AcDbEntity
  8
LY_3
390
0
  6
CONTINUOUS
 62
   110
100
AcDbLine
 10
270.5
 20
24.5
 30
0.0
 11
282.5
 21
24.5
 31
0.0
  0
LINE
  5
2C9
100
AcDbEntity
  8
LY_3
390
0
  6
CONTINUOUS
 62
   110
100
AcDbLine
 10
270.5
 20
23.5
 30
0.0
 11
282.5
 21
23.5
 31
0.0
  0
LINE
  5
2CA
100
AcDbEntity
  8
LY_3
390
0
  6
CONTINUOUS
 62
   110
100
AcDbLine
 10
270.5
 20
22.5
 30
0.0
 11
282.5
 21
22.5
 31
0.0
  0
LINE
  5
2CB
100
AcDbEntity
  8
LY_3
390
0
  6
CONTINUOUS
 62
   110
100
AcDbLine
 10
270.5
 20
21.5
 30
0.0
 11
282.5
 21
21.5
 31
0.0
  0
LINE
  5
2CC
100
AcDbEntity
  8
LY_3
390
0
  6
CONTINUOUS
 62
   110
100
AcDbLine
 10
270.5
 20
20.5
 30
0.0
 11
282.5
 21
20.5
 31
0.0
  0
LINE
  5
2CD
100
AcDbEntity
  8
LY_3
390
0
  6
CONTINUOUS
 62
   110
100
AcDbLine
 10
270.5
 20
19.5
 30
0.0
 11
282.5
 21
19.5
 31
0.0
  0
LINE
  5
2CE
100
AcDbEntity
  8
LY_3
390
0
  6
CONTINUOUS
 62
   110
100
AcDbLine
 10
270.5
 20
18.5
 30
0.0
 11
282.5
 21
18.5
 31
0.0
  0
LINE
  5
2CF
100
AcDbEntity
  8
LY_3
390
0
  6
CONTINUOUS
 62
   110
100
AcDbLine
 10
270.5
 20
17.5
 30
0.0
 11
282.5
 21
17.5
 31
0.0
  0
LINE
  5
2D0
100
AcDbEntity
  8
LY_3
390
0
  6
CONTINUOUS
 62
   110
100
AcDbLine
 10
270.5
 20
16.5
 30
0.0
 11
282.5
 21
16.5
 31
0.0
  0
LINE
  5
2D1
100
AcDbEntity
  8
LY_3
390
0
  6
CONTINUOUS
 62
   110
100
AcDbLine
 10
270.5
 20
15.5
 30
0.0
 11
282.5
 21
15.5
 31
0.0
  0
LINE
  5
2D2
100
AcDbEntity
  8
LY_3
390
0
  6
CONTINUOUS
 62
     3
100
AcDbLine
 10
283.000005
 20
25.000003
 30
0.0
 11
282.500004
 21
25.500004
 31
0.0
  0
LINE
  5
2D3
100
AcDbEntity
  8
LY_3
390
0
  6
CONTINUOUS
 62
     3
100
AcDbLine
 10
270.5
 20
-25.5
 30
0.0
 11
282.5
 21
-25.5
 31
0.0
  0
LINE
  5
2D4
100
AcDbEntity
  8
LY_3
390
0
  6
CONTINUOUS
 62
     3
100
AcDbLine
 10
283.0
 20
-25.0
 30
0.0
 11
287.0
 21
-25.0
 31
0.0
  0
LINE
  5
2D5
100
AcDbEntity
  8
LY_3
390
0
  6
CONTINUOUS
 62
     3
100
AcDbLine
 10
282.999999
 20
-25.000009
 30
0.0
 11
282.499998
 21
-25.50001
 31
0.0
  0
LINE
  5
2D6
100
AcDbEntity
  8
LY_3
390
0
  6
CONTINUOUS
 62
     3
100
AcDbLine
 10
263.999969
 20
-25.0
 30
0.0
 11
270.0
 21
-25.0
 31
0.0
  0
LINE
  5
2D7
100
AcDbEntity
  8
LY_3
390
0
  6
CONTINUOUS
 62
     3
100
AcDbLine
 10
270.0
 20
25.0
 30
0.0
 11
270.0
 21
-25.0
 31
0.0
  0
LINE
  5
2D8
100
AcDbEntity
  8
LY_3
390
0
  6
CONTINUOUS
 62
     3
100
AcDbLine
 10
270.5
 20
25.5
 30
0.0
 11
270.5
 21
-25.5
 31
0.0
  0
LINE
  5
2D9
100
AcDbEntity
  8
LY_3
390
0
  6
CONTINUOUS
 62
     3
100
AcDbLine
 10
270.000003
 20
-24.999998
 30
0.0
 11
270.500004
 21
-25.499999
 31
0.0
  0
LINE
  5
2DA
100
AcDbEntity
  8
LY_3
390
0
  6
CONTINUOUS
 62
     3
100
AcDbLine
 10
250.999985
 20
-21.037621
 30
0.0
 11
261.999975
 21
-21.999993
 31
0.0
  0
LINE
  5
2DB
100
AcDbEntity
  8
LY_3
390
0
  6
CONTINUOUS
 62
     3
100
AcDbLine
 10
263.0
 20
24.0
 30
0.0
 11
263.0
 21
-24.000061
 31
0.0
  0
LINE
  5
2DC
100
AcDbEntity
  8
LY_3
390
0
  6
CONTINUOUS
 62
     3
100
AcDbLine
 10
263.999969
 20
25.0
 30
0.0
 11
263.999969
 21
-25.0
 31
0.0
  0
MTEXT
  5
2DD
100
AcDbEntity
  8
LY_3
390
0
  6
CONTINUOUS
 62
   110
100
AcDbMText
 10
256.372321
 20
-20.673233
 30
0.0
 40
3.2
 41
0.0
 71
     2
 72
     1
  1
\W0.952;\A1;4
 11
0.0
 21
1.0
 31
0.0
 73
     1
 44
1.0
  0
MTEXT
  5
2DE
100
AcDbEntity
  8
LY_3
390
0
  6
CONTINUOUS
 62
   110
100
AcDbMText
 10
256.372321
 20
-12.931274
 30
0.0
 40
3.2
 41
0.0
 71
     2
 72
     1
  1
\W0.952;\A1;3
 11
0.0
 21
1.0
 31
0.0
 73
     1
 44
1.0
  0
LINE
  5
2DF
100
AcDbEntity
  8
LY_3
390
0
  6
CONTINUOUS
 62
     3
100
AcDbLine
 10
262.999968
 20
-24.000026
 30
0.0
 11
263.999969
 21
-25.000027
 31
0.0
  0
LINE
  5
2E0
100
AcDbEntity
  8
LY_3
390
0
  6
CONTINUOUS
 62
     3
100
AcDbLine
 10
262.0
 20
-22.0
 30
0.0
 11
263.0
 21
-22.0
 31
0.0
  0
LINE
  5
2E1
100
AcDbEntity
  8
LY_3
390
0
  6
CONTINUOUS
 62
   110
100
AcDbLine
 10
251.0
 20
-12.931274
 30
0.0
 11
255.0
 21
-12.931274
 31
0.0
  0
LINE
  5
2E2
100
AcDbEntity
  8
LY_3
390
0
  6
CONTINUOUS
 62
   110
100
AcDbLine
 10
251.0
 20
-20.673233
 30
0.0
 11
255.0
 21
-20.673233
 31
0.0
  0
MTEXT
  5
2E3
100
AcDbEntity
  8
LY_3
390
0
  6
CONTINUOUS
 62
   110
100
AcDbMText
 10
256.372321
 20
0.0
 30
0.0
 40
3.2
 41
0.0
 71
     2
 72
     1
  1
\W0.952;\A1;2
 11
0.0
 21
1.0
 31
0.0
 73
     1
 44
1.0
  0
LINE
  5
2E4
100
AcDbEntity
  8
LY_3
390
0
  6
CONTINUOUS
 62
   110
100
AcDbLine
 10
251.0
 20
0.000023
 30
0.0
 11
255.0
 21
0.000023
 31
0.0
  0
LINE
  5
2E5
100
AcDbEntity
  8
LY_3
390
0
  6
CONTINUOUS
 62
   110
100
AcDbLine
 10
251.0
 20
20.674423
 30
0.0
 11
255.0
 21
20.674423
 31
0.0
  0
LINE
  5
2E6
100
AcDbEntity
  8
LY_3
390
0
  6
CONTINUOUS
 62
     3
100
AcDbLine
 10
250.999956
 20
21.037787
 30
0.0
 11
261.999946
 21
22.000161
 31
0.0
  0
LINE
  5
2E7
100
AcDbEntity
  8
LY_3
390
0
  6
CONTINUOUS
 62
   110
100
AcDbLine
 10
251.0
 20
12.93074
 30
0.0
 11
255.0
 21
12.93074
 31
0.0
  0
MTEXT
  5
2E8
100
AcDbEntity
  8
LY_3
390
0
  6
CONTINUOUS
 62
   110
100
AcDbMText
 10
256.4
 20
12.93074
 30
0.0
 40
3.2
 41
0.0
 71
     2
 72
     1
  1
\T1.166;\W1.350;\A1;1
 11
0.0
 21
1.0
 31
0.0
 73
     1
 44
1.0
  0
MTEXT
  5
2E9
100
AcDbEntity
  8
LY_3
390
0
  6
CONTINUOUS
 62
   110
100
AcDbMText
 10
256.372321
 20
20.674423
 30
0.0
 40
3.2
 41
0.0
 71
     2
 72
     1
  1
\W1.143;\A1;0
 11
0.0
 21
1.0
 31
0.0
 73
     1
 44
1.0
  0
LINE
  5
2EA
100
AcDbEntity
  8
LY_3
390
0
  6
CONTINUOUS
 62
     3
100
AcDbLine
 10
251.0
 20
-21.037628
 30
0.0
 11
251.0
 21
21.037628
 31
0.0
  0
LINE
  5
2EB
100
AcDbEntity
  8
LY_3
390
0
  6
CONTINUOUS
 62
     3
100
AcDbLine
 10
262.0
 20
22.0
 30
0.0
 11
263.0
 21
22.0
 31
0.0
  0
LINE
  5
2EC
100
AcDbEntity
  8
LY_3
390
0
  6
CONTINUOUS
 62
     3
100
AcDbLine
 10
263.999954
 20
25.0
 30
0.0
 11
270.0
 21
25.0
 31
0.0
  0
LINE
  5
2ED
100
AcDbEntity
  8
LY_3
390
0
  6
CONTINUOUS
 62
     3
100
AcDbLine
 10
262.999966
 20
24.000027
 30
0.0
 11
263.999967
 21
25.000028
 31
0.0
  0
LINE
  5
2EE
100
AcDbEntity
  8
LY_3
390
0
  6
CONTINUOUS
 62
     3
100
AcDbLine
 10
269.999996
 20
24.999994
 30
0.0
 11
270.499997
 21
25.499994
 31
0.0
  0
CIRCLE
  5
2EF
100
AcDbEntity
  8
LY_3
390
0
  6
CONTINUOUS
 62
     3
100
AcDbCircle
 10
148.0
 20
120.0
 30
0.0
 40
2.75
  0
ARC
  5
2F0
100
AcDbEntity
  8
LY_3
390
0
  6
CONTINUOUS
 62
     3
100
AcDbCircle
 10
148.809546
 20
120.809546
 30
0.0
 40
0.622046
100
AcDbArc
 50
179.999981
 51
270.000018
  0
ARC
  5
2F1
100
AcDbEntity
  8
LY_3
390
0
  6
CONTINUOUS
 62
     3
100
AcDbCircle
 10
148.809546
 20
119.190454
 30
0.0
 40
0.622046
100
AcDbArc
 50
89.999982
 51
179.999964
  0
ARC
  5
2F2
100
AcDbEntity
  8
LY_3
390
0
  6
CONTINUOUS
 62
     3
100
AcDbCircle
 10
147.190454
 20
119.190454
 30
0.0
 40
0.622046
100
AcDbArc
 50
0.0
 51
89.999982
  0
ARC
  5
2F3
100
AcDbEntity
  8
LY_3
390
0
  6
CONTINUOUS
 62
     3
100
AcDbCircle
 10
147.190454
 20
120.809546
 30
0.0
 40
0.622046
100
AcDbArc
 50
270.000018
 51
0.0
  0
LINE
  5
2F4
100
AcDbEntity
  8
LY_3
390
0
  6
CONTINUOUS
 62
     3
100
AcDbLine
 10
148.809546
 20
120.1875
 30
0.0
 11
149.5
 21
120.1875
 31
0.0
  0
LINE
  5
2F5
100
AcDbEntity
  8
LY_3
390
0
  6
CONTINUOUS
 62
     3
100
AcDbLine
 10
148.809546
 20
119.8125
 30
0.0
 11
149.5
 21
119.8125
 31
0.0
  0
LINE
  5
2F6
100
AcDbEntity
  8
LY_3
390
0
  6
CONTINUOUS
 62
     3
100
AcDbLine
 10
148.1875
 20
119.190454
 30
0.0
 11
148.1875
 21
118.5
 31
0.0
  0
LINE
  5
2F7
100
AcDbEntity
  8
LY_3
390
0
  6
CONTINUOUS
 62
     3
100
AcDbLine
 10
147.8125
 20
119.190454
 30
0.0
 11
147.8125
 21
118.5
 31
0.0
  0
LINE
  5
2F8
100
AcDbEntity
  8
LY_3
390
0
  6
CONTINUOUS
 62
     3
100
AcDbLine
 10
146.5
 20
120.1875
 30
0.0
 11
147.190454
 21
120.1875
 31
0.0
  0
LINE
  5
2F9
100
AcDbEntity
  8
LY_3
390
0
  6
CONTINUOUS
 62
     3
100
AcDbLine
 10
146.5
 20
119.8125
 30
0.0
 11
147.190454
 21
119.8125
 31
0.0
  0
LINE
  5
2FA
100
AcDbEntity
  8
LY_3
390
0
  6
CONTINUOUS
 62
     3
100
AcDbLine
 10
147.8125
 20
121.5
 30
0.0
 11
147.8125
 21
120.809546
 31
0.0
  0
LINE
  5
2FB
100
AcDbEntity
  8
LY_3
390
0
  6
CONTINUOUS
 62
     3
100
AcDbLine
 10
148.1875
 20
121.5
 30
0.0
 11
148.1875
 21
120.809546
 31
0.0
  0
LINE
  5
2FC
100
AcDbEntity
  8
LY_3
390
0
  6
CONTINUOUS
 62
     3
100
AcDbLine
 10
146.5
 20
120.1875
 30
0.0
 11
146.5
 21
119.8125
 31
0.0
  0
LINE
  5
2FD
100
AcDbEntity
  8
LY_3
390
0
  6
CONTINUOUS
 62
     3
100
AcDbLine
 10
149.5
 20
120.1875
 30
0.0
 11
149.5
 21
119.8125
 31
0.0
  0
LINE
  5
2FE
100
AcDbEntity
  8
LY_3
390
0
  6
CONTINUOUS
 62
     3
100
AcDbLine
 10
147.8125
 20
118.5
 30
0.0
 11
148.1875
 21
118.5
 31
0.0
  0
LINE
  5
2FF
100
AcDbEntity
  8
LY_3
390
0
  6
CONTINUOUS
 62
     3
100
AcDbLine
 10
147.8125
 20
121.5
 30
0.0
 11
148.1875
 21
121.5
 31
0.0
  0
LINE
  5
300
100
AcDbEntity
  8
LY_3
390
0
  6
CONTINUOUS
 62
     3
100
AcDbLine
 10
115.300003
 20
-6.0
 30
0.0
 11
115.300003
 21
-12.850006
 31
0.0
  0
LINE
  5
301
100
AcDbEntity
  8
LY_3
390
0
  6
CONTINUOUS
 62
     3
100
AcDbLine
 10
115.300003
 20
12.849998
 30
0.0
 11
115.300003
 21
6.0
 31
0.0
  0
LINE
  5
302
100
AcDbEntity
  8
LY_3
390
0
  6
CENTER
 62
   110
100
AcDbLine
 10
130.0
 20
120.0
 30
0.0
 11
242.0
 21
120.0
 31
0.0
  0
ENDSEC
  0
SECTION
  2
OBJECTS
  0
DICTIONARY
  5
19
100
AcDbDictionary
280
     0
281
     1
  3
ACAD_GROUP
350
1A
  3
ACAD_MLINESTYLE
350
1B
  3
ACAD_LAYOUT
350
1E
  3
ACAD_PLOTSETTINGS
350
22
  3
ACAD_PLOTSTYLENAME
350
1F
  0
DICTIONARY
  5
1A
102
{ACAD_REACTORS
330
19
102
}
100
AcDbDictionary
280
     0
281
     1
  0
DICTIONARY
  5
1B
102
{ACAD_REACTORS
330
19
102
}
100
AcDbDictionary
280
     0
281
     1
  3
Standard
350
1C
  0
MLINESTYLE
  5
1C
102
{ACAD_REACTORS
330
1B
102
}
100
AcDbMlineStyle
  2
Standard
 70
     0
  3

 62
     0
 51
90.0
 52
90.0
 71
     2
 49
0.5
 62
   256
  6
ByLayer
 49
-0.5
 62
   256
  6
ByLayer
  0
ACDBDICTIONARYWDFLT
  5
1F
102
{ACAD_REACTORS
330
19
102
}
100
AcDbDictionary
281
     1
  3
Normal
350
1D
100
AcDbDictionaryWithDefault
340
1D
  0
ACDBPLACEHOLDER
  5
1D
102
{ACAD_REACTORS
330
1F
102
}
  0
LAYOUT
  5
20
102
{ACAD_REACTORS
330
1E
102
}
100
AcDbPlotSettings
  1

  2

  4

  6

 40
0.0
 41
0.0
 42
0.0
 43
0.0
 44
0.0
 45
0.0
 46
0.0
 47
0.0
 48
0.0
 49
0.0
140
0.0
141
0.0
142
1.0
143
1.0
 70
  1024
 72
     0
 73
     0
 74
     0
  7

 75
     0
147
1.0
148
0.0
149
0.0
100
AcDbLayout
  1
Model
 70
     0
 71
     0
 10
0.0
 20
0.0
 11
0.0
 21
0.0
 12
0.0
 22
0.0
 32
0.0
 14
0.0
 24
0.0
 34
0.0
 15
0.0
 25
0.0
 35
0.0
146
0.0
 13
0.0
 23
0.0
 33
0.0
 16
0.0
 26
0.0
 36
0.0
 17
0.0
 27
0.0
 37
0.0
 76
     0
330
A
331
0
345
0
346
0
  0
LAYOUT
  5
21
102
{ACAD_REACTORS
330
1E
102
}
100
AcDbPlotSettings
  1

  2

  4

  6

 40
0.0
 41
0.0
 42
0.0
 43
0.0
 44
0.0
 45
0.0
 46
0.0
 47
0.0
 48
0.0
 49
0.0
140
0.0
141
0.0
142
1.0
143
1.0
 70
     0
 72
     0
 73
     0
 74
     0
  7

 75
     0
147
1.0
148
0.0
149
0.0
100
AcDbLayout
  1
Layout1
 70
     0
 71
     0
 10
0.0
 20
0.0
 11
0.0
 21
0.0
 12
0.0
 22
0.0
 32
0.0
 14
0.0
 24
0.0
 34
0.0
 15
0.0
 25
0.0
 35
0.0
146
0.0
 13
0.0
 23
0.0
 33
0.0
 16
0.0
 26
0.0
 36
0.0
 17
0.0
 27
0.0
 37
0.0
 76
     0
330
B
331
0
345
0
346
0
  0
DICTIONARY
  5
1E
102
{ACAD_REACTORS
330
19
102
}
100
AcDbDictionary
280
     0
281
     1
  3
Layout1
350
21
  3
Model
350
20
  0
DICTIONARY
  5
22
102
{ACAD_REACTORS
330
19
102
}
100
AcDbDictionary
280
     0
281
     1
  0
ENDSEC
  0
EOF
