  0
SECTION
  2
HEADER
  9
$ACADVER
  1
AC1015
  9
$ACADMAINTVER
 70
     6
  9
$DWGCODEPAGE
  3
ANSI_932
  9
$INSBASE
 10
0.0
 20
0.0
 30
0.0
  9
$EXTMIN
 10
-37.649994
 20
-50.0
 30
0.0
  9
$EXTMAX
 10
325.003063
 20
189.233333
 30
0.0
  9
$LIMMIN
 10
-37.649994
 20
-50.0
  9
$LIMMAX
 10
325.003063
 20
189.233333
  9
$ORTHOMODE
 70
     0
  9
$REGENMODE
 70
     1
  9
$FILLMODE
 70
     1
  9
$QTEXTMODE
 70
     0
  9
$MIRRTEXT
 70
     1
  9
$LTSCALE
 40
1.0
  9
$ATTMODE
 70
     1
  9
$TEXTSIZE
 40
3.2
  9
$TRACEWID
 40
0.05
  9
$TEXTSTYLE
  7
MX_NOTE_STANDARD
  9
$CLAYER
  8
0
  9
$CELTYPE
  6
CONTINUOUS
  9
$CECOLOR
 62
   256
  9
$CELTSCALE
 40
1.0
  9
$DISPSILH
 70
     0
  9
$DIMSCALE
 40
1.0
  9
$DIMASZ
 40
2.5
  9
$DIMEXO
 40
2.0
  9
$DIMDLI
 40
3.75
  9
$DIMRND
 40
0.0
  9
$DIMDLE
 40
0.0
  9
$DIMEXE
 40
1.0
  9
$DIMTP
 40
0.0
  9
$DIMTM
 40
0.0
  9
$DIMTXT
 40
4.1656
  9
$DIMCEN
 40
2.5
  9
$DIMTSZ
 40
0.0
  9
$DIMTOL
 70
     0
  9
$DIMLIM
 70
     0
  9
$DIMTIH
 70
     0
  9
$DIMTOH
 70
     0
  9
$DIMSE1
 70
     0
  9
$DIMSE2
 70
     0
  9
$DIMTAD
 70
     1
  9
$DIMZIN
 70
     8
  9
$DIMBLK
  1

  9
$DIMASO
 70
     1
  9
$DIMSHO
 70
     1
  9
$DIMPOST
  1

  9
$DIMAPOST
  1

  9
$DIMALT
 70
     0
  9
$DIMALTD
 70
     4
  9
$DIMALTF
 40
0.03937
  9
$DIMLFAC
 40
1.0
  9
$DIMTOFL
 70
     1
  9
$DIMTVP
 40
0.0
  9
$DIMTIX
 70
     0
  9
$DIMSOXD
 70
     0
  9
$DIMSAH
 70
     1
  9
$DIMBLK1
  1
_OPEN30
  9
$DIMBLK2
  1
_OPEN30
  9
$DIMSTYLE
  2
MXDIMSTYLE
  9
$DIMCLRD
 70
     0
  9
$DIMCLRE
 70
     0
  9
$DIMCLRT
 70
     0
  9
$DIMTFAC
 40
1.0
  9
$DIMGAP
 40
1.0
  9
$DIMJUST
 70
     0
  9
$DIMSD1
 70
     0
  9
$DIMSD2
 70
     0
  9
$DIMTOLJ
 70
     0
  9
$DIMTZIN
 70
     0
  9
$DIMALTZ
 70
     0
  9
$DIMALTTZ
 70
     0
  9
$DIMUPT
 70
     0
  9
$DIMDEC
 70
     2
  9
$DIMTDEC
 70
     2
  9
$DIMALTU
 70
     2
  9
$DIMALTTD
 70
     4
  9
$DIMTXSTY
  7
MX_NOTE_STANDARD
  9
$DIMAUNIT
 70
     0
  9
$DIMADEC
 70
     0
  9
$DIMALTRND
 40
0.0
  9
$DIMAZIN
 70
     0
  9
$DIMDSEP
 70
    46
  9
$DIMATFIT
 70
     3
  9
$DIMFRAC
 70
     0
  9
$DIMLDRBLK
  1
_OPEN30
  9
$DIMLUNIT
 70
     2
  9
$DIMLWD
 70
    -2
  9
$DIMLWE
 70
    -2
  9
$DIMTMOVE
 70
     0
  9
$LUNITS
 70
     2
  9
$LUPREC
 70
     4
  9
$SKETCHINC
 40
0.1
  9
$FILLETRAD
 40
0.0
  9
$AUNITS
 70
     0
  9
$AUPREC
 70
     0
  9
$MENU
  1
acad
  9
$ELEVATION
 40
0.0
  9
$PELEVATION
 40
0.0
  9
$THICKNESS
 40
0.0
  9
$LIMCHECK
 70
     0
  9
$CHAMFERA
 40
0.0
  9
$CHAMFERB
 40
0.0
  9
$CHAMFERC
 40
0.0
  9
$CHAMFERD
 40
0.0
  9
$SKPOLY
 70
     0
  9
$TDCREATE
 40
2456119.540868056
  9
$TDUCREATE
 40
0.000000000
  9
$TDUPDATE
 40
2456119.540868056
  9
$TDUUPDATE
 40
0.000000000
  9
$TDINDWG
 40
0.0000000000
  9
$TDUSRTIMER
 40
0.0000000000
  9
$USRTIMER
 70
     1
  9
$ANGBASE
 50
0.0
  9
$ANGDIR
 70
     0
  9
$PDMODE
 70
     0
  9
$PDSIZE
 40
0.0
  9
$PLINEWID
 40
0.0
  9
$SPLFRAME
 70
     0
  9
$SPLINETYPE
 70
     6
  9
$SPLINESEGS
 70
     8
  9
$HANDSEED
  5
30C
  9
$SURFTAB1
 70
     6
  9
$SURFTAB2
 70
     6
  9
$SURFTYPE
 70
     6
  9
$SURFU
 70
     6
  9
$SURFV
 70
     6
  9
$UCSBASE
  2

  9
$UCSNAME
  2

  9
$UCSORG
 10
0.0
 20
0.0
 30
0.0
  9
$UCSXDIR
 10
1.0
 20
0.0
 30
0.0
  9
$UCSYDIR
 10
0.0
 20
1.0
 30
0.0
  9
$UCSORTHOREF
  2

  9
$UCSORTHOVIEW
 70
     0
  9
$UCSORGTOP
 10
0.0
 20
0.0
 30
0.0
  9
$UCSORGBOTTOM
 10
0.0
 20
0.0
 30
0.0
  9
$UCSORGLEFT
 10
0.0
 20
0.0
 30
0.0
  9
$UCSORGRIGHT
 10
0.0
 20
0.0
 30
0.0
  9
$UCSORGFRONT
 10
0.0
 20
0.0
 30
0.0
  9
$UCSORGBACK
 10
0.0
 20
0.0
 30
0.0
  9
$PUCSBASE
  2

  9
$PUCSNAME
  2

  9
$PUCSORG
 10
0.0
 20
0.0
 30
0.0
  9
$PUCSXDIR
 10
1.0
 20
0.0
 30
0.0
  9
$PUCSYDIR
 10
0.0
 20
1.0
 30
0.0
  9
$PUCSORTHOREF
  2

  9
$PUCSORTHOVIEW
 70
     0
  9
$PUCSORGTOP
 10
0.0
 20
0.0
 30
0.0
  9
$PUCSORGBOTTOM
 10
0.0
 20
0.0
 30
0.0
  9
$PUCSORGLEFT
 10
0.0
 20
0.0
 30
0.0
  9
$PUCSORGRIGHT
 10
0.0
 20
0.0
 30
0.0
  9
$PUCSORGFRONT
 10
0.0
 20
0.0
 30
0.0
  9
$PUCSORGBACK
 10
0.0
 20
0.0
 30
0.0
  9
$USERI1
 70
     0
  9
$USERI2
 70
     0
  9
$USERI3
 70
     0
  9
$USERI4
 70
     0
  9
$USERI5
 70
     0
  9
$USERR1
 40
0.0
  9
$USERR2
 40
0.0
  9
$USERR3
 40
0.0
  9
$USERR4
 40
0.0
  9
$USERR5
 40
0.0
  9
$WORLDVIEW
 70
     1
  9
$SHADEDGE
 70
     3
  9
$SHADEDIF
 70
    70
  9
$TILEMODE
 70
     1
  9
$MAXACTVP
 70
    16
  9
$PINSBASE
 10
0.0
 20
0.0
 30
0.0
  9
$PLIMCHECK
 70
     0
  9
$PEXTMIN
 10
1.000000E+20
 20
1.000000E+20
 30
1.000000E+20
  9
$PEXTMAX
 10
-1.000000E+20
 20
-1.000000E+20
 30
-1.000000E+20
  9
$PLIMMIN
 10
0.0
 20
0.0
  9
$PLIMMAX
 10
12.0
 20
9.0
  9
$UNITMODE
 70
     0
  9
$VISRETAIN
 70
     0
  9
$PLINEGEN
 70
     1
  9
$PSLTSCALE
 70
     0
  9
$TREEDEPTH
 70
  3020
  9
$CMLSTYLE
  2
Standard
  9
$CMLJUST
 70
     0
  9
$CMLSCALE
 40
1.0
  9
$PROXYGRAPHICS
 70
     0
  9
$MEASUREMENT
 70
     1
  9
$CELWEIGHT
370
     0
  9
$ENDCAPS
280
     0
  9
$JOINSTYLE
280
     0
  9
$LWDISPLAY
290
     0
  9
$INSUNITS
 70
     0
  9
$HYPERLINKBASE
  1

  9
$STYLESHEET
  1

  9
$XEDIT
290
     1
  9
$CEPSNTYPE
380
     0
  9
$PSTYLEMODE
290
     1
  9
$FINGERPRINTGUID
  2

  9
$VERSIONGUID
  2

  9
$EXTNAMES
290
     1
  9
$PSVPSCALE
 40
0.0
  0
ENDSEC
  0
SECTION
  2
CLASSES
  0
CLASS
  1
LWPOLYLINE
  2
AcDbPolyline
  3
AutoCAD 2000
 90
        0
280
     0
281
     1
  0
CLASS
  1
IMAGE
  2
AcDbRasterImage
  3
ISM
 90
      127
280
     0
281
     1
  0
CLASS
  1
OLE2FRAME
  2
AcDbOle2Frame
  3
AutoCAD 2000
 90
        0
280
     0
281
     1
  0
CLASS
  1
HATCH
  2
AcDbHatch
  3
AutoCAD 2000
 90
        0
280
     0
281
     1
  0
CLASS
  1
DICTIONARYVAR
  2
AcDbDictionaryVar
  3
AutoCAD 2000
 90
        0
280
     0
281
     0
  0
CLASS
  1
RASTERVARIABLES
  2
AcDbRasterVariables
  3
ISM
 90
        0
280
     0
281
     0
  0
CLASS
  1
IMAGEDEF
  2
AcDbRasterImageDef
  3
ISM
 90
        0
280
     0
281
     0
  0
CLASS
  1
IMAGEDEF_REACTOR
  2
AcDbRasterImageDefReactor
  3
ISM
 90
        1
280
     0
281
     0
  0
CLASS
  1
IDBUFFER
  2
AcDbIdBuffer
  3
AutoCAD 2000
 90
        0
280
     0
281
     0
  0
CLASS
  1
SPATIAL_FILTER
  2
AcDbSpatialFilter
  3
AutoCAD 2000
 90
        0
280
     0
281
     0
  0
CLASS
  1
XRECORD
  2
AcDbXrecord
  3
AutoCAD 2000
 90
        0
280
     0
281
     0
  0
CLASS
  1
SORTENTSTABLE
  2
AcDbSortentsTable
  3
AutoCAD 2000
 90
        0
280
     0
281
     0
  0
CLASS
  1
LAYER_INDEX
  2
AcDbLayerIndex
  3
AutoCAD 2000
 90
        0
280
     0
281
     0
  0
CLASS
  1
SPATIAL_INDEX
  2
AcDbSpatialIndex
  3
AutoCAD 2000
 90
        0
280
     0
281
     0
  0
CLASS
  1
OBJECT_PTR
  2
CAseDLPNTableRecord
  3
"ASE-LPNTableRecord"
 90
        1
280
     0
281
     0
  0
CLASS
  1
LAYOUT
  2
AcDbLayout
  3
AutoCAD 2000
 90
        0
280
     0
281
     0
  0
CLASS
  1
PLOTSETTINGS
  2
AcDbPlotSettings
  3
AutoCAD 2000
 90
        0
280
     0
281
     0
  0
CLASS
  1
ACDBDICTIONARYWDFLT
  2
AcDbDictionaryWithDefault
  3
AutoCAD 2000
 90
        0
280
     0
281
     0
  0
CLASS
  1
ACDBPLACEHOLDER
  2
AcDbPlaceHolder
  3
AutoCAD 2000
 90
        0
280
     0
281
     0
  0
ENDSEC
  0
SECTION
  2
TABLES
  0
TABLE
  2
VPORT
  5
7
100
AcDbSymbolTable
 70
     1
  0
VPORT
  5
15
100
AcDbSymbolTableRecord
100
AcDbViewportTableRecord
  2
*ACTIVE
 70
     0
 10
0.0
 20
0.0
 11
1.0
 21
1.0
 12
143.676534
 22
69.616667
 13
0.0
 23
0.0
 14
1.0
 24
1.0
 15
0.0
 25
0.0
 16
0.0
 26
0.0
 36
1.0
 17
0.0
 27
0.0
 37
0.0
 40
241.625666
 41
1.732051
 42
50.0
 43
0.0
 44
0.0
 50
0.0
 51
0.0
 71
     0
 72
   100
 73
     1
 74
     1
 75
     0
 76
     0
 77
     0
 78
     0
281
     0
 65
     0
110
0.0
120
0.0
130
0.0
111
1.0
121
0.0
131
0.0
112
0.0
122
1.0
132
0.0
345
0
346
0
 79
     0
146
0.0
  0
ENDTAB
  0
TABLE
  2
LTYPE
  5
4
100
AcDbSymbolTable
 70
     5
  0
LTYPE
  5
11
100
AcDbSymbolTableRecord
100
AcDbLinetypeTableRecord
  2
BYBLOCK
 70
    64
  3

 72
    65
 73
     0
 40
0.0
  0
LTYPE
  5
12
100
AcDbSymbolTableRecord
100
AcDbLinetypeTableRecord
  2
BYLAYER
 70
    64
  3

 72
    65
 73
     0
 40
0.0
  0
LTYPE
  5
13
100
AcDbSymbolTableRecord
100
AcDbLinetypeTableRecord
  2
CONTINUOUS
 70
    64
  3
Solid line
 72
    65
 73
     0
 40
0.0
  0
LTYPE
  5
189
100
AcDbSymbolTableRecord
100
AcDbLinetypeTableRecord
  2
CENTER
 70
    64
  3
Center ____ _ ____ _ ____ _ ____ _ ____ _ ____
 72
    65
 73
     4
 40
50.8
 49
31.75
 74
     0
 49
-6.35
 74
     0
 49
6.35
 74
     0
 49
-6.35
 74
     0
  0
LTYPE
  5
271
100
AcDbSymbolTableRecord
100
AcDbLinetypeTableRecord
  2
PHANTOM
 70
    64
  3
Phantom ______  __  __  ______  __  __  ______
 72
    65
 73
     6
 40
63.5
 49
31.75
 74
     0
 49
-6.35
 74
     0
 49
6.35
 74
     0
 49
-6.35
 74
     0
 49
6.35
 74
     0
 49
-6.35
 74
     0
  0
ENDTAB
  0
TABLE
  2
LAYER
  5
2
100
AcDbSymbolTable
 70
     3
  0
LAYER
  5
14
100
AcDbSymbolTableRecord
100
AcDbLayerTableRecord
  2
0
 70
     0
 62
     7
  6
CONTINUOUS
290
     1
370
    -3
390
1D
  0
LAYER
  5
23
100
AcDbSymbolTableRecord
100
AcDbLayerTableRecord
  2
DEFPOINTS
 70
     0
 62
     7
  6
CONTINUOUS
290
     0
370
    -3
390
1D
  0
LAYER
  5
24
100
AcDbSymbolTableRecord
100
AcDbLayerTableRecord
  2
LY_3
 70
     0
 62
     7
  6
CONTINUOUS
290
     1
370
    -3
390
1D
  0
ENDTAB
  0
TABLE
  2
STYLE
  5
3
100
AcDbSymbolTable
 70
     5
  0
STYLE
  5
17
100
AcDbSymbolTableRecord
100
AcDbTextStyleTableRecord
  2
MX_NOTE_STANDARD
 70
     0
 40
0.0
 41
1.0
 50
0.0
 71
     0
 42
3.2
  3
txt.shx
  4
extfont.shx
  0
STYLE
  5
36
100
AcDbSymbolTableRecord
100
AcDbTextStyleTableRecord
  2
MX_DIMTXSTY_2
 70
     0
 40
0.0
 41
1.05
 50
0.0
 71
     0
 42
3.2
  3
txt.shx
  4
extfont.shx
  0
STYLE
  5
44
100
AcDbSymbolTableRecord
100
AcDbTextStyleTableRecord
  2
MX_DIMTXSTY_3
 70
     0
 40
0.0
 41
1.1
 50
0.0
 71
     0
 42
3.2
  3
txt.shx
  4
extfont.shx
  0
STYLE
  5
78
100
AcDbSymbolTableRecord
100
AcDbTextStyleTableRecord
  2
MX_DIMTXSTY_4
 70
     0
 40
0.0
 41
1.2
 50
0.0
 71
     0
 42
3.2
  3
txt.shx
  4
extfont.shx
  0
STYLE
  5
93
100
AcDbSymbolTableRecord
100
AcDbTextStyleTableRecord
  2
MX_DIMTXSTY_5
 70
     0
 40
0.0
 41
0.85
 50
0.0
 71
     0
 42
3.2
  3
txt.shx
  4
extfont.shx
  0
ENDTAB
  0
TABLE
  2
VIEW
  5
5
100
AcDbSymbolTable
 70
     0
  0
ENDTAB
  0
TABLE
  2
UCS
  5
6
100
AcDbSymbolTable
 70
     0
  0
ENDTAB
  0
TABLE
  2
APPID
  5
8
100
AcDbSymbolTable
 70
     1
  0
APPID
  5
16
100
AcDbSymbolTableRecord
100
AcDbRegAppTableRecord
  2
ACAD
 70
     0
  0
ENDTAB
  0
TABLE
  2
DIMSTYLE
  5
9
100
AcDbSymbolTable
 70
     1
100
AcDbDimStyleTable
 71
     0
  0
DIMSTYLE
105
18
100
AcDbSymbolTableRecord
100
AcDbDimStyleTableRecord
  2
MXDIMSTYLE
 70
     0
  3

  4

 40
1.0
 41
2.5
 42
2.0
 43
3.75
 44
1.0
 45
0.0
 46
0.0
 47
0.0
 48
0.0
 71
     0
 72
     0
 73
     0
 74
     0
 75
     0
 76
     0
 77
     1
 78
     8
 79
     0
140
4.1656
141
2.5
142
0.0
143
0.03937
144
1.0
145
0.0
146
1.0
147
1.0
148
0.0
170
     0
171
     4
172
     1
173
     1
174
     0
175
     0
176
     0
177
     0
178
     0
179
     0
271
     2
272
     2
273
     2
274
     4
275
     0
276
     0
277
     2
278
    46
279
     0
280
     0
281
     0
282
     0
283
     0
284
     0
285
     0
286
     0
288
     0
289
     3
340
17
341
26
342
0
343
26
344
26
371
    -2
372
    -2
  0
ENDTAB
  0
TABLE
  2
BLOCK_RECORD
  5
1
100
AcDbSymbolTable
 70
    13
  0
BLOCK_RECORD
  5
A
100
AcDbSymbolTableRecord
100
AcDbBlockTableRecord
  2
*MODEL_SPACE
340
20
  0
BLOCK_RECORD
  5
B
100
AcDbSymbolTableRecord
100
AcDbBlockTableRecord
  2
*PAPER_SPACE
340
21
  0
BLOCK_RECORD
  5
25
100
AcDbSymbolTableRecord
100
AcDbBlockTableRecord
  2
*U0
340
0
102
{BLKREFS
331
D2
331
D3
331
D4
331
D5
331
D6
331
D7
331
D8
331
D9
331
DA
331
DB
102
}
  0
BLOCK_RECORD
  5
26
100
AcDbSymbolTableRecord
100
AcDbBlockTableRecord
  2
_OPEN30
340
0
102
{BLKREFS
331
34
331
35
331
42
331
43
331
50
331
51
331
5D
331
5E
331
69
331
6A
331
76
331
77
331
84
331
85
331
91
331
92
331
9E
331
9F
331
AB
331
AC
331
B6
331
B7
102
}
  0
BLOCK_RECORD
  5
31
100
AcDbSymbolTableRecord
100
AcDbBlockTableRecord
  2
*D2
340
0
  0
BLOCK_RECORD
  5
3D
100
AcDbSymbolTableRecord
100
AcDbBlockTableRecord
  2
*D3
340
0
  0
BLOCK_RECORD
  5
4B
100
AcDbSymbolTableRecord
100
AcDbBlockTableRecord
  2
*D4
340
0
  0
BLOCK_RECORD
  5
58
100
AcDbSymbolTableRecord
100
AcDbBlockTableRecord
  2
*D5
340
0
  0
BLOCK_RECORD
  5
65
100
AcDbSymbolTableRecord
100
AcDbBlockTableRecord
  2
*D6
340
0
  0
BLOCK_RECORD
  5
71
100
AcDbSymbolTableRecord
100
AcDbBlockTableRecord
  2
*D7
340
0
  0
BLOCK_RECORD
  5
7F
100
AcDbSymbolTableRecord
100
AcDbBlockTableRecord
  2
*D8
340
0
  0
BLOCK_RECORD
  5
8C
100
AcDbSymbolTableRecord
100
AcDbBlockTableRecord
  2
*D9
340
0
  0
BLOCK_RECORD
  5
9A
100
AcDbSymbolTableRecord
100
AcDbBlockTableRecord
  2
*D10
340
0
  0
BLOCK_RECORD
  5
A6
100
AcDbSymbolTableRecord
100
AcDbBlockTableRecord
  2
*D11
340
0
  0
BLOCK_RECORD
  5
B3
100
AcDbSymbolTableRecord
100
AcDbBlockTableRecord
  2
*D12
340
0
  0
ENDTAB
  0
ENDSEC
  0
SECTION
  2
BLOCKS
  0
BLOCK
  5
D
100
AcDbEntity
  8
0
390
0
100
AcDbBlockBegin
  2
*MODEL_SPACE
 70
     0
 10
0.0
 20
0.0
 30
0.0
  3
*MODEL_SPACE
  1

  0
ENDBLK
  5
E
100
AcDbEntity
  8
0
390
0
100
AcDbBlockEnd
  0
BLOCK
  5
F
100
AcDbEntity
 67
     1
  8
0
390
0
100
AcDbBlockBegin
  2
*PAPER_SPACE
 70
     0
 10
0.0
 20
0.0
 30
0.0
  3
*PAPER_SPACE
  1

  0
ENDBLK
  5
10
100
AcDbEntity
 67
     1
  8
0
390
0
100
AcDbBlockEnd
  0
BLOCK
  5
2C
100
AcDbEntity
  8
0
370
    -2
390
0
100
AcDbBlockBegin
  2
*U0
 70
     1
 10
0.0
 20
0.0
 30
0.0
  3
*U0
  1

  0
LINE
  5
2D
100
AcDbEntity
  8
0
390
0
  6
CONTINUOUS
 62
   110
100
AcDbLine
 10
-1.0
 20
0.267949
 30
0.0
 11
0.0
 21
0.0
 31
0.0
  0
LINE
  5
2E
100
AcDbEntity
  8
0
390
0
  6
CONTINUOUS
 62
   110
100
AcDbLine
 10
0.0
 20
0.0
 30
0.0
 11
-1.0
 21
-0.267949
 31
0.0
  0
LINE
  5
2F
100
AcDbEntity
  8
0
390
0
  6
CONTINUOUS
 62
   110
100
AcDbLine
 10
0.0
 20
0.0
 30
0.0
 11
-1.0
 21
0.0
 31
0.0
  0
ENDBLK
  5
30
100
AcDbEntity
  8
0
370
    -2
390
0
100
AcDbBlockEnd
  0
BLOCK
  5
27
100
AcDbEntity
  8
0
370
    -2
390
0
  6
ByBlock
 62
     0
100
AcDbBlockBegin
  2
_OPEN30
 70
     2
 10
0.0
 20
0.0
 30
0.0
  3
_OPEN30
  1

  0
LINE
  5
28
100
AcDbEntity
  8
0
370
    -2
390
0
  6
ByBlock
 62
     0
100
AcDbLine
 10
-1.0
 20
0.267949
 30
0.0
 11
0.0
 21
0.0
 31
0.0
  0
LINE
  5
29
100
AcDbEntity
  8
0
370
    -2
390
0
  6
ByBlock
 62
     0
100
AcDbLine
 10
0.0
 20
0.0
 30
0.0
 11
-1.0
 21
-0.267949
 31
0.0
  0
LINE
  5
2A
100
AcDbEntity
  8
0
370
    -2
390
0
  6
ByBlock
 62
     0
100
AcDbLine
 10
0.0
 20
0.0
 30
0.0
 11
-1.0
 21
0.0
 31
0.0
  0
ENDBLK
  5
2B
100
AcDbEntity
  8
0
370
    -2
390
0
  6
ByBlock
 62
     0
100
AcDbBlockEnd
  0
BLOCK
  5
32
100
AcDbEntity
  8
0
370
    -2
390
0
  6
ByBlock
 62
     0
100
AcDbBlockBegin
  2
*D2
 70
     1
 10
0.0
 20
0.0
 30
0.0
  3
*D2
  1

  0
LINE
  5
33
100
AcDbEntity
  8
0
390
0
  6
CONTINUOUS
 62
   110
100
AcDbLine
 10
130.0
 20
143.033336
 30
0.0
 11
130.0
 21
117.633336
 31
0.0
  0
INSERT
  5
34
100
AcDbEntity
  8
0
390
0
  6
CONTINUOUS
 62
   110
100
AcDbBlockReference
  2
_OPEN30
 10
130.0
 20
143.033336
 30
0.0
 41
2.77
 42
2.77
 43
2.77
 50
90.0
  0
INSERT
  5
35
100
AcDbEntity
  8
0
390
0
  6
CONTINUOUS
 62
   110
100
AcDbBlockReference
  2
_OPEN30
 10
130.0
 20
117.633336
 30
0.0
 41
2.77
 42
2.77
 43
2.77
 50
270.0
  0
MTEXT
  5
37
100
AcDbEntity
  8
0
390
0
  6
CONTINUOUS
 62
   110
100
AcDbMText
 10
126.5
 20
130.333335
 30
0.0
 40
5.0
 41
0.0
 71
     5
 72
     1
  1
\A1;\U+220525.4
  7
MX_DIMTXSTY_2
 11
0.0
 21
1.0
 31
0.0
 73
     1
 44
0.9
  0
POINT
  5
38
100
AcDbEntity
  8
DEFPOINTS
390
0
  6
CONTINUOUS
 62
     0
100
AcDbPoint
 10
122.699997
 20
143.033336
 30
0.0
  0
POINT
  5
39
100
AcDbEntity
  8
DEFPOINTS
390
0
  6
CONTINUOUS
 62
     0
100
AcDbPoint
 10
122.699997
 20
117.633336
 30
0.0
  0
POINT
  5
3A
100
AcDbEntity
  8
DEFPOINTS
390
0
  6
CONTINUOUS
 62
     0
100
AcDbPoint
 10
130.0
 20
117.633336
 30
0.0
  0
ENDBLK
  5
3B
100
AcDbEntity
  8
0
370
    -2
390
0
  6
ByBlock
 62
     0
100
AcDbBlockEnd
  0
BLOCK
  5
3E
100
AcDbEntity
  8
0
370
    -2
390
0
  6
ByBlock
 62
     0
100
AcDbBlockBegin
  2
*D3
 70
     1
 10
0.0
 20
0.0
 30
0.0
  3
*D3
  1

  0
LINE
  5
3F
100
AcDbEntity
  8
0
390
0
  6
CONTINUOUS
 62
   110
100
AcDbLine
 10
300.0
 20
17.0
 30
0.0
 11
300.0
 21
0.0
 31
0.0
  0
LINE
  5
40
100
AcDbEntity
  8
0
390
0
  6
CONTINUOUS
 62
   110
100
AcDbLine
 10
288.876099
 20
17.0
 30
0.0
 11
301.0
 21
17.0
 31
0.0
  0
LINE
  5
41
100
AcDbEntity
  8
0
390
0
  6
CONTINUOUS
 62
   110
100
AcDbLine
 10
270.023621
 20
0.0
 30
0.0
 11
301.0
 21
0.0
 31
0.0
  0
INSERT
  5
42
100
AcDbEntity
  8
0
390
0
  6
CONTINUOUS
 62
   110
100
AcDbBlockReference
  2
_OPEN30
 10
300.0
 20
17.0
 30
0.0
 41
2.77
 42
2.77
 43
2.77
 50
90.0
  0
INSERT
  5
43
100
AcDbEntity
  8
0
390
0
  6
CONTINUOUS
 62
   110
100
AcDbBlockReference
  2
_OPEN30
 10
300.0
 20
0.0
 30
0.0
 41
2.77
 42
2.77
 43
2.77
 50
270.0
  0
MTEXT
  5
45
100
AcDbEntity
  8
0
390
0
  6
CONTINUOUS
 62
   110
100
AcDbMText
 10
296.5
 20
8.5
 30
0.0
 40
5.0
 41
0.0
 71
     5
 72
     1
  1
\A1;17
  7
MX_DIMTXSTY_3
 11
0.0
 21
1.0
 31
0.0
 73
     1
 44
0.9
  0
POINT
  5
46
100
AcDbEntity
  8
DEFPOINTS
390
0
  6
CONTINUOUS
 62
     0
100
AcDbPoint
 10
286.876099
 20
17.0
 30
0.0
  0
POINT
  5
47
100
AcDbEntity
  8
DEFPOINTS
390
0
  6
CONTINUOUS
 62
     0
100
AcDbPoint
 10
268.023621
 20
0.0
 30
0.0
  0
POINT
  5
48
100
AcDbEntity
  8
DEFPOINTS
390
0
  6
CONTINUOUS
 62
     0
100
AcDbPoint
 10
300.0
 20
0.0
 30
0.0
  0
ENDBLK
  5
49
100
AcDbEntity
  8
0
370
    -2
390
0
  6
ByBlock
 62
     0
100
AcDbBlockEnd
  0
BLOCK
  5
4C
100
AcDbEntity
  8
0
370
    -2
390
0
  6
ByBlock
 62
     0
100
AcDbBlockBegin
  2
*D4
 70
     1
 10
0.0
 20
0.0
 30
0.0
  3
*D4
  1

  0
LINE
  5
4D
100
AcDbEntity
  8
0
390
0
  6
CONTINUOUS
 62
   110
100
AcDbLine
 10
310.0
 20
25.5
 30
0.0
 11
310.0
 21
-25.5
 31
0.0
  0
LINE
  5
4E
100
AcDbEntity
  8
0
390
0
  6
CONTINUOUS
 62
   110
100
AcDbLine
 10
254.5
 20
25.5
 30
0.0
 11
311.0
 21
25.5
 31
0.0
  0
LINE
  5
4F
100
AcDbEntity
  8
0
390
0
  6
CONTINUOUS
 62
   110
100
AcDbLine
 10
254.5
 20
-25.5
 30
0.0
 11
311.0
 21
-25.5
 31
0.0
  0
INSERT
  5
50
100
AcDbEntity
  8
0
390
0
  6
CONTINUOUS
 62
   110
100
AcDbBlockReference
  2
_OPEN30
 10
310.0
 20
25.5
 30
0.0
 41
2.77
 42
2.77
 43
2.77
 50
90.0
  0
INSERT
  5
51
100
AcDbEntity
  8
0
390
0
  6
CONTINUOUS
 62
   110
100
AcDbBlockReference
  2
_OPEN30
 10
310.0
 20
-25.5
 30
0.0
 41
2.77
 42
2.77
 43
2.77
 50
270.0
  0
MTEXT
  5
52
100
AcDbEntity
  8
0
390
0
  6
CONTINUOUS
 62
   110
100
AcDbMText
 10
306.5
 20
0.0
 30
0.0
 40
5.0
 41
0.0
 71
     5
 72
     1
  1
\A1;\U+220551
 11
0.0
 21
1.0
 31
0.0
 73
     1
 44
0.9
  0
POINT
  5
53
100
AcDbEntity
  8
DEFPOINTS
390
0
  6
CONTINUOUS
 62
     0
100
AcDbPoint
 10
252.5
 20
25.5
 30
0.0
  0
POINT
  5
54
100
AcDbEntity
  8
DEFPOINTS
390
0
  6
CONTINUOUS
 62
     0
100
AcDbPoint
 10
252.5
 20
-25.5
 30
0.0
  0
POINT
  5
55
100
AcDbEntity
  8
DEFPOINTS
390
0
  6
CONTINUOUS
 62
     0
100
AcDbPoint
 10
310.0
 20
-25.5
 30
0.0
  0
ENDBLK
  5
56
100
AcDbEntity
  8
0
370
    -2
390
0
  6
ByBlock
 62
     0
100
AcDbBlockEnd
  0
BLOCK
  5
59
100
AcDbEntity
  8
0
370
    -2
390
0
  6
ByBlock
 62
     0
100
AcDbBlockBegin
  2
*D5
 70
     1
 10
0.0
 20
0.0
 30
0.0
  3
*D5
  1

  0
LINE
  5
5A
100
AcDbEntity
  8
0
390
0
  6
CONTINUOUS
 62
   110
100
AcDbLine
 10
266.0
 20
50.0
 30
0.0
 11
259.0
 21
50.0
 31
0.0
  0
LINE
  5
5B
100
AcDbEntity
  8
0
390
0
  6
CONTINUOUS
 62
   110
100
AcDbLine
 10
266.0
 20
50.0
 30
0.0
 11
270.0
 21
50.0
 31
0.0
  0
LINE
  5
5C
100
AcDbEntity
  8
0
390
0
  6
CONTINUOUS
 62
   110
100
AcDbLine
 10
259.0
 20
50.0
 30
0.0
 11
255.0
 21
50.0
 31
0.0
  0
INSERT
  5
5D
100
AcDbEntity
  8
0
390
0
  6
CONTINUOUS
 62
   110
100
AcDbBlockReference
  2
_OPEN30
 10
266.0
 20
50.0
 30
0.0
 41
2.77
 42
2.77
 43
2.77
 50
180.0
  0
INSERT
  5
5E
100
AcDbEntity
  8
0
390
0
  6
CONTINUOUS
 62
   110
100
AcDbBlockReference
  2
_OPEN30
 10
259.0
 20
50.0
 30
0.0
 41
2.77
 42
2.77
 43
2.77
  0
MTEXT
  5
5F
100
AcDbEntity
  8
0
390
0
  6
CONTINUOUS
 62
   110
100
AcDbMText
 10
262.5
 20
53.5
 30
0.0
 40
5.0
 41
0.0
 71
     5
 72
     1
  1
\A1;7
 11
1.0
 21
0.0
 31
0.0
 73
     1
 44
0.9
  0
POINT
  5
60
100
AcDbEntity
  8
DEFPOINTS
390
0
  6
CONTINUOUS
 62
     0
100
AcDbPoint
 10
266.0
 20
70.0
 30
0.0
  0
POINT
  5
61
100
AcDbEntity
  8
DEFPOINTS
390
0
  6
CONTINUOUS
 62
     0
100
AcDbPoint
 10
259.0
 20
60.0
 30
0.0
  0
POINT
  5
62
100
AcDbEntity
  8
DEFPOINTS
390
0
  6
CONTINUOUS
 62
     0
100
AcDbPoint
 10
259.0
 20
50.0
 30
0.0
  0
ENDBLK
  5
63
100
AcDbEntity
  8
0
370
    -2
390
0
  6
ByBlock
 62
     0
100
AcDbBlockEnd
  0
BLOCK
  5
66
100
AcDbEntity
  8
0
370
    -2
390
0
  6
ByBlock
 62
     0
100
AcDbBlockBegin
  2
*D6
 70
     1
 10
0.0
 20
0.0
 30
0.0
  3
*D6
  1

  0
LINE
  5
67
100
AcDbEntity
  8
0
390
0
  6
CONTINUOUS
 62
   110
100
AcDbLine
 10
259.0
 20
60.0
 30
0.0
 11
283.0
 21
60.0
 31
0.0
  0
LINE
  5
68
100
AcDbEntity
  8
0
390
0
  6
CONTINUOUS
 62
   110
100
AcDbLine
 10
283.0
 20
23.700039
 30
0.0
 11
283.0
 21
61.0
 31
0.0
  0
INSERT
  5
69
100
AcDbEntity
  8
0
390
0
  6
CONTINUOUS
 62
   110
100
AcDbBlockReference
  2
_OPEN30
 10
259.0
 20
60.0
 30
0.0
 41
2.77
 42
2.77
 43
2.77
 50
180.0
  0
INSERT
  5
6A
100
AcDbEntity
  8
0
390
0
  6
CONTINUOUS
 62
   110
100
AcDbBlockReference
  2
_OPEN30
 10
283.0
 20
60.0
 30
0.0
 41
2.77
 42
2.77
 43
2.77
  0
MTEXT
  5
6B
100
AcDbEntity
  8
0
390
0
  6
CONTINUOUS
 62
   110
100
AcDbMText
 10
271.0
 20
63.5
 30
0.0
 40
5.0
 41
0.0
 71
     5
 72
     1
  1
\A1;24
 73
     1
 44
0.9
  0
POINT
  5
6C
100
AcDbEntity
  8
DEFPOINTS
390
0
  6
CONTINUOUS
 62
     0
100
AcDbPoint
 10
259.0
 20
60.0
 30
0.0
  0
POINT
  5
6D
100
AcDbEntity
  8
DEFPOINTS
390
0
  6
CONTINUOUS
 62
     0
100
AcDbPoint
 10
283.0
 20
21.700039
 30
0.0
  0
POINT
  5
6E
100
AcDbEntity
  8
DEFPOINTS
390
0
  6
CONTINUOUS
 62
     0
100
AcDbPoint
 10
283.0
 20
60.0
 30
0.0
  0
ENDBLK
  5
6F
100
AcDbEntity
  8
0
370
    -2
390
0
  6
ByBlock
 62
     0
100
AcDbBlockEnd
  0
BLOCK
  5
72
100
AcDbEntity
  8
0
370
    -2
390
0
  6
ByBlock
 62
     0
100
AcDbBlockBegin
  2
*D7
 70
     1
 10
0.0
 20
0.0
 30
0.0
  3
*D7
  1

  0
LINE
  5
73
100
AcDbEntity
  8
0
390
0
  6
CONTINUOUS
 62
   110
100
AcDbLine
 10
122.699997
 20
50.0
 30
0.0
 11
143.0
 21
50.0
 31
0.0
  0
LINE
  5
74
100
AcDbEntity
  8
0
390
0
  6
CONTINUOUS
 62
   110
100
AcDbLine
 10
122.699997
 20
35.850002
 30
0.0
 11
122.699997
 21
51.0
 31
0.0
  0
LINE
  5
75
100
AcDbEntity
  8
0
390
0
  6
CONTINUOUS
 62
   110
100
AcDbLine
 10
143.0
 20
22.0
 30
0.0
 11
143.0
 21
51.0
 31
0.0
  0
INSERT
  5
76
100
AcDbEntity
  8
0
390
0
  6
CONTINUOUS
 62
   110
100
AcDbBlockReference
  2
_OPEN30
 10
122.699997
 20
50.0
 30
0.0
 41
2.77
 42
2.77
 43
2.77
 50
180.0
  0
INSERT
  5
77
100
AcDbEntity
  8
0
390
0
  6
CONTINUOUS
 62
   110
100
AcDbBlockReference
  2
_OPEN30
 10
143.0
 20
50.0
 30
0.0
 41
2.77
 42
2.77
 43
2.77
  0
MTEXT
  5
79
100
AcDbEntity
  8
0
390
0
  6
CONTINUOUS
 62
   110
100
AcDbMText
 10
132.849998
 20
53.5
 30
0.0
 40
5.0
 41
0.0
 71
     5
 72
     1
  1
\A1;20.3
  7
MX_DIMTXSTY_4
 73
     1
 44
0.9
  0
POINT
  5
7A
100
AcDbEntity
  8
DEFPOINTS
390
0
  6
CONTINUOUS
 62
     0
100
AcDbPoint
 10
122.699997
 20
33.850002
 30
0.0
  0
POINT
  5
7B
100
AcDbEntity
  8
DEFPOINTS
390
0
  6
CONTINUOUS
 62
     0
100
AcDbPoint
 10
143.0
 20
20.0
 30
0.0
  0
POINT
  5
7C
100
AcDbEntity
  8
DEFPOINTS
390
0
  6
CONTINUOUS
 62
     0
100
AcDbPoint
 10
143.0
 20
50.0
 30
0.0
  0
ENDBLK
  5
7D
100
AcDbEntity
  8
0
370
    -2
390
0
  6
ByBlock
 62
     0
100
AcDbBlockEnd
  0
BLOCK
  5
80
100
AcDbEntity
  8
0
370
    -2
390
0
  6
ByBlock
 62
     0
100
AcDbBlockBegin
  2
*D8
 70
     1
 10
0.0
 20
0.0
 30
0.0
  3
*D8
  1

  0
LINE
  5
81
100
AcDbEntity
  8
0
390
0
  6
CONTINUOUS
 62
   110
100
AcDbLine
 10
60.0
 20
30.0
 30
0.0
 11
80.0
 21
30.0
 31
0.0
  0
LINE
  5
82
100
AcDbEntity
  8
0
390
0
  6
CONTINUOUS
 62
   110
100
AcDbLine
 10
60.0
 20
5.0
 30
0.0
 11
60.0
 21
31.0
 31
0.0
  0
LINE
  5
83
100
AcDbEntity
  8
0
390
0
  6
CONTINUOUS
 62
   110
100
AcDbLine
 10
80.0
 20
7.0
 30
0.0
 11
80.0
 21
31.0
 31
0.0
  0
INSERT
  5
84
100
AcDbEntity
  8
0
390
0
  6
CONTINUOUS
 62
   110
100
AcDbBlockReference
  2
_OPEN30
 10
60.0
 20
30.0
 30
0.0
 41
2.77
 42
2.77
 43
2.77
 50
180.0
  0
INSERT
  5
85
100
AcDbEntity
  8
0
390
0
  6
CONTINUOUS
 62
   110
100
AcDbBlockReference
  2
_OPEN30
 10
80.0
 20
30.0
 30
0.0
 41
2.77
 42
2.77
 43
2.77
  0
MTEXT
  5
86
100
AcDbEntity
  8
0
390
0
  6
CONTINUOUS
 62
   110
100
AcDbMText
 10
70.0
 20
33.5
 30
0.0
 40
5.0
 41
0.0
 71
     5
 72
     1
  1
\A1;20
 73
     1
 44
0.9
  0
POINT
  5
87
100
AcDbEntity
  8
DEFPOINTS
390
0
  6
CONTINUOUS
 62
     0
100
AcDbPoint
 10
60.0
 20
3.0
 30
0.0
  0
POINT
  5
88
100
AcDbEntity
  8
DEFPOINTS
390
0
  6
CONTINUOUS
 62
     0
100
AcDbPoint
 10
80.0
 20
5.0
 30
0.0
  0
POINT
  5
89
100
AcDbEntity
  8
DEFPOINTS
390
0
  6
CONTINUOUS
 62
     0
100
AcDbPoint
 10
80.0
 20
30.0
 30
0.0
  0
ENDBLK
  5
8A
100
AcDbEntity
  8
0
370
    -2
390
0
  6
ByBlock
 62
     0
100
AcDbBlockEnd
  0
BLOCK
  5
8D
100
AcDbEntity
  8
0
370
    -2
390
0
  6
ByBlock
 62
     0
100
AcDbBlockBegin
  2
*D9
 70
     1
 10
0.0
 20
0.0
 30
0.0
  3
*D9
  1

  0
LINE
  5
8E
100
AcDbEntity
  8
0
390
0
  6
CONTINUOUS
 62
   110
100
AcDbLine
 10
60.0
 20
70.0
 30
0.0
 11
266.0
 21
70.0
 31
0.0
  0
LINE
  5
8F
100
AcDbEntity
  8
0
390
0
  6
CONTINUOUS
 62
   110
100
AcDbLine
 10
60.0
 20
5.0
 30
0.0
 11
60.0
 21
71.0
 31
0.0
  0
LINE
  5
90
100
AcDbEntity
  8
0
390
0
  6
CONTINUOUS
 62
   110
100
AcDbLine
 10
266.0
 20
2.0
 30
0.0
 11
266.0
 21
71.0
 31
0.0
  0
INSERT
  5
91
100
AcDbEntity
  8
0
390
0
  6
CONTINUOUS
 62
   110
100
AcDbBlockReference
  2
_OPEN30
 10
60.0
 20
70.0
 30
0.0
 41
2.77
 42
2.77
 43
2.77
 50
180.0
  0
INSERT
  5
92
100
AcDbEntity
  8
0
390
0
  6
CONTINUOUS
 62
   110
100
AcDbBlockReference
  2
_OPEN30
 10
266.0
 20
70.0
 30
0.0
 41
2.77
 42
2.77
 43
2.77
  0
MTEXT
  5
94
100
AcDbEntity
  8
0
390
0
  6
CONTINUOUS
 62
   110
100
AcDbMText
 10
163.0
 20
73.5
 30
0.0
 40
5.0
 41
0.0
 71
     5
 72
     1
  1
\A1;236～206（30ストローク）
  7
MX_DIMTXSTY_5
 73
     1
 44
0.9
  0
POINT
  5
95
100
AcDbEntity
  8
DEFPOINTS
390
0
  6
CONTINUOUS
 62
     0
100
AcDbPoint
 10
60.0
 20
3.0
 30
0.0
  0
POINT
  5
96
100
AcDbEntity
  8
DEFPOINTS
390
0
  6
CONTINUOUS
 62
     0
100
AcDbPoint
 10
266.0
 20
0.0
 30
0.0
  0
POINT
  5
97
100
AcDbEntity
  8
DEFPOINTS
390
0
  6
CONTINUOUS
 62
     0
100
AcDbPoint
 10
266.0
 20
70.0
 30
0.0
  0
ENDBLK
  5
98
100
AcDbEntity
  8
0
370
    -2
390
0
  6
ByBlock
 62
     0
100
AcDbBlockEnd
  0
BLOCK
  5
9B
100
AcDbEntity
  8
0
370
    -2
390
0
  6
ByBlock
 62
     0
100
AcDbBlockBegin
  2
*D10
 70
     1
 10
0.0
 20
0.0
 30
0.0
  3
*D10
  1

  0
LINE
  5
9C
100
AcDbEntity
  8
0
390
0
  6
CONTINUOUS
 62
   110
100
AcDbLine
 10
60.0
 20
60.0
 30
0.0
 11
110.0
 21
60.0
 31
0.0
  0
LINE
  5
9D
100
AcDbEntity
  8
0
390
0
  6
CONTINUOUS
 62
   110
100
AcDbLine
 10
60.0
 20
5.0
 30
0.0
 11
60.0
 21
61.0
 31
0.0
  0
INSERT
  5
9E
100
AcDbEntity
  8
0
390
0
  6
CONTINUOUS
 62
   110
100
AcDbBlockReference
  2
_OPEN30
 10
60.0
 20
60.0
 30
0.0
 41
2.77
 42
2.77
 43
2.77
 50
180.0
  0
INSERT
  5
9F
100
AcDbEntity
  8
0
390
0
  6
CONTINUOUS
 62
   110
100
AcDbBlockReference
  2
_OPEN30
 10
110.0
 20
60.0
 30
0.0
 41
2.77
 42
2.77
 43
2.77
  0
MTEXT
  5
A0
100
AcDbEntity
  8
0
390
0
  6
CONTINUOUS
 62
   110
100
AcDbMText
 10
85.0
 20
63.5
 30
0.0
 40
5.0
 41
0.0
 71
     5
 72
     1
  1
\A1;50+30ストローク
  7
MX_DIMTXSTY_5
 73
     1
 44
0.9
  0
POINT
  5
A1
100
AcDbEntity
  8
DEFPOINTS
390
0
  6
CONTINUOUS
 62
     0
100
AcDbPoint
 10
60.0
 20
3.0
 30
0.0
  0
POINT
  5
A2
100
AcDbEntity
  8
DEFPOINTS
390
0
  6
CONTINUOUS
 62
     0
100
AcDbPoint
 10
110.0
 20
35.849957
 30
0.0
  0
POINT
  5
A3
100
AcDbEntity
  8
DEFPOINTS
390
0
  6
CONTINUOUS
 62
     0
100
AcDbPoint
 10
110.0
 20
60.0
 30
0.0
  0
ENDBLK
  5
A4
100
AcDbEntity
  8
0
370
    -2
390
0
  6
ByBlock
 62
     0
100
AcDbBlockEnd
  0
BLOCK
  5
A7
100
AcDbEntity
  8
0
370
    -2
390
0
  6
ByBlock
 62
     0
100
AcDbBlockBegin
  2
*D11
 70
     1
 10
0.0
 20
0.0
 30
0.0
  3
*D11
  1

  0
LINE
  5
A8
100
AcDbEntity
  8
0
390
0
  6
CONTINUOUS
 62
   110
100
AcDbLine
 10
110.0
 20
60.0
 30
0.0
 11
259.0
 21
60.0
 31
0.0
  0
LINE
  5
A9
100
AcDbEntity
  8
0
390
0
  6
CONTINUOUS
 62
   110
100
AcDbLine
 10
110.0
 20
35.849957
 30
0.0
 11
110.0
 21
61.0
 31
0.0
  0
LINE
  5
AA
100
AcDbEntity
  8
0
390
0
  6
CONTINUOUS
 62
   110
100
AcDbLine
 10
259.0
 20
25.0
 30
0.0
 11
259.0
 21
61.0
 31
0.0
  0
INSERT
  5
AB
100
AcDbEntity
  8
0
390
0
  6
CONTINUOUS
 62
   110
100
AcDbBlockReference
  2
_OPEN30
 10
110.0
 20
60.0
 30
0.0
 41
2.77
 42
2.77
 43
2.77
 50
180.0
  0
INSERT
  5
AC
100
AcDbEntity
  8
0
390
0
  6
CONTINUOUS
 62
   110
100
AcDbBlockReference
  2
_OPEN30
 10
259.0
 20
60.0
 30
0.0
 41
2.77
 42
2.77
 43
2.77
  0
MTEXT
  5
AD
100
AcDbEntity
  8
0
390
0
  6
CONTINUOUS
 62
   110
100
AcDbMText
 10
184.5
 20
63.5
 30
0.0
 40
5.0
 41
0.0
 71
     5
 72
     1
  1
\A1;149
  7
MX_DIMTXSTY_2
 73
     1
 44
0.9
  0
POINT
  5
AE
100
AcDbEntity
  8
DEFPOINTS
390
0
  6
CONTINUOUS
 62
     0
100
AcDbPoint
 10
110.0
 20
33.849957
 30
0.0
  0
POINT
  5
AF
100
AcDbEntity
  8
DEFPOINTS
390
0
  6
CONTINUOUS
 62
     0
100
AcDbPoint
 10
259.0
 20
23.0
 30
0.0
  0
POINT
  5
B0
100
AcDbEntity
  8
DEFPOINTS
390
0
  6
CONTINUOUS
 62
     0
100
AcDbPoint
 10
259.0
 20
60.0
 30
0.0
  0
ENDBLK
  5
B1
100
AcDbEntity
  8
0
370
    -2
390
0
  6
ByBlock
 62
     0
100
AcDbBlockEnd
  0
BLOCK
  5
B4
100
AcDbEntity
  8
0
370
    -2
390
0
  6
ByBlock
 62
     0
100
AcDbBlockBegin
  2
*D12
 70
     1
 10
0.0
 20
0.0
 30
0.0
  3
*D12
  1

  0
LINE
  5
B5
100
AcDbEntity
  8
0
390
0
  6
CONTINUOUS
 62
   110
100
AcDbLine
 10
160.0
 20
149.333336
 30
0.0
 11
160.0
 21
111.333336
 31
0.0
  0
INSERT
  5
B6
100
AcDbEntity
  8
0
390
0
  6
CONTINUOUS
 62
   110
100
AcDbBlockReference
  2
_OPEN30
 10
160.0
 20
149.333336
 30
0.0
 41
2.77
 42
2.77
 43
2.77
 50
90.0
  0
INSERT
  5
B7
100
AcDbEntity
  8
0
390
0
  6
CONTINUOUS
 62
   110
100
AcDbBlockReference
  2
_OPEN30
 10
160.0
 20
111.333336
 30
0.0
 41
2.77
 42
2.77
 43
2.77
 50
270.0
  0
MTEXT
  5
B8
100
AcDbEntity
  8
0
390
0
  6
CONTINUOUS
 62
   110
100
AcDbMText
 10
156.5
 20
138.804674
 30
0.0
 40
5.0
 41
0.0
 71
     5
 72
     1
  1
\A1;\U+220538
  7
MX_DIMTXSTY_5
 11
0.0
 21
1.0
 31
0.0
 73
     1
 44
0.9
  0
POINT
  5
B9
100
AcDbEntity
  8
DEFPOINTS
390
0
  6
CONTINUOUS
 62
     0
100
AcDbPoint
 10
152.0
 20
149.333336
 30
0.0
  0
POINT
  5
BA
100
AcDbEntity
  8
DEFPOINTS
390
0
  6
CONTINUOUS
 62
     0
100
AcDbPoint
 10
152.0
 20
111.333336
 30
0.0
  0
POINT
  5
BB
100
AcDbEntity
  8
DEFPOINTS
390
0
  6
CONTINUOUS
 62
     0
100
AcDbPoint
 10
160.0
 20
111.333336
 30
0.0
  0
ENDBLK
  5
BC
100
AcDbEntity
  8
0
370
    -2
390
0
  6
ByBlock
 62
     0
100
AcDbBlockEnd
  0
ENDSEC
  0
SECTION
  2
ENTITIES
  0
DIMENSION
  5
3C
100
AcDbEntity
  8
0
390
0
  6
CONTINUOUS
 62
   110
100
AcDbDimension
  2
*D2
 10
130.0
 20
117.633336
 30
0.0
 11
130.0
 21
130.333335
 31
0.0
 70
   128
 71
     5
 72
     1
 41
0.9
 42
25.4
  1
\A1;\U+2205<>
  3
MXDIMSTYLE
100
AcDbAlignedDimension
 13
122.699997
 23
143.033336
 33
0.0
 14
122.699997
 24
117.633336
 34
0.0
 50
90.0
100
AcDbRotatedDimension
1001
ACAD
1000
DSTYLE
1002
{
1070
    41
1040
2.77
1070
    75
1070
     1
1070
    76
1070
     1
1070
   140
1040
5.0
1070
   284
1070
     8
1070
   340
1005
36
1002
}
  0
DIMENSION
  5
4A
100
AcDbEntity
  8
0
390
0
  6
CONTINUOUS
 62
   110
100
AcDbDimension
  2
*D3
 10
300.0
 20
0.0
 30
0.0
 11
300.0
 21
8.5
 31
0.0
 70
   128
 71
     5
 72
     1
 41
0.9
 42
17.0
  1
\A1;<>
  3
MXDIMSTYLE
100
AcDbAlignedDimension
 13
286.876099
 23
17.0
 33
0.0
 14
268.023621
 24
0.0
 34
0.0
 50
90.0
100
AcDbRotatedDimension
1001
ACAD
1000
DSTYLE
1002
{
1070
    41
1040
2.77
1070
   140
1040
5.0
1070
   284
1070
     8
1070
   340
1005
44
1002
}
  0
DIMENSION
  5
57
100
AcDbEntity
  8
0
390
0
  6
CONTINUOUS
 62
   110
100
AcDbDimension
  2
*D4
 10
310.0
 20
-25.5
 30
0.0
 11
310.0
 21
0.0
 31
0.0
 70
   128
 71
     5
 72
     1
 41
0.9
 42
51.0
  1
\A1;\U+2205<>
  3
MXDIMSTYLE
100
AcDbAlignedDimension
 13
252.5
 23
25.5
 33
0.0
 14
252.5
 24
-25.5
 34
0.0
 50
90.0
100
AcDbRotatedDimension
1001
ACAD
1000
DSTYLE
1002
{
1070
    41
1040
2.77
1070
   140
1040
5.0
1070
   284
1070
     8
1002
}
  0
DIMENSION
  5
64
100
AcDbEntity
  8
0
390
0
  6
CONTINUOUS
 62
   110
100
AcDbDimension
  2
*D5
 10
259.0
 20
50.0
 30
0.0
 11
262.5
 21
50.0
 31
0.0
 70
   128
 71
     5
 72
     1
 41
0.9
 42
7.0
  1
\A1;<>
  3
MXDIMSTYLE
100
AcDbAlignedDimension
 13
266.0
 23
70.0
 33
0.0
 14
259.0
 24
60.0
 34
0.0
100
AcDbRotatedDimension
1001
ACAD
1000
DSTYLE
1002
{
1070
    41
1040
2.77
1070
    75
1070
     1
1070
    76
1070
     1
1070
   140
1040
5.0
1070
   284
1070
     8
1002
}
  0
DIMENSION
  5
70
100
AcDbEntity
  8
0
390
0
  6
CONTINUOUS
 62
   110
100
AcDbDimension
  2
*D6
 10
283.0
 20
60.0
 30
0.0
 11
271.0
 21
60.0
 31
0.0
 70
   128
 71
     5
 72
     1
 41
0.9
 42
24.0
  1
\A1;<>
  3
MXDIMSTYLE
100
AcDbAlignedDimension
 13
259.0
 23
60.0
 33
0.0
 14
283.0
 24
21.700039
 34
0.0
100
AcDbRotatedDimension
1001
ACAD
1000
DSTYLE
1002
{
1070
    41
1040
2.77
1070
    75
1070
     1
1070
   140
1040
5.0
1070
   284
1070
     8
1002
}
  0
DIMENSION
  5
7E
100
AcDbEntity
  8
0
390
0
  6
CONTINUOUS
 62
   110
100
AcDbDimension
  2
*D7
 10
143.0
 20
50.0
 30
0.0
 11
132.849998
 21
50.0
 31
0.0
 70
   128
 71
     5
 72
     1
 41
0.9
 42
20.300003
  1
\A1;<>
  3
MXDIMSTYLE
100
AcDbAlignedDimension
 13
122.699997
 23
33.850002
 33
0.0
 14
143.0
 24
20.0
 34
0.0
100
AcDbRotatedDimension
1001
ACAD
1000
DSTYLE
1002
{
1070
    41
1040
2.77
1070
   140
1040
5.0
1070
   284
1070
     8
1070
   340
1005
78
1002
}
  0
DIMENSION
  5
8B
100
AcDbEntity
  8
0
390
0
  6
CONTINUOUS
 62
   110
100
AcDbDimension
  2
*D8
 10
80.0
 20
30.0
 30
0.0
 11
70.0
 21
30.0
 31
0.0
 70
   128
 71
     5
 72
     1
 41
0.9
 42
20.0
  1
\A1;<>
  3
MXDIMSTYLE
100
AcDbAlignedDimension
 13
60.0
 23
3.0
 33
0.0
 14
80.0
 24
5.0
 34
0.0
100
AcDbRotatedDimension
1001
ACAD
1000
DSTYLE
1002
{
1070
    41
1040
2.77
1070
   140
1040
5.0
1070
   284
1070
     8
1002
}
  0
DIMENSION
  5
99
100
AcDbEntity
  8
0
390
0
  6
CONTINUOUS
 62
   110
100
AcDbDimension
  2
*D9
 10
266.0
 20
70.0
 30
0.0
 11
163.0
 21
70.0
 31
0.0
 70
   128
 71
     5
 72
     1
 41
0.9
 42
206.0
  1
\A1;236～<>（30ストローク）
  3
MXDIMSTYLE
100
AcDbAlignedDimension
 13
60.0
 23
3.0
 33
0.0
 14
266.0
 24
0.0
 34
0.0
100
AcDbRotatedDimension
1001
ACAD
1000
DSTYLE
1002
{
1070
    41
1040
2.77
1070
   140
1040
5.0
1070
   284
1070
     8
1070
   340
1005
93
1002
}
  0
DIMENSION
  5
A5
100
AcDbEntity
  8
0
390
0
  6
CONTINUOUS
 62
   110
100
AcDbDimension
  2
*D10
 10
110.0
 20
60.0
 30
0.0
 11
85.0
 21
60.0
 31
0.0
 70
   128
 71
     5
 72
     1
 41
0.9
 42
50.0
  1
\A1;<>+30ストローク
  3
MXDIMSTYLE
100
AcDbAlignedDimension
 13
60.0
 23
3.0
 33
0.0
 14
110.0
 24
35.849957
 34
0.0
100
AcDbRotatedDimension
1001
ACAD
1000
DSTYLE
1002
{
1070
    41
1040
2.77
1070
    76
1070
     1
1070
   140
1040
5.0
1070
   284
1070
     8
1070
   340
1005
93
1002
}
  0
DIMENSION
  5
B2
100
AcDbEntity
  8
0
390
0
  6
CONTINUOUS
 62
   110
100
AcDbDimension
  2
*D11
 10
259.0
 20
60.0
 30
0.0
 11
184.5
 21
60.0
 31
0.0
 70
   128
 71
     5
 72
     1
 41
0.9
 42
149.0
  1
\A1;<>
  3
MXDIMSTYLE
100
AcDbAlignedDimension
 13
110.0
 23
33.849957
 33
0.0
 14
259.0
 24
23.0
 34
0.0
100
AcDbRotatedDimension
1001
ACAD
1000
DSTYLE
1002
{
1070
    41
1040
2.77
1070
   140
1040
5.0
1070
   284
1070
     8
1070
   340
1005
36
1002
}
  0
DIMENSION
  5
BD
100
AcDbEntity
  8
0
390
0
  6
CONTINUOUS
 62
   110
100
AcDbDimension
  2
*D12
 10
160.0
 20
111.333336
 30
0.0
 11
160.0
 21
138.804674
 31
0.0
 70
   128
 71
     5
 72
     1
 41
0.9
 42
38.0
  1
\A1;\U+2205<>
  3
MXDIMSTYLE
100
AcDbAlignedDimension
 13
152.0
 23
149.333336
 33
0.0
 14
152.0
 24
111.333336
 34
0.0
 50
90.0
100
AcDbRotatedDimension
1001
ACAD
1000
DSTYLE
1002
{
1070
    41
1040
2.77
1070
    75
1070
     1
1070
    76
1070
     1
1070
   140
1040
5.0
1070
   284
1070
     8
1070
   340
1005
93
1002
}
  0
LINE
  5
BE
100
AcDbEntity
  8
0
390
0
  6
CONTINUOUS
 62
   110
100
AcDbLine
 10
35.514496
 20
126.333336
 30
0.0
 11
35.514496
 21
134.333336
 31
0.0
  0
LINE
  5
BF
100
AcDbEntity
  8
0
390
0
  6
CONTINUOUS
 62
   110
100
AcDbLine
 10
35.514496
 20
134.333336
 30
0.0
 11
35.514496
 21
156.351441
 31
0.0
  0
LINE
  5
C0
100
AcDbEntity
  8
0
390
0
  6
CONTINUOUS
 62
   110
100
AcDbLine
 10
59.0
 20
126.333336
 30
0.0
 11
34.514496
 21
126.333336
 31
0.0
  0
LINE
  5
C1
100
AcDbEntity
  8
0
390
0
  6
CONTINUOUS
 62
   110
100
AcDbLine
 10
59.0
 20
134.333336
 30
0.0
 11
34.514496
 21
134.333336
 31
0.0
  0
LINE
  5
C2
100
AcDbEntity
  8
0
390
0
  6
CONTINUOUS
 62
   110
100
AcDbLine
 10
35.514496
 20
126.333336
 30
0.0
 11
35.514496
 21
122.333336
 31
0.0
  0
MTEXT
  5
C3
100
AcDbEntity
  8
0
390
0
  6
CONTINUOUS
 62
   110
100
AcDbMText
 10
29.314496
 20
141.080643
 30
0.0
 40
5.2
 41
0.0
 71
     1
 72
     1
  1
\T0.983;\W1.014;\A1;\U+22058h7
 11
0.0
 21
1.0
 31
0.0
 73
     1
 44
1.0
  0
LINE
  5
C4
100
AcDbEntity
  8
0
390
0
  6
CONTINUOUS
 62
   110
100
AcDbLine
 10
34.772277
 20
123.563336
 30
0.0
 11
35.514496
 21
126.333336
 31
0.0
  0
LINE
  5
C5
100
AcDbEntity
  8
0
390
0
  6
CONTINUOUS
 62
   110
100
AcDbLine
 10
35.514496
 20
126.333336
 30
0.0
 11
36.256715
 21
123.563336
 31
0.0
  0
LINE
  5
C6
100
AcDbEntity
  8
0
390
0
  6
CONTINUOUS
 62
   110
100
AcDbLine
 10
36.256715
 20
137.103336
 30
0.0
 11
35.514496
 21
134.333336
 31
0.0
  0
LINE
  5
C7
100
AcDbEntity
  8
0
390
0
  6
CONTINUOUS
 62
   110
100
AcDbLine
 10
35.514496
 20
134.333336
 30
0.0
 11
34.772277
 21
137.103336
 31
0.0
  0
LINE
  5
C8
100
AcDbEntity
  8
0
390
0
  6
CONTINUOUS
 62
   110
100
AcDbLine
 10
50.0
 20
3.0
 30
0.0
 11
50.0
 21
-4.0
 31
0.0
  0
LINE
  5
C9
100
AcDbEntity
  8
0
390
0
  6
CONTINUOUS
 62
   110
100
AcDbLine
 10
50.0
 20
13.819421
 30
0.0
 11
50.0
 21
3.0
 31
0.0
  0
LINE
  5
CA
100
AcDbEntity
  8
0
390
0
  6
CONTINUOUS
 62
   110
100
AcDbLine
 10
4.645752
 20
3.0
 30
0.0
 11
51.0
 21
3.0
 31
0.0
  0
LINE
  5
CB
100
AcDbEntity
  8
0
390
0
  6
CONTINUOUS
 62
   110
100
AcDbLine
 10
2.0
 20
-4.0
 30
0.0
 11
51.0
 21
-4.0
 31
0.0
  0
LINE
  5
CC
100
AcDbEntity
  8
0
390
0
  6
CONTINUOUS
 62
   110
100
AcDbLine
 10
50.0
 20
-4.0
 30
0.0
 11
50.0
 21
-8.0
 31
0.0
  0
MTEXT
  5
CD
100
AcDbEntity
  8
0
390
0
  6
CONTINUOUS
 62
   110
100
AcDbMText
 10
43.8
 20
9.44481
 30
0.0
 40
5.2
 41
0.0
 71
     1
 72
     1
  1
\W0.952;\A1;7
 11
0.0
 21
1.0
 31
0.0
 73
     1
 44
1.0
  0
LINE
  5
CE
100
AcDbEntity
  8
0
390
0
  6
CONTINUOUS
 62
   110
100
AcDbLine
 10
50.742219
 20
5.77
 30
0.0
 11
50.0
 21
3.0
 31
0.0
  0
LINE
  5
CF
100
AcDbEntity
  8
0
390
0
  6
CONTINUOUS
 62
   110
100
AcDbLine
 10
50.0
 20
3.0
 30
0.0
 11
49.257781
 21
5.77
 31
0.0
  0
LINE
  5
D0
100
AcDbEntity
  8
0
390
0
  6
CONTINUOUS
 62
   110
100
AcDbLine
 10
49.257781
 20
-6.77
 30
0.0
 11
50.0
 21
-4.0
 31
0.0
  0
LINE
  5
D1
100
AcDbEntity
  8
0
390
0
  6
CONTINUOUS
 62
   110
100
AcDbLine
 10
50.0
 20
-4.0
 30
0.0
 11
50.742219
 21
-6.77
 31
0.0
  0
INSERT
  5
D2
100
AcDbEntity
  8
LY_3
390
0
  6
ByBlock
100
AcDbBlockReference
  2
*U0
 10
156.89217
 20
-12.66658
 30
0.0
 41
2.77
 42
2.77
 43
2.77
 50
130.21137
  0
INSERT
  5
D3
100
AcDbEntity
  8
LY_3
390
0
  6
ByBlock
100
AcDbBlockReference
  2
*U0
 10
122.675587
 20
-10.509659
 30
0.0
 41
2.77
 42
2.77
 43
2.77
 50
124.680386
  0
INSERT
  5
D4
100
AcDbEntity
  8
LY_3
390
0
  6
ByBlock
100
AcDbBlockReference
  2
*U0
 10
119.53825
 20
-9.725327
 30
0.0
 41
2.77
 42
2.77
 43
2.77
 50
53.742934
  0
INSERT
  5
D5
100
AcDbEntity
  8
LY_3
390
0
  6
ByBlock
100
AcDbBlockReference
  2
*U0
 10
226.042789
 20
108.976314
 30
0.0
 41
2.77
 42
2.77
 43
2.77
 50
76.338967
  0
INSERT
  5
D6
100
AcDbEntity
  8
LY_3
390
0
  6
ByBlock
100
AcDbBlockReference
  2
*U0
 10
186.960428
 20
123.727757
 30
0.0
 41
2.77
 42
2.77
 43
2.77
 50
61.964173
  0
INSERT
  5
D7
100
AcDbEntity
  8
LY_3
390
0
  6
ByBlock
100
AcDbBlockReference
  2
*U0
 10
271.886837
 20
134.607438
 30
0.0
 41
2.77
 42
2.77
 43
2.77
 50
249.343372
  0
INSERT
  5
D8
100
AcDbEntity
  8
LY_3
390
0
  6
ByBlock
100
AcDbBlockReference
  2
*U0
 10
246.766965
 20
105.564286
 30
0.0
 41
2.77
 42
2.77
 43
2.77
 50
116.7965
  0
INSERT
  5
D9
100
AcDbEntity
  8
LY_3
390
0
  6
ByBlock
100
AcDbBlockReference
  2
*U0
 10
201.994288
 20
133.208335
 30
0.0
 41
2.77
 42
2.77
 43
2.77
 50
250.027102
  0
INSERT
  5
DA
100
AcDbEntity
  8
LY_3
390
0
  6
ByBlock
100
AcDbBlockReference
  2
*U0
 10
190.889931
 20
149.683797
 30
0.0
 41
2.77
 42
2.77
 43
2.77
 50
291.414975
  0
INSERT
  5
DB
100
AcDbEntity
  8
LY_3
390
0
  6
ByBlock
100
AcDbBlockReference
  2
*U0
 10
117.46325
 20
164.781021
 30
0.0
 41
2.77
 42
2.77
 43
2.77
 50
230.519749
  0
LINE
  5
DC
100
AcDbEntity
  8
LY_3
390
0
  6
CONTINUOUS
 62
     3
100
AcDbLine
 10
115.300003
 20
12.849998
 30
0.0
 11
115.300003
 21
11.0
 31
0.0
  0
LINE
  5
DD
100
AcDbEntity
  8
LY_3
390
0
  6
CONTINUOUS
 62
     3
100
AcDbLine
 10
115.300003
 20
-12.849998
 30
0.0
 11
115.300003
 21
-11.0
 31
0.0
  0
LINE
  5
DE
100
AcDbEntity
  8
LY_3
390
0
  6
CONTINUOUS
 62
     3
100
AcDbLine
 10
147.8125
 20
131.833336
 30
0.0
 11
148.1875
 21
131.833336
 31
0.0
  0
LINE
  5
DF
100
AcDbEntity
  8
LY_3
390
0
  6
CONTINUOUS
 62
     3
100
AcDbLine
 10
147.8125
 20
128.833336
 30
0.0
 11
148.1875
 21
128.833336
 31
0.0
  0
LINE
  5
E0
100
AcDbEntity
  8
LY_3
390
0
  6
CONTINUOUS
 62
     3
100
AcDbLine
 10
149.5
 20
130.520836
 30
0.0
 11
149.5
 21
130.145836
 31
0.0
  0
LINE
  5
E1
100
AcDbEntity
  8
LY_3
390
0
  6
CONTINUOUS
 62
     3
100
AcDbLine
 10
146.5
 20
130.520836
 30
0.0
 11
146.5
 21
130.145836
 31
0.0
  0
LINE
  5
E2
100
AcDbEntity
  8
LY_3
390
0
  6
CONTINUOUS
 62
     3
100
AcDbLine
 10
148.1875
 20
131.833336
 30
0.0
 11
148.1875
 21
131.142882
 31
0.0
  0
LINE
  5
E3
100
AcDbEntity
  8
LY_3
390
0
  6
CONTINUOUS
 62
     3
100
AcDbLine
 10
147.8125
 20
131.833336
 30
0.0
 11
147.8125
 21
131.142882
 31
0.0
  0
LINE
  5
E4
100
AcDbEntity
  8
LY_3
390
0
  6
CONTINUOUS
 62
     3
100
AcDbLine
 10
146.5
 20
130.145836
 30
0.0
 11
147.190454
 21
130.145836
 31
0.0
  0
LINE
  5
E5
100
AcDbEntity
  8
LY_3
390
0
  6
CONTINUOUS
 62
     3
100
AcDbLine
 10
146.5
 20
130.520836
 30
0.0
 11
147.190454
 21
130.520836
 31
0.0
  0
LINE
  5
E6
100
AcDbEntity
  8
LY_3
390
0
  6
CONTINUOUS
 62
     3
100
AcDbLine
 10
147.8125
 20
129.52379
 30
0.0
 11
147.8125
 21
128.833336
 31
0.0
  0
LINE
  5
E7
100
AcDbEntity
  8
LY_3
390
0
  6
CONTINUOUS
 62
     3
100
AcDbLine
 10
148.1875
 20
129.52379
 30
0.0
 11
148.1875
 21
128.833336
 31
0.0
  0
LINE
  5
E8
100
AcDbEntity
  8
LY_3
390
0
  6
CONTINUOUS
 62
     3
100
AcDbLine
 10
148.809546
 20
130.145836
 30
0.0
 11
149.5
 21
130.145836
 31
0.0
  0
LINE
  5
E9
100
AcDbEntity
  8
LY_3
390
0
  6
CONTINUOUS
 62
     3
100
AcDbLine
 10
148.809546
 20
130.520836
 30
0.0
 11
149.5
 21
130.520836
 31
0.0
  0
ARC
  5
EA
100
AcDbEntity
  8
LY_3
390
0
  6
CONTINUOUS
 62
     3
100
AcDbCircle
 10
147.190454
 20
131.142882
 30
0.0
 40
0.622046
100
AcDbArc
 50
270.000018
 51
0.0
  0
ARC
  5
EB
100
AcDbEntity
  8
LY_3
390
0
  6
CONTINUOUS
 62
     3
100
AcDbCircle
 10
147.190454
 20
129.52379
 30
0.0
 40
0.622046
100
AcDbArc
 50
0.0
 51
89.999982
  0
ARC
  5
EC
100
AcDbEntity
  8
LY_3
390
0
  6
CONTINUOUS
 62
     3
100
AcDbCircle
 10
148.809546
 20
129.52379
 30
0.0
 40
0.622046
100
AcDbArc
 50
89.999982
 51
179.999964
  0
ARC
  5
ED
100
AcDbEntity
  8
LY_3
390
0
  6
CONTINUOUS
 62
     3
100
AcDbCircle
 10
148.809546
 20
131.142882
 30
0.0
 40
0.622046
100
AcDbArc
 50
179.999981
 51
270.000018
  0
CIRCLE
  5
EE
100
AcDbEntity
  8
LY_3
390
0
  6
CONTINUOUS
 62
     3
100
AcDbCircle
 10
148.0
 20
130.333336
 30
0.0
 40
2.75
  0
LINE
  5
EF
100
AcDbEntity
  8
LY_3
390
0
  6
CONTINUOUS
 62
     3
100
AcDbLine
 10
232.000076
 20
22.000031
 30
0.0
 11
233.0
 21
22.000031
 31
0.0
  0
LINE
  5
F0
100
AcDbEntity
  8
LY_3
390
0
  6
CONTINUOUS
 62
     3
100
AcDbLine
 10
232.999968
 20
24.000027
 30
0.0
 11
233.999969
 21
25.000028
 31
0.0
  0
LINE
  5
F1
100
AcDbEntity
  8
LY_3
390
0
  6
CONTINUOUS
 62
   110
100
AcDbLine
 10
221.0
 20
-0.000008
 30
0.0
 11
225.0
 21
-0.000008
 31
0.0
  0
MTEXT
  5
F2
100
AcDbEntity
  8
LY_3
390
0
  6
CONTINUOUS
 62
   110
100
AcDbMText
 10
225.9
 20
12.362762
 30
0.0
 40
3.2
 41
0.0
 71
     2
 72
     1
  1
\T1.166;\W1.563;\A1;1
 11
0.0
 21
1.0
 31
0.0
 73
     1
 44
1.0
  0
MTEXT
  5
F3
100
AcDbEntity
  8
LY_3
390
0
  6
CONTINUOUS
 62
   110
100
AcDbMText
 10
225.9
 20
19.767982
 30
0.0
 40
3.2
 41
0.0
 71
     2
 72
     1
  1
\W1.143;\A1;0
 11
0.0
 21
1.0
 31
0.0
 73
     1
 44
1.0
  0
LINE
  5
F4
100
AcDbEntity
  8
LY_3
390
0
  6
CONTINUOUS
 62
   110
100
AcDbLine
 10
221.0
 20
12.362762
 30
0.0
 11
225.0
 21
12.362762
 31
0.0
  0
LINE
  5
F5
100
AcDbEntity
  8
LY_3
390
0
  6
CONTINUOUS
 62
   110
100
AcDbLine
 10
221.0
 20
19.767982
 30
0.0
 11
225.0
 21
19.767982
 31
0.0
  0
LINE
  5
F6
100
AcDbEntity
  8
LY_3
390
0
  6
CONTINUOUS
 62
     3
100
AcDbLine
 10
220.999992
 20
21.037719
 30
0.0
 11
231.999981
 21
22.000094
 31
0.0
  0
MTEXT
  5
F7
100
AcDbEntity
  8
LY_3
390
0
  6
CONTINUOUS
 62
   110
100
AcDbMText
 10
225.9
 20
0.0
 30
0.0
 40
3.2
 41
0.0
 71
     2
 72
     1
  1
\W0.952;\A1;2
 11
0.0
 21
1.0
 31
0.0
 73
     1
 44
1.0
  0
LINE
  5
F8
100
AcDbEntity
  8
LY_3
390
0
  6
CONTINUOUS
 62
     3
100
AcDbLine
 10
221.000008
 20
21.03772
 30
0.0
 11
221.000008
 21
-21.037628
 31
0.0
  0
LINE
  5
F9
100
AcDbEntity
  8
LY_3
390
0
  6
CONTINUOUS
 62
   110
100
AcDbLine
 10
221.0
 20
-12.365608
 30
0.0
 11
225.0
 21
-12.365608
 31
0.0
  0
LINE
  5
FA
100
AcDbEntity
  8
LY_3
390
0
  6
CONTINUOUS
 62
   110
100
AcDbLine
 10
221.0
 20
-19.768898
 30
0.0
 11
225.0
 21
-19.768898
 31
0.0
  0
LINE
  5
FB
100
AcDbEntity
  8
LY_3
390
0
  6
CONTINUOUS
 62
     3
100
AcDbLine
 10
231.999985
 20
-21.999992
 30
0.0
 11
233.0
 21
-21.999992
 31
0.0
  0
LINE
  5
FC
100
AcDbEntity
  8
LY_3
390
0
  6
CONTINUOUS
 62
     3
100
AcDbLine
 10
232.999968
 20
-24.000024
 30
0.0
 11
233.999969
 21
-25.000025
 31
0.0
  0
MTEXT
  5
FD
100
AcDbEntity
  8
LY_3
390
0
  6
CONTINUOUS
 62
   110
100
AcDbMText
 10
225.9
 20
-19.768898
 30
0.0
 40
3.2
 41
0.0
 71
     2
 72
     1
  1
\W0.952;\A1;4
 11
0.0
 21
1.0
 31
0.0
 73
     1
 44
1.0
  0
MTEXT
  5
FE
100
AcDbEntity
  8
LY_3
390
0
  6
CONTINUOUS
 62
   110
100
AcDbMText
 10
225.9
 20
-12.365608
 30
0.0
 40
3.2
 41
0.0
 71
     2
 72
     1
  1
\W0.952;\A1;3
 11
0.0
 21
1.0
 31
0.0
 73
     1
 44
1.0
  0
LINE
  5
FF
100
AcDbEntity
  8
LY_3
390
0
  6
CONTINUOUS
 62
     3
100
AcDbLine
 10
233.999969
 20
25.0
 30
0.0
 11
233.999969
 21
-25.0
 31
0.0
  0
LINE
  5
100
100
AcDbEntity
  8
LY_3
390
0
  6
CONTINUOUS
 62
     3
100
AcDbLine
 10
233.0
 20
24.0
 30
0.0
 11
233.0
 21
-24.000061
 31
0.0
  0
LINE
  5
101
100
AcDbEntity
  8
LY_3
390
0
  6
CONTINUOUS
 62
     3
100
AcDbLine
 10
221.000007
 20
-21.037623
 30
0.0
 11
231.999981
 21
-21.999994
 31
0.0
  0
LINE
  5
102
100
AcDbEntity
  8
LY_3
390
0
  6
CONTINUOUS
 62
     3
100
AcDbLine
 10
240.000003
 20
-24.999997
 30
0.0
 11
240.500004
 21
-25.499998
 31
0.0
  0
LINE
  5
103
100
AcDbEntity
  8
LY_3
390
0
  6
CONTINUOUS
 62
     3
100
AcDbLine
 10
233.999969
 20
-25.0
 30
0.0
 11
240.0
 21
-25.0
 31
0.0
  0
LINE
  5
104
100
AcDbEntity
  8
LY_3
390
0
  6
CONTINUOUS
 62
     3
100
AcDbLine
 10
253.000009
 20
-24.999996
 30
0.0
 11
252.500009
 21
-25.499997
 31
0.0
  0
LINE
  5
105
100
AcDbEntity
  8
LY_3
390
0
  6
CONTINUOUS
 62
     3
100
AcDbLine
 10
253.0
 20
-25.0
 30
0.0
 11
257.0
 21
-25.0
 31
0.0
  0
LINE
  5
106
100
AcDbEntity
  8
LY_3
390
0
  6
CONTINUOUS
 62
     3
100
AcDbLine
 10
240.5
 20
-25.5
 30
0.0
 11
252.5
 21
-25.5
 31
0.0
  0
LINE
  5
107
100
AcDbEntity
  8
LY_3
390
0
  6
CONTINUOUS
 62
     3
100
AcDbLine
 10
240.000011
 20
25.000003
 30
0.0
 11
240.500011
 21
25.500003
 31
0.0
  0
LINE
  5
108
100
AcDbEntity
  8
LY_3
390
0
  6
CONTINUOUS
 62
   110
100
AcDbLine
 10
240.5
 20
15.5
 30
0.0
 11
252.5
 21
15.5
 31
0.0
  0
LINE
  5
109
100
AcDbEntity
  8
LY_3
390
0
  6
CONTINUOUS
 62
     3
100
AcDbLine
 10
240.5
 20
25.5
 30
0.0
 11
240.5
 21
-25.5
 31
0.0
  0
LINE
  5
10A
100
AcDbEntity
  8
LY_3
390
0
  6
CONTINUOUS
 62
     3
100
AcDbLine
 10
240.0
 20
25.0
 30
0.0
 11
240.0
 21
-25.0
 31
0.0
  0
LINE
  5
10B
100
AcDbEntity
  8
LY_3
390
0
  6
CONTINUOUS
 62
     3
100
AcDbLine
 10
233.999954
 20
25.0
 30
0.0
 11
240.0
 21
25.0
 31
0.0
  0
LINE
  5
10C
100
AcDbEntity
  8
LY_3
390
0
  6
CONTINUOUS
 62
     3
100
AcDbLine
 10
253.000004
 20
25.000005
 30
0.0
 11
252.500004
 21
25.500005
 31
0.0
  0
LINE
  5
10D
100
AcDbEntity
  8
LY_3
390
0
  6
CONTINUOUS
 62
   110
100
AcDbLine
 10
240.5
 20
16.5
 30
0.0
 11
252.5
 21
16.5
 31
0.0
  0
LINE
  5
10E
100
AcDbEntity
  8
LY_3
390
0
  6
CONTINUOUS
 62
   110
100
AcDbLine
 10
240.5
 20
17.5
 30
0.0
 11
252.5
 21
17.5
 31
0.0
  0
LINE
  5
10F
100
AcDbEntity
  8
LY_3
390
0
  6
CONTINUOUS
 62
   110
100
AcDbLine
 10
240.5
 20
18.5
 30
0.0
 11
252.5
 21
18.5
 31
0.0
  0
LINE
  5
110
100
AcDbEntity
  8
LY_3
390
0
  6
CONTINUOUS
 62
   110
100
AcDbLine
 10
240.5
 20
19.5
 30
0.0
 11
252.5
 21
19.5
 31
0.0
  0
LINE
  5
111
100
AcDbEntity
  8
LY_3
390
0
  6
CONTINUOUS
 62
   110
100
AcDbLine
 10
240.5
 20
20.5
 30
0.0
 11
252.5
 21
20.5
 31
0.0
  0
LINE
  5
112
100
AcDbEntity
  8
LY_3
390
0
  6
CONTINUOUS
 62
   110
100
AcDbLine
 10
240.5
 20
21.5
 30
0.0
 11
252.5
 21
21.5
 31
0.0
  0
LINE
  5
113
100
AcDbEntity
  8
LY_3
390
0
  6
CONTINUOUS
 62
   110
100
AcDbLine
 10
240.5
 20
22.5
 30
0.0
 11
252.5
 21
22.5
 31
0.0
  0
LINE
  5
114
100
AcDbEntity
  8
LY_3
390
0
  6
CONTINUOUS
 62
   110
100
AcDbLine
 10
240.5
 20
23.5
 30
0.0
 11
252.5
 21
23.5
 31
0.0
  0
LINE
  5
115
100
AcDbEntity
  8
LY_3
390
0
  6
CONTINUOUS
 62
   110
100
AcDbLine
 10
240.5
 20
24.5
 30
0.0
 11
252.5
 21
24.5
 31
0.0
  0
LINE
  5
116
100
AcDbEntity
  8
LY_3
390
0
  6
CONTINUOUS
 62
     3
100
AcDbLine
 10
253.0
 20
25.0
 30
0.0
 11
253.0
 21
-25.0
 31
0.0
  0
LINE
  5
117
100
AcDbEntity
  8
LY_3
390
0
  6
CONTINUOUS
 62
     3
100
AcDbLine
 10
252.5
 20
25.5
 30
0.0
 11
252.5
 21
-25.5
 31
0.0
  0
LINE
  5
118
100
AcDbEntity
  8
LY_3
390
0
  6
CONTINUOUS
 62
     3
100
AcDbLine
 10
240.5
 20
25.5
 30
0.0
 11
252.5
 21
25.5
 31
0.0
  0
LINE
  5
119
100
AcDbEntity
  8
LY_3
390
0
  6
CONTINUOUS
 62
     3
100
AcDbLine
 10
253.0
 20
25.0
 30
0.0
 11
257.0
 21
25.0
 31
0.0
  0
LINE
  5
11A
100
AcDbEntity
  8
LY_3
390
0
  6
CONTINUOUS
 62
   110
100
AcDbLine
 10
80.500007
 20
124.833351
 30
0.0
 11
71.164963
 21
115.498307
 31
0.0
  0
MTEXT
  5
11B
100
AcDbEntity
  8
LY_3
390
0
  6
CONTINUOUS
 62
   110
100
AcDbMText
 10
67.393727
 20
120.495194
 30
0.0
 40
5.2
 41
0.0
 71
     1
 72
     1
  1
\A1;C1
 11
0.707107
 21
0.707107
 31
0.0
 73
     1
 44
1.0
  0
LINE
  5
11C
100
AcDbEntity
  8
LY_3
390
0
  6
CONTINUOUS
 62
   110
100
AcDbLine
 10
78.016494
 20
123.399493
 30
0.0
 11
80.500007
 21
124.833351
 31
0.0
  0
LINE
  5
11D
100
AcDbEntity
  8
LY_3
390
0
  6
CONTINUOUS
 62
   110
100
AcDbLine
 10
80.500007
 20
124.833351
 30
0.0
 11
79.066149
 21
122.349837
 31
0.0
  0
LINE
  5
11E
100
AcDbEntity
  8
LY_3
390
0
  6
CONTINUOUS
 62
   110
100
AcDbLine
 10
140.0
 20
109.333336
 30
0.0
 11
140.0
 21
151.333336
 31
0.0
  0
LINE
  5
11F
100
AcDbEntity
  8
LY_3
390
0
  6
CONTINUOUS
 62
   110
100
AcDbLine
 10
140.0
 20
151.333336
 30
0.0
 11
140.0
 21
171.936371
 31
0.0
  0
MTEXT
  5
120
100
AcDbEntity
  8
LY_3
390
0
  6
CONTINUOUS
 62
   110
100
AcDbMText
 10
133.8
 20
157.163645
 30
0.0
 40
5.2
 41
0.0
 71
     1
 72
     1
  1
\W0.955;\A1;\U+220542
 11
0.0
 21
1.0
 31
0.0
 73
     1
 44
1.0
  0
LINE
  5
121
100
AcDbEntity
  8
LY_3
390
0
  6
CONTINUOUS
 62
   110
100
AcDbLine
 10
140.742219
 20
112.103336
 30
0.0
 11
140.0
 21
109.333336
 31
0.0
  0
LINE
  5
122
100
AcDbEntity
  8
LY_3
390
0
  6
CONTINUOUS
 62
   110
100
AcDbLine
 10
140.0
 20
109.333336
 30
0.0
 11
139.257781
 21
112.103336
 31
0.0
  0
LINE
  5
123
100
AcDbEntity
  8
LY_3
390
0
  6
CONTINUOUS
 62
   110
100
AcDbLine
 10
139.257781
 20
148.563336
 30
0.0
 11
140.0
 21
151.333336
 31
0.0
  0
LINE
  5
124
100
AcDbEntity
  8
LY_3
390
0
  6
CONTINUOUS
 62
   110
100
AcDbLine
 10
140.0
 20
151.333336
 30
0.0
 11
140.742219
 21
148.563336
 31
0.0
  0
LWPOLYLINE
  5
125
100
AcDbEntity
  8
LY_3
390
0
  6
CONTINUOUS
 62
   110
100
AcDbPolyline
 90
        3
 70
     0
 10
156.89217
 20
-12.66658
 10
180.0
 20
-40.0
 10
244.704861
 20
-40.0
  0
MTEXT
  5
126
100
AcDbEntity
  8
LY_3
390
0
  6
CONTINUOUS
 62
   110
100
AcDbMText
 10
182.015737
 20
-32.5
 30
0.0
 40
5.2
 41
0.0
 71
     1
 72
     1
  1
\W0.791;\A1;ベロ－ズ（ＳＵＳ３１６L）
 73
     1
 44
1.0
  0
LWPOLYLINE
  5
127
100
AcDbEntity
  8
LY_3
390
0
  6
CONTINUOUS
 62
   110
100
AcDbPolyline
 90
        3
 70
     0
 10
122.675587
 20
-10.509659
 10
150.0
 20
-50.0
 10
199.05316
 20
-50.0
  0
MTEXT
  5
128
100
AcDbEntity
  8
LY_3
390
0
  6
CONTINUOUS
 62
   110
100
AcDbMText
 10
155.929444
 20
-42.5
 30
0.0
 40
5.2
 41
0.0
 71
     1
 72
     1
  1
\W0.867;\A1;軸受(ポリイミド)
 73
     1
 44
1.0
  0
LWPOLYLINE
  5
129
100
AcDbEntity
  8
LY_3
390
0
  6
CONTINUOUS
 62
   110
100
AcDbPolyline
 90
        3
 70
     0
 10
119.53825
 20
-9.725327
 10
90.0
 20
-50.0
 10
60.28407
 20
-50.0
  0
MTEXT
  5
12A
100
AcDbEntity
  8
LY_3
390
0
  6
CONTINUOUS
 62
   110
100
AcDbMText
 10
60.961153
 20
-42.5
 30
0.0
 40
5.2
 41
0.0
 71
     1
 72
     1
  1
\W0.781;\A1;Ｃ型止め輪
 73
     1
 44
1.0
  0
LWPOLYLINE
  5
12B
100
AcDbEntity
  8
LY_3
390
0
  6
CONTINUOUS
 62
   110
100
AcDbPolyline
 90
        3
 70
     0
 10
226.042789
 20
108.976314
 10
219.0
 20
80.0
 10
171.804627
 20
80.0
  0
MTEXT
  5
12C
100
AcDbEntity
  8
LY_3
390
0
  6
CONTINUOUS
 62
   110
100
AcDbMText
 10
172.481711
 20
87.5
 30
0.0
 40
5.2
 41
0.0
 71
     1
 72
     1
  1
\W0.781;\A1;目盛リング１０分割
 73
     1
 44
1.0
  0
LWPOLYLINE
  5
12D
100
AcDbEntity
  8
LY_3
390
0
  6
CONTINUOUS
 62
   110
100
AcDbPolyline
 90
        3
 70
     0
 10
186.960428
 20
123.727757
 10
169.0
 20
90.0
 10
132.497808
 20
90.0
  0
MTEXT
  5
12E
100
AcDbEntity
  8
LY_3
390
0
  6
CONTINUOUS
 62
   110
100
AcDbMText
 10
133.174891
 20
97.5
 30
0.0
 40
5.2
 41
0.0
 71
     1
 72
     1
  1
\W0.781;\A1;目盛１
 73
     1
 44
1.0
  0
MTEXT
  5
12F
100
AcDbEntity
  8
LY_3
390
0
  6
CONTINUOUS
 62
   110
100
AcDbMText
 10
147.46135
 20
94.25
 30
0.0
 40
2.6
 41
0.0
 71
     1
 72
     1
  1
\W0.781;\A1;ｍｍ
 73
     1
 44
1.0
  0
MTEXT
  5
130
100
AcDbEntity
  8
LY_3
390
0
  6
CONTINUOUS
 62
   110
100
AcDbMText
 10
152.674891
 20
97.5
 30
0.0
 40
5.2
 41
0.0
 71
     1
 72
     1
  1
\W0.781;\A1;ピッチ
 73
     1
 44
1.0
  0
LWPOLYLINE
  5
131
100
AcDbEntity
  8
LY_3
390
0
  6
CONTINUOUS
 62
   110
100
AcDbPolyline
 90
        3
 70
     0
 10
271.886837
 20
134.607438
 10
289.0
 20
180.0
 10
325.003063
 20
180.0
  0
MTEXT
  5
132
100
AcDbEntity
  8
LY_3
390
0
  6
CONTINUOUS
 62
   110
100
AcDbMText
 10
291.555146
 20
187.5
 30
0.0
 40
5.2
 41
0.0
 71
     1
 72
     1
  1
\W0.781;\A1;グリップカラ－
 73
     1
 44
1.0
  0
LWPOLYLINE
  5
133
100
AcDbEntity
  8
LY_3
390
0
  6
CONTINUOUS
 62
   110
100
AcDbPolyline
 90
        3
 70
     0
 10
246.766965
 20
105.564286
 10
259.389934
 20
80.571261
 10
279.302444
 20
80.571261
  0
MTEXT
  5
134
100
AcDbEntity
  8
LY_3
390
0
  6
CONTINUOUS
 62
   110
100
AcDbMText
 10
260.479527
 20
88.071261
 30
0.0
 40
5.2
 41
0.0
 71
     1
 72
     1
  1
\W0.781;\A1;ハンドル
 73
     1
 44
1.0
  0
LWPOLYLINE
  5
135
100
AcDbEntity
  8
LY_3
390
0
  6
CONTINUOUS
 62
   110
100
AcDbPolyline
 90
        3
 70
     0
 10
201.994288
 20
133.208335
 10
219.0
 20
180.0
 10
253.885071
 20
180.0
  0
MTEXT
  5
136
100
AcDbEntity
  8
LY_3
390
0
  6
CONTINUOUS
 62
   110
100
AcDbMText
 10
220.437154
 20
187.5
 30
0.0
 40
5.2
 41
0.0
 71
     1
 72
     1
  1
\W0.781;\A1;インジケ－タ－
 73
     1
 44
1.0
  0
LWPOLYLINE
  5
137
100
AcDbEntity
  8
LY_3
390
0
  6
CONTINUOUS
 62
   110
100
AcDbPolyline
 90
        3
 70
     0
 10
190.889931
 20
149.683797
 10
179.0
 20
180.0
 10
164.632222
 20
180.0
  0
MTEXT
  5
138
100
AcDbEntity
  8
LY_3
390
0
  6
CONTINUOUS
 62
   110
100
AcDbMText
 10
165.309305
 20
187.5
 30
0.0
 40
5.2
 41
0.0
 71
     1
 72
     1
  1
\W0.781;\A1;本体
 73
     1
 44
1.0
  0
LWPOLYLINE
  5
139
100
AcDbEntity
  8
LY_3
390
0
  6
CONTINUOUS
 62
   110
100
AcDbPolyline
 90
        3
 70
     0
 10
117.46325
 20
164.781021
 10
130.0
 20
180.0
 10
151.179383
 20
180.0
  0
MTEXT
  5
13A
100
AcDbEntity
  8
LY_3
390
0
  6
CONTINUOUS
 62
   110
100
AcDbMText
 10
132.527209
 20
187.5
 30
0.0
 40
5.2
 41
0.0
 71
     1
 72
     1
  1
\W0.978;\A1;CF70
 73
     1
 44
1.0
  0
LINE
  5
13B
100
AcDbEntity
  8
LY_3
390
0
  6
CONTINUOUS
 62
   110
100
AcDbLine
 10
90.0
 20
136.333336
 30
0.0
 11
90.0
 21
124.333336
 31
0.0
  0
LINE
  5
13C
100
AcDbEntity
  8
LY_3
390
0
  6
CONTINUOUS
 62
   110
100
AcDbLine
 10
90.0
 20
162.138981
 30
0.0
 11
90.0
 21
136.333336
 31
0.0
  0
LINE
  5
13D
100
AcDbEntity
  8
LY_3
390
0
  6
CONTINUOUS
 62
   110
100
AcDbLine
 10
90.0
 20
124.333336
 30
0.0
 11
90.0
 21
120.333336
 31
0.0
  0
MTEXT
  5
13E
100
AcDbEntity
  8
LY_3
390
0
  6
CONTINUOUS
 62
   110
100
AcDbMText
 10
83.8
 20
147.420338
 30
0.0
 40
5.2
 41
0.0
 71
     1
 72
     1
  1
\W1.017;\A1;\U+220512
 11
0.0
 21
1.0
 31
0.0
 73
     1
 44
1.0
  0
LINE
  5
13F
100
AcDbEntity
  8
LY_3
390
0
  6
CONTINUOUS
 62
   110
100
AcDbLine
 10
90.742219
 20
139.103336
 30
0.0
 11
90.0
 21
136.333336
 31
0.0
  0
LINE
  5
140
100
AcDbEntity
  8
LY_3
390
0
  6
CONTINUOUS
 62
   110
100
AcDbLine
 10
90.0
 20
136.333336
 30
0.0
 11
89.257781
 21
139.103336
 31
0.0
  0
LINE
  5
141
100
AcDbEntity
  8
LY_3
390
0
  6
CONTINUOUS
 62
   110
100
AcDbLine
 10
89.257781
 20
121.563336
 30
0.0
 11
90.0
 21
124.333336
 31
0.0
  0
LINE
  5
142
100
AcDbEntity
  8
LY_3
390
0
  6
CONTINUOUS
 62
   110
100
AcDbLine
 10
90.0
 20
124.333336
 30
0.0
 11
90.742219
 21
121.563336
 31
0.0
  0
MTEXT
  5
143
100
AcDbEntity
  8
LY_3
390
0
  6
CONTINUOUS
 62
   110
100
AcDbMText
 10
225.9
 20
110.564438
 30
0.0
 40
3.2
 41
0.0
 71
     2
 72
     1
  1
\W0.952;\A1;2
 11
0.0
 21
1.0
 31
0.0
 73
     1
 44
1.0
  0
MTEXT
  5
144
100
AcDbEntity
  8
LY_3
390
0
  6
CONTINUOUS
 62
   110
100
AcDbMText
 10
225.9
 20
117.967728
 30
0.0
 40
3.2
 41
0.0
 71
     2
 72
     1
  1
\T1.166;\W1.563;\A1;1
 11
0.0
 21
1.0
 31
0.0
 73
     1
 44
1.0
  0
MTEXT
  5
145
100
AcDbEntity
  8
LY_3
390
0
  6
CONTINUOUS
 62
   110
100
AcDbMText
 10
225.9
 20
130.333336
 30
0.0
 40
3.2
 41
0.0
 71
     2
 72
     1
  1
\W1.143;\A1;0
 11
0.0
 21
1.0
 31
0.0
 73
     1
 44
1.0
  0
MTEXT
  5
146
100
AcDbEntity
  8
LY_3
390
0
  6
CONTINUOUS
 62
   110
100
AcDbMText
 10
225.9
 20
142.696098
 30
0.0
 40
3.2
 41
0.0
 71
     2
 72
     1
  1
\W0.952;\A1;9
 11
0.0
 21
1.0
 31
0.0
 73
     1
 44
1.0
  0
MTEXT
  5
147
100
AcDbEntity
  8
LY_3
390
0
  6
CONTINUOUS
 62
   110
100
AcDbMText
 10
225.9
 20
150.101318
 30
0.0
 40
3.2
 41
0.0
 71
     2
 72
     1
  1
\W0.952;\A1;8
 11
0.0
 21
1.0
 31
0.0
 73
     1
 44
1.0
  0
MTEXT
  5
148
100
AcDbEntity
  8
LY_3
390
0
  6
CONTINUOUS
 62
   110
100
AcDbMText
 10
216.1
 20
130.183334
 30
0.0
 40
3.2
 41
0.0
 71
     2
 72
     1
  1
\W1.143;\A1;0
 11
0.0
 21
-1.0
 31
0.0
 73
     1
 44
1.0
  0
MTEXT
  5
149
100
AcDbEntity
  8
LY_3
390
0
  6
CONTINUOUS
 62
   110
100
AcDbMText
 10
202.0
 20
121.933336
 30
0.0
 40
3.2
 41
0.0
 71
     2
 72
     1
  1
\W1.143;\A1;0
 73
     1
 44
1.0
  0
MTEXT
  5
14A
100
AcDbEntity
  8
LY_3
390
0
  6
CONTINUOUS
 62
   110
100
AcDbMText
 10
192.0
 20
121.933336
 30
0.0
 40
3.2
 41
0.0
 71
     2
 72
     1
  1
\W1.333;\A1;10
 73
     1
 44
1.0
  0
MTEXT
  5
14B
100
AcDbEntity
  8
LY_3
390
0
  6
CONTINUOUS
 62
   110
100
AcDbMText
 10
182.0
 20
121.933336
 30
0.0
 40
3.2
 41
0.0
 71
     2
 72
     1
  1
\W1.091;\A1;20
 73
     1
 44
1.0
  0
MTEXT
  5
14C
100
AcDbEntity
  8
LY_3
390
0
  6
CONTINUOUS
 62
   110
100
AcDbMText
 10
172.0
 20
121.933336
 30
0.0
 40
3.2
 41
0.0
 71
     2
 72
     1
  1
\W1.091;\A1;30
 73
     1
 44
1.0
  0
LWPOLYLINE
  5
14D
100
AcDbEntity
  8
LY_3
390
0
  6
CONTINUOUS
 62
   110
100
AcDbPolyline
 90
       41
 70
     0
 10
162.12149
 20
18.999863
 10
162.622159
 20
18.106962
 10
163.094637
 20
17.196901
 10
163.535538
 20
16.271354
 10
163.941479
 20
15.331997
 10
164.309074
 20
14.380502
 10
164.634938
 20
13.418546
 10
164.915688
 20
12.447802
 10
165.147938
 20
11.469946
 10
165.328304
 20
10.486651
 10
165.453401
 20
9.499592
 10
165.519844
 20
8.510445
 10
165.527054
 20
7.550621
 10
165.484806
 20
6.590366
 10
165.401976
 20
5.62964
 10
165.287437
 20
4.6684
 10
165.150066
 20
3.706608
 10
164.998736
 20
2.744221
 10
164.842324
 20
1.781198
 10
164.689703
 20
0.817499
 10
164.549748
 20
-0.146917
 10
164.431335
 20
-1.112091
 10
164.343338
 20
-2.078064
 10
164.294084
 20
-2.999847
 10
164.27736
 20
-3.922174
 10
164.289972
 20
-4.844825
 10
164.328731
 20
-5.767581
 10
164.390443
 20
-6.69022
 10
164.471917
 20
-7.612525
 10
164.569961
 20
-8.534274
 10
164.681383
 20
-9.455248
 10
164.802992
 20
-10.375227
 10
164.931595
 20
-11.293991
 10
165.072491
 20
-12.264263
 10
165.218638
 20
-13.232799
 10
165.371032
 20
-14.199468
 10
165.53067
 20
-15.164141
 10
165.698549
 20
-16.126687
 10
165.875666
 20
-17.086974
 10
166.063016
 20
-18.044873
 10
166.261596
 20
-19.000253
  0
ARC
  5
14E
100
AcDbEntity
  8
LY_3
390
0
  6
CONTINUOUS
 62
     3
100
AcDbCircle
 10
150.0
 20
-18.968628
 30
0.0
 40
0.8
100
AcDbArc
 50
179.999978
 51
225.00001
  0
ARC
  5
14F
100
AcDbEntity
  8
LY_3
390
0
  6
CONTINUOUS
 62
     3
100
AcDbCircle
 10
146.0
 20
-18.968628
 30
0.0
 40
0.8
100
AcDbArc
 50
314.999985
 51
0.000018
  0
ARC
  5
150
100
AcDbEntity
  8
LY_3
390
0
  6
CONTINUOUS
 62
     3
100
AcDbCircle
 10
150.0
 20
18.968628
 30
0.0
 40
0.8
100
AcDbArc
 50
134.999987
 51
180.000019
  0
ARC
  5
151
100
AcDbEntity
  8
LY_3
390
0
  6
CONTINUOUS
 62
     3
100
AcDbCircle
 10
146.0
 20
18.968628
 30
0.0
 40
0.8
100
AcDbArc
 50
359.999982
 51
45.000015
  0
ARC
  5
152
100
AcDbEntity
  8
LY_3
390
0
  6
CONTINUOUS
 62
     3
100
AcDbCircle
 10
142.5
 20
13.199998
 30
0.0
 40
0.5
100
AcDbArc
 50
269.999997
 51
0.0
  0
CIRCLE
  5
153
100
AcDbEntity
  8
LY_3
390
0
  6
CONTINUOUS
 62
   110
100
AcDbCircle
 10
237.0
 20
130.333336
 30
0.0
 40
1.2
  0
CIRCLE
  5
154
100
AcDbEntity
  8
LY_3
390
0
  6
CONTINUOUS
 62
     3
100
AcDbCircle
 10
237.0
 20
130.333336
 30
0.0
 40
1.5
  0
ARC
  5
155
100
AcDbEntity
  8
LY_3
390
0
  6
CONTINUOUS
 62
     3
100
AcDbCircle
 10
259.5
 20
130.333336
 30
0.0
 40
6.5
100
AcDbArc
 50
50.284864
 51
90.971843
  0
ARC
  5
156
100
AcDbEntity
  8
LY_3
390
0
  6
CONTINUOUS
 62
     3
100
AcDbCircle
 10
257.0
 20
153.333336
 30
0.0
 40
2.0
100
AcDbArc
 50
0.0
 51
90.000003
  0
ARC
  5
157
100
AcDbEntity
  8
LY_3
390
0
  6
CONTINUOUS
 62
     3
100
AcDbCircle
 10
256.899994
 20
136.083336
 30
0.0
 40
2.6
100
AcDbArc
 50
343.234126
 51
36.128695
  0
ARC
  5
158
100
AcDbEntity
  8
LY_3
390
0
  6
CONTINUOUS
 62
     3
100
AcDbCircle
 10
256.899994
 20
124.583336
 30
0.0
 40
2.6
100
AcDbArc
 50
323.871305
 51
16.765874
  0
ARC
  5
159
100
AcDbEntity
  8
LY_3
390
0
  6
CONTINUOUS
 62
     3
100
AcDbCircle
 10
259.5
 20
130.333336
 30
0.0
 40
6.5
100
AcDbArc
 50
269.028157
 51
309.715136
  0
ARC
  5
15A
100
AcDbEntity
  8
LY_3
390
0
  6
CONTINUOUS
 62
     3
100
AcDbCircle
 10
257.0
 20
107.333336
 30
0.0
 40
2.0
100
AcDbArc
 50
269.999997
 51
0.0
  0
ARC
  5
15B
100
AcDbEntity
  8
LY_3
390
0
  6
CONTINUOUS
 62
     3
100
AcDbCircle
 10
257.0
 20
-23.0
 30
0.0
 40
2.0
100
AcDbArc
 50
269.999997
 51
0.0
  0
ARC
  5
15C
100
AcDbEntity
  8
LY_3
390
0
  6
CONTINUOUS
 62
     3
100
AcDbCircle
 10
257.0
 20
23.0
 30
0.0
 40
2.0
100
AcDbArc
 50
0.0
 51
90.000003
  0
ARC
  5
15D
100
AcDbEntity
  8
LY_3
390
0
  6
CONTINUOUS
 62
     3
100
AcDbCircle
 10
259.738586
 20
-6.995934
 30
0.0
 40
0.5
100
AcDbArc
 50
91.953334
 51
156.302104
  0
ARC
  5
15E
100
AcDbEntity
  8
LY_3
390
0
  6
CONTINUOUS
 62
     3
100
AcDbCircle
 10
256.899994
 20
-5.75
 30
0.0
 40
2.6
100
AcDbArc
 50
323.871304
 51
36.128696
  0
ARC
  5
15F
100
AcDbEntity
  8
LY_3
390
0
  6
CONTINUOUS
 62
     3
100
AcDbCircle
 10
259.5
 20
0.0
 30
0.0
 40
6.5
100
AcDbArc
 50
271.953343
 51
88.046603
  0
ARC
  5
160
100
AcDbEntity
  8
LY_3
390
0
  6
CONTINUOUS
 62
     3
100
AcDbCircle
 10
259.738586
 20
6.995934
 30
0.0
 40
0.5
100
AcDbArc
 50
203.697842
 51
268.046611
  0
ARC
  5
161
100
AcDbEntity
  8
LY_3
390
0
  6
CONTINUOUS
 62
     3
100
AcDbCircle
 10
247.5
 20
0.0
 30
0.0
 40
12.0
100
AcDbArc
 50
343.402158
 51
16.597842
  0
ARC
  5
162
100
AcDbEntity
  8
LY_3
390
0
  6
CONTINUOUS
 62
     3
100
AcDbCircle
 10
256.899994
 20
5.75
 30
0.0
 40
2.6
100
AcDbArc
 50
323.871304
 51
36.128696
  0
ARC
  5
163
100
AcDbEntity
  8
LY_3
390
0
  6
CONTINUOUS
 62
     3
100
AcDbCircle
 10
142.5
 20
117.133336
 30
0.0
 40
0.5
100
AcDbArc
 50
0.0
 51
90.000003
  0
ARC
  5
164
100
AcDbEntity
  8
LY_3
390
0
  6
CONTINUOUS
 62
     3
100
AcDbCircle
 10
142.5
 20
143.533336
 30
0.0
 40
0.5
100
AcDbArc
 50
269.999997
 51
0.0
  0
CIRCLE
  5
165
100
AcDbEntity
  8
LY_3
390
0
  6
CONTINUOUS
 62
     3
100
AcDbCircle
 10
148.0
 20
130.333336
 30
0.0
 40
3.000001
  0
ARC
  5
166
100
AcDbEntity
  8
LY_3
390
0
  6
CONTINUOUS
 62
     3
100
AcDbCircle
 10
142.5
 20
-13.199998
 30
0.0
 40
0.5
100
AcDbArc
 50
0.0
 51
90.000003
  0
ARC
  5
167
100
AcDbEntity
  8
LY_3
390
0
  6
CONTINUOUS
 62
     3
100
AcDbCircle
 10
125.300003
 20
-7.0
 30
0.0
 40
1.0
100
AcDbArc
 50
359.999945
 51
89.999927
  0
ARC
  5
168
100
AcDbEntity
  8
LY_3
390
0
  6
CONTINUOUS
 62
     3
100
AcDbCircle
 10
121.300003
 20
-7.0
 30
0.0
 40
1.0
100
AcDbArc
 50
89.999927
 51
179.999964
  0
CIRCLE
  5
169
100
AcDbEntity
  8
LY_3
390
0
  6
CONTINUOUS
 62
     3
100
AcDbCircle
 10
209.0
 20
130.333336
 30
0.0
 40
2.8
  0
ARC
  5
16A
100
AcDbEntity
  8
LY_3
390
0
  6
CONTINUOUS
 62
     3
100
AcDbCircle
 10
209.80954
 20
131.142883
 30
0.0
 40
0.622046
100
AcDbArc
 50
179.999981
 51
270.000018
  0
ARC
  5
16B
100
AcDbEntity
  8
LY_3
390
0
  6
CONTINUOUS
 62
     3
100
AcDbCircle
 10
209.80954
 20
129.523788
 30
0.0
 40
0.622046
100
AcDbArc
 50
89.999982
 51
179.999964
  0
ARC
  5
16C
100
AcDbEntity
  8
LY_3
390
0
  6
CONTINUOUS
 62
     3
100
AcDbCircle
 10
208.19046
 20
129.523788
 30
0.0
 40
0.622046
100
AcDbArc
 50
0.0
 51
89.999982
  0
ARC
  5
16D
100
AcDbEntity
  8
LY_3
390
0
  6
CONTINUOUS
 62
     3
100
AcDbCircle
 10
208.19046
 20
131.142883
 30
0.0
 40
0.622046
100
AcDbArc
 50
270.000018
 51
0.0
  0
ARC
  5
16E
100
AcDbEntity
  8
LY_3
390
0
  6
CONTINUOUS
 62
     3
100
AcDbCircle
 10
166.0
 20
130.333336
 30
0.0
 40
4.0
100
AcDbArc
 50
89.999982
 51
270.000001
  0
ARC
  5
16F
100
AcDbEntity
  8
LY_3
390
0
  6
CONTINUOUS
 62
     3
100
AcDbCircle
 10
208.0
 20
130.333336
 30
0.0
 40
4.0
100
AcDbArc
 50
270.000018
 51
0.0
  0
ARC
  5
170
100
AcDbEntity
  8
LY_3
390
0
  6
CONTINUOUS
 62
     3
100
AcDbCircle
 10
208.0
 20
130.333336
 30
0.0
 40
4.0
100
AcDbArc
 50
0.0
 51
89.999982
  0
ARC
  5
171
100
AcDbEntity
  8
LY_3
390
0
  6
CONTINUOUS
 62
     3
100
AcDbCircle
 10
6.788818
 20
-5.904404
 30
0.0
 40
1.025
100
AcDbArc
 50
227.843462
 51
322.129169
  0
ARC
  5
172
100
AcDbEntity
  8
LY_3
390
0
  6
CONTINUOUS
 62
     3
100
AcDbCircle
 10
-6.788818
 20
-5.904404
 30
0.0
 40
1.025
100
AcDbArc
 50
217.870826
 51
312.156516
  0
ARC
  5
173
100
AcDbEntity
  8
LY_3
390
0
  6
CONTINUOUS
 62
     3
100
AcDbCircle
 10
4.725006
 20
-8.183945
 30
0.0
 40
2.05
100
AcDbArc
 50
47.843494
 51
178.611878
  0
ARC
  5
174
100
AcDbEntity
  8
LY_3
390
0
  6
CONTINUOUS
 62
     3
100
AcDbCircle
 10
-4.725006
 20
-8.183945
 30
0.0
 40
2.05
100
AcDbArc
 50
1.388137
 51
132.156538
  0
CIRCLE
  5
175
100
AcDbEntity
  8
LY_3
390
0
  6
CONTINUOUS
 62
     3
100
AcDbCircle
 10
4.725006
 20
-8.183945
 30
0.0
 40
1.0
  0
CIRCLE
  5
176
100
AcDbEntity
  8
LY_3
390
0
  6
CONTINUOUS
 62
     3
100
AcDbCircle
 10
-4.725006
 20
-8.183945
 30
0.0
 40
1.0
  0
ARC
  5
177
100
AcDbEntity
  8
LY_3
390
0
  6
CONTINUOUS
 62
     3
100
AcDbCircle
 10
0.0
 20
-0.625
 30
0.0
 40
9.625
100
AcDbArc
 50
322.129162
 51
217.870808
  0
ARC
  5
178
100
AcDbEntity
  8
LY_3
390
0
  6
CONTINUOUS
 62
     3
100
AcDbCircle
 10
-4.469025
 20
0.0
 30
0.0
 40
3.0
100
AcDbArc
 50
105.19423
 51
254.805726
  0
ARC
  5
179
100
AcDbEntity
  8
LY_3
390
0
  6
CONTINUOUS
 62
     3
100
AcDbCircle
 10
0.0
 20
4.469025
 30
0.0
 40
3.0
100
AcDbArc
 50
15.194234
 51
164.80573
  0
ARC
  5
17A
100
AcDbEntity
  8
LY_3
390
0
  6
CONTINUOUS
 62
     3
100
AcDbCircle
 10
4.469025
 20
0.0
 30
0.0
 40
3.0
100
AcDbArc
 50
285.194238
 51
74.805734
  0
ARC
  5
17B
100
AcDbEntity
  8
LY_3
390
0
  6
CONTINUOUS
 62
     3
100
AcDbCircle
 10
0.0
 20
-4.469025
 30
0.0
 40
3.0
100
AcDbArc
 50
195.194243
 51
344.805725
  0
CIRCLE
  5
17C
100
AcDbEntity
  8
LY_3
390
0
  6
CONTINUOUS
 62
     3
100
AcDbCircle
 10
0.0
 20
0.0
 30
0.0
 40
11.0
  0
CIRCLE
  5
17D
100
AcDbEntity
  8
LY_3
390
0
  6
CONTINUOUS
 62
     3
100
AcDbCircle
 10
0.0
 20
0.0
 30
0.0
 40
6.0
  0
ARC
  5
17E
100
AcDbEntity
  8
LY_3
390
0
  6
CONTINUOUS
 62
     3
100
AcDbCircle
 10
0.0
 20
0.0
 30
0.0
 40
4.0
100
AcDbArc
 50
131.409643
 51
48.590372
  0
CIRCLE
  5
17F
100
AcDbEntity
  8
LY_3
390
0
  6
CONTINUOUS
 62
     3
100
AcDbCircle
 10
0.0
 20
0.0
 30
0.0
 40
24.15
  0
CIRCLE
  5
180
100
AcDbEntity
  8
LY_3
390
0
  6
CONTINUOUS
 62
     3
100
AcDbCircle
 10
0.0
 20
0.0
 30
0.0
 40
20.950001
  0
CIRCLE
  5
181
100
AcDbEntity
  8
LY_3
390
0
  6
CONTINUOUS
 62
     3
100
AcDbCircle
 10
0.06636
 20
0.0
 30
0.0
 40
12.0
  0
CIRCLE
  5
182
100
AcDbEntity
  8
LY_3
390
0
  6
CONTINUOUS
 62
     3
100
AcDbCircle
 10
0.06636
 20
0.0
 30
0.0
 40
12.85
  0
CIRCLE
  5
183
100
AcDbEntity
  8
LY_3
390
0
  6
CONTINUOUS
 62
     3
100
AcDbCircle
 10
-29.583038
 20
-0.000015
 30
0.0
 40
3.4
  0
CIRCLE
  5
184
100
AcDbEntity
  8
LY_3
390
0
  6
CONTINUOUS
 62
     3
100
AcDbCircle
 10
29.583054
 20
-0.000015
 30
0.0
 40
3.4
  0
CIRCLE
  5
185
100
AcDbEntity
  8
LY_3
390
0
  6
CONTINUOUS
 62
     3
100
AcDbCircle
 10
14.791519
 20
-25.619682
 30
0.0
 40
3.4
  0
CIRCLE
  5
186
100
AcDbEntity
  8
LY_3
390
0
  6
CONTINUOUS
 62
     3
100
AcDbCircle
 10
-14.791534
 20
-25.619675
 30
0.0
 40
3.4
  0
CIRCLE
  5
187
100
AcDbEntity
  8
LY_3
390
0
  6
CONTINUOUS
 62
     3
100
AcDbCircle
 10
14.791534
 20
25.619667
 30
0.0
 40
3.4
  0
CIRCLE
  5
188
100
AcDbEntity
  8
LY_3
390
0
  6
CONTINUOUS
 62
     3
100
AcDbCircle
 10
-14.732925
 20
25.518158
 30
0.0
 40
3.4
  0
CIRCLE
  5
18A
100
AcDbEntity
  8
LY_3
390
0
  6
CENTER
 62
   110
100
AcDbCircle
 10
-0.233047
 20
0.0
 30
0.0
 40
29.35
  0
CIRCLE
  5
18B
100
AcDbEntity
  8
LY_3
390
0
  6
CONTINUOUS
 62
     3
100
AcDbCircle
 10
0.0
 20
0.0
 30
0.0
 40
34.650002
  0
ARC
  5
18C
100
AcDbEntity
  8
LY_3
390
0
  6
CONTINUOUS
 62
     3
100
AcDbCircle
 10
125.300003
 20
7.0
 30
0.0
 40
1.0
100
AcDbArc
 50
270.000018
 51
0.0
  0
ARC
  5
18D
100
AcDbEntity
  8
LY_3
390
0
  6
CONTINUOUS
 62
     3
100
AcDbCircle
 10
121.300003
 20
7.0
 30
0.0
 40
1.0
100
AcDbArc
 50
179.999981
 51
270.000018
  0
ARC
  5
18E
100
AcDbEntity
  8
LY_3
390
0
  6
CONTINUOUS
 62
     3
100
AcDbCircle
 10
111.407669
 20
-23.900002
 30
0.0
 40
0.25
100
AcDbArc
 50
270.000018
 51
19.999887
  0
ARC
  5
18F
100
AcDbEntity
  8
LY_3
390
0
  6
CONTINUOUS
 62
     3
100
AcDbCircle
 10
111.407669
 20
23.900002
 30
0.0
 40
0.25
100
AcDbArc
 50
340.000113
 51
89.999982
  0
LINE
  5
190
100
AcDbEntity
  8
LY_3
390
0
  6
CONTINUOUS
 62
   110
100
AcDbLine
 10
221.0
 20
117.967728
 30
0.0
 11
225.0
 21
117.967728
 31
0.0
  0
LINE
  5
191
100
AcDbEntity
  8
LY_3
390
0
  6
CONTINUOUS
 62
     3
100
AcDbLine
 10
152.4
 20
-13.5
 30
0.0
 11
153.400001
 21
-14.500001
 31
0.0
  0
LINE
  5
192
100
AcDbEntity
  8
LY_3
390
0
  6
CONTINUOUS
 62
     3
100
AcDbLine
 10
151.4
 20
-14.5
 30
0.0
 11
152.4
 21
-13.5
 31
0.0
  0
LINE
  5
193
100
AcDbEntity
  8
LY_3
390
0
  6
CONTINUOUS
 62
     3
100
AcDbLine
 10
151.4
 20
14.499999
 30
0.0
 11
152.399998
 21
13.5
 31
0.0
  0
LINE
  5
194
100
AcDbEntity
  8
LY_3
390
0
  6
CONTINUOUS
 62
     3
100
AcDbLine
 10
152.399998
 20
13.5
 30
0.0
 11
153.399999
 21
14.500001
 31
0.0
  0
LINE
  5
195
100
AcDbEntity
  8
LY_3
390
0
  6
CONTINUOUS
 62
     3
100
AcDbLine
 10
151.499996
 20
151.333336
 30
0.0
 11
151.499996
 21
109.333336
 31
0.0
  0
LINE
  5
196
100
AcDbEntity
  8
LY_3
390
0
  6
CONTINUOUS
 62
     3
100
AcDbLine
 10
144.000008
 20
151.333336
 30
0.0
 11
144.000008
 21
109.333336
 31
0.0
  0
LINE
  5
197
100
AcDbEntity
  8
LY_3
390
0
  6
CENTER
 62
   110
100
AcDbLine
 10
131.73872
 20
130.333336
 30
0.0
 11
212.423065
 21
130.333336
 31
0.0
  0
LINE
  5
198
100
AcDbEntity
  8
LY_3
390
0
  6
CONTINUOUS
 62
     3
100
AcDbLine
 10
152.0
 20
-17.0
 30
0.0
 11
165.8592
 21
-17.0
 31
0.0
  0
LINE
  5
199
100
AcDbEntity
  8
LY_3
390
0
  6
CONTINUOUS
 62
     3
100
AcDbLine
 10
152.0
 20
-17.099998
 30
0.0
 11
152.0
 21
-17.0
 31
0.0
  0
LINE
  5
19A
100
AcDbEntity
  8
LY_3
390
0
  6
CONTINUOUS
 62
     3
100
AcDbLine
 10
149.200615
 20
-19.0
 30
0.0
 11
151.5
 21
-19.0
 31
0.0
  0
LINE
  5
19B
100
AcDbEntity
  8
LY_3
390
0
  6
CONTINUOUS
 62
     3
100
AcDbLine
 10
149.199997
 20
-18.949997
 30
0.0
 11
152.0
 21
-18.949997
 31
0.0
  0
LINE
  5
19C
100
AcDbEntity
  8
LY_3
390
0
  6
CONTINUOUS
 62
   110
100
AcDbLine
 10
149.5
 20
-18.949997
 30
0.0
 11
149.5
 21
-18.349998
 31
0.0
  0
LINE
  5
19D
100
AcDbEntity
  8
LY_3
390
0
  6
CONTINUOUS
 62
     3
100
AcDbLine
 10
149.499999
 20
-18.350002
 30
0.0
 11
149.2
 21
-18.778445
 31
0.0
  0
LINE
  5
19E
100
AcDbEntity
  8
LY_3
390
0
  6
CONTINUOUS
 62
     3
100
AcDbLine
 10
149.199997
 20
-18.968628
 30
0.0
 11
149.199997
 21
-18.778442
 31
0.0
  0
LINE
  5
19F
100
AcDbEntity
  8
LY_3
390
0
  6
CONTINUOUS
 62
     3
100
AcDbLine
 10
149.296753
 20
-19.349998
 30
0.0
 11
146.703247
 21
-19.349998
 31
0.0
  0
LINE
  5
1A0
100
AcDbEntity
  8
LY_3
390
0
  6
CONTINUOUS
 62
     3
100
AcDbLine
 10
146.800003
 20
-18.968628
 30
0.0
 11
146.800003
 21
-18.778442
 31
0.0
  0
LINE
  5
1A1
100
AcDbEntity
  8
LY_3
390
0
  6
CONTINUOUS
 62
     3
100
AcDbLine
 10
149.5
 20
-18.349998
 30
0.0
 11
146.5
 21
-18.349998
 31
0.0
  0
LINE
  5
1A2
100
AcDbEntity
  8
LY_3
390
0
  6
CONTINUOUS
 62
     3
100
AcDbLine
 10
146.499998
 20
-18.35001
 30
0.0
 11
146.799997
 21
-18.778453
 31
0.0
  0
LINE
  5
1A3
100
AcDbEntity
  8
LY_3
390
0
  6
CONTINUOUS
 62
   110
100
AcDbLine
 10
146.5
 20
-18.949997
 30
0.0
 11
146.5
 21
-18.349998
 31
0.0
  0
LINE
  5
1A4
100
AcDbEntity
  8
LY_3
390
0
  6
CONTINUOUS
 62
     3
100
AcDbLine
 10
145.300003
 20
-18.949997
 30
0.0
 11
146.800003
 21
-18.949997
 31
0.0
  0
LINE
  5
1A5
100
AcDbEntity
  8
LY_3
390
0
  6
CONTINUOUS
 62
     3
100
AcDbLine
 10
145.299998
 20
-18.950007
 30
0.0
 11
144.999999
 21
-18.650008
 31
0.0
  0
LINE
  5
1A6
100
AcDbEntity
  8
LY_3
390
0
  6
CONTINUOUS
 62
     3
100
AcDbLine
 10
145.0
 20
-19.0
 30
0.0
 11
146.799385
 21
-19.0
 31
0.0
  0
LINE
  5
1A7
100
AcDbEntity
  8
LY_3
390
0
  6
CONTINUOUS
 62
     3
100
AcDbLine
 10
145.0
 20
-19.0
 30
0.0
 11
145.0
 21
-17.050003
 31
0.0
  0
LINE
  5
1A8
100
AcDbEntity
  8
LY_3
390
0
  6
CONTINUOUS
 62
     3
100
AcDbLine
 10
145.0
 20
-17.050003
 30
0.0
 11
146.5
 21
-17.050003
 31
0.0
  0
LINE
  5
1A9
100
AcDbEntity
  8
LY_3
390
0
  6
CONTINUOUS
 62
     3
100
AcDbLine
 10
145.000005
 20
-17.400006
 30
0.0
 11
145.300004
 21
-17.100007
 31
0.0
  0
LINE
  5
1AA
100
AcDbEntity
  8
LY_3
390
0
  6
CONTINUOUS
 62
     3
100
AcDbLine
 10
145.300003
 20
-17.099998
 30
0.0
 11
146.800003
 21
-17.099998
 31
0.0
  0
LINE
  5
1AB
100
AcDbEntity
  8
LY_3
390
0
  6
CONTINUOUS
 62
     3
100
AcDbLine
 10
150.500001
 20
-17.050002
 30
0.0
 11
151.000001
 21
-16.550002
 31
0.0
  0
LINE
  5
1AC
100
AcDbEntity
  8
LY_3
390
0
  6
CONTINUOUS
 62
     3
100
AcDbLine
 10
149.5
 20
-17.050003
 30
0.0
 11
150.5
 21
-17.050003
 31
0.0
  0
LINE
  5
1AD
100
AcDbEntity
  8
LY_3
390
0
  6
CONTINUOUS
 62
     3
100
AcDbLine
 10
149.199997
 20
-17.099998
 30
0.0
 11
152.0
 21
-17.099998
 31
0.0
  0
LINE
  5
1AE
100
AcDbEntity
  8
LY_3
390
0
  6
CONTINUOUS
 62
     3
100
AcDbLine
 10
146.5
 20
-18.349998
 30
0.0
 11
146.5
 21
-15.0
 31
0.0
  0
LINE
  5
1AF
100
AcDbEntity
  8
LY_3
390
0
  6
CONTINUOUS
 62
   110
100
AcDbLine
 10
146.800003
 20
-18.778442
 30
0.0
 11
146.800003
 21
-15.0
 31
0.0
  0
LINE
  5
1B0
100
AcDbEntity
  8
LY_3
390
0
  6
CONTINUOUS
 62
     3
100
AcDbLine
 10
149.5
 20
-15.0
 30
0.0
 11
146.5
 21
-15.0
 31
0.0
  0
LINE
  5
1B1
100
AcDbEntity
  8
LY_3
390
0
  6
CONTINUOUS
 62
     3
100
AcDbLine
 10
149.5
 20
-18.349998
 30
0.0
 11
149.5
 21
-15.0
 31
0.0
  0
LINE
  5
1B2
100
AcDbEntity
  8
LY_3
390
0
  6
CONTINUOUS
 62
   110
100
AcDbLine
 10
149.199997
 20
-18.778442
 30
0.0
 11
149.199997
 21
-15.0
 31
0.0
  0
LINE
  5
1B3
100
AcDbEntity
  8
LY_3
390
0
  6
CONTINUOUS
 62
     3
100
AcDbLine
 10
149.599998
 20
-17.050003
 30
0.0
 11
149.599998
 21
-13.550003
 31
0.0
  0
LINE
  5
1B4
100
AcDbEntity
  8
LY_3
390
0
  6
CONTINUOUS
 62
     3
100
AcDbLine
 10
147.999991
 20
-12.62624
 30
0.0
 11
149.599996
 21
-13.550003
 31
0.0
  0
LINE
  5
1B5
100
AcDbEntity
  8
LY_3
390
0
  6
CENTER
 62
   110
100
AcDbLine
 10
148.0
 20
-22.207977
 30
0.0
 11
148.0
 21
-11.371399
 31
0.0
  0
LINE
  5
1B6
100
AcDbEntity
  8
LY_3
390
0
  6
CONTINUOUS
 62
     3
100
AcDbLine
 10
146.399997
 20
-13.550001
 30
0.0
 11
147.999996
 21
-12.626241
 31
0.0
  0
LINE
  5
1B7
100
AcDbEntity
  8
LY_3
390
0
  6
CONTINUOUS
 62
     3
100
AcDbLine
 10
146.400002
 20
-13.550003
 30
0.0
 11
149.599998
 21
-13.550003
 31
0.0
  0
LINE
  5
1B8
100
AcDbEntity
  8
LY_3
390
0
  6
CONTINUOUS
 62
     3
100
AcDbLine
 10
146.400002
 20
-17.050003
 30
0.0
 11
146.400002
 21
-13.550003
 31
0.0
  0
LINE
  5
1B9
100
AcDbEntity
  8
LY_3
390
0
  6
CONTINUOUS
 62
     3
100
AcDbLine
 10
152.0
 20
17.0
 30
0.0
 11
163.191315
 21
17.0
 31
0.0
  0
LINE
  5
1BA
100
AcDbEntity
  8
LY_3
390
0
  6
CONTINUOUS
 62
     3
100
AcDbLine
 10
148.0
 20
12.626237
 30
0.0
 11
149.6
 21
13.549998
 31
0.0
  0
LINE
  5
1BB
100
AcDbEntity
  8
LY_3
390
0
  6
CONTINUOUS
 62
     3
100
AcDbLine
 10
146.399999
 20
13.550001
 30
0.0
 11
147.999997
 21
12.626242
 31
0.0
  0
LINE
  5
1BC
100
AcDbEntity
  8
LY_3
390
0
  6
CONTINUOUS
 62
     3
100
AcDbLine
 10
146.400002
 20
17.049999
 30
0.0
 11
146.400002
 21
13.549999
 31
0.0
  0
LINE
  5
1BD
100
AcDbEntity
  8
LY_3
390
0
  6
CONTINUOUS
 62
     3
100
AcDbLine
 10
149.599998
 20
17.049999
 30
0.0
 11
149.599998
 21
13.549999
 31
0.0
  0
LINE
  5
1BE
100
AcDbEntity
  8
LY_3
390
0
  6
CONTINUOUS
 62
     3
100
AcDbLine
 10
149.5
 20
18.349998
 30
0.0
 11
149.5
 21
15.0
 31
0.0
  0
LINE
  5
1BF
100
AcDbEntity
  8
LY_3
390
0
  6
CONTINUOUS
 62
     3
100
AcDbLine
 10
146.5
 20
18.349998
 30
0.0
 11
146.5
 21
15.0
 31
0.0
  0
LINE
  5
1C0
100
AcDbEntity
  8
LY_3
390
0
  6
CONTINUOUS
 62
     3
100
AcDbLine
 10
152.99998
 20
12.500055
 30
0.0
 11
153.999987
 21
13.500061
 31
0.0
  0
LINE
  5
1C1
100
AcDbEntity
  8
LY_3
390
0
  6
CONTINUOUS
 62
     3
100
AcDbLine
 10
152.999977
 20
6.0
 30
0.0
 11
152.999977
 21
12.500053
 31
0.0
  0
LINE
  5
1C2
100
AcDbEntity
  8
LY_3
390
0
  6
CONTINUOUS
 62
     3
100
AcDbLine
 10
152.999977
 20
-6.0
 30
0.0
 11
152.999977
 21
-12.500053
 31
0.0
  0
LINE
  5
1C3
100
AcDbEntity
  8
LY_3
390
0
  6
CONTINUOUS
 62
     3
100
AcDbLine
 10
152.0
 20
-19.0
 30
0.0
 11
152.0
 21
-18.949997
 31
0.0
  0
LINE
  5
1C4
100
AcDbEntity
  8
LY_3
390
0
  6
CONTINUOUS
 62
     3
100
AcDbLine
 10
152.0
 20
17.099998
 30
0.0
 11
152.0
 21
17.0
 31
0.0
  0
LINE
  5
1C5
100
AcDbEntity
  8
LY_3
390
0
  6
CONTINUOUS
 62
     3
100
AcDbLine
 10
150.499998
 20
17.050002
 30
0.0
 11
150.999998
 21
16.550002
 31
0.0
  0
LINE
  5
1C6
100
AcDbEntity
  8
LY_3
390
0
  6
CONTINUOUS
 62
     3
100
AcDbLine
 10
152.000003
 20
-19.499995
 30
0.0
 11
151.500002
 21
-18.999995
 31
0.0
  0
LINE
  5
1C7
100
AcDbEntity
  8
LY_3
390
0
  6
CONTINUOUS
 62
     3
100
AcDbLine
 10
149.5
 20
-19.599998
 30
0.0
 11
149.599998
 21
-19.599998
 31
0.0
  0
LINE
  5
1C8
100
AcDbEntity
  8
LY_3
390
0
  6
CONTINUOUS
 62
     3
100
AcDbLine
 10
149.6
 20
-19.599996
 30
0.0
 11
150.999999
 21
-20.999995
 31
0.0
  0
LINE
  5
1C9
100
AcDbEntity
  8
LY_3
390
0
  6
CONTINUOUS
 62
     3
100
AcDbLine
 10
146.400001
 20
-19.599996
 30
0.0
 11
144.999992
 21
-21.000005
 31
0.0
  0
LINE
  5
1CA
100
AcDbEntity
  8
LY_3
390
0
  6
CONTINUOUS
 62
     3
100
AcDbLine
 10
146.5
 20
-19.599998
 30
0.0
 11
146.400002
 21
-19.599998
 31
0.0
  0
LINE
  5
1CB
100
AcDbEntity
  8
LY_3
390
0
  6
CONTINUOUS
 62
     3
100
AcDbLine
 10
146.400002
 20
-19.599998
 30
0.0
 11
146.400002
 21
-19.0
 31
0.0
  0
LINE
  5
1CC
100
AcDbEntity
  8
LY_3
390
0
  6
CONTINUOUS
 62
     3
100
AcDbLine
 10
145.261333
 20
-20.838663
 30
0.0
 11
146.565682
 21
-19.534314
 31
0.0
  0
LINE
  5
1CD
100
AcDbEntity
  8
LY_3
390
0
  6
CONTINUOUS
 62
     3
100
AcDbLine
 10
150.750002
 20
-20.849999
 30
0.0
 11
149.434314
 21
-19.53431
 31
0.0
  0
LINE
  5
1CE
100
AcDbEntity
  8
LY_3
390
0
  6
CONTINUOUS
 62
     3
100
AcDbLine
 10
145.25
 20
-21.0
 30
0.0
 11
145.25
 21
-20.849998
 31
0.0
  0
LINE
  5
1CF
100
AcDbEntity
  8
LY_3
390
0
  6
CONTINUOUS
 62
     3
100
AcDbLine
 10
150.75
 20
-21.0
 30
0.0
 11
150.75
 21
-20.849998
 31
0.0
  0
LINE
  5
1D0
100
AcDbEntity
  8
LY_3
390
0
  6
CONTINUOUS
 62
     3
100
AcDbLine
 10
150.75
 20
-20.849998
 30
0.0
 11
145.25
 21
-20.849998
 31
0.0
  0
LINE
  5
1D1
100
AcDbEntity
  8
LY_3
390
0
  6
CONTINUOUS
 62
     3
100
AcDbLine
 10
151.5
 20
-21.0
 30
0.0
 11
143.999992
 21
-21.0
 31
0.0
  0
LINE
  5
1D2
100
AcDbEntity
  8
LY_3
390
0
  6
CONTINUOUS
 62
     3
100
AcDbLine
 10
149.599998
 20
-19.599998
 30
0.0
 11
149.599998
 21
-19.0
 31
0.0
  0
LINE
  5
1D3
100
AcDbEntity
  8
LY_3
390
0
  6
CONTINUOUS
 62
     3
100
AcDbLine
 10
152.0
 20
-20.5
 30
0.0
 11
152.0
 21
-19.5
 31
0.0
  0
LINE
  5
1D4
100
AcDbEntity
  8
LY_3
390
0
  6
CONTINUOUS
 62
     3
100
AcDbLine
 10
151.500002
 20
-20.999997
 30
0.0
 11
152.000003
 21
-20.499996
 31
0.0
  0
LINE
  5
1D5
100
AcDbEntity
  8
LY_3
390
0
  6
CONTINUOUS
 62
     3
100
AcDbLine
 10
145.000007
 20
17.400002
 30
0.0
 11
145.300007
 21
17.100003
 31
0.0
  0
LINE
  5
1D6
100
AcDbEntity
  8
LY_3
390
0
  6
CONTINUOUS
 62
     3
100
AcDbLine
 10
145.300001
 20
18.950003
 30
0.0
 11
145.000002
 21
18.650004
 31
0.0
  0
LINE
  5
1D7
100
AcDbEntity
  8
LY_3
390
0
  6
CONTINUOUS
 62
     3
100
AcDbLine
 10
149.5
 20
17.049999
 30
0.0
 11
150.5
 21
17.049999
 31
0.0
  0
LINE
  5
1D8
100
AcDbEntity
  8
LY_3
390
0
  6
CONTINUOUS
 62
     3
100
AcDbLine
 10
145.0
 20
17.049999
 30
0.0
 11
146.5
 21
17.049999
 31
0.0
  0
LINE
  5
1D9
100
AcDbEntity
  8
LY_3
390
0
  6
CONTINUOUS
 62
     3
100
AcDbLine
 10
149.199997
 20
17.099998
 30
0.0
 11
152.0
 21
17.099998
 31
0.0
  0
LINE
  5
1DA
100
AcDbEntity
  8
LY_3
390
0
  6
CONTINUOUS
 62
     3
100
AcDbLine
 10
145.300003
 20
17.099998
 30
0.0
 11
146.800003
 21
17.099998
 31
0.0
  0
LINE
  5
1DB
100
AcDbEntity
  8
LY_3
390
0
  6
CONTINUOUS
 62
     3
100
AcDbLine
 10
152.0
 20
19.0
 30
0.0
 11
152.0
 21
18.950001
 31
0.0
  0
LINE
  5
1DC
100
AcDbEntity
  8
LY_3
390
0
  6
CONTINUOUS
 62
     3
100
AcDbLine
 10
152.0
 20
19.499995
 30
0.0
 11
151.499999
 21
18.999995
 31
0.0
  0
LINE
  5
1DD
100
AcDbEntity
  8
LY_3
390
0
  6
CONTINUOUS
 62
     3
100
AcDbLine
 10
149.199997
 20
18.950001
 30
0.0
 11
152.0
 21
18.950001
 31
0.0
  0
LINE
  5
1DE
100
AcDbEntity
  8
LY_3
390
0
  6
CONTINUOUS
 62
     3
100
AcDbLine
 10
151.499999
 20
20.999997
 30
0.0
 11
152.0
 21
20.499996
 31
0.0
  0
LINE
  5
1DF
100
AcDbEntity
  8
LY_3
390
0
  6
CONTINUOUS
 62
     3
100
AcDbLine
 10
152.0
 20
20.5
 30
0.0
 11
152.0
 21
19.5
 31
0.0
  0
LINE
  5
1E0
100
AcDbEntity
  8
LY_3
390
0
  6
CONTINUOUS
 62
     3
100
AcDbLine
 10
145.300003
 20
18.950001
 30
0.0
 11
146.800003
 21
18.950001
 31
0.0
  0
LINE
  5
1E1
100
AcDbEntity
  8
LY_3
390
0
  6
CONTINUOUS
 62
     3
100
AcDbLine
 10
146.400002
 20
13.549999
 30
0.0
 11
149.599998
 21
13.549999
 31
0.0
  0
LINE
  5
1E2
100
AcDbEntity
  8
LY_3
390
0
  6
CONTINUOUS
 62
     3
100
AcDbLine
 10
149.5
 20
19.599998
 30
0.0
 11
149.599998
 21
19.599998
 31
0.0
  0
LINE
  5
1E3
100
AcDbEntity
  8
LY_3
390
0
  6
CONTINUOUS
 62
     3
100
AcDbLine
 10
149.6
 20
19.599998
 30
0.0
 11
151.000004
 21
21.000001
 31
0.0
  0
LINE
  5
1E4
100
AcDbEntity
  8
LY_3
390
0
  6
CONTINUOUS
 62
     3
100
AcDbLine
 10
146.400001
 20
19.599998
 30
0.0
 11
144.999998
 21
21.000001
 31
0.0
  0
LINE
  5
1E5
100
AcDbEntity
  8
LY_3
390
0
  6
CONTINUOUS
 62
     3
100
AcDbLine
 10
146.5
 20
19.599998
 30
0.0
 11
146.400002
 21
19.599998
 31
0.0
  0
LINE
  5
1E6
100
AcDbEntity
  8
LY_3
390
0
  6
CONTINUOUS
 62
     3
100
AcDbLine
 10
146.400002
 20
19.599998
 30
0.0
 11
146.400002
 21
19.0
 31
0.0
  0
LINE
  5
1E7
100
AcDbEntity
  8
LY_3
390
0
  6
CONTINUOUS
 62
   110
100
AcDbLine
 10
146.800003
 20
18.778442
 30
0.0
 11
146.800003
 21
15.0
 31
0.0
  0
LINE
  5
1E8
100
AcDbEntity
  8
LY_3
390
0
  6
CONTINUOUS
 62
   110
100
AcDbLine
 10
149.199997
 20
18.778442
 30
0.0
 11
149.199997
 21
15.0
 31
0.0
  0
LINE
  5
1E9
100
AcDbEntity
  8
LY_3
390
0
  6
CONTINUOUS
 62
     3
100
AcDbLine
 10
146.500005
 20
18.350003
 30
0.0
 11
146.800005
 21
18.778446
 31
0.0
  0
LINE
  5
1EA
100
AcDbEntity
  8
LY_3
390
0
  6
CONTINUOUS
 62
     3
100
AcDbLine
 10
149.500004
 20
18.350002
 30
0.0
 11
149.200004
 21
18.778445
 31
0.0
  0
LINE
  5
1EB
100
AcDbEntity
  8
LY_3
390
0
  6
CONTINUOUS
 62
     3
100
AcDbLine
 10
145.261335
 20
20.838665
 30
0.0
 11
146.565683
 21
19.534316
 31
0.0
  0
LINE
  5
1EC
100
AcDbEntity
  8
LY_3
390
0
  6
CONTINUOUS
 62
     3
100
AcDbLine
 10
150.749999
 20
20.850002
 30
0.0
 11
149.43431
 21
19.534314
 31
0.0
  0
LINE
  5
1ED
100
AcDbEntity
  8
LY_3
390
0
  6
CONTINUOUS
 62
     3
100
AcDbLine
 10
145.25
 20
21.0
 30
0.0
 11
145.25
 21
20.849998
 31
0.0
  0
LINE
  5
1EE
100
AcDbEntity
  8
LY_3
390
0
  6
CONTINUOUS
 62
     3
100
AcDbLine
 10
150.75
 20
21.0
 30
0.0
 11
150.75
 21
20.849998
 31
0.0
  0
LINE
  5
1EF
100
AcDbEntity
  8
LY_3
390
0
  6
CONTINUOUS
 62
     3
100
AcDbLine
 10
149.5
 20
18.349998
 30
0.0
 11
146.5
 21
18.349998
 31
0.0
  0
LINE
  5
1F0
100
AcDbEntity
  8
LY_3
390
0
  6
CONTINUOUS
 62
     3
100
AcDbLine
 10
149.5
 20
15.0
 30
0.0
 11
146.5
 21
15.0
 31
0.0
  0
LINE
  5
1F1
100
AcDbEntity
  8
LY_3
390
0
  6
CONTINUOUS
 62
     3
100
AcDbLine
 10
149.296753
 20
19.349998
 30
0.0
 11
146.703247
 21
19.349998
 31
0.0
  0
LINE
  5
1F2
100
AcDbEntity
  8
LY_3
390
0
  6
CONTINUOUS
 62
     3
100
AcDbLine
 10
146.800003
 20
18.968628
 30
0.0
 11
146.800003
 21
18.778442
 31
0.0
  0
LINE
  5
1F3
100
AcDbEntity
  8
LY_3
390
0
  6
CONTINUOUS
 62
     3
100
AcDbLine
 10
149.199997
 20
18.968628
 30
0.0
 11
149.199997
 21
18.778442
 31
0.0
  0
LINE
  5
1F4
100
AcDbEntity
  8
LY_3
390
0
  6
CONTINUOUS
 62
     3
100
AcDbLine
 10
150.75
 20
20.849998
 30
0.0
 11
145.25
 21
20.849998
 31
0.0
  0
LINE
  5
1F5
100
AcDbEntity
  8
LY_3
390
0
  6
CONTINUOUS
 62
   110
100
AcDbLine
 10
146.5
 20
18.950001
 30
0.0
 11
146.5
 21
18.349998
 31
0.0
  0
LINE
  5
1F6
100
AcDbEntity
  8
LY_3
390
0
  6
CONTINUOUS
 62
   110
100
AcDbLine
 10
149.5
 20
18.950001
 30
0.0
 11
149.5
 21
18.349998
 31
0.0
  0
LINE
  5
1F7
100
AcDbEntity
  8
LY_3
390
0
  6
CONTINUOUS
 62
     3
100
AcDbLine
 10
151.5
 20
21.0
 30
0.0
 11
143.999992
 21
21.0
 31
0.0
  0
LINE
  5
1F8
100
AcDbEntity
  8
LY_3
390
0
  6
CONTINUOUS
 62
     3
100
AcDbLine
 10
149.599998
 20
19.599998
 30
0.0
 11
149.599998
 21
19.0
 31
0.0
  0
LINE
  5
1F9
100
AcDbEntity
  8
LY_3
390
0
  6
CONTINUOUS
 62
     3
100
AcDbLine
 10
154.0
 20
-14.5
 30
0.0
 11
154.0
 21
-6.0
 31
0.0
  0
LINE
  5
1FA
100
AcDbEntity
  8
LY_3
390
0
  6
CENTER
 62
   110
100
AcDbLine
 10
148.0
 20
22.207977
 30
0.0
 11
148.0
 21
11.371395
 31
0.0
  0
LINE
  5
1FB
100
AcDbEntity
  8
LY_3
390
0
  6
CONTINUOUS
 62
     3
100
AcDbLine
 10
151.0
 20
16.550003
 30
0.0
 11
151.0
 21
14.5
 31
0.0
  0
LINE
  5
1FC
100
AcDbEntity
  8
LY_3
390
0
  6
CONTINUOUS
 62
     3
100
AcDbLine
 10
145.0
 20
19.0
 30
0.0
 11
145.0
 21
17.049999
 31
0.0
  0
LINE
  5
1FD
100
AcDbEntity
  8
LY_3
390
0
  6
CONTINUOUS
 62
     3
100
AcDbLine
 10
145.0
 20
19.0
 30
0.0
 11
146.799385
 21
19.0
 31
0.0
  0
LINE
  5
1FE
100
AcDbEntity
  8
LY_3
390
0
  6
CONTINUOUS
 62
     3
100
AcDbLine
 10
152.99998
 20
-12.500052
 30
0.0
 11
153.999987
 21
-13.500058
 31
0.0
  0
LINE
  5
1FF
100
AcDbEntity
  8
LY_3
390
0
  6
CONTINUOUS
 62
     3
100
AcDbLine
 10
153.400002
 20
-14.5
 30
0.0
 11
154.0
 21
-14.5
 31
0.0
  0
LINE
  5
200
100
AcDbEntity
  8
LY_3
390
0
  6
CONTINUOUS
 62
     3
100
AcDbLine
 10
151.0
 20
-14.5
 30
0.0
 11
151.400002
 21
-14.5
 31
0.0
  0
LINE
  5
201
100
AcDbEntity
  8
LY_3
390
0
  6
CONTINUOUS
 62
     3
100
AcDbLine
 10
151.0
 20
-16.550003
 30
0.0
 11
151.0
 21
-14.5
 31
0.0
  0
LINE
  5
202
100
AcDbEntity
  8
LY_3
390
0
  6
CONTINUOUS
 62
     3
100
AcDbLine
 10
153.400002
 20
14.5
 30
0.0
 11
154.0
 21
14.5
 31
0.0
  0
LINE
  5
203
100
AcDbEntity
  8
LY_3
390
0
  6
CONTINUOUS
 62
     3
100
AcDbLine
 10
151.0
 20
14.5
 30
0.0
 11
151.400002
 21
14.5
 31
0.0
  0
LINE
  5
204
100
AcDbEntity
  8
LY_3
390
0
  6
CONTINUOUS
 62
     3
100
AcDbLine
 10
154.0
 20
14.5
 30
0.0
 11
154.0
 21
6.0
 31
0.0
  0
LINE
  5
205
100
AcDbEntity
  8
LY_3
390
0
  6
CONTINUOUS
 62
     3
100
AcDbLine
 10
149.200615
 20
19.0
 30
0.0
 11
151.5
 21
19.0
 31
0.0
  0
LINE
  5
206
100
AcDbEntity
  8
LY_3
390
0
  6
CONTINUOUS
 62
     3
100
AcDbLine
 10
144.000003
 20
-20.999997
 30
0.0
 11
143.000002
 21
-19.999996
 31
0.0
  0
LINE
  5
207
100
AcDbEntity
  8
LY_3
390
0
  6
CONTINUOUS
 62
     3
100
AcDbLine
 10
143.0
 20
-20.0
 30
0.0
 11
143.0
 21
-13.199998
 31
0.0
  0
LINE
  5
208
100
AcDbEntity
  8
LY_3
390
0
  6
CONTINUOUS
 62
     3
100
AcDbLine
 10
144.000003
 20
21.000007
 30
0.0
 11
143.000002
 21
20.000006
 31
0.0
  0
LINE
  5
209
100
AcDbEntity
  8
LY_3
390
0
  6
CONTINUOUS
 62
     3
100
AcDbLine
 10
143.0
 20
20.0
 30
0.0
 11
143.0
 21
13.199998
 31
0.0
  0
LINE
  5
20A
100
AcDbEntity
  8
LY_3
390
0
  6
CONTINUOUS
 62
     3
100
AcDbLine
 10
282.700012
 20
135.333336
 30
0.0
 11
282.700012
 21
125.333336
 31
0.0
  0
LINE
  5
20B
100
AcDbEntity
  8
LY_3
390
0
  6
CONTINUOUS
 62
     3
100
AcDbLine
 10
221.000008
 20
151.371056
 30
0.0
 11
221.000008
 21
109.295708
 31
0.0
  0
LINE
  5
20C
100
AcDbEntity
  8
LY_3
390
0
  6
CONTINUOUS
 62
   110
100
AcDbLine
 10
240.5
 20
145.833336
 30
0.0
 11
252.5
 21
145.833336
 31
0.0
  0
LINE
  5
20D
100
AcDbEntity
  8
LY_3
390
0
  6
CONTINUOUS
 62
   110
100
AcDbLine
 10
240.5
 20
146.833336
 30
0.0
 11
252.5
 21
146.833336
 31
0.0
  0
LINE
  5
20E
100
AcDbEntity
  8
LY_3
390
0
  6
CONTINUOUS
 62
   110
100
AcDbLine
 10
240.5
 20
147.833336
 30
0.0
 11
252.5
 21
147.833336
 31
0.0
  0
LINE
  5
20F
100
AcDbEntity
  8
LY_3
390
0
  6
CONTINUOUS
 62
   110
100
AcDbLine
 10
240.5
 20
148.833336
 30
0.0
 11
252.5
 21
148.833336
 31
0.0
  0
LINE
  5
210
100
AcDbEntity
  8
LY_3
390
0
  6
CONTINUOUS
 62
   110
100
AcDbLine
 10
240.5
 20
149.833336
 30
0.0
 11
252.5
 21
149.833336
 31
0.0
  0
LINE
  5
211
100
AcDbEntity
  8
LY_3
390
0
  6
CONTINUOUS
 62
   110
100
AcDbLine
 10
240.5
 20
150.833336
 30
0.0
 11
252.5
 21
150.833336
 31
0.0
  0
LINE
  5
212
100
AcDbEntity
  8
LY_3
390
0
  6
CONTINUOUS
 62
   110
100
AcDbLine
 10
240.5
 20
151.833336
 30
0.0
 11
252.5
 21
151.833336
 31
0.0
  0
LINE
  5
213
100
AcDbEntity
  8
LY_3
390
0
  6
CONTINUOUS
 62
   110
100
AcDbLine
 10
240.5
 20
152.833336
 30
0.0
 11
252.5
 21
152.833336
 31
0.0
  0
LINE
  5
214
100
AcDbEntity
  8
LY_3
390
0
  6
CONTINUOUS
 62
   110
100
AcDbLine
 10
240.5
 20
153.833336
 30
0.0
 11
252.5
 21
153.833336
 31
0.0
  0
LINE
  5
215
100
AcDbEntity
  8
LY_3
390
0
  6
CONTINUOUS
 62
   110
100
AcDbLine
 10
240.5
 20
154.833336
 30
0.0
 11
252.5
 21
154.833336
 31
0.0
  0
LINE
  5
216
100
AcDbEntity
  8
LY_3
390
0
  6
CONTINUOUS
 62
     3
100
AcDbLine
 10
259.5
 20
125.333336
 30
0.0
 11
259.5
 21
124.583336
 31
0.0
  0
LINE
  5
217
100
AcDbEntity
  8
LY_3
390
0
  6
CONTINUOUS
 62
     3
100
AcDbLine
 10
253.0
 20
155.333336
 30
0.0
 11
253.0
 21
105.333336
 31
0.0
  0
LINE
  5
218
100
AcDbEntity
  8
LY_3
390
0
  6
CONTINUOUS
 62
     3
100
AcDbLine
 10
252.5
 20
155.833336
 30
0.0
 11
252.5
 21
104.833336
 31
0.0
  0
LINE
  5
219
100
AcDbEntity
  8
LY_3
390
0
  6
CONTINUOUS
 62
     3
100
AcDbLine
 10
240.5
 20
155.833336
 30
0.0
 11
240.5
 21
104.833336
 31
0.0
  0
LINE
  5
21A
100
AcDbEntity
  8
LY_3
390
0
  6
CONTINUOUS
 62
     3
100
AcDbLine
 10
240.0
 20
155.333336
 30
0.0
 11
240.0
 21
105.333336
 31
0.0
  0
LINE
  5
21B
100
AcDbEntity
  8
LY_3
390
0
  6
CONTINUOUS
 62
     3
100
AcDbLine
 10
233.999969
 20
155.333336
 30
0.0
 11
233.999969
 21
105.333336
 31
0.0
  0
LINE
  5
21C
100
AcDbEntity
  8
LY_3
390
0
  6
CONTINUOUS
 62
     3
100
AcDbLine
 10
233.0
 20
154.333336
 30
0.0
 11
233.0
 21
106.333275
 31
0.0
  0
LINE
  5
21D
100
AcDbEntity
  8
LY_3
390
0
  6
CONTINUOUS
 62
     3
100
AcDbLine
 10
232.999968
 20
154.333363
 30
0.0
 11
233.999969
 21
155.333364
 31
0.0
  0
LINE
  5
21E
100
AcDbEntity
  8
LY_3
390
0
  6
CONTINUOUS
 62
     3
100
AcDbLine
 10
233.999954
 20
155.333336
 30
0.0
 11
240.0
 21
155.333336
 31
0.0
  0
LINE
  5
21F
100
AcDbEntity
  8
LY_3
390
0
  6
CONTINUOUS
 62
     3
100
AcDbLine
 10
240.000011
 20
155.333339
 30
0.0
 11
240.500011
 21
155.833339
 31
0.0
  0
LINE
  5
220
100
AcDbEntity
  8
LY_3
390
0
  6
CONTINUOUS
 62
     3
100
AcDbLine
 10
240.5
 20
155.833336
 30
0.0
 11
252.5
 21
155.833336
 31
0.0
  0
LINE
  5
221
100
AcDbEntity
  8
LY_3
390
0
  6
CONTINUOUS
 62
     3
100
AcDbLine
 10
253.000004
 20
155.33334
 30
0.0
 11
252.500004
 21
155.833341
 31
0.0
  0
LINE
  5
222
100
AcDbEntity
  8
LY_3
390
0
  6
CONTINUOUS
 62
     3
100
AcDbLine
 10
253.0
 20
155.333336
 30
0.0
 11
257.0
 21
155.333336
 31
0.0
  0
LINE
  5
223
100
AcDbEntity
  8
LY_3
390
0
  6
CONTINUOUS
 62
     3
100
AcDbLine
 10
259.0
 20
153.333336
 30
0.0
 11
259.0
 21
107.333336
 31
0.0
  0
LINE
  5
224
100
AcDbEntity
  8
LY_3
390
0
  6
CONTINUOUS
 62
     3
100
AcDbLine
 10
259.5
 20
136.083336
 30
0.0
 11
259.5
 21
135.333336
 31
0.0
  0
LINE
  5
225
100
AcDbEntity
  8
LY_3
390
0
  6
CONTINUOUS
 62
     3
100
AcDbLine
 10
259.0
 20
135.333336
 30
0.0
 11
282.699997
 21
135.333336
 31
0.0
  0
LINE
  5
226
100
AcDbEntity
  8
LY_3
390
0
  6
CONTINUOUS
 62
     3
100
AcDbLine
 10
282.700023
 20
135.333366
 30
0.0
 11
283.000023
 21
135.033357
 31
0.0
  0
LINE
  5
227
100
AcDbEntity
  8
LY_3
390
0
  6
CONTINUOUS
 62
     3
100
AcDbLine
 10
283.0
 20
135.033379
 30
0.0
 11
283.0
 21
125.633308
 31
0.0
  0
LINE
  5
228
100
AcDbEntity
  8
LY_3
390
0
  6
CONTINUOUS
 62
     3
100
AcDbLine
 10
282.700015
 20
125.333313
 30
0.0
 11
283.000029
 21
125.633331
 31
0.0
  0
LINE
  5
229
100
AcDbEntity
  8
LY_3
390
0
  6
CONTINUOUS
 62
     3
100
AcDbLine
 10
259.0
 20
125.333336
 30
0.0
 11
282.699997
 21
125.333336
 31
0.0
  0
LINE
  5
22A
100
AcDbEntity
  8
LY_3
390
0
  6
CONTINUOUS
 62
     3
100
AcDbLine
 10
253.0
 20
105.333336
 30
0.0
 11
257.0
 21
105.333336
 31
0.0
  0
LINE
  5
22B
100
AcDbEntity
  8
LY_3
390
0
  6
CONTINUOUS
 62
     3
100
AcDbLine
 10
253.000009
 20
105.333339
 30
0.0
 11
252.500009
 21
104.833339
 31
0.0
  0
LINE
  5
22C
100
AcDbEntity
  8
LY_3
390
0
  6
CONTINUOUS
 62
     3
100
AcDbLine
 10
240.5
 20
104.833336
 30
0.0
 11
252.5
 21
104.833336
 31
0.0
  0
LINE
  5
22D
100
AcDbEntity
  8
LY_3
390
0
  6
CONTINUOUS
 62
     3
100
AcDbLine
 10
240.000003
 20
105.333339
 30
0.0
 11
240.500004
 21
104.833338
 31
0.0
  0
LINE
  5
22E
100
AcDbEntity
  8
LY_3
390
0
  6
CONTINUOUS
 62
     3
100
AcDbLine
 10
233.999969
 20
105.333336
 30
0.0
 11
240.0
 21
105.333336
 31
0.0
  0
LINE
  5
22F
100
AcDbEntity
  8
LY_3
390
0
  6
CONTINUOUS
 62
     3
100
AcDbLine
 10
232.999968
 20
106.333312
 30
0.0
 11
233.999969
 21
105.333311
 31
0.0
  0
LINE
  5
230
100
AcDbEntity
  8
LY_3
390
0
  6
CENTER
 62
   110
100
AcDbLine
 10
237.0
 20
133.715797
 30
0.0
 11
237.0
 21
126.72319
 31
0.0
  0
LINE
  5
231
100
AcDbEntity
  8
LY_3
390
0
  6
CENTER
 62
   110
100
AcDbLine
 10
220.0
 20
130.333336
 30
0.0
 11
225.183502
 21
130.333336
 31
0.0
  0
LINE
  5
232
100
AcDbEntity
  8
LY_3
390
0
  6
CONTINUOUS
 62
     3
100
AcDbLine
 10
231.999985
 20
108.333344
 30
0.0
 11
233.0
 21
108.333344
 31
0.0
  0
LINE
  5
233
100
AcDbEntity
  8
LY_3
390
0
  6
CONTINUOUS
 62
     3
100
AcDbLine
 10
232.000076
 20
152.333366
 30
0.0
 11
233.0
 21
152.333366
 31
0.0
  0
LINE
  5
234
100
AcDbEntity
  8
LY_3
390
0
  6
CONTINUOUS
 62
   110
100
AcDbLine
 10
221.0
 20
110.564438
 30
0.0
 11
225.0
 21
110.564438
 31
0.0
  0
LINE
  5
235
100
AcDbEntity
  8
LY_3
390
0
  6
CONTINUOUS
 62
   110
100
AcDbLine
 10
221.0
 20
130.333328
 30
0.0
 11
225.0
 21
130.333328
 31
0.0
  0
LINE
  5
236
100
AcDbEntity
  8
LY_3
390
0
  6
CONTINUOUS
 62
     3
100
AcDbLine
 10
221.000007
 20
109.295713
 30
0.0
 11
231.999981
 21
108.333342
 31
0.0
  0
LINE
  5
237
100
AcDbEntity
  8
LY_3
390
0
  6
CONTINUOUS
 62
   110
100
AcDbLine
 10
221.0
 20
142.696098
 30
0.0
 11
225.0
 21
142.696098
 31
0.0
  0
LINE
  5
238
100
AcDbEntity
  8
LY_3
390
0
  6
CONTINUOUS
 62
   110
100
AcDbLine
 10
221.0
 20
150.101318
 30
0.0
 11
225.0
 21
150.101318
 31
0.0
  0
LINE
  5
239
100
AcDbEntity
  8
LY_3
390
0
  6
CONTINUOUS
 62
     3
100
AcDbLine
 10
220.999992
 20
151.371055
 30
0.0
 11
231.999981
 21
152.33343
 31
0.0
  0
LINE
  5
23A
100
AcDbEntity
  8
LY_3
390
0
  6
CONTINUOUS
 62
     3
100
AcDbLine
 10
282.700021
 20
11.999966
 30
0.0
 11
283.000021
 21
12.299975
 31
0.0
  0
LINE
  5
23B
100
AcDbEntity
  8
LY_3
390
0
  6
CONTINUOUS
 62
     3
100
AcDbLine
 10
282.700012
 20
22.00003
 30
0.0
 11
283.000026
 21
21.700012
 31
0.0
  0
LINE
  5
23C
100
AcDbEntity
  8
LY_3
390
0
  6
CONTINUOUS
 62
     3
100
AcDbLine
 10
259.0
 20
12.0
 30
0.0
 11
282.699997
 21
12.0
 31
0.0
  0
LINE
  5
23D
100
AcDbEntity
  8
LY_3
390
0
  6
CONTINUOUS
 62
     3
100
AcDbLine
 10
283.0
 20
12.299954
 30
0.0
 11
283.0
 21
21.700038
 31
0.0
  0
LINE
  5
23E
100
AcDbEntity
  8
LY_3
390
0
  6
CONTINUOUS
 62
     3
100
AcDbLine
 10
259.0
 20
22.0
 30
0.0
 11
282.699997
 21
22.0
 31
0.0
  0
LINE
  5
23F
100
AcDbEntity
  8
LY_3
390
0
  6
CENTER
 62
   110
100
AcDbLine
 10
256.256433
 20
17.0
 30
0.0
 11
286.876099
 21
17.0
 31
0.0
  0
LINE
  5
240
100
AcDbEntity
  8
LY_3
390
0
  6
CONTINUOUS
 62
     3
100
AcDbLine
 10
259.0
 20
-23.0
 30
0.0
 11
259.0
 21
23.0
 31
0.0
  0
LINE
  5
241
100
AcDbEntity
  8
LY_3
390
0
  6
CONTINUOUS
 62
     3
100
AcDbLine
 10
259.5
 20
-5.75
 30
0.0
 11
259.5
 21
5.75
 31
0.0
  0
LINE
  5
242
100
AcDbEntity
  8
LY_3
390
0
  6
CENTER
 62
   110
100
AcDbLine
 10
148.0
 20
133.752357
 30
0.0
 11
148.0
 21
126.887993
 31
0.0
  0
LINE
  5
243
100
AcDbEntity
  8
LY_3
390
0
  6
CONTINUOUS
 62
     3
100
AcDbLine
 10
151.500001
 20
109.333339
 30
0.0
 11
152.000002
 21
109.83334
 31
0.0
  0
LINE
  5
244
100
AcDbEntity
  8
LY_3
390
0
  6
CONTINUOUS
 62
     3
100
AcDbLine
 10
152.0
 20
150.833336
 30
0.0
 11
152.0
 21
109.833336
 31
0.0
  0
LINE
  5
245
100
AcDbEntity
  8
LY_3
390
0
  6
CONTINUOUS
 62
     3
100
AcDbLine
 10
151.499998
 20
151.333338
 30
0.0
 11
151.999998
 21
150.833337
 31
0.0
  0
LINE
  5
246
100
AcDbEntity
  8
LY_3
390
0
  6
CONTINUOUS
 62
     3
100
AcDbLine
 10
144.000002
 20
151.333331
 30
0.0
 11
143.000001
 21
150.33333
 31
0.0
  0
LINE
  5
247
100
AcDbEntity
  8
LY_3
390
0
  6
CONTINUOUS
 62
     3
100
AcDbLine
 10
144.0
 20
151.333336
 30
0.0
 11
151.5
 21
151.333336
 31
0.0
  0
LINE
  5
248
100
AcDbEntity
  8
LY_3
390
0
  6
CONTINUOUS
 62
     3
100
AcDbLine
 10
143.0
 20
150.333336
 30
0.0
 11
143.0
 21
110.333336
 31
0.0
  0
LINE
  5
249
100
AcDbEntity
  8
LY_3
390
0
  6
CONTINUOUS
 62
     3
100
AcDbLine
 10
143.999999
 20
109.333335
 30
0.0
 11
142.999998
 21
110.333336
 31
0.0
  0
LINE
  5
24A
100
AcDbEntity
  8
LY_3
390
0
  6
CONTINUOUS
 62
     3
100
AcDbLine
 10
144.0
 20
109.333336
 30
0.0
 11
151.499992
 21
109.333336
 31
0.0
  0
LINE
  5
24B
100
AcDbEntity
  8
LY_3
390
0
  6
CONTINUOUS
 62
     3
100
AcDbLine
 10
81.000015
 20
136.333336
 30
0.0
 11
81.000015
 21
124.333336
 31
0.0
  0
LINE
  5
24C
100
AcDbEntity
  8
LY_3
390
0
  6
CONTINUOUS
 62
     3
100
AcDbLine
 10
110.0
 20
-6.0
 30
0.0
 11
110.0
 21
-33.849991
 31
0.0
  0
LINE
  5
24D
100
AcDbEntity
  8
LY_3
390
0
  6
CONTINUOUS
 62
     3
100
AcDbLine
 10
120.450012
 20
-11.5
 30
0.0
 11
120.450012
 21
-11.0
 31
0.0
  0
LINE
  5
24E
100
AcDbEntity
  8
LY_3
390
0
  6
CONTINUOUS
 62
     3
100
AcDbLine
 10
120.450012
 20
11.5
 30
0.0
 11
120.450012
 21
11.0
 31
0.0
  0
LINE
  5
24F
100
AcDbEntity
  8
LY_3
390
0
  6
CONTINUOUS
 62
     3
100
AcDbLine
 10
126.300003
 20
-11.0
 30
0.0
 11
126.300003
 21
-6.0
 31
0.0
  0
LINE
  5
250
100
AcDbEntity
  8
LY_3
390
0
  6
CONTINUOUS
 62
   110
100
AcDbLine
 10
126.299965
 20
-11.000061
 30
0.0
 11
120.620031
 21
-6.266783
 31
0.0
  0
LINE
  5
251
100
AcDbEntity
  8
LY_3
390
0
  6
CONTINUOUS
 62
   110
100
AcDbLine
 10
120.300017
 20
-11.000011
 30
0.0
 11
125.97995
 21
-6.266733
 31
0.0
  0
LINE
  5
252
100
AcDbEntity
  8
LY_3
390
0
  6
CONTINUOUS
 62
     3
100
AcDbLine
 10
120.300003
 20
-11.0
 30
0.0
 11
126.300003
 21
-11.0
 31
0.0
  0
LINE
  5
253
100
AcDbEntity
  8
LY_3
390
0
  6
CONTINUOUS
 62
     3
100
AcDbLine
 10
120.300003
 20
-11.5
 30
0.0
 11
120.300003
 21
-6.0
 31
0.0
  0
LINE
  5
254
100
AcDbEntity
  8
LY_3
390
0
  6
CONTINUOUS
 62
     3
100
AcDbLine
 10
119.300003
 20
-11.5
 30
0.0
 11
120.450012
 21
-11.5
 31
0.0
  0
LINE
  5
255
100
AcDbEntity
  8
LY_3
390
0
  6
CONTINUOUS
 62
     3
100
AcDbLine
 10
119.300003
 20
-11.5
 30
0.0
 11
119.300003
 21
-6.0
 31
0.0
  0
LINE
  5
256
100
AcDbEntity
  8
LY_3
390
0
  6
CONTINUOUS
 62
     3
100
AcDbLine
 10
115.300003
 20
-11.0
 30
0.0
 11
119.300003
 21
-11.0
 31
0.0
  0
LINE
  5
257
100
AcDbEntity
  8
LY_3
390
0
  6
CONTINUOUS
 62
     3
100
AcDbLine
 10
120.300003
 20
11.5
 30
0.0
 11
120.300003
 21
6.0
 31
0.0
  0
LINE
  5
258
100
AcDbEntity
  8
LY_3
390
0
  6
CONTINUOUS
 62
     3
100
AcDbLine
 10
119.300003
 20
11.5
 30
0.0
 11
119.300003
 21
6.0
 31
0.0
  0
LINE
  5
259
100
AcDbEntity
  8
LY_3
390
0
  6
CONTINUOUS
 62
     3
100
AcDbLine
 10
119.300003
 20
11.5
 30
0.0
 11
120.450012
 21
11.5
 31
0.0
  0
LINE
  5
25A
100
AcDbEntity
  8
LY_3
390
0
  6
CONTINUOUS
 62
     3
100
AcDbLine
 10
209.80954
 20
130.520836
 30
0.0
 11
210.5
 21
130.520836
 31
0.0
  0
LINE
  5
25B
100
AcDbEntity
  8
LY_3
390
0
  6
CONTINUOUS
 62
     3
100
AcDbLine
 10
209.80954
 20
130.145836
 30
0.0
 11
210.5
 21
130.145836
 31
0.0
  0
LINE
  5
25C
100
AcDbEntity
  8
LY_3
390
0
  6
CONTINUOUS
 62
     3
100
AcDbLine
 10
209.1875
 20
129.523788
 30
0.0
 11
209.1875
 21
128.833336
 31
0.0
  0
LINE
  5
25D
100
AcDbEntity
  8
LY_3
390
0
  6
CONTINUOUS
 62
     3
100
AcDbLine
 10
208.8125
 20
129.523788
 30
0.0
 11
208.8125
 21
128.833336
 31
0.0
  0
LINE
  5
25E
100
AcDbEntity
  8
LY_3
390
0
  6
CONTINUOUS
 62
     3
100
AcDbLine
 10
207.5
 20
130.520836
 30
0.0
 11
208.19046
 21
130.520836
 31
0.0
  0
LINE
  5
25F
100
AcDbEntity
  8
LY_3
390
0
  6
CONTINUOUS
 62
     3
100
AcDbLine
 10
207.5
 20
130.145836
 30
0.0
 11
208.19046
 21
130.145836
 31
0.0
  0
LINE
  5
260
100
AcDbEntity
  8
LY_3
390
0
  6
CONTINUOUS
 62
     3
100
AcDbLine
 10
208.8125
 20
131.833336
 30
0.0
 11
208.8125
 21
131.142883
 31
0.0
  0
LINE
  5
261
100
AcDbEntity
  8
LY_3
390
0
  6
CONTINUOUS
 62
     3
100
AcDbLine
 10
209.1875
 20
131.833336
 30
0.0
 11
209.1875
 21
131.142883
 31
0.0
  0
LINE
  5
262
100
AcDbEntity
  8
LY_3
390
0
  6
CONTINUOUS
 62
     3
100
AcDbLine
 10
207.5
 20
130.520836
 30
0.0
 11
207.5
 21
130.145836
 31
0.0
  0
LINE
  5
263
100
AcDbEntity
  8
LY_3
390
0
  6
CONTINUOUS
 62
     3
100
AcDbLine
 10
210.5
 20
130.520836
 30
0.0
 11
210.5
 21
130.145836
 31
0.0
  0
LINE
  5
264
100
AcDbEntity
  8
LY_3
390
0
  6
CONTINUOUS
 62
     3
100
AcDbLine
 10
208.8125
 20
128.833336
 30
0.0
 11
209.1875
 21
128.833336
 31
0.0
  0
LINE
  5
265
100
AcDbEntity
  8
LY_3
390
0
  6
CONTINUOUS
 62
     3
100
AcDbLine
 10
208.8125
 20
131.833336
 30
0.0
 11
209.1875
 21
131.833336
 31
0.0
  0
LINE
  5
266
100
AcDbEntity
  8
LY_3
390
0
  6
CONTINUOUS
 62
     3
100
AcDbLine
 10
121.899979
 20
164.983337
 30
0.0
 11
121.899979
 21
95.683334
 31
0.0
  0
LINE
  5
267
100
AcDbEntity
  8
LY_3
390
0
  6
CONTINUOUS
 62
     3
100
AcDbLine
 10
110.799995
 20
164.983337
 30
0.0
 11
110.799995
 21
95.683334
 31
0.0
  0
LINE
  5
268
100
AcDbEntity
  8
LY_3
390
0
  6
CONTINUOUS
 62
   110
100
AcDbLine
 10
60.999983
 20
133.333265
 30
0.0
 11
79.999975
 21
127.333265
 31
0.0
  0
LINE
  5
269
100
AcDbEntity
  8
LY_3
390
0
  6
CONTINUOUS
 62
   110
100
AcDbLine
 10
61.000047
 20
127.333215
 30
0.0
 11
80.000035
 21
133.333214
 31
0.0
  0
LINE
  5
26A
100
AcDbEntity
  8
LY_3
390
0
  6
CONTINUOUS
 62
     3
100
AcDbLine
 10
61.0
 20
134.333336
 30
0.0
 11
61.0
 21
126.333336
 31
0.0
  0
LINE
  5
26B
100
AcDbEntity
  8
LY_3
390
0
  6
CONTINUOUS
 62
     3
100
AcDbLine
 10
59.999991
 20
127.333359
 30
0.0
 11
60.999992
 21
126.333358
 31
0.0
  0
LINE
  5
26C
100
AcDbEntity
  8
LY_3
390
0
  6
CONTINUOUS
 62
     3
100
AcDbLine
 10
60.000055
 20
133.333267
 30
0.0
 11
61.000047
 21
134.333266
 31
0.0
  0
LINE
  5
26D
100
AcDbEntity
  8
LY_3
390
0
  6
CONTINUOUS
 62
   110
100
AcDbLine
 10
126.300009
 20
11.000005
 30
0.0
 11
120.620075
 21
6.266727
 31
0.0
  0
LINE
  5
26E
100
AcDbEntity
  8
LY_3
390
0
  6
CONTINUOUS
 62
   110
100
AcDbLine
 10
120.300027
 20
11.000027
 30
0.0
 11
125.97996
 21
6.266749
 31
0.0
  0
LINE
  5
26F
100
AcDbEntity
  8
LY_3
390
0
  6
CONTINUOUS
 62
     3
100
AcDbLine
 10
122.699997
 20
-12.699998
 30
0.0
 11
122.699997
 21
-33.850037
 31
0.0
  0
LINE
  5
270
100
AcDbEntity
  8
LY_3
390
0
  6
CONTINUOUS
 62
     3
100
AcDbLine
 10
109.999992
 20
164.18309
 30
0.0
 11
109.999992
 21
96.48333
 31
0.0
  0
LINE
  5
272
100
AcDbEntity
  8
LY_3
390
0
  6
PHANTOM
 62
   110
100
AcDbLine
 10
173.0
 20
134.333336
 30
0.0
 11
173.0
 21
126.333336
 31
0.0
  0
LINE
  5
273
100
AcDbEntity
  8
LY_3
390
0
  6
PHANTOM
 62
   110
100
AcDbLine
 10
171.0
 20
134.333336
 30
0.0
 11
171.0
 21
126.333336
 31
0.0
  0
LINE
  5
274
100
AcDbEntity
  8
LY_3
390
0
  6
PHANTOM
 62
   110
100
AcDbLine
 10
172.0
 20
134.333336
 30
0.0
 11
172.0
 21
126.333336
 31
0.0
  0
LINE
  5
275
100
AcDbEntity
  8
LY_3
390
0
  6
CONTINUOUS
 62
     3
100
AcDbLine
 10
166.0
 20
126.333336
 30
0.0
 11
208.0
 21
126.333336
 31
0.0
  0
LINE
  5
276
100
AcDbEntity
  8
LY_3
390
0
  6
CONTINUOUS
 62
     3
100
AcDbLine
 10
166.0
 20
134.333336
 30
0.0
 11
208.0
 21
134.333336
 31
0.0
  0
LINE
  5
277
100
AcDbEntity
  8
LY_3
390
0
  6
CONTINUOUS
 62
     3
100
AcDbLine
 10
156.500017
 20
6.999998
 30
0.0
 11
156.000017
 21
14.500004
 31
0.0
  0
LINE
  5
278
100
AcDbEntity
  8
LY_3
390
0
  6
CONTINUOUS
 62
     3
100
AcDbLine
 10
156.999999
 20
14.499993
 30
0.0
 11
156.5
 21
7.000006
 31
0.0
  0
LINE
  5
279
100
AcDbEntity
  8
LY_3
390
0
  6
CONTINUOUS
 62
     3
100
AcDbLine
 10
157.499997
 20
7.000012
 30
0.0
 11
156.999997
 21
14.500011
 31
0.0
  0
LINE
  5
27A
100
AcDbEntity
  8
LY_3
390
0
  6
CONTINUOUS
 62
     3
100
AcDbLine
 10
157.999997
 20
14.499991
 30
0.0
 11
157.499998
 21
7.000007
 31
0.0
  0
LINE
  5
27B
100
AcDbEntity
  8
LY_3
390
0
  6
CONTINUOUS
 62
     3
100
AcDbLine
 10
158.000005
 20
-14.500004
 30
0.0
 11
157.500005
 21
-7.000005
 31
0.0
  0
LINE
  5
27C
100
AcDbEntity
  8
LY_3
390
0
  6
CONTINUOUS
 62
     3
100
AcDbLine
 10
157.499973
 20
-6.999991
 30
0.0
 11
156.999975
 21
-14.499998
 31
0.0
  0
LINE
  5
27D
100
AcDbEntity
  8
LY_3
390
0
  6
CONTINUOUS
 62
     3
100
AcDbLine
 10
156.999999
 20
-14.499999
 30
0.0
 11
156.499999
 21
-7.000008
 31
0.0
  0
LINE
  5
27E
100
AcDbEntity
  8
LY_3
390
0
  6
CONTINUOUS
 62
     3
100
AcDbLine
 10
156.50002
 20
-6.999986
 30
0.0
 11
156.00002
 21
-14.499985
 31
0.0
  0
LINE
  5
27F
100
AcDbEntity
  8
LY_3
390
0
  6
CONTINUOUS
 62
     3
100
AcDbLine
 10
154.000018
 20
-14.499997
 30
0.0
 11
154.500018
 21
-6.999998
 31
0.0
  0
LINE
  5
280
100
AcDbEntity
  8
LY_3
390
0
  6
CONTINUOUS
 62
     3
100
AcDbLine
 10
154.50003
 20
-6.999996
 30
0.0
 11
155.000029
 21
-14.50001
 31
0.0
  0
LINE
  5
281
100
AcDbEntity
  8
LY_3
390
0
  6
CONTINUOUS
 62
     3
100
AcDbLine
 10
154.999995
 20
-14.499985
 30
0.0
 11
155.499995
 21
-6.999986
 31
0.0
  0
LINE
  5
282
100
AcDbEntity
  8
LY_3
390
0
  6
CONTINUOUS
 62
     3
100
AcDbLine
 10
155.500023
 20
-7.0
 30
0.0
 11
156.000023
 21
-14.499999
 31
0.0
  0
LINE
  5
283
100
AcDbEntity
  8
LY_3
390
0
  6
CONTINUOUS
 62
     3
100
AcDbLine
 10
155.500017
 20
7.000007
 30
0.0
 11
156.000016
 21
14.499994
 31
0.0
  0
LINE
  5
284
100
AcDbEntity
  8
LY_3
390
0
  6
CONTINUOUS
 62
     3
100
AcDbLine
 10
155.0
 20
14.500007
 30
0.0
 11
155.5
 21
7.000008
 31
0.0
  0
LINE
  5
285
100
AcDbEntity
  8
LY_3
390
0
  6
CONTINUOUS
 62
     3
100
AcDbLine
 10
154.499999
 20
7.000006
 30
0.0
 11
154.999998
 21
14.49999
 31
0.0
  0
LINE
  5
286
100
AcDbEntity
  8
LY_3
390
0
  6
CONTINUOUS
 62
     3
100
AcDbLine
 10
153.999998
 20
14.50001
 30
0.0
 11
154.499998
 21
7.000009
 31
0.0
  0
LINE
  5
287
100
AcDbEntity
  8
LY_3
390
0
  6
PHANTOM
 62
   110
100
AcDbLine
 10
157.5
 20
-7.0
 30
0.0
 11
164.415756
 21
-7.0
 31
0.0
  0
LINE
  5
288
100
AcDbEntity
  8
LY_3
390
0
  6
PHANTOM
 62
   110
100
AcDbLine
 10
157.5
 20
7.0
 30
0.0
 11
165.508293
 21
7.0
 31
0.0
  0
LINE
  5
289
100
AcDbEntity
  8
LY_3
390
0
  6
PHANTOM
 62
   110
100
AcDbLine
 10
158.0
 20
-14.5
 30
0.0
 11
165.420059
 21
-14.5
 31
0.0
  0
LINE
  5
28A
100
AcDbEntity
  8
LY_3
390
0
  6
PHANTOM
 62
   110
100
AcDbLine
 10
158.0
 20
14.5
 30
0.0
 11
164.265404
 21
14.5
 31
0.0
  0
LINE
  5
28B
100
AcDbEntity
  8
LY_3
390
0
  6
CONTINUOUS
 62
     3
100
AcDbLine
 10
81.000031
 20
6.0
 30
0.0
 11
81.000031
 21
-6.0
 31
0.0
  0
LINE
  5
28C
100
AcDbEntity
  8
LY_3
390
0
  6
CONTINUOUS
 62
     3
100
AcDbLine
 10
61.0
 20
3.0
 30
0.0
 11
61.0
 21
-4.0
 31
0.0
  0
LINE
  5
28D
100
AcDbEntity
  8
LY_3
390
0
  6
CONTINUOUS
 62
     3
100
AcDbLine
 10
60.000042
 20
-2.999981
 30
0.0
 11
61.000043
 21
-3.999982
 31
0.0
  0
LINE
  5
28E
100
AcDbEntity
  8
LY_3
390
0
  6
CENTER
 62
   110
100
AcDbLine
 10
230.868546
 20
130.333336
 30
0.0
 11
287.818939
 21
130.333336
 31
0.0
  0
LINE
  5
28F
100
AcDbEntity
  8
LY_3
390
0
  6
CONTINUOUS
 62
     3
100
AcDbLine
 10
115.300003
 20
-12.699998
 30
0.0
 11
142.5
 21
-12.699998
 31
0.0
  0
LINE
  5
290
100
AcDbEntity
  8
LY_3
390
0
  6
CONTINUOUS
 62
     3
100
AcDbLine
 10
115.300003
 20
12.700002
 30
0.0
 11
142.5
 21
12.700002
 31
0.0
  0
LINE
  5
291
100
AcDbEntity
  8
LY_3
390
0
  6
CONTINUOUS
 62
     3
100
AcDbLine
 10
0.5
 20
-24.144821
 30
0.0
 11
0.5
 21
-34.646393
 31
0.0
  0
LINE
  5
292
100
AcDbEntity
  8
LY_3
390
0
  6
CONTINUOUS
 62
     3
100
AcDbLine
 10
-0.5
 20
-24.144821
 30
0.0
 11
-0.5
 21
-34.646393
 31
0.0
  0
LINE
  5
293
100
AcDbEntity
  8
LY_3
390
0
  6
CONTINUOUS
 62
     3
100
AcDbLine
 10
-0.5
 20
34.646393
 30
0.0
 11
-0.5
 21
24.144821
 31
0.0
  0
LINE
  5
294
100
AcDbEntity
  8
LY_3
390
0
  6
CONTINUOUS
 62
     3
100
AcDbLine
 10
0.5
 20
34.646393
 30
0.0
 11
0.5
 21
24.144821
 31
0.0
  0
LINE
  5
295
100
AcDbEntity
  8
LY_3
390
0
  6
CONTINUOUS
 62
   110
100
AcDbLine
 10
202.0
 20
134.333336
 30
0.0
 11
202.0
 21
126.333336
 31
0.0
  0
LINE
  5
296
100
AcDbEntity
  8
LY_3
390
0
  6
CONTINUOUS
 62
     3
100
AcDbLine
 10
217.0
 20
130.333336
 30
0.0
 11
220.0
 21
130.333336
 31
0.0
  0
LINE
  5
297
100
AcDbEntity
  8
LY_3
390
0
  6
CONTINUOUS
 62
   110
100
AcDbLine
 10
202.0
 20
126.333336
 30
0.0
 11
202.0
 21
122.333336
 31
0.0
  0
LINE
  5
298
100
AcDbEntity
  8
LY_3
390
0
  6
CONTINUOUS
 62
   110
100
AcDbLine
 10
201.0
 20
126.333336
 30
0.0
 11
201.0
 21
124.333336
 31
0.0
  0
LINE
  5
299
100
AcDbEntity
  8
LY_3
390
0
  6
CONTINUOUS
 62
   110
100
AcDbLine
 10
200.0
 20
126.333336
 30
0.0
 11
200.0
 21
124.333336
 31
0.0
  0
LINE
  5
29A
100
AcDbEntity
  8
LY_3
390
0
  6
CONTINUOUS
 62
   110
100
AcDbLine
 10
199.0
 20
126.333336
 30
0.0
 11
199.0
 21
124.333336
 31
0.0
  0
LINE
  5
29B
100
AcDbEntity
  8
LY_3
390
0
  6
CONTINUOUS
 62
   110
100
AcDbLine
 10
198.0
 20
126.333336
 30
0.0
 11
198.0
 21
124.333336
 31
0.0
  0
LINE
  5
29C
100
AcDbEntity
  8
LY_3
390
0
  6
CONTINUOUS
 62
   110
100
AcDbLine
 10
197.0
 20
126.333336
 30
0.0
 11
197.0
 21
123.333336
 31
0.0
  0
LINE
  5
29D
100
AcDbEntity
  8
LY_3
390
0
  6
CONTINUOUS
 62
   110
100
AcDbLine
 10
196.0
 20
126.333336
 30
0.0
 11
196.0
 21
124.333336
 31
0.0
  0
LINE
  5
29E
100
AcDbEntity
  8
LY_3
390
0
  6
CONTINUOUS
 62
   110
100
AcDbLine
 10
195.0
 20
126.333336
 30
0.0
 11
195.0
 21
124.333336
 31
0.0
  0
LINE
  5
29F
100
AcDbEntity
  8
LY_3
390
0
  6
CONTINUOUS
 62
   110
100
AcDbLine
 10
194.0
 20
126.333336
 30
0.0
 11
194.0
 21
124.333336
 31
0.0
  0
LINE
  5
2A0
100
AcDbEntity
  8
LY_3
390
0
  6
CONTINUOUS
 62
   110
100
AcDbLine
 10
193.0
 20
126.333336
 30
0.0
 11
193.0
 21
124.333336
 31
0.0
  0
LINE
  5
2A1
100
AcDbEntity
  8
LY_3
390
0
  6
CONTINUOUS
 62
   110
100
AcDbLine
 10
192.0
 20
126.333336
 30
0.0
 11
192.0
 21
122.333336
 31
0.0
  0
LINE
  5
2A2
100
AcDbEntity
  8
LY_3
390
0
  6
CONTINUOUS
 62
   110
100
AcDbLine
 10
191.0
 20
126.333336
 30
0.0
 11
191.0
 21
124.333336
 31
0.0
  0
LINE
  5
2A3
100
AcDbEntity
  8
LY_3
390
0
  6
CONTINUOUS
 62
   110
100
AcDbLine
 10
190.0
 20
126.333336
 30
0.0
 11
190.0
 21
124.333336
 31
0.0
  0
LINE
  5
2A4
100
AcDbEntity
  8
LY_3
390
0
  6
CONTINUOUS
 62
   110
100
AcDbLine
 10
189.0
 20
126.333336
 30
0.0
 11
189.0
 21
124.333336
 31
0.0
  0
LINE
  5
2A5
100
AcDbEntity
  8
LY_3
390
0
  6
CONTINUOUS
 62
   110
100
AcDbLine
 10
188.0
 20
126.333336
 30
0.0
 11
188.0
 21
124.333336
 31
0.0
  0
LINE
  5
2A6
100
AcDbEntity
  8
LY_3
390
0
  6
CONTINUOUS
 62
   110
100
AcDbLine
 10
187.0
 20
126.333336
 30
0.0
 11
187.0
 21
123.333336
 31
0.0
  0
LINE
  5
2A7
100
AcDbEntity
  8
LY_3
390
0
  6
CONTINUOUS
 62
   110
100
AcDbLine
 10
186.0
 20
126.333336
 30
0.0
 11
186.0
 21
124.333336
 31
0.0
  0
LINE
  5
2A8
100
AcDbEntity
  8
LY_3
390
0
  6
CONTINUOUS
 62
   110
100
AcDbLine
 10
185.0
 20
126.333336
 30
0.0
 11
185.0
 21
124.333336
 31
0.0
  0
LINE
  5
2A9
100
AcDbEntity
  8
LY_3
390
0
  6
CONTINUOUS
 62
   110
100
AcDbLine
 10
183.0
 20
126.333336
 30
0.0
 11
183.0
 21
124.333336
 31
0.0
  0
LINE
  5
2AA
100
AcDbEntity
  8
LY_3
390
0
  6
CONTINUOUS
 62
   110
100
AcDbLine
 10
184.0
 20
126.333336
 30
0.0
 11
184.0
 21
124.333336
 31
0.0
  0
LINE
  5
2AB
100
AcDbEntity
  8
LY_3
390
0
  6
CONTINUOUS
 62
   110
100
AcDbLine
 10
182.0
 20
126.333336
 30
0.0
 11
182.0
 21
122.333336
 31
0.0
  0
LINE
  5
2AC
100
AcDbEntity
  8
LY_3
390
0
  6
CONTINUOUS
 62
   110
100
AcDbLine
 10
180.0
 20
126.333336
 30
0.0
 11
180.0
 21
124.333336
 31
0.0
  0
LINE
  5
2AD
100
AcDbEntity
  8
LY_3
390
0
  6
CONTINUOUS
 62
   110
100
AcDbLine
 10
181.0
 20
126.333336
 30
0.0
 11
181.0
 21
124.333336
 31
0.0
  0
LINE
  5
2AE
100
AcDbEntity
  8
LY_3
390
0
  6
CONTINUOUS
 62
   110
100
AcDbLine
 10
178.0
 20
126.333336
 30
0.0
 11
178.0
 21
124.333336
 31
0.0
  0
LINE
  5
2AF
100
AcDbEntity
  8
LY_3
390
0
  6
CONTINUOUS
 62
   110
100
AcDbLine
 10
179.0
 20
126.333336
 30
0.0
 11
179.0
 21
124.333336
 31
0.0
  0
LINE
  5
2B0
100
AcDbEntity
  8
LY_3
390
0
  6
CONTINUOUS
 62
   110
100
AcDbLine
 10
175.0
 20
126.333336
 30
0.0
 11
175.0
 21
124.333336
 31
0.0
  0
LINE
  5
2B1
100
AcDbEntity
  8
LY_3
390
0
  6
CONTINUOUS
 62
   110
100
AcDbLine
 10
176.0
 20
126.333336
 30
0.0
 11
176.0
 21
124.333336
 31
0.0
  0
LINE
  5
2B2
100
AcDbEntity
  8
LY_3
390
0
  6
CONTINUOUS
 62
   110
100
AcDbLine
 10
177.0
 20
126.333336
 30
0.0
 11
177.0
 21
123.333336
 31
0.0
  0
LINE
  5
2B3
100
AcDbEntity
  8
LY_3
390
0
  6
CONTINUOUS
 62
   110
100
AcDbLine
 10
174.0
 20
126.333336
 30
0.0
 11
174.0
 21
124.333336
 31
0.0
  0
LINE
  5
2B4
100
AcDbEntity
  8
LY_3
390
0
  6
CONTINUOUS
 62
   110
100
AcDbLine
 10
173.0
 20
126.333336
 30
0.0
 11
173.0
 21
124.333336
 31
0.0
  0
LINE
  5
2B5
100
AcDbEntity
  8
LY_3
390
0
  6
CONTINUOUS
 62
   110
100
AcDbLine
 10
172.0
 20
126.333336
 30
0.0
 11
172.0
 21
122.333336
 31
0.0
  0
LINE
  5
2B6
100
AcDbEntity
  8
LY_3
390
0
  6
CONTINUOUS
 62
     3
100
AcDbLine
 10
61.0
 20
133.333336
 30
0.0
 11
80.0
 21
133.333336
 31
0.0
  0
LINE
  5
2B7
100
AcDbEntity
  8
LY_3
390
0
  6
CONTINUOUS
 62
     3
100
AcDbLine
 10
61.0
 20
127.333336
 30
0.0
 11
80.0
 21
127.333336
 31
0.0
  0
LINE
  5
2B8
100
AcDbEntity
  8
LY_3
390
0
  6
CONTINUOUS
 62
     3
100
AcDbLine
 10
61.0
 20
134.333336
 30
0.0
 11
80.0
 21
134.333336
 31
0.0
  0
LINE
  5
2B9
100
AcDbEntity
  8
LY_3
390
0
  6
CONTINUOUS
 62
     3
100
AcDbLine
 10
122.699997
 20
143.033336
 30
0.0
 11
142.5
 21
143.033336
 31
0.0
  0
LINE
  5
2BA
100
AcDbEntity
  8
LY_3
390
0
  6
CENTER
 62
   110
100
AcDbLine
 10
58.0
 20
130.333336
 30
0.0
 11
124.012716
 21
130.333336
 31
0.0
  0
LINE
  5
2BB
100
AcDbEntity
  8
LY_3
390
0
  6
CONTINUOUS
 62
     3
100
AcDbLine
 10
152.0
 20
111.333336
 30
0.0
 11
221.0
 21
111.333336
 31
0.0
  0
LINE
  5
2BC
100
AcDbEntity
  8
LY_3
390
0
  6
CONTINUOUS
 62
     3
100
AcDbLine
 10
152.0
 20
149.333336
 30
0.0
 11
221.0
 21
149.333336
 31
0.0
  0
LINE
  5
2BD
100
AcDbEntity
  8
LY_3
390
0
  6
CONTINUOUS
 62
     3
100
AcDbLine
 10
122.699997
 20
117.633336
 30
0.0
 11
142.5
 21
117.633336
 31
0.0
  0
LINE
  5
2BE
100
AcDbEntity
  8
LY_3
390
0
  6
CENTER
 62
   110
100
AcDbLine
 10
104.887383
 20
100.983337
 30
0.0
 11
128.349998
 21
100.983337
 31
0.0
  0
LINE
  5
2BF
100
AcDbEntity
  8
LY_3
390
0
  6
CENTER
 62
   110
100
AcDbLine
 10
104.188202
 20
159.683334
 30
0.0
 11
128.193375
 21
159.683334
 31
0.0
  0
LINE
  5
2C0
100
AcDbEntity
  8
LY_3
390
0
  6
CONTINUOUS
 62
     3
100
AcDbLine
 10
122.699963
 20
96.48337
 30
0.0
 11
121.899962
 21
95.683372
 31
0.0
  0
LINE
  5
2C1
100
AcDbEntity
  8
LY_3
390
0
  6
CONTINUOUS
 62
     3
100
AcDbLine
 10
109.99999
 20
96.483339
 30
0.0
 11
110.799995
 21
95.683334
 31
0.0
  0
LINE
  5
2C2
100
AcDbEntity
  8
LY_3
390
0
  6
CONTINUOUS
 62
     3
100
AcDbLine
 10
110.800266
 20
164.983051
 30
0.0
 11
110.000276
 21
164.183052
 31
0.0
  0
LINE
  5
2C3
100
AcDbEntity
  8
LY_3
390
0
  6
CONTINUOUS
 62
     3
100
AcDbLine
 10
122.700023
 20
164.183369
 30
0.0
 11
121.900016
 21
164.983373
 31
0.0
  0
LINE
  5
2C4
100
AcDbEntity
  8
LY_3
390
0
  6
CONTINUOUS
 62
     3
100
AcDbLine
 10
122.699997
 20
164.183334
 30
0.0
 11
122.699997
 21
96.483372
 31
0.0
  0
LINE
  5
2C5
100
AcDbEntity
  8
LY_3
390
0
  6
CONTINUOUS
 62
     3
100
AcDbLine
 10
110.799995
 20
164.983337
 30
0.0
 11
121.899994
 21
164.983337
 31
0.0
  0
LINE
  5
2C6
100
AcDbEntity
  8
LY_3
390
0
  6
CONTINUOUS
 62
     3
100
AcDbLine
 10
110.799973
 20
95.683334
 30
0.0
 11
121.899994
 21
95.683334
 31
0.0
  0
LINE
  5
2C7
100
AcDbEntity
  8
LY_3
390
0
  6
CONTINUOUS
 62
     3
100
AcDbLine
 10
80.000007
 20
125.333351
 30
0.0
 11
81.000008
 21
124.33335
 31
0.0
  0
LINE
  5
2C8
100
AcDbEntity
  8
LY_3
390
0
  6
CONTINUOUS
 62
     3
100
AcDbLine
 10
80.000081
 20
135.333262
 30
0.0
 11
81.000084
 21
136.333261
 31
0.0
  0
LINE
  5
2C9
100
AcDbEntity
  8
LY_3
390
0
  6
CONTINUOUS
 62
     3
100
AcDbLine
 10
81.0
 20
124.333336
 30
0.0
 11
110.0
 21
124.333336
 31
0.0
  0
LINE
  5
2CA
100
AcDbEntity
  8
LY_3
390
0
  6
CONTINUOUS
 62
     3
100
AcDbLine
 10
61.0
 20
126.333336
 30
0.0
 11
80.0
 21
126.333336
 31
0.0
  0
LINE
  5
2CB
100
AcDbEntity
  8
LY_3
390
0
  6
CONTINUOUS
 62
     3
100
AcDbLine
 10
81.0
 20
136.333336
 30
0.0
 11
110.0
 21
136.333336
 31
0.0
  0
LINE
  5
2CC
100
AcDbEntity
  8
LY_3
390
0
  6
CONTINUOUS
 62
     3
100
AcDbLine
 10
80.0
 20
125.333336
 30
0.0
 11
80.0
 21
135.333336
 31
0.0
  0
LINE
  5
2CD
100
AcDbEntity
  8
LY_3
390
0
  6
CONTINUOUS
 62
     3
100
AcDbLine
 10
60.0
 20
133.333336
 30
0.0
 11
60.0
 21
127.333336
 31
0.0
  0
LINE
  5
2CE
100
AcDbEntity
  8
LY_3
390
0
  6
CONTINUOUS
 62
     3
100
AcDbLine
 10
2.675414
 20
-8.134413
 30
0.0
 11
3.914215
 21
-10.280077
 31
0.0
  0
LINE
  5
2CF
100
AcDbEntity
  8
LY_3
390
0
  6
CONTINUOUS
 62
     3
100
AcDbLine
 10
-3.914588
 20
-10.279873
 30
0.0
 11
-2.67578
 21
-8.134196
 31
0.0
  0
LINE
  5
2D0
100
AcDbEntity
  8
LY_3
390
0
  6
CONTINUOUS
 62
     3
100
AcDbLine
 10
-2.645752
 20
3.0
 30
0.0
 11
2.645752
 21
3.0
 31
0.0
  0
LINE
  5
2D1
100
AcDbEntity
  8
LY_3
390
0
  6
CENTER
 62
   110
100
AcDbLine
 10
11.591392
 20
-20.077246
 30
0.0
 11
17.99139
 21
-31.162366
 31
0.0
  0
LINE
  5
2D2
100
AcDbEntity
  8
LY_3
390
0
  6
CENTER
 62
   110
100
AcDbLine
 10
11.591369
 20
20.077167
 30
0.0
 11
17.991371
 21
31.162295
 31
0.0
  0
LINE
  5
2D3
100
AcDbEntity
  8
LY_3
390
0
  6
CENTER
 62
   110
100
AcDbLine
 10
-17.991692
 20
-31.162191
 30
0.0
 11
-11.591682
 21
-20.07705
 31
0.0
  0
LINE
  5
2D4
100
AcDbEntity
  8
LY_3
390
0
  6
CENTER
 62
   110
100
AcDbLine
 10
-17.933062
 20
31.060602
 30
0.0
 11
-11.533056
 21
19.975467
 31
0.0
  0
LINE
  5
2D5
100
AcDbEntity
  8
LY_3
390
0
  6
CENTER
 62
   110
100
AcDbLine
 10
54.149033
 20
0.0
 30
0.0
 11
268.023621
 21
0.0
 31
0.0
  0
LINE
  5
2D6
100
AcDbEntity
  8
LY_3
390
0
  6
CENTER
 62
   110
100
AcDbLine
 10
0.0
 20
37.650002
 30
0.0
 11
0.0
 21
-37.650002
 31
0.0
  0
LINE
  5
2D7
100
AcDbEntity
  8
LY_3
390
0
  6
CONTINUOUS
 62
     3
100
AcDbLine
 10
203.0
 20
134.333336
 30
0.0
 11
203.0
 21
126.333336
 31
0.0
  0
LINE
  5
2D8
100
AcDbEntity
  8
LY_3
390
0
  6
CONTINUOUS
 62
     3
100
AcDbLine
 10
201.0
 20
134.333336
 30
0.0
 11
201.0
 21
126.333336
 31
0.0
  0
LINE
  5
2D9
100
AcDbEntity
  8
LY_3
390
0
  6
CONTINUOUS
 62
     3
100
AcDbLine
 10
152.0
 20
-19.0
 30
0.0
 11
221.000008
 21
-19.0
 31
0.0
  0
LINE
  5
2DA
100
AcDbEntity
  8
LY_3
390
0
  6
CONTINUOUS
 62
     3
100
AcDbLine
 10
152.0
 20
19.0
 30
0.0
 11
221.000008
 21
19.0
 31
0.0
  0
LINE
  5
2DB
100
AcDbEntity
  8
LY_3
390
0
  6
CONTINUOUS
 62
     3
100
AcDbLine
 10
120.300003
 20
11.0
 30
0.0
 11
126.300003
 21
11.0
 31
0.0
  0
LINE
  5
2DC
100
AcDbEntity
  8
LY_3
390
0
  6
CONTINUOUS
 62
     3
100
AcDbLine
 10
126.300003
 20
11.0
 30
0.0
 11
126.300003
 21
6.0
 31
0.0
  0
LINE
  5
2DD
100
AcDbEntity
  8
LY_3
390
0
  6
CONTINUOUS
 62
     3
100
AcDbLine
 10
126.300003
 20
-9.0
 30
0.0
 11
153.0
 21
-9.0
 31
0.0
  0
LINE
  5
2DE
100
AcDbEntity
  8
LY_3
390
0
  6
CONTINUOUS
 62
     3
100
AcDbLine
 10
115.300003
 20
11.0
 30
0.0
 11
119.300003
 21
11.0
 31
0.0
  0
LINE
  5
2DF
100
AcDbEntity
  8
LY_3
390
0
  6
CONTINUOUS
 62
     3
100
AcDbLine
 10
126.300003
 20
9.0
 30
0.0
 11
153.0
 21
9.0
 31
0.0
  0
LINE
  5
2E0
100
AcDbEntity
  8
LY_3
390
0
  6
CONTINUOUS
 62
   110
100
AcDbLine
 10
115.300003
 20
-6.0
 30
0.0
 11
115.300003
 21
-11.0
 31
0.0
  0
LINE
  5
2E1
100
AcDbEntity
  8
LY_3
390
0
  6
CONTINUOUS
 62
   110
100
AcDbLine
 10
113.300003
 20
-6.0
 30
0.0
 11
113.300003
 21
-12.0
 31
0.0
  0
LINE
  5
2E2
100
AcDbEntity
  8
LY_3
390
0
  6
CONTINUOUS
 62
   110
100
AcDbLine
 10
111.199997
 20
-6.0
 30
0.0
 11
111.199997
 21
-12.849998
 31
0.0
  0
LINE
  5
2E3
100
AcDbEntity
  8
LY_3
390
0
  6
CONTINUOUS
 62
   110
100
AcDbLine
 10
110.599998
 20
-6.0
 30
0.0
 11
110.599998
 21
-20.949997
 31
0.0
  0
LINE
  5
2E4
100
AcDbEntity
  8
LY_3
390
0
  6
CONTINUOUS
 62
     3
100
AcDbLine
 10
110.599994
 20
20.94998
 30
0.0
 11
111.199997
 21
20.897487
 31
0.0
  0
LINE
  5
2E5
100
AcDbEntity
  8
LY_3
390
0
  6
CONTINUOUS
 62
     3
100
AcDbLine
 10
110.599974
 20
20.950018
 30
0.0
 11
111.642565
 21
23.814505
 31
0.0
  0
LINE
  5
2E6
100
AcDbEntity
  8
LY_3
390
0
  6
CONTINUOUS
 62
     3
100
AcDbLine
 10
110.60004
 20
-20.950009
 30
0.0
 11
111.642628
 21
-23.814505
 31
0.0
  0
LINE
  5
2E7
100
AcDbEntity
  8
LY_3
390
0
  6
CONTINUOUS
 62
     3
100
AcDbLine
 10
110.6
 20
-20.950035
 30
0.0
 11
111.200003
 21
-20.897542
 31
0.0
  0
LINE
  5
2E8
100
AcDbEntity
  8
LY_3
390
0
  6
CONTINUOUS
 62
   110
100
AcDbLine
 10
115.300003
 20
11.0
 30
0.0
 11
115.300003
 21
6.0
 31
0.0
  0
LINE
  5
2E9
100
AcDbEntity
  8
LY_3
390
0
  6
CONTINUOUS
 62
     3
100
AcDbLine
 10
113.300003
 20
-12.0
 30
0.0
 11
113.300003
 21
-12.849998
 31
0.0
  0
LINE
  5
2EA
100
AcDbEntity
  8
LY_3
390
0
  6
CONTINUOUS
 62
   110
100
AcDbLine
 10
113.300003
 20
12.0
 30
0.0
 11
113.300003
 21
6.0
 31
0.0
  0
LINE
  5
2EB
100
AcDbEntity
  8
LY_3
390
0
  6
CONTINUOUS
 62
     3
100
AcDbLine
 10
111.199997
 20
-12.849998
 30
0.0
 11
111.199997
 21
-20.897507
 31
0.0
  0
LINE
  5
2EC
100
AcDbEntity
  8
LY_3
390
0
  6
CONTINUOUS
 62
     3
100
AcDbLine
 10
110.0
 20
33.849957
 30
0.0
 11
110.0
 21
6.0
 31
0.0
  0
LINE
  5
2ED
100
AcDbEntity
  8
LY_3
390
0
  6
CENTER
 62
   110
100
AcDbLine
 10
104.887383
 20
-29.349998
 30
0.0
 11
128.349998
 21
-29.349998
 31
0.0
  0
LINE
  5
2EE
100
AcDbEntity
  8
LY_3
390
0
  6
CENTER
 62
   110
100
AcDbLine
 10
104.188202
 20
29.349998
 30
0.0
 11
128.193375
 21
29.349998
 31
0.0
  0
LINE
  5
2EF
100
AcDbEntity
  8
LY_3
390
0
  6
CONTINUOUS
 62
     3
100
AcDbLine
 10
115.300003
 20
-12.849998
 30
0.0
 11
122.699997
 21
-12.849998
 31
0.0
  0
LINE
  5
2F0
100
AcDbEntity
  8
LY_3
390
0
  6
CONTINUOUS
 62
     3
100
AcDbLine
 10
115.300003
 20
12.849998
 30
0.0
 11
122.699997
 21
12.849998
 31
0.0
  0
LINE
  5
2F1
100
AcDbEntity
  8
LY_3
390
0
  6
CONTINUOUS
 62
     3
100
AcDbLine
 10
113.300003
 20
12.849998
 30
0.0
 11
113.300003
 21
12.0
 31
0.0
  0
LINE
  5
2F2
100
AcDbEntity
  8
LY_3
390
0
  6
CONTINUOUS
 62
     3
100
AcDbLine
 10
113.300003
 20
-12.0
 30
0.0
 11
115.300003
 21
-12.0
 31
0.0
  0
LINE
  5
2F3
100
AcDbEntity
  8
LY_3
390
0
  6
CONTINUOUS
 62
     3
100
AcDbLine
 10
113.300003
 20
12.0
 30
0.0
 11
115.300003
 21
12.0
 31
0.0
  0
LINE
  5
2F4
100
AcDbEntity
  8
LY_3
390
0
  6
CONTINUOUS
 62
     3
100
AcDbLine
 10
111.199997
 20
-12.849998
 30
0.0
 11
113.300003
 21
-12.849998
 31
0.0
  0
LINE
  5
2F5
100
AcDbEntity
  8
LY_3
390
0
  6
CONTINUOUS
 62
     3
100
AcDbLine
 10
111.199997
 20
12.849998
 30
0.0
 11
113.300003
 21
12.849998
 31
0.0
  0
LINE
  5
2F6
100
AcDbEntity
  8
LY_3
390
0
  6
CONTINUOUS
 62
     3
100
AcDbLine
 10
122.70002
 20
-33.850018
 30
0.0
 11
121.900013
 21
-34.650021
 31
0.0
  0
LINE
  5
2F7
100
AcDbEntity
  8
LY_3
390
0
  6
CONTINUOUS
 62
     3
100
AcDbLine
 10
110.00006
 20
-33.849939
 30
0.0
 11
110.80006
 21
-34.649938
 31
0.0
  0
LINE
  5
2F8
100
AcDbEntity
  8
LY_3
390
0
  6
CONTINUOUS
 62
     3
100
AcDbLine
 10
110.800063
 20
34.649938
 30
0.0
 11
110.000062
 21
33.849929
 31
0.0
  0
LINE
  5
2F9
100
AcDbEntity
  8
LY_3
390
0
  6
CONTINUOUS
 62
     3
100
AcDbLine
 10
122.699965
 20
33.84995
 30
0.0
 11
121.899963
 21
34.649948
 31
0.0
  0
LINE
  5
2FA
100
AcDbEntity
  8
LY_3
390
0
  6
CONTINUOUS
 62
     3
100
AcDbLine
 10
110.0
 20
32.75
 30
0.0
 11
122.699997
 21
32.75
 31
0.0
  0
LINE
  5
2FB
100
AcDbEntity
  8
LY_3
390
0
  6
CONTINUOUS
 62
     3
100
AcDbLine
 10
110.0
 20
25.949997
 30
0.0
 11
122.699997
 21
25.949997
 31
0.0
  0
LINE
  5
2FC
100
AcDbEntity
  8
LY_3
390
0
  6
CONTINUOUS
 62
     3
100
AcDbLine
 10
111.199997
 20
20.897507
 30
0.0
 11
111.199997
 21
6.0
 31
0.0
  0
LINE
  5
2FD
100
AcDbEntity
  8
LY_3
390
0
  6
CONTINUOUS
 62
   110
100
AcDbLine
 10
110.599998
 20
20.949997
 30
0.0
 11
110.599998
 21
6.0
 31
0.0
  0
LINE
  5
2FE
100
AcDbEntity
  8
LY_3
390
0
  6
CONTINUOUS
 62
     3
100
AcDbLine
 10
122.699997
 20
33.850002
 30
0.0
 11
122.699997
 21
12.700002
 31
0.0
  0
LINE
  5
2FF
100
AcDbEntity
  8
LY_3
390
0
  6
CONTINUOUS
 62
     3
100
AcDbLine
 10
110.0
 20
-24.150002
 30
0.0
 11
111.407669
 21
-24.150002
 31
0.0
  0
LINE
  5
300
100
AcDbEntity
  8
LY_3
390
0
  6
CONTINUOUS
 62
     3
100
AcDbLine
 10
110.0
 20
24.150002
 30
0.0
 11
111.407669
 21
24.150002
 31
0.0
  0
LINE
  5
301
100
AcDbEntity
  8
LY_3
390
0
  6
CONTINUOUS
 62
     3
100
AcDbLine
 10
110.799995
 20
34.650002
 30
0.0
 11
121.899994
 21
34.650002
 31
0.0
  0
LINE
  5
302
100
AcDbEntity
  8
LY_3
390
0
  6
CONTINUOUS
 62
     3
100
AcDbLine
 10
110.799973
 20
-34.650002
 30
0.0
 11
121.899994
 21
-34.650002
 31
0.0
  0
LINE
  5
303
100
AcDbEntity
  8
LY_3
390
0
  6
CONTINUOUS
 62
     3
100
AcDbLine
 10
80.000058
 20
-4.999956
 30
0.0
 11
81.000059
 21
-5.999957
 31
0.0
  0
LINE
  5
304
100
AcDbEntity
  8
LY_3
390
0
  6
CONTINUOUS
 62
     3
100
AcDbLine
 10
80.00003
 20
4.999977
 30
0.0
 11
81.000033
 21
5.999976
 31
0.0
  0
LINE
  5
305
100
AcDbEntity
  8
LY_3
390
0
  6
CONTINUOUS
 62
     3
100
AcDbLine
 10
81.0
 20
-6.0
 30
0.0
 11
164.342247
 21
-6.0
 31
0.0
  0
LINE
  5
306
100
AcDbEntity
  8
LY_3
390
0
  6
CONTINUOUS
 62
     3
100
AcDbLine
 10
61.0
 20
-4.0
 30
0.0
 11
80.0
 21
-4.0
 31
0.0
  0
LINE
  5
307
100
AcDbEntity
  8
LY_3
390
0
  6
CONTINUOUS
 62
     3
100
AcDbLine
 10
81.0
 20
6.0
 30
0.0
 11
165.438179
 21
6.0
 31
0.0
  0
LINE
  5
308
100
AcDbEntity
  8
LY_3
390
0
  6
CONTINUOUS
 62
     3
100
AcDbLine
 10
60.0
 20
3.0
 30
0.0
 11
80.0
 21
3.0
 31
0.0
  0
LINE
  5
309
100
AcDbEntity
  8
LY_3
390
0
  6
CONTINUOUS
 62
     3
100
AcDbLine
 10
80.0
 20
-5.0
 30
0.0
 11
80.0
 21
5.0
 31
0.0
  0
LINE
  5
30A
100
AcDbEntity
  8
LY_3
390
0
  6
CONTINUOUS
 62
     3
100
AcDbLine
 10
60.0
 20
3.0
 30
0.0
 11
60.0
 21
-3.0
 31
0.0
  0
LINE
  5
30B
100
AcDbEntity
  8
LY_3
390
0
  6
CENTER
 62
   110
100
AcDbLine
 10
-37.649994
 20
0.0
 30
0.0
 11
37.649994
 21
0.0
 31
0.0
  0
ENDSEC
  0
SECTION
  2
OBJECTS
  0
DICTIONARY
  5
19
100
AcDbDictionary
280
     0
281
     1
  3
ACAD_GROUP
350
1A
  3
ACAD_MLINESTYLE
350
1B
  3
ACAD_LAYOUT
350
1E
  3
ACAD_PLOTSETTINGS
350
22
  3
ACAD_PLOTSTYLENAME
350
1F
  0
DICTIONARY
  5
1A
102
{ACAD_REACTORS
330
19
102
}
100
AcDbDictionary
280
     0
281
     1
  0
DICTIONARY
  5
1B
102
{ACAD_REACTORS
330
19
102
}
100
AcDbDictionary
280
     0
281
     1
  3
Standard
350
1C
  0
MLINESTYLE
  5
1C
102
{ACAD_REACTORS
330
1B
102
}
100
AcDbMlineStyle
  2
Standard
 70
     0
  3

 62
     0
 51
90.0
 52
90.0
 71
     2
 49
0.5
 62
   256
  6
ByLayer
 49
-0.5
 62
   256
  6
ByLayer
  0
ACDBDICTIONARYWDFLT
  5
1F
102
{ACAD_REACTORS
330
19
102
}
100
AcDbDictionary
281
     1
  3
Normal
350
1D
100
AcDbDictionaryWithDefault
340
1D
  0
ACDBPLACEHOLDER
  5
1D
102
{ACAD_REACTORS
330
1F
102
}
  0
LAYOUT
  5
20
102
{ACAD_REACTORS
330
1E
102
}
100
AcDbPlotSettings
  1

  2

  4

  6

 40
0.0
 41
0.0
 42
0.0
 43
0.0
 44
0.0
 45
0.0
 46
0.0
 47
0.0
 48
0.0
 49
0.0
140
0.0
141
0.0
142
1.0
143
1.0
 70
  1024
 72
     0
 73
     0
 74
     0
  7

 75
     0
147
1.0
148
0.0
149
0.0
100
AcDbLayout
  1
Model
 70
     0
 71
     0
 10
0.0
 20
0.0
 11
0.0
 21
0.0
 12
0.0
 22
0.0
 32
0.0
 14
0.0
 24
0.0
 34
0.0
 15
0.0
 25
0.0
 35
0.0
146
0.0
 13
0.0
 23
0.0
 33
0.0
 16
0.0
 26
0.0
 36
0.0
 17
0.0
 27
0.0
 37
0.0
 76
     0
330
A
331
0
345
0
346
0
  0
LAYOUT
  5
21
102
{ACAD_REACTORS
330
1E
102
}
100
AcDbPlotSettings
  1

  2

  4

  6

 40
0.0
 41
0.0
 42
0.0
 43
0.0
 44
0.0
 45
0.0
 46
0.0
 47
0.0
 48
0.0
 49
0.0
140
0.0
141
0.0
142
1.0
143
1.0
 70
     0
 72
     0
 73
     0
 74
     0
  7

 75
     0
147
1.0
148
0.0
149
0.0
100
AcDbLayout
  1
Layout1
 70
     0
 71
     0
 10
0.0
 20
0.0
 11
0.0
 21
0.0
 12
0.0
 22
0.0
 32
0.0
 14
0.0
 24
0.0
 34
0.0
 15
0.0
 25
0.0
 35
0.0
146
0.0
 13
0.0
 23
0.0
 33
0.0
 16
0.0
 26
0.0
 36
0.0
 17
0.0
 27
0.0
 37
0.0
 76
     0
330
B
331
0
345
0
346
0
  0
DICTIONARY
  5
1E
102
{ACAD_REACTORS
330
19
102
}
100
AcDbDictionary
280
     0
281
     1
  3
Layout1
350
21
  3
Model
350
20
  0
DICTIONARY
  5
22
102
{ACAD_REACTORS
330
19
102
}
100
AcDbDictionary
280
     0
281
     1
  0
ENDSEC
  0
EOF
