  0
SECTION
  2
HEADER
  9
$ACADVER
  1
AC1009
  9
$DWGCODEPAGE
  3
dos932
  9
$INSBASE
 10
0.0
 20
0.0
 30
0.0
  9
$EXTMIN
 10
-40.0
 20
-121.0
 30
0.0
  9
$EXTMAX
 10
481.0
 20
78.800000190734863
 30
0.0
  9
$LIMMIN
 10
-419.0
 20
-293.74999999999994
  9
$LIMMAX
 10
418.0
 20
296.24999999999994
  9
$ORTHOMODE
 70
               0
  9
$REGENMODE
 70
               1
  9
$FILLMODE
 70
               1
  9
$QTEXTMODE
 70
               0
  9
$MIRRTEXT
 70
               1
  9
$DRAGMODE
 70
               2
  9
$LTSCALE
 40
1.0
  9
$OSMODE
 70
               0
  9
$ATTMODE
 70
               1
  9
$TEXTSIZE
 40
3.2000000476837158
  9
$TRACEWID
 40
0.05
  9
$TEXTSTYLE
  7
MX_NOTE_STANDARD
  9
$CLAYER
  8
LY_1
  9
$CELTYPE
  6
CONTINUOUS
  9
$CECOLOR
 62
             256
  9
$DIMSCALE
 40
1.0
  9
$DIMASZ
 40
2.5
  9
$DIMEXO
 40
2.0
  9
$DIMDLI
 40
3.75
  9
$DIMRND
 40
0.0
  9
$DIMDLE
 40
0.0
  9
$DIMEXE
 40
1.0
  9
$DIMTP
 40
0.0
  9
$DIMTM
 40
0.0
  9
$DIMTXT
 40
4.1655998229980469
  9
$DIMCEN
 40
2.5
  9
$DIMTSZ
 40
0.0
  9
$DIMTOL
 70
               0
  9
$DIMLIM
 70
               0
  9
$DIMTIH
 70
               0
  9
$DIMTOH
 70
               0
  9
$DIMSE1
 70
               0
  9
$DIMSE2
 70
               0
  9
$DIMTAD
 70
               1
  9
$DIMZIN
 70
               8
  9
$DIMBLK
  1

  9
$DIMASO
 70
               1
  9
$DIMSHO
 70
               1
  9
$DIMPOST
  1

  9
$DIMAPOST
  1

  9
$DIMALT
 70
               0
  9
$DIMALTD
 70
               4
  9
$DIMALTF
 40
0.03937007874016
  9
$DIMLFAC
 40
1.0
  9
$DIMTOFL
 70
               1
  9
$DIMTVP
 40
0.0
  9
$DIMTIX
 70
               0
  9
$DIMSOXD
 70
               0
  9
$DIMSAH
 70
               1
  9
$DIMBLK1
  1
_OPEN30
  9
$DIMBLK2
  1
_OPEN30
  9
$DIMSTYLE
  2
MXDIMSTYLE
  9
$DIMCLRD
 70
               0
  9
$DIMCLRE
 70
               0
  9
$DIMCLRT
 70
               0
  9
$DIMTFAC
 40
1.0
  9
$DIMGAP
 40
1.0
  9
$LUNITS
 70
               2
  9
$LUPREC
 70
               4
  9
$AXISMODE
 70
               0
  9
$AXISUNIT
 10
0.0
 20
0.0
  9
$SKETCHINC
 40
0.1
  9
$FILLETRAD
 40
0.0
  9
$AUNITS
 70
               0
  9
$AUPREC
 70
               0
  9
$MENU
  1
acad
  9
$ELEVATION
 40
0.0
  9
$PELEVATION
 40
0.0
  9
$THICKNESS
 40
0.0
  9
$LIMCHECK
 70
               0
  9
$BLIPMODE
 70
               1
  9
$CHAMFERA
 40
0.0
  9
$CHAMFERB
 40
0.0
  9
$SKPOLY
 70
               0
  9
$TDCREATE
 40
2455216.477395834
  9
$TDUPDATE
 40
2455216.477395834
  9
$TDINDWG
 40
0.0000000000
  9
$TDUSRTIMER
 40
0.0000000000
  9
$USRTIMER
 70
               1
  9
$ANGBASE
 50
0.0
  9
$ANGDIR
 70
               0
  9
$PDMODE
 70
               0
  9
$PDSIZE
 40
0.0
  9
$PLINEWID
 40
0.0
  9
$COORDS
 70
               1
  9
$SPLFRAME
 70
               0
  9
$SPLINETYPE
 70
               6
  9
$SPLINESEGS
 70
               8
  9
$ATTDIA
 70
               0
  9
$ATTREQ
 70
               1
  9
$HANDLING
 70
               1
  9
$HANDSEED
  5
25C
  9
$SURFTAB1
 70
               6
  9
$SURFTAB2
 70
               6
  9
$SURFTYPE
 70
               6
  9
$SURFU
 70
               6
  9
$SURFV
 70
               6
  9
$UCSNAME
  2

  9
$UCSORG
 10
0.0
 20
0.0
 30
0.0
  9
$UCSXDIR
 10
1.0
 20
0.0
 30
0.0
  9
$UCSYDIR
 10
0.0
 20
1.0
 30
0.0
  9
$PUCSNAME
  2

  9
$PUCSORG
 10
0.0
 20
0.0
 30
0.0
  9
$PUCSXDIR
 10
1.0
 20
0.0
 30
0.0
  9
$PUCSYDIR
 10
0.0
 20
1.0
 30
0.0
  9
$USERI1
 70
               0
  9
$USERI2
 70
               0
  9
$USERI3
 70
               0
  9
$USERI4
 70
               0
  9
$USERI5
 70
               0
  9
$USERR1
 40
0.0
  9
$USERR2
 40
0.0
  9
$USERR3
 40
0.0
  9
$USERR4
 40
0.0
  9
$USERR5
 40
0.0
  9
$WORLDVIEW
 70
               1
  9
$SHADEDGE
 70
               3
  9
$SHADEDIF
 70
              70
  9
$TILEMODE
 70
               1
  9
$MAXACTVP
 70
              16
  9
$PINSBASE
 10
0.0
 20
0.0
 30
0.0
  9
$PLIMCHECK
 70
               0
  9
$PEXTMIN
 10
1.0000000000000000E+20
 20
1.0000000000000000E+20
 30
1.0000000000000000E+20
  9
$PEXTMAX
 10
-1.0000000000000000E+20
 20
-1.0000000000000000E+20
 30
-1.0000000000000000E+20
  9
$PLIMMIN
 10
0.0
 20
0.0
  9
$PLIMMAX
 10
12.0
 20
9.0
  9
$UNITMODE
 70
               0
  9
$VISRETAIN
 70
               0
  9
$PLINEGEN
 70
               1
  9
$PSLTSCALE
 70
               0
  9
$TREEDEPTH
 70
            3020
  0
ENDSEC
  0
SECTION
  2
TABLES
  0
TABLE
  2
VPORT
 70
               1
  0
VPORT
  2
*ACTIVE
 70
               0
 10
0.0
 20
0.0
 11
1.0
 21
1.0
 12
-0.5
 22
1.25
 13
0.0
 23
0.0
 14
1.0
 24
1.0
 15
0.0
 25
0.0
 16
0.0
 26
0.0
 36
1.0
 17
0.0
 27
0.0
 37
0.0
 40
595.89999999999986
 41
1.7320508075688772
 42
50.0
 43
0.0
 44
0.0
 50
0.0
 51
0.0
 71
               0
 72
             100
 73
               1
 74
               1
 75
               0
 76
               0
 77
               0
 78
               0
  0
ENDTAB
  0
TABLE
  2
LTYPE
 70
               3
  0
LTYPE
  2
CONTINUOUS
 70
              64
  3
Solid line
 72
              65
 73
               0
 40
0.0
  0
LTYPE
  2
DASHED
 70
              64
  3
Dashed __ __ __ __ __ __ __ __ __ __ __ __ __ _
 72
              65
 73
               2
 40
19.049999999999997
 49
12.699999999999999
 49
-6.3499999999999996
  0
LTYPE
  2
CENTER
 70
              64
  3
Center ____ _ ____ _ ____ _ ____ _ ____ _ ____
 72
              65
 73
               4
 40
50.800000000000004
 49
31.75
 49
-6.3499999999999996
 49
6.3499999999999996
 49
-6.3499999999999996
  0
ENDTAB
  0
TABLE
  2
LAYER
 70
               3
  0
LAYER
  2
0
 70
               0
 62
               7
  6
CONTINUOUS
  0
LAYER
  2
LY_1
 70
               0
 62
               7
  6
CONTINUOUS
  0
LAYER
  2
DEFPOINTS
 70
               0
 62
               7
  6
CONTINUOUS
  0
ENDTAB
  0
TABLE
  2
STYLE
 70
               3
  0
STYLE
  2
MX_NOTE_STANDARD
 70
               0
 40
0.0
 41
1.0
 50
0.0
 71
               0
 42
3.2000000476837158
  3
txt.shx
  4
extfont.shx
  0
STYLE
  2
MX_DIMTXSTY_2
 70
               0
 40
0.0
 41
0.8500000000000001
 50
0.0
 71
               0
 42
3.2000000476837158
  3
txt.shx
  4
extfont.shx
  0
STYLE
  2
MX_DIMTXSTY_3
 70
               0
 40
0.0
 41
1.05
 50
0.0
 71
               0
 42
3.2000000476837158
  3
txt.shx
  4
extfont.shx
  0
ENDTAB
  0
TABLE
  2
VIEW
 70
               0
  0
ENDTAB
  0
TABLE
  2
UCS
 70
               0
  0
ENDTAB
  0
TABLE
  2
APPID
 70
               1
  0
APPID
  2
ACAD
 70
               0
  0
ENDTAB
  0
TABLE
  2
DIMSTYLE
 70
               1
  0
DIMSTYLE
  2
MXDIMSTYLE
 70
               0
  3

  4

  5

  6
_OPEN30
  7
_OPEN30
 40
1.0
 41
2.5
 42
2.0
 43
3.75
 44
1.0
 45
0.0
 46
0.0
 47
0.0
 48
0.0
 71
               0
 72
               0
 73
               0
 74
               0
 75
               0
 76
               0
 77
               1
 78
               8
140
4.1655998229980469
141
2.5
142
0.0
143
0.03937007874016
144
1.0
145
0.0
146
1.0
147
1.0
170
               0
171
               4
172
               1
173
               1
174
               0
175
               0
176
               0
177
               0
178
               0
  0
ENDTAB
  0
ENDSEC
  0
SECTION
  2
BLOCKS
  0
BLOCK
  8
0
  6
BYBLOCK
 62
               0
  5
20
  2
_OPEN30
 70
               2
 10
0.0
 20
0.0
 30
0.0
  3
_OPEN30
  0
LINE
  8
0
  6
BYBLOCK
 62
               0
  5
21
 10
-1.0
 20
0.267949
 30
0.0
 11
0.0
 21
0.0
 31
0.0
  0
LINE
  8
0
  6
BYBLOCK
 62
               0
  5
22
 10
0.0
 20
0.0
 30
0.0
 11
-1.0
 21
-0.267949
 31
0.0
  0
LINE
  8
0
  6
BYBLOCK
 62
               0
  5
23
 10
0.0
 20
0.0
 30
0.0
 11
-1.0
 21
0.0
 31
0.0
  0
ENDBLK
  8
0
  6
BYBLOCK
 62
               0
  5
24
  0
BLOCK
  8
0
  6
BYBLOCK
 62
               0
  5
26
  2
*D1
 70
               1
 10
0.0
 20
0.0
 30
0.0
  3
*D1
  0
LINE
  8
0
  6
CONTINUOUS
 62
             110
  5
27
 10
-4.0
 20
60.0
 30
0.0
 11
4.0
 21
60.0
 31
0.0
  0
LINE
  8
0
  6
CONTINUOUS
 62
             110
  5
28
 10
4.0
 20
60.0
 30
0.0
 11
26.903974533081055
 21
60.0
 31
0.0
  0
LINE
  8
0
  6
CONTINUOUS
 62
             110
  5
29
 10
-4.0
 20
2.0
 30
0.0
 11
-4.0
 21
61.0
 31
0.0
  0
LINE
  8
0
  6
CONTINUOUS
 62
             110
  5
2A
 10
4.0
 20
2.0
 30
0.0
 11
4.0
 21
61.0
 31
0.0
  0
LINE
  8
0
  6
CONTINUOUS
 62
             110
  5
2B
 10
-4.0
 20
60.0
 30
0.0
 11
-10.349999904632568
 21
60.0
 31
0.0
  0
LINE
  8
0
  6
CONTINUOUS
 62
             110
  5
2C
 10
4.0
 20
60.0
 30
0.0
 11
10.349999904632568
 21
60.0
 31
0.0
  0
INSERT
  8
0
  6
CONTINUOUS
 62
             110
  5
2D
  2
_OPEN30
 10
-4.0
 20
60.0
 30
0.0
 41
2.77
 42
2.77
 43
2.77
  0
INSERT
  8
0
  6
CONTINUOUS
 62
             110
  5
2E
  2
_OPEN30
 10
4.0
 20
60.0
 30
0.0
 41
2.77
 42
2.77
 50
180.0
 43
2.77
  0
TEXT
  8
0
  6
CONTINUOUS
 62
             110
  5
30
 10
8.2843924697132838
 20
61.0
 30
0.0
 40
5.1999998092651367
  1
%%c8ｈ7
 41
1.0158668872220395
  7
MX_DIMTXSTY_2
 11
8.2843924697132838
 21
63.599999904632568
 31
0.0
 73
               2
  0
POINT
  8
DEFPOINTS
  6
CONTINUOUS
 62
               0
  5
31
 10
-4.0
 20
0.0
 30
0.0
  0
POINT
  8
DEFPOINTS
  6
CONTINUOUS
 62
               0
  5
32
 10
4.0
 20
0.0
 30
0.0
  0
POINT
  8
DEFPOINTS
  6
CONTINUOUS
 62
               0
  5
33
 10
4.0
 20
60.0
 30
0.0
  0
ENDBLK
  8
0
  6
BYBLOCK
 62
               0
  5
34
  0
BLOCK
  8
0
  6
BYBLOCK
 62
               0
  5
37
  2
*D2
 70
               1
 10
0.0
 20
0.0
 30
0.0
  3
*D2
  0
LINE
  8
0
  6
CONTINUOUS
 62
             110
  5
38
 10
90.0
 20
-6.0
 30
0.0
 11
90.0
 21
6.0
 31
0.0
  0
LINE
  8
0
  6
CONTINUOUS
 62
             110
  5
39
 10
90.0
 20
6.0
 30
0.0
 11
90.0
 21
35.430988311767578
 31
0.0
  0
LINE
  8
0
  6
CONTINUOUS
 62
             110
  5
3A
 10
90.0
 20
-6.0
 30
0.0
 11
90.0
 21
-12.349999904632568
 31
0.0
  0
LINE
  8
0
  6
CONTINUOUS
 62
             110
  5
3B
 10
90.0
 20
6.0
 30
0.0
 11
90.0
 21
12.349999904632568
 31
0.0
  0
INSERT
  8
0
  6
CONTINUOUS
 62
             110
  5
3C
  2
_OPEN30
 10
90.0
 20
-6.0
 30
0.0
 41
2.77
 42
2.77
 50
90.0
 43
2.77
  0
INSERT
  8
0
  6
CONTINUOUS
 62
             110
  5
3D
  2
_OPEN30
 10
90.0
 20
6.0
 30
0.0
 41
2.77
 42
2.77
 50
270.0
 43
2.77
  0
TEXT
  8
0
  6
CONTINUOUS
 62
             110
  5
3E
 10
89.0
 20
11.866943615755467
 30
0.0
 40
5.1999998092651367
  1
%%c12ｇ6
 50
90.0
 41
0.9357176927694837
  7
MX_NOTE_STANDARD
 11
86.400000095367432
 21
11.866943615755467
 31
0.0
 73
               2
  0
POINT
  8
DEFPOINTS
  6
CONTINUOUS
 62
               0
  5
3F
 10
110.0
 20
-6.0
 30
0.0
  0
POINT
  8
DEFPOINTS
  6
CONTINUOUS
 62
               0
  5
40
 10
110.0
 20
6.0
 30
0.0
  0
POINT
  8
DEFPOINTS
  6
CONTINUOUS
 62
               0
  5
41
 10
90.0
 20
6.0
 30
0.0
  0
ENDBLK
  8
0
  6
BYBLOCK
 62
               0
  5
42
  0
BLOCK
  8
0
  6
BYBLOCK
 62
               0
  5
45
  2
*D3
 70
               1
 10
0.0
 20
0.0
 30
0.0
  3
*D3
  0
LINE
  8
0
  6
CONTINUOUS
 62
             110
  5
46
 10
80.0
 20
-30.0
 30
0.0
 11
60.0
 21
-30.0
 31
0.0
  0
LINE
  8
0
  6
CONTINUOUS
 62
             110
  5
47
 10
80.0
 20
-2.0
 30
0.0
 11
80.0
 21
-31.0
 31
0.0
  0
LINE
  8
0
  6
CONTINUOUS
 62
             110
  5
48
 10
60.0
 20
-5.0
 30
0.0
 11
60.0
 21
-31.0
 31
0.0
  0
INSERT
  8
0
  6
CONTINUOUS
 62
             110
  5
49
  2
_OPEN30
 10
80.0
 20
-30.0
 30
0.0
 41
2.77
 42
2.77
 43
2.77
  0
INSERT
  8
0
  6
CONTINUOUS
 62
             110
  5
4A
  2
_OPEN30
 10
60.0
 20
-30.0
 30
0.0
 41
2.77
 42
2.77
 50
180.0
 43
2.77
  0
TEXT
  8
0
  6
CONTINUOUS
 62
             110
  5
4B
 10
66.01136364596934
 20
-29.0
 30
0.0
 40
5.1999998092651367
  1
20
 41
1.0227273213241959
  7
MX_NOTE_STANDARD
 11
66.01136364596934
 21
-26.400000095367432
 31
0.0
 73
               2
  0
POINT
  8
DEFPOINTS
  6
CONTINUOUS
 62
               0
  5
4C
 10
80.0
 20
0.0
 30
0.0
  0
POINT
  8
DEFPOINTS
  6
CONTINUOUS
 62
               0
  5
4D
 10
60.0
 20
-3.0
 30
0.0
  0
POINT
  8
DEFPOINTS
  6
CONTINUOUS
 62
               0
  5
4E
 10
60.0
 20
-30.0
 30
0.0
  0
ENDBLK
  8
0
  6
BYBLOCK
 62
               0
  5
4F
  0
BLOCK
  8
0
  6
BYBLOCK
 62
               0
  5
52
  2
*D4
 70
               1
 10
0.0
 20
0.0
 30
0.0
  3
*D4
  0
LINE
  8
0
  6
CONTINUOUS
 62
             110
  5
53
 10
220.0
 20
19.0
 30
0.0
 11
220.0
 21
-19.0
 31
0.0
  0
INSERT
  8
0
  6
CONTINUOUS
 62
             110
  5
54
  2
_OPEN30
 10
220.0
 20
19.0
 30
0.0
 41
2.77
 42
2.77
 50
90.0
 43
2.77
  0
INSERT
  8
0
  6
CONTINUOUS
 62
             110
  5
55
  2
_OPEN30
 10
220.0
 20
-19.0
 30
0.0
 41
2.77
 42
2.77
 50
270.0
 43
2.77
  0
TEXT
  8
0
  6
CONTINUOUS
 62
             110
  5
56
 10
219.0
 20
3.7419371533093959
 30
0.0
 40
5.1999998092651367
  1
%%c38
 50
90.000000000000014
 41
1.0528075081335246
  7
MX_DIMTXSTY_2
 11
216.40000009536743
 21
3.7419371533093955
 31
0.0
 73
               2
  0
POINT
  8
DEFPOINTS
  6
CONTINUOUS
 62
               0
  5
57
 10
132.00002288818359
 20
19.0
 30
0.0
  0
POINT
  8
DEFPOINTS
  6
CONTINUOUS
 62
               0
  5
58
 10
132.00002288818359
 20
-19.0
 30
0.0
  0
POINT
  8
DEFPOINTS
  6
CONTINUOUS
 62
               0
  5
59
 10
220.0
 20
-19.0
 30
0.0
  0
ENDBLK
  8
0
  6
BYBLOCK
 62
               0
  5
5A
  0
BLOCK
  8
0
  6
BYBLOCK
 62
               0
  5
5D
  2
*D5
 70
               1
 10
0.0
 20
0.0
 30
0.0
  3
*D5
  0
LINE
  8
0
  6
CONTINUOUS
 62
             110
  5
5E
 10
470.0
 20
0.0
 30
0.0
 11
470.0
 21
-96.0
 31
0.0
  0
LINE
  8
0
  6
CONTINUOUS
 62
             110
  5
5F
 10
354.33871459960937
 20
0.0
 30
0.0
 11
471.0
 21
0.0
 31
0.0
  0
LINE
  8
0
  6
CONTINUOUS
 62
             110
  5
60
 10
390.0
 20
-96.0
 30
0.0
 11
471.0
 21
-96.0
 31
0.0
  0
INSERT
  8
0
  6
CONTINUOUS
 62
             110
  5
61
  2
_OPEN30
 10
470.0
 20
0.0
 30
0.0
 41
2.77
 42
2.77
 50
90.0
 43
2.77
  0
INSERT
  8
0
  6
CONTINUOUS
 62
             110
  5
62
  2
_OPEN30
 10
470.0
 20
-96.0
 30
0.0
 41
2.77
 42
2.77
 50
270.0
 43
2.77
  0
TEXT
  8
0
  6
CONTINUOUS
 62
             110
  5
63
 10
469.0
 20
-52.0625
 30
0.0
 40
5.1999998092651367
  1
96
 50
90.000000000000014
 41
0.9375000343872963
  7
MX_NOTE_STANDARD
 11
466.40000009536743
 21
-52.0625
 31
0.0
 73
               2
  0
POINT
  8
DEFPOINTS
  6
CONTINUOUS
 62
               0
  5
64
 10
352.33871459960937
 20
0.0
 30
0.0
  0
POINT
  8
DEFPOINTS
  6
CONTINUOUS
 62
               0
  5
65
 10
388.0
 20
-96.0
 30
0.0
  0
POINT
  8
DEFPOINTS
  6
CONTINUOUS
 62
               0
  5
66
 10
470.0
 20
-96.0
 30
0.0
  0
ENDBLK
  8
0
  6
BYBLOCK
 62
               0
  5
67
  0
BLOCK
  8
0
  6
BYBLOCK
 62
               0
  5
6A
  2
*D6
 70
               1
 10
0.0
 20
0.0
 30
0.0
  3
*D6
  0
LINE
  8
0
  6
CONTINUOUS
 62
             110
  5
6B
 10
480.0
 20
56.0
 30
0.0
 11
480.0
 21
-96.0
 31
0.0
  0
LINE
  8
0
  6
CONTINUOUS
 62
             110
  5
6C
 10
390.0
 20
56.0
 30
0.0
 11
481.0
 21
56.0
 31
0.0
  0
LINE
  8
0
  6
CONTINUOUS
 62
             110
  5
6D
 10
390.0
 20
-96.0
 30
0.0
 11
481.0
 21
-96.0
 31
0.0
  0
INSERT
  8
0
  6
CONTINUOUS
 62
             110
  5
6E
  2
_OPEN30
 10
480.0
 20
56.0
 30
0.0
 41
2.77
 42
2.77
 50
90.0
 43
2.77
  0
INSERT
  8
0
  6
CONTINUOUS
 62
             110
  5
6F
  2
_OPEN30
 10
480.0
 20
-96.0
 30
0.0
 41
2.77
 42
2.77
 50
270.0
 43
2.77
  0
TEXT
  8
0
  6
CONTINUOUS
 62
             110
  5
71
 10
479.0
 20
-26.441964292200282
 30
0.0
 40
5.1999998092651367
  1
152
 50
90.000000000000014
 41
1.0044643150739749
  7
MX_DIMTXSTY_3
 11
476.40000009536743
 21
-26.441964292200282
 31
0.0
 73
               2
  0
POINT
  8
DEFPOINTS
  6
CONTINUOUS
 62
               0
  5
72
 10
388.0
 20
56.0
 30
0.0
  0
POINT
  8
DEFPOINTS
  6
CONTINUOUS
 62
               0
  5
73
 10
388.0
 20
-96.0
 30
0.0
  0
POINT
  8
DEFPOINTS
  6
CONTINUOUS
 62
               0
  5
74
 10
480.0
 20
-96.0
 30
0.0
  0
ENDBLK
  8
0
  6
BYBLOCK
 62
               0
  5
75
  0
BLOCK
  8
0
  6
BYBLOCK
 62
               0
  5
78
  2
*D7
 70
               1
 10
0.0
 20
0.0
 30
0.0
  3
*D7
  0
LINE
  8
0
  6
CONTINUOUS
 62
             110
  5
79
 10
110.0
 20
-120.0
 30
0.0
 11
60.0
 21
-120.0
 31
0.0
  0
LINE
  8
0
  6
CONTINUOUS
 62
             110
  5
7A
 10
110.0
 20
-35.849945068359375
 30
0.0
 11
110.0
 21
-121.0
 31
0.0
  0
LINE
  8
0
  6
CONTINUOUS
 62
             110
  5
7B
 10
60.0
 20
-5.0
 30
0.0
 11
60.0
 21
-121.0
 31
0.0
  0
INSERT
  8
0
  6
CONTINUOUS
 62
             110
  5
7C
  2
_OPEN30
 10
110.0
 20
-120.0
 30
0.0
 41
2.77
 42
2.77
 43
2.77
  0
INSERT
  8
0
  6
CONTINUOUS
 62
             110
  5
7D
  2
_OPEN30
 10
60.0
 20
-120.0
 30
0.0
 41
2.77
 42
2.77
 50
180.0
 43
2.77
  0
TEXT
  8
0
  6
CONTINUOUS
 62
             110
  5
7E
 10
63.5652039974091
 20
-119.0
 30
0.0
 40
5.1999998092651367
  1
50+100ストローク
 41
1.086479388387267
  7
MX_DIMTXSTY_2
 11
63.5652039974091
 21
-116.40000009536743
 31
0.0
 73
               2
  0
POINT
  8
DEFPOINTS
  6
CONTINUOUS
 62
               0
  5
7F
 10
110.0
 20
-33.849945068359375
 30
0.0
  0
POINT
  8
DEFPOINTS
  6
CONTINUOUS
 62
               0
  5
80
 10
60.0
 20
-3.0
 30
0.0
  0
POINT
  8
DEFPOINTS
  6
CONTINUOUS
 62
               0
  5
81
 10
60.0
 20
-120.0
 30
0.0
  0
ENDBLK
  8
0
  6
BYBLOCK
 62
               0
  5
82
  0
BLOCK
  8
0
  6
BYBLOCK
 62
               0
  5
85
  2
*D8
 70
               1
 10
0.0
 20
0.0
 30
0.0
  3
*D8
  0
LINE
  8
0
  6
CONTINUOUS
 62
             110
  5
86
 10
444.0
 20
-120.0
 30
0.0
 11
110.0
 21
-120.0
 31
0.0
  0
LINE
  8
0
  6
CONTINUOUS
 62
             110
  5
87
 10
444.0
 20
18.0
 30
0.0
 11
444.0
 21
-121.0
 31
0.0
  0
LINE
  8
0
  6
CONTINUOUS
 62
             110
  5
88
 10
110.0
 20
-35.849945068359375
 30
0.0
 11
110.0
 21
-121.0
 31
0.0
  0
INSERT
  8
0
  6
CONTINUOUS
 62
             110
  5
89
  2
_OPEN30
 10
444.0
 20
-120.0
 30
0.0
 41
2.77
 42
2.77
 43
2.77
  0
INSERT
  8
0
  6
CONTINUOUS
 62
             110
  5
8A
  2
_OPEN30
 10
110.0
 20
-120.0
 30
0.0
 41
2.77
 42
2.77
 50
180.0
 43
2.77
  0
TEXT
  8
0
  6
CONTINUOUS
 62
             110
  5
8B
 10
270.5
 20
-119.0
 30
0.0
 40
5.1999998092651367
  1
334
 41
0.9375000343872963
  7
MX_NOTE_STANDARD
 11
270.5
 21
-116.40000009536743
 31
0.0
 73
               2
  0
POINT
  8
DEFPOINTS
  6
CONTINUOUS
 62
               0
  5
8C
 10
444.0
 20
20.0
 30
0.0
  0
POINT
  8
DEFPOINTS
  6
CONTINUOUS
 62
               0
  5
8D
 10
110.0
 20
-33.849945068359375
 30
0.0
  0
POINT
  8
DEFPOINTS
  6
CONTINUOUS
 62
               0
  5
8E
 10
110.0
 20
-120.0
 30
0.0
  0
ENDBLK
  8
0
  6
BYBLOCK
 62
               0
  5
8F
  0
BLOCK
  8
0
  6
BYBLOCK
 62
               0
  5
A0
  2
*D9
 70
               1
 10
0.0
 20
0.0
 30
0.0
  3
*D9
  0
LINE
  8
0
  6
CONTINUOUS
 62
             110
  5
A1
 10
50.0
 20
3.0
 30
0.0
 11
50.0
 21
-4.0
 31
0.0
  0
LINE
  8
0
  6
CONTINUOUS
 62
             110
  5
A2
 10
50.0
 20
11.949999809265137
 30
0.0
 11
50.0
 21
3.0
 31
0.0
  0
LINE
  8
0
  6
CONTINUOUS
 62
             110
  5
A3
 10
5.1857519149780273
 20
3.0
 30
0.0
 11
52.286017417907715
 21
3.0
 31
0.0
  0
LINE
  8
0
  6
CONTINUOUS
 62
             110
  5
A4
 10
2.5399999618530273
 20
-4.0
 30
0.0
 11
52.286016464233398
 21
-4.0
 31
0.0
  0
LINE
  8
0
  6
CONTINUOUS
 62
             110
  5
A5
 10
50.0
 20
3.0
 30
0.0
 11
50.0
 21
9.3499999046325684
 31
0.0
  0
LINE
  8
0
  6
CONTINUOUS
 62
             110
  5
A6
 10
50.0
 20
-4.0
 30
0.0
 11
50.0
 21
-10.349999904632568
 31
0.0
  0
INSERT
  8
0
  6
CONTINUOUS
 62
             110
  5
A7
  2
_OPEN30
 10
50.0
 20
3.0
 30
0.0
 41
2.77
 42
2.77
 50
270.0
 43
2.77
  0
INSERT
  8
0
  6
CONTINUOUS
 62
             110
  5
A8
  2
_OPEN30
 10
50.0
 20
-4.0
 30
0.0
 41
2.77
 42
2.77
 50
90.0
 43
2.77
  0
TEXT
  8
0
  6
CONTINUOUS
 62
             110
  5
A9
 10
49.0
 20
7.5753971530646798
 30
0.0
 40
5.1999998092651367
  1
7
 50
90.000000000000014
 41
0.9523813653923859
  7
MX_NOTE_STANDARD
 11
46.400000095367432
 21
7.5753971530646798
 31
0.0
 73
               2
  0
POINT
  8
DEFPOINTS
  6
CONTINUOUS
 62
               0
  5
AA
 10
2.645751953125
 20
3.0
 30
0.0
  0
POINT
  8
DEFPOINTS
  6
CONTINUOUS
 62
               0
  5
AB
 10
0.0
 20
-4.0
 30
0.0
  0
POINT
  8
DEFPOINTS
  6
CONTINUOUS
 62
               0
  5
AC
 10
50.0
 20
-4.0
 30
0.0
  0
ENDBLK
  8
0
  6
BYBLOCK
 62
               0
  5
AD
  0
ENDSEC
  0
SECTION
  2
ENTITIES
  0
DIMENSION
  8
LY_1
  6
CONTINUOUS
 62
             110
  5
35
  2
*D1
 10
4.0
 20
60.0
 30
0.0
 11
17.153974533081055
 21
60.0
 31
0.0
 70
             128
  1
%%c<>
 13
-4.0
 23
0.0
 33
0.0
 14
4.0
 24
0.0
 34
0.0
  3
MXDIMSTYLE
1001
ACAD
1000
DSTYLE
1002
{
1070
              41
1040
2.77
1070
             140
1040
5.1999998092651367
1070
             284
1070
               8
1070
             340
1005
2F
1002
}
  0
DIMENSION
  8
LY_1
  6
CONTINUOUS
 62
             110
  5
43
  2
*D2
 10
90.0
 20
6.0
 30
0.0
 11
90.0
 21
23.243488311767578
 31
0.0
 70
             128
  1
%%c<>
 13
110.0
 23
-6.0
 33
0.0
 14
110.0
 24
6.0
 34
0.0
 50
90.0
  3
MXDIMSTYLE
1001
ACAD
1000
DSTYLE
1002
{
1070
              41
1040
2.77
1070
              75
1070
               1
1070
              76
1070
               1
1070
             140
1040
5.1999998092651367
1070
             284
1070
               8
1002
}
  0
DIMENSION
  8
LY_1
  6
CONTINUOUS
 62
             110
  5
50
  2
*D3
 10
60.0
 20
-30.0
 30
0.0
 11
70.0
 21
-30.0
 31
0.0
 70
             128
  1
<>
 13
80.0
 23
0.0
 33
0.0
 14
60.0
 24
-3.0
 34
0.0
  3
MXDIMSTYLE
1001
ACAD
1000
DSTYLE
1002
{
1070
              41
1040
2.77
1070
             140
1040
5.1999998092651367
1070
             284
1070
               8
1002
}
  0
DIMENSION
  8
LY_1
  6
CONTINUOUS
 62
             110
  5
5B
  2
*D4
 10
220.0
 20
-19.0
 30
0.0
 11
220.0
 21
10.142004013061523
 31
0.0
 70
             128
  1
%%c<>
 13
132.00002288818359
 23
19.0
 33
0.0
 14
132.00002288818359
 24
-19.0
 34
0.0
 50
90.0
  3
MXDIMSTYLE
1001
ACAD
1000
DSTYLE
1002
{
1070
              41
1040
2.77
1070
              75
1070
               1
1070
              76
1070
               1
1070
             140
1040
5.1999998092651367
1070
             284
1070
               8
1070
             340
1005
2F
1002
}
  0
DIMENSION
  8
LY_1
  6
CONTINUOUS
 62
             110
  5
68
  2
*D5
 10
470.0
 20
-96.0
 30
0.0
 11
470.0
 21
-48.0
 31
0.0
 70
             128
  1
<>
 13
352.33871459960937
 23
0.0
 33
0.0
 14
388.0
 24
-96.0
 34
0.0
 50
90.0
  3
MXDIMSTYLE
1001
ACAD
1000
DSTYLE
1002
{
1070
              41
1040
2.77
1070
             140
1040
5.1999998092651367
1070
             284
1070
               8
1002
}
  0
DIMENSION
  8
LY_1
  6
CONTINUOUS
 62
             110
  5
76
  2
*D6
 10
480.0
 20
-96.0
 30
0.0
 11
480.0
 21
-20.0
 31
0.0
 70
             128
  1
<>
 13
388.0
 23
56.0
 33
0.0
 14
388.0
 24
-96.0
 34
0.0
 50
90.0
  3
MXDIMSTYLE
1001
ACAD
1000
DSTYLE
1002
{
1070
              41
1040
2.77
1070
             140
1040
5.1999998092651367
1070
             284
1070
               8
1070
             340
1005
70
1002
}
  0
DIMENSION
  8
LY_1
  6
CONTINUOUS
 62
             110
  5
83
  2
*D7
 10
60.0
 20
-120.0
 30
0.0
 11
89.436088562011719
 21
-120.0
 31
0.0
 70
             128
  1
<>
 13
110.0
 23
-33.849945068359375
 33
0.0
 14
60.0
 24
-3.0
 34
0.0
  3
MXDIMSTYLE
1001
ACAD
1000
DSTYLE
1002
{
1070
              41
1040
2.77
1070
             140
1040
5.1999998092651367
1070
             284
1070
               8
1070
             340
1005
2F
1002
}
  0
DIMENSION
  8
LY_1
  6
CONTINUOUS
 62
             110
  5
90
  2
*D8
 10
110.0
 20
-120.0
 30
0.0
 11
277.0
 21
-120.0
 31
0.0
 70
             128
  1
<>
 13
444.0
 23
20.0
 33
0.0
 14
110.0
 24
-33.849945068359375
 34
0.0
  3
MXDIMSTYLE
1001
ACAD
1000
DSTYLE
1002
{
1070
              41
1040
2.77
1070
             140
1040
5.1999998092651367
1070
             284
1070
               8
1002
}
  0
LINE
  8
LY_1
  6
CONTINUOUS
 62
               3
  5
91
 10
284.00000762939453
 20
37.0
 30
0.0
 11
294.00000762939453
 21
37.0
 31
0.0
  0
LINE
  8
LY_1
  6
CONTINUOUS
 62
               3
  5
92
 10
284.00000762939453
 20
43.0
 30
0.0
 11
294.00000762939453
 21
43.0
 31
0.0
  0
POLYLINE
  8
LY_1
  6
CONTINUOUS
 62
             110
  5
93
 66
               1
 10
0.0
 20
0.0
 30
0.0
  0
VERTEX
  8
LY_1
  6
CONTINUOUS
 62
             110
  5
24B
 10
116.34999084472656
 20
34.650001525878906
 30
0.0
  0
VERTEX
  8
LY_1
  6
CONTINUOUS
 62
             110
  5
24C
 10
100.0
 20
70.0
 30
0.0
  0
VERTEX
  8
LY_1
  6
CONTINUOUS
 62
             110
  5
24D
 10
77.76973295211792
 20
70.0
 30
0.0
  0
SEQEND
  8
LY_1
  6
CONTINUOUS
 62
             110
  5
24E
  0
INSERT
  8
LY_1
  6
CONTINUOUS
 62
             110
  5
94
  2
_OPEN30
 10
116.34999084472656
 20
34.650001525878906
 30
0.0
 41
2.77
 42
2.77
 50
294.82136455151323
 43
2.77
  0
TEXT
  8
LY_1
  6
CONTINUOUS
 62
             110
  5
95
 10
78.617559043468731
 20
72.300000190734863
 30
0.0
 40
5.1999998092651367
  1
CF70
 41
0.9782609105179519
  7
MX_NOTE_STANDARD
 11
78.617559043468731
 21
74.900000095367432
 31
0.0
 73
               2
  0
POLYLINE
  8
LY_1
  6
CONTINUOUS
 62
             110
  5
96
 66
               1
 10
0.0
 20
0.0
 30
0.0
  0
VERTEX
  8
LY_1
  6
CONTINUOUS
 62
             110
  5
24F
 10
249.0
 20
-94.5
 30
0.0
  0
VERTEX
  8
LY_1
  6
CONTINUOUS
 62
             110
  5
250
 10
260.0
 20
-110.0
 30
0.0
  0
VERTEX
  8
LY_1
  6
CONTINUOUS
 62
             110
  5
251
 10
281.61081099510193
 20
-110.0
 30
0.0
  0
SEQEND
  8
LY_1
  6
CONTINUOUS
 62
             110
  5
252
  0
INSERT
  8
LY_1
  6
CONTINUOUS
 62
             110
  5
97
  2
_OPEN30
 10
249.0
 20
-94.5
 30
0.0
 41
2.77
 42
2.77
 50
125.36246188706906
 43
2.77
  0
TEXT
  8
LY_1
  6
CONTINUOUS
 62
             110
  5
98
 10
262.7878943015304
 20
-107.69999980926514
 30
0.0
 40
5.1999998092651367
  1
モ－タ－
 41
0.7812499976119945
  7
MX_NOTE_STANDARD
 11
262.7878943015304
 21
-105.09999990463257
 31
0.0
 73
               2
  0
POLYLINE
  8
LY_1
  6
CONTINUOUS
 62
             110
  5
99
 66
               1
 10
0.0
 20
0.0
 30
0.0
  0
VERTEX
  8
LY_1
  6
CONTINUOUS
 62
             110
  5
253
 10
183.00364992365417
 20
43.442320723670633
 30
0.0
  0
VERTEX
  8
LY_1
  6
CONTINUOUS
 62
             110
  5
254
 10
170.0
 20
70.0
 30
0.0
  0
VERTEX
  8
LY_1
  6
CONTINUOUS
 62
             110
  5
255
 10
127.45348358154297
 20
70.0
 30
0.0
  0
SEQEND
  8
LY_1
  6
CONTINUOUS
 62
             110
  5
256
  0
INSERT
  8
LY_1
  6
CONTINUOUS
 62
             110
  5
9A
  2
_OPEN30
 10
183.00364992365417
 20
43.442320723670633
 30
0.0
 41
2.77
 42
2.77
 50
296.08812796197253
 43
2.77
  0
TEXT
  8
LY_1
  6
CONTINUOUS
 62
             110
  5
9B
 10
128.13056688797144
 20
72.300000190734863
 30
0.0
 40
5.1999998092651367
  1
マイクロスイッチ
 41
0.7812499976119945
  7
MX_NOTE_STANDARD
 11
128.13056688797144
 21
74.900000095367432
 31
0.0
 73
               2
  0
POLYLINE
  8
LY_1
  6
CONTINUOUS
 62
             110
  5
9C
 66
               1
 10
0.0
 20
0.0
 30
0.0
  0
VERTEX
  8
LY_1
  6
CONTINUOUS
 62
             110
  5
257
 10
313.49999237060547
 20
50.0
 30
0.0
  0
VERTEX
  8
LY_1
  6
CONTINUOUS
 62
             110
  5
258
 10
300.0
 20
70.0
 30
0.0
  0
VERTEX
  8
LY_1
  6
CONTINUOUS
 62
             110
  5
259
 10
240.93982267379761
 20
70.0
 30
0.0
  0
SEQEND
  8
LY_1
  6
CONTINUOUS
 62
             110
  5
25A
  0
INSERT
  8
LY_1
  6
CONTINUOUS
 62
             110
  5
9D
  2
_OPEN30
 10
313.49999237060547
 20
50.0
 30
0.0
 41
2.77
 42
2.77
 50
304.01933497455178
 43
2.77
  0
TEXT
  8
LY_1
  6
CONTINUOUS
 62
             110
  5
9E
 10
241.61690598022608
 20
72.300000190734863
 30
0.0
 40
5.1999998092651367
  1
リニアポテンショメ－タ－
 41
0.7812499976119945
  7
MX_NOTE_STANDARD
 11
241.61690598022608
 21
74.900000095367432
 31
0.0
 73
               2
  0
DIMENSION
  8
LY_1
  6
CONTINUOUS
 62
             110
  5
AE
  2
*D9
 10
50.0
 20
-4.0
 30
0.0
 11
50.0
 21
9.3499999046325684
 31
0.0
 70
             128
  1
<>
 13
2.645751953125
 23
3.0
 33
0.0
 14
0.0
 24
-4.0
 34
0.0
 50
90.0
  3
MXDIMSTYLE
1001
ACAD
1000
DSTYLE
1002
{
1070
              41
1040
2.77
1070
              42
1040
2.5399999618530273
1070
              44
1040
2.2860174179077148
1070
             140
1040
5.1999998092651367
1070
             271
1070
               0
1070
             284
1070
               8
1002
}
  0
ARC
  8
LY_1
  6
CONTINUOUS
 62
               3
  5
AF
 10
122.50002288818359
 20
-13.199996948242188
 30
0.0
 40
0.5
 50
0.0
 51
66.425064743307203
  0
ARC
  8
LY_1
  6
CONTINUOUS
 62
               3
  5
B0
 10
122.50002288818359
 20
13.199996948242188
 30
0.0
 40
0.5
 50
293.57493525669281
 51
0.0
  0
ARC
  8
LY_1
  6
CONTINUOUS
 62
               3
  5
B1
 10
390.96780395507812
 20
45.699996948242188
 30
0.0
 40
0.5
 50
270.00001798608935
 51
329.26218164046168
  0
ARC
  8
LY_1
  6
CONTINUOUS
 62
               3
  5
B2
 10
387.10000610351562
 20
48.0
 30
0.0
 40
5.0
 50
329.26218164046168
 51
30.737873001051703
  0
ARC
  8
LY_1
  6
CONTINUOUS
 62
               3
  5
B3
 10
390.96780395507812
 20
50.300003051757813
 30
0.0
 40
0.5
 50
30.737859340673364
 51
90.000022995045683
  0
ARC
  8
LY_1
  6
CONTINUOUS
 62
               3
  5
B4
 10
338.19999694824219
 20
56.5
 30
0.0
 40
1.5
 50
0.0
 51
89.999982013910653
  0
ARC
  8
LY_1
  6
CONTINUOUS
 62
               3
  5
B5
 10
330.19999694824219
 20
56.5
 30
0.0
 40
1.5
 50
89.999982013910653
 51
179.99996402782131
  0
ARC
  8
LY_1
  6
DASHED
 62
             110
  5
B7
 10
274.489990234375
 20
32.10162353515625
 30
0.0
 40
1.2000000476837158
 50
114.09948487760025
 51
0.0000100179126691
  0
ARC
  8
LY_1
  6
DASHED
 62
             110
  5
B8
 10
274.489990234375
 20
32.10162353515625
 30
0.0
 40
1.5
 50
109.06605893102939
 51
0.0000100179126691
  0
ARC
  8
LY_1
  6
CONTINUOUS
 62
               3
  5
B9
 10
390.96780395507812
 20
29.300003051757813
 30
0.0
 40
0.5
 50
30.737859340673364
 51
90.000022995045683
  0
ARC
  8
LY_1
  6
CONTINUOUS
 62
               3
  5
BA
 10
387.10000610351562
 20
27.0
 30
0.0
 40
5.0
 50
329.26218164046168
 51
30.737873001051703
  0
ARC
  8
LY_1
  6
CONTINUOUS
 62
               3
  5
BB
 10
390.96780395507812
 20
24.699996948242188
 30
0.0
 40
0.5
 50
270.00001798608935
 51
329.26218164046168
  0
ARC
  8
LY_1
  6
DASHED
 62
             110
  5
BC
 10
274.489990234375
 20
32.10162353515625
 30
0.0
 40
1.2000000476837158
 50
0.0
 51
48.473309539541475
  0
ARC
  8
LY_1
  6
DASHED
 62
             110
  5
BD
 10
274.489990234375
 20
32.10162353515625
 30
0.0
 40
1.5
 50
0.0
 51
36.792378077593618
  0
ARC
  8
LY_1
  6
CONTINUOUS
 62
               3
  5
BE
 10
269.489990234375
 20
43.101600646972656
 30
0.0
 40
3.2000000476837158
 50
56.251006456880489
 51
123.74893025018415
  0
ARC
  8
LY_1
  6
CONTINUOUS
 62
               3
  5
BF
 10
267.989990234375
 20
45.346595764160156
 30
0.0
 40
0.5
 50
123.74893025018415
 51
179.99997768819966
  0
ARC
  8
LY_1
  6
CONTINUOUS
 62
               3
  5
C0
 10
270.989990234375
 20
45.346595764160156
 30
0.0
 40
0.5
 50
359.99995901886496
 51
56.251006456880489
  0
ARC
  8
LY_1
  6
CONTINUOUS
 62
               3
  5
C1
 10
325.80000305175781
 20
-96.599990844726563
 30
0.0
 40
0.1000000014901161
 50
179.99992304668629
 51
269.99994604173196
  0
ARC
  8
LY_1
  6
CONTINUOUS
 62
               3
  5
C2
 10
323.19999694824219
 20
-96.599990844726563
 30
0.0
 40
0.1000000014901161
 50
269.9999770049543
 51
0.00001366037834
  0
CIRCLE
  8
LY_1
  6
CONTINUOUS
 62
               3
  5
C3
 10
311.5
 20
34.0
 30
0.0
 40
2.7999999523162842
  0
ARC
  8
LY_1
  6
CONTINUOUS
 62
               3
  5
C4
 10
312.30955505371094
 20
34.809547424316406
 30
0.0
 40
0.622045636177063
 50
179.99998133066532
 51
270.00001798608935
  0
ARC
  8
LY_1
  6
CONTINUOUS
 62
               3
  5
C5
 10
312.30955505371094
 20
33.190452575683594
 30
0.0
 40
0.622045636177063
 50
89.999982013910653
 51
179.99996402782131
  0
ARC
  8
LY_1
  6
CONTINUOUS
 62
               3
  5
C6
 10
310.69046020507812
 20
33.190452575683594
 30
0.0
 40
0.622045636177063
 50
0.0
 51
89.999982013910653
  0
ARC
  8
LY_1
  6
CONTINUOUS
 62
               3
  5
C7
 10
310.69046020507812
 20
34.809547424316406
 30
0.0
 40
0.622045636177063
 50
270.00001798608935
 51
0.0
  0
CIRCLE
  8
LY_1
  6
CONTINUOUS
 62
               3
  5
C8
 10
311.5
 20
46.0
 30
0.0
 40
2.7999999523162842
  0
ARC
  8
LY_1
  6
CONTINUOUS
 62
               3
  5
C9
 10
312.30955505371094
 20
46.809547424316406
 30
0.0
 40
0.622045636177063
 50
179.99998133066532
 51
270.00001798608935
  0
ARC
  8
LY_1
  6
CONTINUOUS
 62
               3
  5
CA
 10
312.30955505371094
 20
45.190452575683594
 30
0.0
 40
0.622045636177063
 50
89.999982013910653
 51
179.99996402782131
  0
ARC
  8
LY_1
  6
CONTINUOUS
 62
               3
  5
CB
 10
310.69046020507812
 20
45.190452575683594
 30
0.0
 40
0.622045636177063
 50
0.0
 51
89.999982013910653
  0
ARC
  8
LY_1
  6
CONTINUOUS
 62
               3
  5
CC
 10
310.69046020507812
 20
46.809547424316406
 30
0.0
 40
0.622045636177063
 50
270.00001798608935
 51
0.0
  0
ARC
  8
LY_1
  6
CONTINUOUS
 62
               3
  5
CD
 10
330.19999694824219
 20
-96.5
 30
0.0
 40
1.5
 50
179.99998133066532
 51
269.99996334457597
  0
ARC
  8
LY_1
  6
CONTINUOUS
 62
               3
  5
CE
 10
338.19999694824219
 20
-96.5
 30
0.0
 40
1.5
 50
269.99996334457597
 51
359.99994535848663
  0
ARC
  8
LY_1
  6
CONTINUOUS
 62
               3
  5
CF
 10
187.010009765625
 20
45.346595764160156
 30
0.0
 40
0.5
 50
123.74895757094082
 51
180.00000500895632
  0
ARC
  8
LY_1
  6
CONTINUOUS
 62
               3
  5
D0
 10
190.010009765625
 20
45.346595764160156
 30
0.0
 40
0.5
 50
359.99998633962167
 51
56.251033777637176
  0
ARC
  8
LY_1
  6
CONTINUOUS
 62
               3
  5
D1
 10
188.510009765625
 20
43.101600646972656
 30
0.0
 40
3.2000000476837158
 50
56.251033777637176
 51
123.74895757094082
  0
ARC
  8
LY_1
  6
CONTINUOUS
 62
               3
  5
D2
 10
177.00997924804687
 20
45.346588134765625
 30
0.0
 40
0.5
 50
123.74895757094082
 51
180.00000500895632
  0
ARC
  8
LY_1
  6
CONTINUOUS
 62
               3
  5
D3
 10
180.00997924804687
 20
45.346588134765625
 30
0.0
 40
0.5
 50
359.99998633962167
 51
56.251033777637176
  0
ARC
  8
LY_1
  6
CONTINUOUS
 62
               3
  5
D4
 10
178.50997924804687
 20
43.101600646972656
 30
0.0
 40
3.2000000476837158
 50
56.251033777637176
 51
123.74895757094082
  0
CIRCLE
  8
LY_1
  6
CONTINUOUS
 62
             110
  5
D5
 10
188.41000366210937
 20
41.401611328125
 30
0.0
 40
0.25
  0
CIRCLE
  8
LY_1
  6
DASHED
 62
             110
  5
D6
 10
183.50997924804687
 20
32.10162353515625
 30
0.0
 40
1.2000000476837158
  0
CIRCLE
  8
LY_1
  6
DASHED
 62
             110
  5
D7
 10
183.50997924804687
 20
32.10162353515625
 30
0.0
 40
1.5
  0
ARC
  8
LY_1
  6
CONTINUOUS
 62
               3
  5
D8
 10
0.0
 20
0.0
 30
0.0
 40
6.0
 50
311.31724612465467
 51
0.0
  0
ARC
  8
LY_1
  6
CONTINUOUS
 62
               3
  5
D9
 10
0.0
 20
0.0
 30
0.0
 40
6.0
 50
251.31723762481337
 51
288.68274370585192
  0
ARC
  8
LY_1
  6
CONTINUOUS
 62
               3
  5
DA
 10
0.0
 20
4.5
 30
0.0
 40
3.0
 50
131.93514419687619
 51
165.52251747814387
  0
ARC
  8
LY_1
  6
CONTINUOUS
 62
               3
  5
DB
 10
5.613189697265625
 20
-4.1439056396484375
 30
0.0
 40
1.0
 50
231.60615862361365
 51
327.91639531734819
  0
ARC
  8
LY_1
  6
CONTINUOUS
 62
               3
  5
DC
 10
-5.613189697265625
 20
-4.1439056396484375
 30
0.0
 40
1.0
 50
212.0835928435063
 51
308.3938158768625
  0
CIRCLE
  8
LY_1
  6
CONTINUOUS
 62
               3
  5
DD
 10
3.75
 20
-6.4951934814453125
 30
0.0
 40
0.8500000238418579
  0
CIRCLE
  8
LY_1
  6
CONTINUOUS
 62
               3
  5
DE
 10
-3.75
 20
-6.4951934814453125
 30
0.0
 40
0.8500000238418579
  0
ARC
  8
LY_1
  6
CONTINUOUS
 62
               3
  5
DF
 10
3.75
 20
-6.4951934814453125
 30
0.0
 40
2.0
 50
51.60618412313751
 51
181.0449283293199
  0
ARC
  8
LY_1
  6
CONTINUOUS
 62
               3
  5
E0
 10
-3.75
 20
-6.4951934814453125
 30
0.0
 40
2.0
 50
358.95503239012851
 51
128.39384137638632
  0
ARC
  8
LY_1
  6
CONTINUOUS
 62
               3
  5
E1
 10
0.0
 20
-0.625
 30
0.0
 40
7.625
 50
327.91639873244276
 51
212.08356188028395
  0
ARC
  8
LY_1
  6
CONTINUOUS
 62
               3
  5
E2
 10
0.0
 20
0.0
 30
0.0
 40
6.0
 50
0.0
 51
228.68271107297747
  0
ARC
  8
LY_1
  6
CONTINUOUS
 62
               3
  5
E3
 10
0.0
 20
0.0
 30
0.0
 40
4.0
 50
131.40964310251377
 51
48.590372151726328
  0
ARC
  8
LY_1
  6
CONTINUOUS
 62
               3
  5
E4
 10
0.0
 20
-4.5
 30
0.0
 40
3.0
 50
230.40595778265902
 51
309.59401330272254
  0
ARC
  8
LY_1
  6
CONTINUOUS
 62
               3
  5
E5
 10
-4.5
 20
0.0
 30
0.0
 40
3.0
 50
104.47749686547981
 51
255.52251315243285
  0
ARC
  8
LY_1
  6
CONTINUOUS
 62
               3
  5
E6
 10
0.0
 20
4.5
 30
0.0
 40
3.0
 50
14.4775028987381
 51
48.06487447245847
  0
ARC
  8
LY_1
  6
CONTINUOUS
 62
               3
  5
E7
 10
4.5
 20
0.0
 30
0.0
 40
3.0
 50
284.47750551690183
 51
75.522508143476529
  0
CIRCLE
  8
LY_1
  6
CONTINUOUS
 62
               3
  5
E8
 10
0.0
 20
0.0
 30
0.0
 40
9.0
  0
ARC
  8
LY_1
  6
CONTINUOUS
 62
               3
  5
E9
 10
0.0
 20
0.0
 30
0.0
 40
33.849998474121094
 50
271.69288720206617
 51
88.307112797933826
  0
CIRCLE
  8
LY_1
  6
CONTINUOUS
 62
               3
  5
EA
 10
29.350006103515625
 20
-0.0000076293945313
 30
0.0
 40
3.4000000953674316
  0
CIRCLE
  8
LY_1
  6
CONTINUOUS
 62
               3
  5
EB
 10
14.67498779296875
 20
-25.417854309082031
 30
0.0
 40
3.4000000953674316
  0
CIRCLE
  8
LY_1
  6
CONTINUOUS
 62
               3
  5
EC
 10
-14.675018310546875
 20
-25.4178466796875
 30
0.0
 40
3.4000000953674316
  0
CIRCLE
  8
LY_1
  6
CONTINUOUS
 62
               3
  5
ED
 10
-29.350006103515625
 20
0.0
 30
0.0
 40
3.4000000953674316
  0
CIRCLE
  8
LY_1
  6
CONTINUOUS
 62
               3
  5
EE
 10
-14.675018310546875
 20
25.4178466796875
 30
0.0
 40
3.4000000953674316
  0
CIRCLE
  8
LY_1
  6
CONTINUOUS
 62
               3
  5
EF
 10
14.675018310546875
 20
25.4178466796875
 30
0.0
 40
3.4000000953674316
  0
CIRCLE
  8
LY_1
  6
CONTINUOUS
 62
               3
  5
F0
 10
0.0
 20
0.0
 30
0.0
 40
34.650001525878906
  0
ARC
  8
LY_1
  6
CONTINUOUS
 62
               3
  5
F1
 10
0.0
 20
0.0
 30
0.0
 40
33.849998474121094
 50
91.692905871400853
 51
268.307069995566
  0
CIRCLE
  8
LY_1
  6
CENTER
 62
             110
  5
F3
 10
0.0
 20
0.0
 30
0.0
 40
29.350000381469727
  0
CIRCLE
  8
LY_1
  6
CONTINUOUS
 62
               3
  5
F4
 10
0.0
 20
0.0
 30
0.0
 40
24.149999618530273
  0
CIRCLE
  8
LY_1
  6
CONTINUOUS
 62
               3
  5
F5
 10
0.0
 20
0.0
 30
0.0
 40
20.950000762939453
  0
CIRCLE
  8
LY_1
  6
CONTINUOUS
 62
               3
  5
F6
 10
0.0
 20
0.0
 30
0.0
 40
12.850000381469727
  0
CIRCLE
  8
LY_1
  6
CONTINUOUS
 62
               3
  5
F7
 10
0.0
 20
0.0
 30
0.0
 40
12.0
  0
LINE
  8
LY_1
  6
CONTINUOUS
 62
               3
  5
F8
 10
131.50002288818359
 20
-21.0
 30
0.0
 11
124.00002288818359
 21
-21.0
 31
0.0
  0
LINE
  8
LY_1
  6
CONTINUOUS
 62
               3
  5
F9
 10
131.50002178750788
 20
-21.000003992056406
 30
0.0
 11
132.00002231830263
 21
-20.500003419114762
 31
0.0
  0
LINE
  8
LY_1
  6
CONTINUOUS
 62
               3
  5
FA
 10
131.50001605553621
 20
20.999994949664597
 30
0.0
 11
132.00001658633096
 21
20.499994376722952
 31
0.0
  0
LINE
  8
LY_1
  6
CONTINUOUS
 62
               3
  5
FB
 10
132.00002288818359
 20
-20.5
 30
0.0
 11
132.00002288818359
 21
20.5
 31
0.0
  0
LINE
  8
LY_1
  6
CONTINUOUS
 62
               3
  5
FC
 10
131.50002288818359
 20
21.0
 30
0.0
 11
124.00002288818359
 21
21.0
 31
0.0
  0
LINE
  8
LY_1
  6
CENTER
 62
             110
  5
FD
 10
128.00002288818359
 20
22.207977294921875
 30
0.0
 11
128.00002288818359
 21
11.371395111083984
 31
0.0
  0
LINE
  8
LY_1
  6
CONTINUOUS
 62
               3
  5
FE
 10
124.00002792370773
 20
-20.999997480370553
 30
0.0
 11
123.00002686211823
 21
-19.999996334487264
 31
0.0
  0
LINE
  8
LY_1
  6
CONTINUOUS
 62
               3
  5
FF
 10
123.00002288818359
 20
-20.0
 30
0.0
 11
123.00002288818359
 21
20.0
 31
0.0
  0
LINE
  8
LY_1
  6
CONTINUOUS
 62
               3
  5
100
 10
124.00001780846333
 20
21.000003610843919
 30
0.0
 11
123.00001674687383
 21
20.00000246496063
 31
0.0
  0
LINE
  8
LY_1
  6
CONTINUOUS
 62
               3
  5
101
 10
79.999854097549132
 20
-5.0001231213677784
 30
0.0
 11
80.999859036652879
 21
-6.0001203897368214
 31
0.0
  0
LINE
  8
LY_1
  6
CONTINUOUS
 62
               3
  5
102
 10
389.70001015258595
 20
48.057663204849177
 30
0.0
 11
389.00001162993203
 21
47.653519086361939
 31
0.0
  0
LINE
  8
LY_1
  6
CONTINUOUS
 62
               3
  5
103
 10
389.70005725294527
 20
48.346339060895843
 30
0.0
 11
389.00005873029136
 21
47.942194942408605
 31
0.0
  0
LINE
  8
LY_1
  6
CONTINUOUS
 62
               3
  5
104
 10
389.0
 20
45.050048828125
 30
0.0
 11
389.70001220703125
 21
45.050048828125
 31
0.0
  0
LINE
  8
LY_1
  6
CONTINUOUS
 62
               3
  5
105
 10
390.96783447265625
 20
45.199996948242188
 30
0.0
 11
389.70001220703125
 21
45.199996948242188
 31
0.0
  0
LINE
  8
LY_1
  6
CONTINUOUS
 62
               3
  5
106
 10
390.96783447265625
 20
50.800003051757813
 30
0.0
 11
389.70001220703125
 21
50.800003051757813
 31
0.0
  0
LINE
  8
LY_1
  6
CONTINUOUS
 62
               3
  5
107
 10
389.69998168945312
 20
45.050048828125
 30
0.0
 11
389.69998168945312
 21
50.949951171875
 31
0.0
  0
LINE
  8
LY_1
  6
CONTINUOUS
 62
               3
  5
108
 10
389.0
 20
50.949951171875
 30
0.0
 11
389.70001220703125
 21
50.949951171875
 31
0.0
  0
LINE
  8
LY_1
  6
CENTER
 62
             110
  5
109
 10
385.48284912109375
 20
48.0
 30
0.0
 11
393.77029418945312
 21
48.0
 31
0.0
  0
LINE
  8
LY_1
  6
CENTER
 62
             110
  5
10A
 10
385.48284912109375
 20
27.0
 30
0.0
 11
393.77029418945312
 21
27.0
 31
0.0
  0
LINE
  8
LY_1
  6
CONTINUOUS
 62
               3
  5
10B
 10
389.0
 20
55.0
 30
0.0
 11
389.0
 21
20.0
 31
0.0
  0
LINE
  8
LY_1
  6
CONTINUOUS
 62
               3
  5
10C
 10
159.0
 20
38.565101623535156
 30
0.0
 11
159.0
 21
19.0
 31
0.0
  0
LINE
  8
LY_1
  6
CONTINUOUS
 62
               3
  5
10D
 10
159.0
 20
-19.0
 30
0.0
 11
159.0
 21
-24.0
 31
0.0
  0
LINE
  8
LY_1
  6
CONTINUOUS
 62
               3
  5
10E
 10
151.0
 20
-19.0
 30
0.0
 11
151.0
 21
-24.0
 31
0.0
  0
LINE
  8
LY_1
  6
CONTINUOUS
 62
               3
  5
10F
 10
151.0
 20
-24.0
 30
0.0
 11
159.0
 21
-24.0
 31
0.0
  0
LINE
  8
LY_1
  6
CONTINUOUS
 62
               3
  5
110
 10
151.0
 20
38.565101623535156
 30
0.0
 11
151.0
 21
19.0
 31
0.0
  0
LINE
  8
LY_1
  6
CONTINUOUS
 62
               3
  5
111
 10
151.0
 20
38.565101623535156
 30
0.0
 11
159.0
 21
38.565101623535156
 31
0.0
  0
LINE
  8
LY_1
  6
CONTINUOUS
 62
               3
  5
112
 10
284.00000762939453
 20
19.0
 30
0.0
 11
284.00000762939453
 21
47.0
 31
0.0
  0
LINE
  8
LY_1
  6
CONTINUOUS
 62
               3
  5
113
 10
274.00000762939453
 20
33.0
 30
0.0
 11
274.00000762939453
 21
47.0
 31
0.0
  0
LINE
  8
LY_1
  6
CONTINUOUS
 62
               3
  5
114
 10
274.00000762939453
 20
33.0
 30
0.0
 11
281.00000762939453
 21
33.0
 31
0.0
  0
LINE
  8
LY_1
  6
CONTINUOUS
 62
               3
  5
115
 10
281.00000762939453
 20
33.0
 30
0.0
 11
281.00000762939453
 21
19.0
 31
0.0
  0
LINE
  8
LY_1
  6
CONTINUOUS
 62
               3
  5
116
 10
274.00000762939453
 20
47.0
 30
0.0
 11
284.00000762939453
 21
47.0
 31
0.0
  0
LINE
  8
LY_1
  6
CONTINUOUS
 62
               3
  5
117
 10
304.99998474121094
 20
50.0
 30
0.0
 11
304.99998474121094
 21
30.0
 31
0.0
  0
LINE
  8
LY_1
  6
CENTER
 62
             110
  5
118
 10
334.19999694824219
 20
51.92681884765625
 30
0.0
 11
334.19999694824219
 21
59.51129150390625
 31
0.0
  0
LINE
  8
LY_1
  6
CONTINUOUS
 62
               3
  5
119
 10
330.19999694824219
 20
58.0
 30
0.0
 11
338.19999694824219
 21
58.0
 31
0.0
  0
LINE
  8
LY_1
  6
CONTINUOUS
 62
               3
  5
11A
 10
322.0
 20
56.0
 30
0.0
 11
322.0
 21
18.500003814697266
 31
0.0
  0
LINE
  8
LY_1
  6
CONTINUOUS
 62
               3
  5
11B
 10
317.0
 20
-18.5
 30
0.0
 11
317.0
 21
18.500095367431641
 31
0.0
  0
LINE
  8
LY_1
  6
CONTINUOUS
 62
               3
  5
11C
 10
390.96783447265625
 20
29.800003051757813
 30
0.0
 11
389.70001220703125
 21
29.800003051757813
 31
0.0
  0
LINE
  8
LY_1
  6
CONTINUOUS
 62
               3
  5
11D
 10
390.96783447265625
 20
24.199996948242188
 30
0.0
 11
389.70001220703125
 21
24.199996948242188
 31
0.0
  0
LINE
  8
LY_1
  6
CONTINUOUS
 62
               3
  5
11E
 10
389.0
 20
24.050048828125
 30
0.0
 11
389.70001220703125
 21
24.050048828125
 31
0.0
  0
LINE
  8
LY_1
  6
CONTINUOUS
 62
               3
  5
11F
 10
389.70000406380109
 20
27.05766559935546
 30
0.0
 11
389.00000554114717
 21
26.653521480868221
 31
0.0
  0
LINE
  8
LY_1
  6
CONTINUOUS
 62
               3
  5
120
 10
389.70005116416041
 20
27.346341455402126
 30
0.0
 11
389.0000526415065
 21
26.942197336914887
 31
0.0
  0
LINE
  8
LY_1
  6
CONTINUOUS
 62
               3
  5
121
 10
389.0
 20
29.949951171875
 30
0.0
 11
389.70001220703125
 21
29.949951171875
 31
0.0
  0
LINE
  8
LY_1
  6
CONTINUOUS
 62
               3
  5
122
 10
389.69998168945312
 20
24.050048828125
 30
0.0
 11
389.69998168945312
 21
29.949951171875
 31
0.0
  0
LINE
  8
LY_1
  6
CONTINUOUS
 62
               3
  5
123
 10
444.0
 20
55.0
 30
0.0
 11
444.0
 21
20.0
 31
0.0
  0
LINE
  8
LY_1
  6
CONTINUOUS
 62
               3
  5
124
 10
294.0
 20
50.0
 30
0.0
 11
294.0
 21
30.0
 31
0.0
  0
LINE
  8
LY_1
  6
CONTINUOUS
 62
               3
  5
125
 10
284.0
 20
44.20159912109375
 30
0.0
 11
284.29000854492187
 21
44.20159912109375
 31
0.0
  0
LINE
  8
LY_1
  6
CONTINUOUS
 62
               3
  5
126
 10
284.0
 20
43.301605224609375
 30
0.0
 11
285.8900146484375
 21
43.301605224609375
 31
0.0
  0
LINE
  8
LY_1
  6
CONTINUOUS
 62
               3
  5
127
 10
281.0
 20
25.60162353515625
 30
0.0
 11
264.49000549316406
 21
25.60162353515625
 31
0.0
  0
LINE
  8
LY_1
  6
CONTINUOUS
 62
               3
  5
128
 10
267.489990234375
 20
45.346595764160156
 30
0.0
 11
267.489990234375
 21
44.70159912109375
 31
0.0
  0
LINE
  8
LY_1
  6
CONTINUOUS
 62
               3
  5
129
 10
271.489990234375
 20
45.346595764160156
 30
0.0
 11
271.489990234375
 21
44.70159912109375
 31
0.0
  0
LINE
  8
LY_1
  6
CENTER
 62
             110
  5
12A
 10
274.489990234375
 20
33.0
 30
0.0
 11
274.489990234375
 21
29.60162353515625
 31
0.0
  0
LINE
  8
LY_1
  6
CONTINUOUS
 62
               3
  5
12B
 10
269.63447017582121
 20
44.201573115984502
 30
0.0
 11
269.92313439371583
 21
44.701566593965708
 31
0.0
  0
LINE
  8
LY_1
  6
CONTINUOUS
 62
               3
  5
12C
 10
269.05715436836545
 20
44.201541222972082
 30
0.0
 11
269.34582291186416
 21
44.701549842662189
 31
0.0
  0
LINE
  8
LY_1
  6
CONTINUOUS
 62
               3
  5
12D
 10
267.29000854492187
 20
44.70159912109375
 30
0.0
 11
267.29000854492187
 21
44.20159912109375
 31
0.0
  0
LINE
  8
LY_1
  6
CONTINUOUS
 62
               3
  5
12E
 10
271.69000244140625
 20
44.70159912109375
 30
0.0
 11
271.69000244140625
 21
44.20159912109375
 31
0.0
  0
LINE
  8
LY_1
  6
DASHED
 62
               3
  5
12F
 10
268.44000244140625
 20
44.70159912109375
 30
0.0
 11
268.44000244140625
 21
44.20159912109375
 31
0.0
  0
LINE
  8
LY_1
  6
DASHED
 62
               3
  5
130
 10
270.54000854492187
 20
44.70159912109375
 30
0.0
 11
270.54000854492187
 21
44.20159912109375
 31
0.0
  0
LINE
  8
LY_1
  6
CONTINUOUS
 62
               3
  5
131
 10
271.69000244140625
 20
44.70159912109375
 30
0.0
 11
267.29000854492187
 21
44.70159912109375
 31
0.0
  0
LINE
  8
LY_1
  6
CONTINUOUS
 62
               3
  5
132
 10
285.29000854492187
 20
43.301605224609375
 30
0.0
 11
285.29000854492187
 21
43.60162353515625
 31
0.0
  0
LINE
  8
LY_1
  6
CONTINUOUS
 62
               3
  5
133
 10
284.0
 20
43.60162353515625
 30
0.0
 11
285.29000854492187
 21
43.60162353515625
 31
0.0
  0
LINE
  8
LY_1
  6
CONTINUOUS
 62
               3
  5
134
 10
285.8900146484375
 20
43.301605224609375
 30
0.0
 11
285.8900146484375
 21
43.001617431640625
 31
0.0
  0
LINE
  8
LY_1
  6
CONTINUOUS
 62
               3
  5
135
 10
273.58999633789062
 20
43.301605224609375
 30
0.0
 11
273.58999633789062
 21
44.20159912109375
 31
0.0
  0
LINE
  8
LY_1
  6
CONTINUOUS
 62
               3
  5
136
 10
284.29000854492187
 20
43.60162353515625
 30
0.0
 11
284.29000854492187
 21
44.20159912109375
 31
0.0
  0
LINE
  8
LY_1
  6
CONTINUOUS
 62
               3
  5
137
 10
267.19772338867187
 20
43.301605224609375
 30
0.0
 11
267.19772338867187
 21
39.501617431640625
 31
0.0
  0
LINE
  8
LY_1
  6
CONTINUOUS
 62
               3
  5
138
 10
267.19772338867187
 20
43.301605224609375
 30
0.0
 11
274.0
 21
43.301605224609375
 31
0.0
  0
LINE
  8
LY_1
  6
CONTINUOUS
 62
               3
  5
139
 10
267.19772338867187
 20
39.501617431640625
 30
0.0
 11
269.0
 21
39.501617431640625
 31
0.0
  0
LINE
  8
LY_1
  6
CONTINUOUS
 62
               3
  5
13A
 10
264.49000549316406
 20
44.20159912109375
 30
0.0
 11
264.49000549316406
 21
38.60162353515625
 31
0.0
  0
LINE
  8
LY_1
  6
CONTINUOUS
 62
               3
  5
13B
 10
264.49000549316406
 20
44.20159912109375
 30
0.0
 11
274.0
 21
44.20159912109375
 31
0.0
  0
LINE
  8
LY_1
  6
CONTINUOUS
 62
               3
  5
13C
 10
264.49000549316406
 20
38.60162353515625
 30
0.0
 11
269.0
 21
38.60162353515625
 31
0.0
  0
LINE
  8
LY_1
  6
CENTER
 62
             110
  5
13D
 10
269.489990234375
 20
47.004005432128906
 30
0.0
 11
269.489990234375
 21
42.639442443847656
 31
0.0
  0
LINE
  8
LY_1
  6
CONTINUOUS
 62
               3
  5
13E
 10
284.49002075195312
 20
25.60162353515625
 30
0.0
 11
284.0
 21
25.60162353515625
 31
0.0
  0
LINE
  8
LY_1
  6
CONTINUOUS
 62
               3
  5
13F
 10
264.49000549316406
 20
38.60162353515625
 30
0.0
 11
264.49000549316406
 21
25.60162353515625
 31
0.0
  0
LINE
  8
LY_1
  6
CONTINUOUS
 62
               3
  5
140
 10
284.49002075195312
 20
37.0
 30
0.0
 11
284.49002075195312
 21
25.60162353515625
 31
0.0
  0
LINE
  8
LY_1
  6
CONTINUOUS
 62
               3
  5
141
 10
388.0
 20
56.0
 30
0.0
 11
388.0
 21
-96.0
 31
0.0
  0
LINE
  8
LY_1
  6
CONTINUOUS
 62
               3
  5
142
 10
150.00003217567973
 20
30.000038284669699
 30
0.0
 11
151.0
 21
29.000070460349434
 31
0.0
  0
LINE
  8
LY_1
  6
CONTINUOUS
 62
               3
  5
143
 10
151.0
 20
34.999845814054197
 30
0.0
 11
150.0
 21
33.999845814054197
 31
0.0
  0
LINE
  8
LY_1
  6
CONTINUOUS
 62
               3
  5
144
 10
150.0
 20
34.0
 30
0.0
 11
150.0
 21
30.0
 31
0.0
  0
LINE
  8
LY_1
  6
CONTINUOUS
 62
               3
  5
145
 10
321.9999815401618
 20
46.999974930834242
 30
0.0
 11
320.9999877015282
 21
47.57732193906736
 31
0.0
  0
LINE
  8
LY_1
  6
CONTINUOUS
 62
               3
  5
146
 10
321.99998093256204
 20
46.422642573455732
 30
0.0
 11
320.99998048667999
 21
46.999993396387481
 31
0.0
  0
LINE
  8
LY_1
  6
CONTINUOUS
 62
               3
  5
147
 10
321.0
 20
49.800003051757813
 30
0.0
 11
322.0
 21
49.800003051757813
 31
0.0
  0
LINE
  8
LY_1
  6
CONTINUOUS
 62
               3
  5
148
 10
321.0
 20
44.199996948242187
 30
0.0
 11
322.0
 21
44.199996948242187
 31
0.0
  0
LINE
  8
LY_1
  6
CONTINUOUS
 62
               3
  5
149
 10
321.0
 20
49.800003051757813
 30
0.0
 11
321.0
 21
44.199996948242187
 31
0.0
  0
LINE
  8
LY_1
  6
CONTINUOUS
 62
               3
  5
14A
 10
321.99999474129277
 20
32.999988308046113
 30
0.0
 11
320.99998768816226
 21
33.577342945676492
 31
0.0
  0
LINE
  8
LY_1
  6
CONTINUOUS
 62
               3
  5
14B
 10
321.99999501889351
 20
32.422642225096297
 30
0.0
 11
320.99999457301146
 21
32.999993048028045
 31
0.0
  0
LINE
  8
LY_1
  6
CONTINUOUS
 62
               3
  5
14C
 10
321.0
 20
35.799999237060547
 30
0.0
 11
322.0
 21
35.799999237060547
 31
0.0
  0
LINE
  8
LY_1
  6
CONTINUOUS
 62
               3
  5
14D
 10
321.0
 20
30.200000762939453
 30
0.0
 11
322.0
 21
30.200000762939453
 31
0.0
  0
LINE
  8
LY_1
  6
CONTINUOUS
 62
               3
  5
14E
 10
321.0
 20
35.799999237060547
 30
0.0
 11
321.0
 21
30.200000762939453
 31
0.0
  0
LINE
  8
LY_1
  6
CONTINUOUS
 62
               3
  5
14F
 10
312.30955505371094
 20
34.1875
 30
0.0
 11
313.00000762939453
 21
34.1875
 31
0.0
  0
LINE
  8
LY_1
  6
CONTINUOUS
 62
               3
  5
150
 10
312.30955505371094
 20
33.8125
 30
0.0
 11
313.00000762939453
 21
33.8125
 31
0.0
  0
LINE
  8
LY_1
  6
CONTINUOUS
 62
               3
  5
151
 10
311.6875
 20
33.190452575683594
 30
0.0
 11
311.6875
 21
32.5
 31
0.0
  0
LINE
  8
LY_1
  6
CONTINUOUS
 62
               3
  5
152
 10
311.3125
 20
33.190452575683594
 30
0.0
 11
311.3125
 21
32.5
 31
0.0
  0
LINE
  8
LY_1
  6
CONTINUOUS
 62
               3
  5
153
 10
310.00000762939453
 20
34.1875
 30
0.0
 11
310.69046020507812
 21
34.1875
 31
0.0
  0
LINE
  8
LY_1
  6
CONTINUOUS
 62
               3
  5
154
 10
310.00000762939453
 20
33.8125
 30
0.0
 11
310.69046020507812
 21
33.8125
 31
0.0
  0
LINE
  8
LY_1
  6
CONTINUOUS
 62
               3
  5
155
 10
311.3125
 20
35.5
 30
0.0
 11
311.3125
 21
34.809547424316406
 31
0.0
  0
LINE
  8
LY_1
  6
CONTINUOUS
 62
               3
  5
156
 10
311.6875
 20
35.5
 30
0.0
 11
311.6875
 21
34.809547424316406
 31
0.0
  0
LINE
  8
LY_1
  6
CONTINUOUS
 62
               3
  5
157
 10
310.0
 20
34.1875
 30
0.0
 11
310.0
 21
33.8125
 31
0.0
  0
LINE
  8
LY_1
  6
CONTINUOUS
 62
               3
  5
158
 10
313.0
 20
34.1875
 30
0.0
 11
313.0
 21
33.8125
 31
0.0
  0
LINE
  8
LY_1
  6
CONTINUOUS
 62
               3
  5
159
 10
311.31250762939453
 20
32.5
 30
0.0
 11
311.68750762939453
 21
32.5
 31
0.0
  0
LINE
  8
LY_1
  6
CONTINUOUS
 62
               3
  5
15A
 10
311.31250762939453
 20
35.5
 30
0.0
 11
311.68750762939453
 21
35.5
 31
0.0
  0
LINE
  8
LY_1
  6
CONTINUOUS
 62
               3
  5
15B
 10
312.30955505371094
 20
46.1875
 30
0.0
 11
313.00000762939453
 21
46.1875
 31
0.0
  0
LINE
  8
LY_1
  6
CONTINUOUS
 62
               3
  5
15C
 10
312.30955505371094
 20
45.8125
 30
0.0
 11
313.00000762939453
 21
45.8125
 31
0.0
  0
LINE
  8
LY_1
  6
CONTINUOUS
 62
               3
  5
15D
 10
311.6875
 20
45.190452575683594
 30
0.0
 11
311.6875
 21
44.5
 31
0.0
  0
LINE
  8
LY_1
  6
CONTINUOUS
 62
               3
  5
15E
 10
311.3125
 20
45.190452575683594
 30
0.0
 11
311.3125
 21
44.5
 31
0.0
  0
LINE
  8
LY_1
  6
CONTINUOUS
 62
               3
  5
15F
 10
310.00000762939453
 20
46.1875
 30
0.0
 11
310.69046020507812
 21
46.1875
 31
0.0
  0
LINE
  8
LY_1
  6
CONTINUOUS
 62
               3
  5
160
 10
310.00000762939453
 20
45.8125
 30
0.0
 11
310.69046020507812
 21
45.8125
 31
0.0
  0
LINE
  8
LY_1
  6
CONTINUOUS
 62
               3
  5
161
 10
311.3125
 20
47.5
 30
0.0
 11
311.3125
 21
46.809547424316406
 31
0.0
  0
LINE
  8
LY_1
  6
CONTINUOUS
 62
               3
  5
162
 10
311.6875
 20
47.5
 30
0.0
 11
311.6875
 21
46.809547424316406
 31
0.0
  0
LINE
  8
LY_1
  6
CONTINUOUS
 62
               3
  5
163
 10
310.0
 20
46.1875
 30
0.0
 11
310.0
 21
45.8125
 31
0.0
  0
LINE
  8
LY_1
  6
CONTINUOUS
 62
               3
  5
164
 10
313.0
 20
46.1875
 30
0.0
 11
313.0
 21
45.8125
 31
0.0
  0
LINE
  8
LY_1
  6
CONTINUOUS
 62
               3
  5
165
 10
311.31250762939453
 20
44.5
 30
0.0
 11
311.68750762939453
 21
44.5
 31
0.0
  0
LINE
  8
LY_1
  6
CONTINUOUS
 62
               3
  5
166
 10
311.31250762939453
 20
47.5
 30
0.0
 11
311.68750762939453
 21
47.5
 31
0.0
  0
LINE
  8
LY_1
  6
CONTINUOUS
 62
             110
  5
167
 10
318.90677605865494
 20
48.082406044245545
 30
0.0
 11
319.68040535235923
 21
47.635750185108009
 31
0.0
  0
LINE
  8
LY_1
  6
CONTINUOUS
 62
             110
  5
168
 10
318.8620287880799
 20
48.454684806195246
 30
0.0
 11
320.14877774087427
 21
47.711780630195562
 31
0.0
  0
LINE
  8
LY_1
  6
CONTINUOUS
 62
             110
  5
169
 10
318.92242482616587
 20
48.76621605488026
 30
0.0
 11
320.33901918665526
 21
47.948345009879176
 31
0.0
  0
LINE
  8
LY_1
  6
CONTINUOUS
 62
             110
  5
16A
 10
320.34882760459368
 20
48.114487523123898
 30
0.0
 11
319.54755348068284
 21
47.651871115142058
 31
0.0
  0
LINE
  8
LY_1
  6
CONTINUOUS
 62
             110
  5
16B
 10
319.46312346070317
 20
49.146884765502818
 30
0.0
 11
320.3403011613982
 21
48.640444228328761
 31
0.0
  0
LINE
  8
LY_1
  6
CONTINUOUS
 62
             110
  5
16C
 10
319.0686974158798
 20
49.028085164725553
 30
0.0
 11
320.39802955357709
 21
48.260594411794727
 31
0.0
  0
LINE
  8
LY_1
  6
CONTINUOUS
 62
             110
  5
16D
 10
320.37288186618184
 20
48.474799451875242
 30
0.0
 11
319.00844438447325
 21
47.687042940006904
 31
0.0
  0
LINE
  8
LY_1
  6
CONTINUOUS
 62
             110
  5
16E
 10
320.27844637668068
 20
48.766673804072525
 30
0.0
 11
318.87120904417725
 21
47.954202481426364
 31
0.0
  0
LINE
  8
LY_1
  6
CONTINUOUS
 62
             110
  5
16F
 10
319.98211906677375
 20
48.942000171983409
 30
0.0
 11
318.92398005805649
 21
48.331086109854141
 31
0.0
  0
LINE
  8
LY_1
  6
CONTINUOUS
 62
             110
  5
170
 10
319.68871075778452
 20
49.119012487543841
 30
0.0
 11
318.89307288982809
 21
48.659649526590783
 31
0.0
  0
LINE
  8
LY_1
  6
CONTINUOUS
 62
               3
  5
171
 10
318.00002125035689
 20
49.403566285982834
 30
0.0
 11
318.20002029667603
 21
49.749978764090883
 31
0.0
  0
LINE
  8
LY_1
  6
CONTINUOUS
 62
               3
  5
172
 10
317.9999871242826
 20
44.596406534404196
 30
0.0
 11
318.19998235593721
 21
44.250000663564606
 31
0.0
  0
LINE
  8
LY_1
  6
CONTINUOUS
 62
               3
  5
173
 10
318.19999694824219
 20
44.25
 30
0.0
 11
318.19999694824219
 21
49.75
 31
0.0
  0
LINE
  8
LY_1
  6
CONTINUOUS
 62
               3
  5
174
 10
318.20000457763672
 20
49.75
 30
0.0
 11
321.0
 21
49.75
 31
0.0
  0
LINE
  8
LY_1
  6
CONTINUOUS
 62
               3
  5
175
 10
318.20000457763672
 20
44.25
 30
0.0
 11
321.0
 21
44.25
 31
0.0
  0
LINE
  8
LY_1
  6
CONTINUOUS
 62
               3
  5
176
 10
318.0
 20
44.596405029296875
 30
0.0
 11
318.0
 21
49.403587341308594
 31
0.0
  0
LINE
  8
LY_1
  6
CONTINUOUS
 62
             110
  5
177
 10
318.90678759785976
 20
34.08241063473497
 30
0.0
 11
319.68041784998229
 21
33.635756399583897
 31
0.0
  0
LINE
  8
LY_1
  6
CONTINUOUS
 62
             110
  5
178
 10
318.86201654755143
 20
34.454675148262595
 30
0.0
 11
320.14875202016276
 21
33.711778158851303
 31
0.0
  0
LINE
  8
LY_1
  6
CONTINUOUS
 62
             110
  5
179
 10
318.92243506413956
 20
34.766201784335863
 30
0.0
 11
320.33902281737915
 21
33.948334554031817
 31
0.0
  0
LINE
  8
LY_1
  6
CONTINUOUS
 62
             110
  5
17A
 10
320.34883983068221
 20
34.114471791912365
 30
0.0
 11
319.54756075398109
 21
33.651848701503695
 31
0.0
  0
LINE
  8
LY_1
  6
CONTINUOUS
 62
             110
  5
17B
 10
319.46311665245798
 20
35.14688135925644
 30
0.0
 11
320.34030283195102
 21
34.64044032787433
 31
0.0
  0
LINE
  8
LY_1
  6
CONTINUOUS
 62
             110
  5
17C
 10
319.06875858122339
 20
35.028156841331111
 30
0.0
 11
320.39809824109352
 21
34.260663920565094
 31
0.0
  0
LINE
  8
LY_1
  6
CONTINUOUS
 62
             110
  5
17D
 10
320.37287329483615
 20
34.47478956700661
 30
0.0
 11
319.00844242038102
 21
33.687036869828944
 31
0.0
  0
LINE
  8
LY_1
  6
CONTINUOUS
 62
             110
  5
17E
 10
320.2784600873365
 20
34.766675429023962
 30
0.0
 11
318.87122178629397
 21
33.954205752894268
 31
0.0
  0
LINE
  8
LY_1
  6
CONTINUOUS
 62
             110
  5
17F
 10
319.98212893737127
 20
34.942008379081017
 30
0.0
 11
318.92399255042164
 21
34.331089765271827
 31
0.0
  0
LINE
  8
LY_1
  6
CONTINUOUS
 62
             110
  5
180
 10
319.68871893135065
 20
35.11901084599549
 30
0.0
 11
318.89307352521746
 21
34.659645713157715
 31
0.0
  0
LINE
  8
LY_1
  6
CONTINUOUS
 62
               3
  5
181
 10
318.00003566282635
 20
35.403561728115619
 30
0.0
 11
318.2000359131639
 21
35.749973514807152
 31
0.0
  0
LINE
  8
LY_1
  6
CONTINUOUS
 62
               3
  5
182
 10
318.000039319807
 20
30.596413787483016
 30
0.0
 11
318.20003957014455
 21
30.250002000791483
 31
0.0
  0
LINE
  8
LY_1
  6
CONTINUOUS
 62
               3
  5
183
 10
318.19999694824219
 20
30.25
 30
0.0
 11
318.19999694824219
 21
35.75
 31
0.0
  0
LINE
  8
LY_1
  6
CONTINUOUS
 62
               3
  5
184
 10
318.20000457763672
 20
35.75
 30
0.0
 11
321.0
 21
35.75
 31
0.0
  0
LINE
  8
LY_1
  6
CONTINUOUS
 62
               3
  5
185
 10
318.20000457763672
 20
30.25
 30
0.0
 11
321.0
 21
30.25
 31
0.0
  0
LINE
  8
LY_1
  6
CONTINUOUS
 62
               3
  5
186
 10
318.0
 20
30.596408843994141
 30
0.0
 11
318.0
 21
35.403591156005859
 31
0.0
  0
LINE
  8
LY_1
  6
CENTER
 62
             110
  5
187
 10
59.044647216796875
 20
0.0
 30
0.0
 11
352.33871459960937
 21
0.0
 31
0.0
  0
LINE
  8
LY_1
  6
CONTINUOUS
 62
               3
  5
188
 10
328.69999694824219
 20
-96.5
 30
0.0
 11
328.69999694824219
 21
-96.0
 31
0.0
  0
LINE
  8
LY_1
  6
CONTINUOUS
 62
               3
  5
189
 10
330.19999694824219
 20
-98.0
 30
0.0
 11
338.19999694824219
 21
-98.0
 31
0.0
  0
LINE
  8
LY_1
  6
CONTINUOUS
 62
               3
  5
18A
 10
339.69999694824219
 20
-96.5
 30
0.0
 11
339.69999694824219
 21
-96.0
 31
0.0
  0
LINE
  8
LY_1
  6
CONTINUOUS
 62
               3
  5
18B
 10
193.50999450683594
 20
35.0
 30
0.0
 11
264.49000549316406
 21
35.0
 31
0.0
  0
LINE
  8
LY_1
  6
CONTINUOUS
 62
               3
  5
18C
 10
193.50999450683594
 20
29.0
 30
0.0
 11
264.49000549316406
 21
29.0
 31
0.0
  0
LINE
  8
LY_1
  6
CONTINUOUS
 62
               3
  5
18D
 10
190.510009765625
 20
45.346595764160156
 30
0.0
 11
190.510009765625
 21
44.70159912109375
 31
0.0
  0
LINE
  8
LY_1
  6
CONTINUOUS
 62
               3
  5
18E
 10
186.510009765625
 20
45.346595764160156
 30
0.0
 11
186.510009765625
 21
44.70159912109375
 31
0.0
  0
LINE
  8
LY_1
  6
CONTINUOUS
 62
               3
  5
18F
 10
180.50997924804687
 20
45.346595764160156
 30
0.0
 11
180.50997924804687
 21
44.70159912109375
 31
0.0
  0
LINE
  8
LY_1
  6
CONTINUOUS
 62
               3
  5
190
 10
176.50997924804687
 20
45.346595764160156
 30
0.0
 11
176.50997924804687
 21
44.70159912109375
 31
0.0
  0
LINE
  8
LY_1
  6
CENTER
 62
             110
  5
191
 10
183.50997924804687
 20
34.648937225341797
 30
0.0
 11
183.50997924804687
 21
29.60162353515625
 31
0.0
  0
LINE
  8
LY_1
  6
CONTINUOUS
 62
               3
  5
192
 10
188.36546106806185
 20
44.201542658483675
 30
0.0
 11
188.07679538260658
 21
44.701526500950138
 31
0.0
  0
LINE
  8
LY_1
  6
CONTINUOUS
 62
               3
  5
193
 10
188.94277751142727
 20
44.201509604629621
 30
0.0
 11
188.65409656718748
 21
44.701519876097166
 31
0.0
  0
LINE
  8
LY_1
  6
CONTINUOUS
 62
               3
  5
194
 10
190.70999145507812
 20
44.70159912109375
 30
0.0
 11
190.70999145507812
 21
44.20159912109375
 31
0.0
  0
LINE
  8
LY_1
  6
CONTINUOUS
 62
               3
  5
195
 10
186.30999755859375
 20
44.70159912109375
 30
0.0
 11
186.30999755859375
 21
44.20159912109375
 31
0.0
  0
LINE
  8
LY_1
  6
DASHED
 62
               3
  5
196
 10
189.55999755859375
 20
44.70159912109375
 30
0.0
 11
189.55999755859375
 21
44.20159912109375
 31
0.0
  0
LINE
  8
LY_1
  6
DASHED
 62
               3
  5
197
 10
187.45999145507812
 20
44.70159912109375
 30
0.0
 11
187.45999145507812
 21
44.20159912109375
 31
0.0
  0
LINE
  8
LY_1
  6
CONTINUOUS
 62
               3
  5
198
 10
186.30999755859375
 20
44.70159912109375
 30
0.0
 11
190.70999145507812
 21
44.70159912109375
 31
0.0
  0
LINE
  8
LY_1
  6
CONTINUOUS
 62
               3
  5
199
 10
178.365420558925
 20
44.201489507773658
 30
0.0
 11
178.07673961468521
 21
44.701499779241203
 31
0.0
  0
LINE
  8
LY_1
  6
CONTINUOUS
 62
               3
  5
19A
 10
178.94277388625255
 20
44.20151463934917
 30
0.0
 11
178.65410057140502
 21
44.701511696316174
 31
0.0
  0
LINE
  8
LY_1
  6
CONTINUOUS
 62
               3
  5
19B
 10
180.70999145507812
 20
44.70159912109375
 30
0.0
 11
180.70999145507812
 21
44.20159912109375
 31
0.0
  0
LINE
  8
LY_1
  6
CONTINUOUS
 62
               3
  5
19C
 10
176.30999755859375
 20
44.70159912109375
 30
0.0
 11
176.30999755859375
 21
44.20159912109375
 31
0.0
  0
LINE
  8
LY_1
  6
DASHED
 62
               3
  5
19D
 10
179.55999755859375
 20
44.70159912109375
 30
0.0
 11
179.55999755859375
 21
44.20159912109375
 31
0.0
  0
LINE
  8
LY_1
  6
DASHED
 62
               3
  5
19E
 10
177.45999145507812
 20
44.70159912109375
 30
0.0
 11
177.45999145507812
 21
44.20159912109375
 31
0.0
  0
LINE
  8
LY_1
  6
CONTINUOUS
 62
               3
  5
19F
 10
176.30999755859375
 20
44.70159912109375
 30
0.0
 11
180.70999145507812
 21
44.70159912109375
 31
0.0
  0
LINE
  8
LY_1
  6
CENTER
 62
             110
  5
1A0
 10
173.91000366210937
 20
38.401611328125
 30
0.0
 11
173.91000366210937
 21
44.401611328125
 31
0.0
  0
LINE
  8
LY_1
  6
CONTINUOUS
 62
               3
  5
1A1
 10
175.1099853515625
 20
39.20159912109375
 30
0.0
 11
175.1099853515625
 21
39.501617431640625
 31
0.0
  0
LINE
  8
LY_1
  6
CONTINUOUS
 62
               3
  5
1A2
 10
175.1099853515625
 20
39.20159912109375
 30
0.0
 11
172.70999145507812
 21
39.20159912109375
 31
0.0
  0
LINE
  8
LY_1
  6
CONTINUOUS
 62
               3
  5
1A3
 10
172.70999145507812
 20
39.20159912109375
 30
0.0
 11
172.70999145507812
 21
39.501617431640625
 31
0.0
  0
LINE
  8
LY_1
  6
CONTINUOUS
 62
               3
  5
1A4
 10
172.70999145507812
 20
43.301605224609375
 30
0.0
 11
172.70999145507812
 21
43.60162353515625
 31
0.0
  0
LINE
  8
LY_1
  6
CONTINUOUS
 62
               3
  5
1A5
 10
175.1099853515625
 20
43.301605224609375
 30
0.0
 11
175.1099853515625
 21
43.60162353515625
 31
0.0
  0
LINE
  8
LY_1
  6
CONTINUOUS
 62
               3
  5
1A6
 10
175.1099853515625
 20
43.60162353515625
 30
0.0
 11
172.70999145507812
 21
43.60162353515625
 31
0.0
  0
LINE
  8
LY_1
  6
CONTINUOUS
 62
               3
  5
1A7
 10
175.70999145507812
 20
43.001617431640625
 30
0.0
 11
175.70999145507812
 21
43.301605224609375
 31
0.0
  0
LINE
  8
LY_1
  6
CONTINUOUS
 62
               3
  5
1A8
 10
172.1099853515625
 20
43.301605224609375
 30
0.0
 11
172.1099853515625
 21
43.001617431640625
 31
0.0
  0
LINE
  8
LY_1
  6
CONTINUOUS
 62
               3
  5
1A9
 10
175.80999755859375
 20
43.001617431640625
 30
0.0
 11
172.010009765625
 21
43.001617431640625
 31
0.0
  0
LINE
  8
LY_1
  6
CONTINUOUS
 62
               3
  5
1AA
 10
171.50942361506281
 20
42.502239594602997
 30
0.0
 11
172.00942486235476
 21
43.00223940890055
 31
0.0
  0
LINE
  8
LY_1
  6
CONTINUOUS
 62
               3
  5
1AB
 10
171.50997924804687
 20
40.301605224609375
 30
0.0
 11
171.50997924804687
 21
42.501617431640625
 31
0.0
  0
LINE
  8
LY_1
  6
CONTINUOUS
 62
               3
  5
1AC
 10
172.00934666693752
 20
39.800961619179475
 30
0.0
 11
171.50934541964557
 21
40.300961433477028
 31
0.0
  0
LINE
  8
LY_1
  6
CONTINUOUS
 62
               3
  5
1AD
 10
172.1099853515625
 20
39.801605224609375
 30
0.0
 11
172.1099853515625
 21
39.501617431640625
 31
0.0
  0
LINE
  8
LY_1
  6
CONTINUOUS
 62
               3
  5
1AE
 10
175.70999145507812
 20
39.801605224609375
 30
0.0
 11
175.70999145507812
 21
39.501617431640625
 31
0.0
  0
LINE
  8
LY_1
  6
CONTINUOUS
 62
               3
  5
1AF
 10
175.80999755859375
 20
39.801605224609375
 30
0.0
 11
172.00997924804687
 21
39.801605224609375
 31
0.0
  0
LINE
  8
LY_1
  6
CONTINUOUS
 62
               3
  5
1B0
 10
176.31013583137104
 20
40.301494858363043
 30
0.0
 11
175.81014444644751
 21
39.801504063484884
 31
0.0
  0
LINE
  8
LY_1
  6
CONTINUOUS
 62
               3
  5
1B1
 10
176.30999755859375
 20
40.301605224609375
 30
0.0
 11
176.30999755859375
 21
42.501617431640625
 31
0.0
  0
LINE
  8
LY_1
  6
CONTINUOUS
 62
               3
  5
1B2
 10
176.30971805387463
 20
42.501322657449577
 30
0.0
 11
175.80972805979701
 21
43.001312187921371
 31
0.0
  0
LINE
  8
LY_1
  6
CONTINUOUS
 62
               3
  5
1B3
 10
183.70999145507812
 20
43.301605224609375
 30
0.0
 11
183.70999145507812
 21
44.20159912109375
 31
0.0
  0
LINE
  8
LY_1
  6
CONTINUOUS
 62
               3
  5
1B4
 10
184.41000366210937
 20
43.301605224609375
 30
0.0
 11
184.41000366210937
 21
44.20159912109375
 31
0.0
  0
LINE
  8
LY_1
  6
CONTINUOUS
 62
               3
  5
1B5
 10
173.70999145507812
 20
43.60162353515625
 30
0.0
 11
173.70999145507812
 21
44.20159912109375
 31
0.0
  0
LINE
  8
LY_1
  6
CONTINUOUS
 62
               3
  5
1B6
 10
190.80227661132812
 20
43.301605224609375
 30
0.0
 11
190.80227661132812
 21
39.501617431640625
 31
0.0
  0
LINE
  8
LY_1
  6
CONTINUOUS
 62
               3
  5
1B7
 10
190.80227661132812
 20
43.301605224609375
 30
0.0
 11
172.1099853515625
 21
43.301605224609375
 31
0.0
  0
LINE
  8
LY_1
  6
CONTINUOUS
 62
               3
  5
1B8
 10
190.80227661132812
 20
39.501617431640625
 30
0.0
 11
172.1099853515625
 21
39.501617431640625
 31
0.0
  0
LINE
  8
LY_1
  6
CONTINUOUS
 62
               3
  5
1B9
 10
183.70999145507812
 20
38.60162353515625
 30
0.0
 11
183.70999145507812
 21
39.501617431640625
 31
0.0
  0
LINE
  8
LY_1
  6
CONTINUOUS
 62
               3
  5
1BA
 10
184.41000366210937
 20
38.60162353515625
 30
0.0
 11
184.41000366210937
 21
39.501617431640625
 31
0.0
  0
LINE
  8
LY_1
  6
CONTINUOUS
 62
               3
  5
1BB
 10
193.50999450683594
 20
44.20159912109375
 30
0.0
 11
193.50999450683594
 21
38.60162353515625
 31
0.0
  0
LINE
  8
LY_1
  6
CONTINUOUS
 62
               3
  5
1BC
 10
174.20999145507812
 20
38.60162353515625
 30
0.0
 11
174.20999145507812
 21
39.20159912109375
 31
0.0
  0
LINE
  8
LY_1
  6
CONTINUOUS
 62
               3
  5
1BD
 10
193.50999450683594
 20
44.20159912109375
 30
0.0
 11
173.70999145507812
 21
44.20159912109375
 31
0.0
  0
LINE
  8
LY_1
  6
CONTINUOUS
 62
               3
  5
1BE
 10
193.50999450683594
 20
38.60162353515625
 30
0.0
 11
173.50997924804687
 21
38.60162353515625
 31
0.0
  0
LINE
  8
LY_1
  6
CENTER
 62
             110
  5
1BF
 10
188.510009765625
 20
47.004005432128906
 30
0.0
 11
188.510009765625
 21
42.639442443847656
 31
0.0
  0
LINE
  8
LY_1
  6
CENTER
 62
             110
  5
1C0
 10
178.50997924804687
 20
47.004005432128906
 30
0.0
 11
178.50997924804687
 21
42.706588745117187
 31
0.0
  0
LINE
  8
LY_1
  6
CONTINUOUS
 62
               3
  5
1C1
 10
173.50997924804687
 20
25.60162353515625
 30
0.0
 11
193.50999450683594
 21
25.60162353515625
 31
0.0
  0
LINE
  8
LY_1
  6
CONTINUOUS
 62
               3
  5
1C2
 10
193.50999450683594
 20
38.60162353515625
 30
0.0
 11
193.50999450683594
 21
25.60162353515625
 31
0.0
  0
LINE
  8
LY_1
  6
CONTINUOUS
 62
               3
  5
1C3
 10
173.50997924804687
 20
38.60162353515625
 30
0.0
 11
173.50997924804687
 21
25.60162353515625
 31
0.0
  0
LINE
  8
LY_1
  6
CENTER
 62
             110
  5
1C4
 10
316.82823181152344
 20
33.0
 30
0.0
 11
325.05300140380859
 21
33.0
 31
0.0
  0
LINE
  8
LY_1
  6
CENTER
 62
             110
  5
1C5
 10
317.45600891113281
 20
47.0
 30
0.0
 11
324.89996337890625
 21
47.0
 31
0.0
  0
LINE
  8
LY_1
  6
CENTER
 62
             110
  5
1C6
 10
311.5
 20
51.636367797851563
 30
0.0
 11
311.5
 21
28.468231201171875
 31
0.0
  0
LINE
  8
LY_1
  6
CONTINUOUS
 62
               3
  5
1C7
 10
304.99998474121094
 20
30.0
 30
0.0
 11
322.0
 21
30.0
 31
0.0
  0
LINE
  8
LY_1
  6
CONTINUOUS
 62
               3
  5
1C8
 10
304.99998474121094
 20
50.0
 30
0.0
 11
322.0
 21
50.0
 31
0.0
  0
LINE
  8
LY_1
  6
CONTINUOUS
 62
               3
  5
1C9
 10
322.0
 20
28.200000762939453
 30
0.0
 11
321.0
 21
28.200000762939453
 31
0.0
  0
LINE
  8
LY_1
  6
CONTINUOUS
 62
               3
  5
1CA
 10
284.49002075195312
 20
29.0
 30
0.0
 11
321.0
 21
29.0
 31
0.0
  0
LINE
  8
LY_1
  6
CONTINUOUS
 62
               3
  5
1CB
 10
284.49002075195312
 20
35.0
 30
0.0
 11
294.0
 21
35.0
 31
0.0
  0
LINE
  8
LY_1
  6
CONTINUOUS
 62
               3
  5
1CC
 10
321.0
 20
30.0
 30
0.0
 11
321.0
 21
28.200000762939453
 31
0.0
  0
LINE
  8
LY_1
  6
CONTINUOUS
 62
               3
  5
1CD
 10
159.0
 20
35.0
 30
0.0
 11
173.50997924804687
 21
35.0
 31
0.0
  0
LINE
  8
LY_1
  6
CONTINUOUS
 62
               3
  5
1CE
 10
159.0
 20
29.0
 30
0.0
 11
173.50997924804687
 21
29.0
 31
0.0
  0
LINE
  8
LY_1
  6
CENTER
 62
             110
  5
1CF
 10
143.40249633789062
 20
32.0
 30
0.0
 11
295.0
 21
32.0
 31
0.0
  0
LINE
  8
LY_1
  6
CONTINUOUS
 62
               3
  5
1D0
 10
322.0
 20
56.0
 30
0.0
 11
388.0
 21
56.0
 31
0.0
  0
LINE
  8
LY_1
  6
CONTINUOUS
 62
               3
  5
1D1
 10
339.69999694824219
 20
56.5
 30
0.0
 11
339.69999694824219
 21
56.0
 31
0.0
  0
LINE
  8
LY_1
  6
CONTINUOUS
 62
               3
  5
1D2
 10
328.69999694824219
 20
56.5
 30
0.0
 11
328.69999694824219
 21
56.0
 31
0.0
  0
LINE
  8
LY_1
  6
CONTINUOUS
 62
               3
  5
1D3
 10
322.0
 20
-96.0
 30
0.0
 11
388.0
 21
-96.0
 31
0.0
  0
LINE
  8
LY_1
  6
CONTINUOUS
 62
               3
  5
1D4
 10
388.0
 20
20.0
 30
0.0
 11
444.0
 21
20.0
 31
0.0
  0
LINE
  8
LY_1
  6
CONTINUOUS
 62
               3
  5
1D5
 10
388.0
 20
55.0
 30
0.0
 11
444.0
 21
55.0
 31
0.0
  0
LINE
  8
LY_1
  6
CENTER
 62
             110
  5
1D6
 10
334.19999694824219
 20
-94.555877685546875
 30
0.0
 11
334.19999694824219
 21
-99.3787841796875
 31
0.0
  0
LINE
  8
LY_1
  6
CONTINUOUS
 62
               3
  5
1D7
 10
269.00001554272262
 20
38.000011711208344
 30
0.0
 11
270.00001930171038
 21
37.000007952220585
 31
0.0
  0
LINE
  8
LY_1
  6
CONTINUOUS
 62
               3
  5
1D8
 10
269.00001284532436
 20
41.999991680982021
 30
0.0
 11
270.00001390691386
 21
42.999992742571521
 31
0.0
  0
LINE
  8
LY_1
  6
CONTINUOUS
 62
               3
  5
1D9
 10
270.0
 20
43.0
 30
0.0
 11
270.0
 21
37.0
 31
0.0
  0
LINE
  8
LY_1
  6
CONTINUOUS
 62
               3
  5
1DA
 10
269.0
 20
42.072074890136719
 30
0.0
 11
269.0
 21
38.0
 31
0.0
  0
LINE
  8
LY_1
  6
CONTINUOUS
 62
               3
  5
1DB
 10
270.00000762939453
 20
43.0
 30
0.0
 11
274.00000762939453
 21
43.0
 31
0.0
  0
LINE
  8
LY_1
  6
CONTINUOUS
 62
               3
  5
1DC
 10
270.00000762939453
 20
37.0
 30
0.0
 11
274.00000762939453
 21
37.0
 31
0.0
  0
LINE
  8
LY_1
  6
CENTER
 62
             110
  5
1DD
 10
306.70000457763672
 20
46.0
 30
0.0
 11
316.30000305175781
 21
46.0
 31
0.0
  0
LINE
  8
LY_1
  6
CENTER
 62
             110
  5
1DE
 10
306.70000457763672
 20
34.0
 30
0.0
 11
316.30000305175781
 21
34.0
 31
0.0
  0
LINE
  8
LY_1
  6
CONTINUOUS
 62
               3
  5
1DF
 10
294.00000762939453
 20
30.0
 30
0.0
 11
304.99998474121094
 21
30.0
 31
0.0
  0
LINE
  8
LY_1
  6
CONTINUOUS
 62
               3
  5
1E0
 10
294.00000762939453
 20
50.0
 30
0.0
 11
304.99998474121094
 21
50.0
 31
0.0
  0
LINE
  8
LY_1
  6
CENTER
 62
             110
  5
1E1
 10
267.73818969726562
 20
40.0
 30
0.0
 11
325.31349182128906
 21
40.0
 31
0.0
  0
LINE
  8
LY_1
  6
CONTINUOUS
 62
               3
  5
1E2
 10
278.09989192714329
 20
-85.499916991429018
 30
0.0
 11
277.79988876809603
 21
-86.019537438646694
 31
0.0
  0
LINE
  8
LY_1
  6
CONTINUOUS
 62
               3
  5
1E3
 10
278.10000610351562
 20
-85.5
 30
0.0
 11
278.10000610351562
 21
-92.5
 31
0.0
  0
LINE
  8
LY_1
  6
CONTINUOUS
 62
               3
  5
1E4
 10
278.10000610351562
 20
-92.5
 30
0.0
 11
281.80000305175781
 21
-92.5
 31
0.0
  0
LINE
  8
LY_1
  6
CONTINUOUS
 62
               3
  5
1E5
 10
278.10000610351562
 20
-85.5
 30
0.0
 11
281.80000305175781
 21
-85.5
 31
0.0
  0
LINE
  8
LY_1
  6
CONTINUOUS
 62
               3
  5
1E6
 10
277.80000305175781
 20
-86.019607543945313
 30
0.0
 11
277.80000305175781
 21
-91.980392456054687
 31
0.0
  0
LINE
  8
LY_1
  6
CONTINUOUS
 62
               3
  5
1E7
 10
281.80000305175781
 20
-85.5
 30
0.0
 11
281.80000305175781
 21
-92.5
 31
0.0
  0
LINE
  8
LY_1
  6
CONTINUOUS
 62
               3
  5
1E8
 10
283.00012238883164
 20
-30.942458301034549
 30
0.0
 11
281.80010698745991
 21
-31.635287102747952
 31
0.0
  0
LINE
  8
LY_1
  6
CONTINUOUS
 62
               3
  5
1E9
 10
283.000100192633
 20
-30.365103330585498
 30
0.0
 11
281.80010461301208
 21
-31.057920688212562
 31
0.0
  0
LINE
  8
LY_1
  6
CONTINUOUS
 62
               3
  5
1EA
 10
281.80000305175781
 20
-34.5
 30
0.0
 11
281.80000305175781
 21
-27.5
 31
0.0
  0
LINE
  8
LY_1
  6
CONTINUOUS
 62
               3
  5
1EB
 10
281.80000305175781
 20
-34.5
 30
0.0
 11
283.0
 21
-34.5
 31
0.0
  0
LINE
  8
LY_1
  6
CONTINUOUS
 62
               3
  5
1EC
 10
281.80000305175781
 20
-27.5
 30
0.0
 11
283.0
 21
-27.5
 31
0.0
  0
LINE
  8
LY_1
  6
CONTINUOUS
 62
               3
  5
1ED
 10
283.00024991275643
 20
-88.942669089230094
 30
0.0
 11
281.80026796058917
 21
-89.635478579047799
 31
0.0
  0
LINE
  8
LY_1
  6
CONTINUOUS
 62
               3
  5
1EE
 10
283.00019363768138
 20
-88.365351413546591
 30
0.0
 11
281.80019764510729
 21
-89.05816900959212
 31
0.0
  0
LINE
  8
LY_1
  6
CONTINUOUS
 62
               3
  5
1EF
 10
281.80000305175781
 20
-92.5
 30
0.0
 11
283.0
 21
-92.5
 31
0.0
  0
LINE
  8
LY_1
  6
CONTINUOUS
 62
               3
  5
1F0
 10
281.80000305175781
 20
-85.5
 30
0.0
 11
283.0
 21
-85.5
 31
0.0
  0
LINE
  8
LY_1
  6
CONTINUOUS
 62
             110
  5
1F1
 10
280.98041114532816
 20
-32.883208599907903
 30
0.0
 11
279.16115789178048
 21
-31.832862100185139
 31
0.0
  0
LINE
  8
LY_1
  6
CONTINUOUS
 62
             110
  5
1F2
 10
279.04655341380612
 20
-33.271735659046442
 30
0.0
 11
280.93534148962544
 21
-32.181243475509689
 31
0.0
  0
LINE
  8
LY_1
  6
CONTINUOUS
 62
             110
  5
1F3
 10
279.7674717133491
 20
-33.779294900597279
 30
0.0
 11
280.93706064672779
 21
-33.104032489674182
 31
0.0
  0
LINE
  8
LY_1
  6
CONTINUOUS
 62
             110
  5
1F4
 10
280.94836151985464
 20
-32.402831546471589
 30
0.0
 11
279.87999572718354
 21
-31.786010183878261
 31
0.0
  0
LINE
  8
LY_1
  6
CONTINUOUS
 62
             110
  5
1F5
 10
279.24165221512953
 20
-33.620959681966042
 30
0.0
 11
281.01409653256883
 21
-32.597638591227337
 31
0.0
  0
LINE
  8
LY_1
  6
CONTINUOUS
 62
             110
  5
1F6
 10
278.96599101415813
 20
-32.856322353431892
 30
0.0
 11
280.68165593030608
 21
-31.8657828616914
 31
0.0
  0
LINE
  8
LY_1
  6
CONTINUOUS
 62
               3
  5
1F7
 10
211.0
 20
-93.5
 30
0.0
 11
215.0
 21
-93.5
 31
0.0
  0
LINE
  8
LY_1
  6
CONTINUOUS
 62
               3
  5
1F8
 10
210.00023074096271
 20
-92.499735703474016
 30
0.0
 11
211.00023180255221
 21
-93.499736765063517
 31
0.0
  0
LINE
  8
LY_1
  6
CONTINUOUS
 62
               3
  5
1F9
 10
210.0000230412968
 20
-27.500047033310921
 30
0.0
 11
211.0000241028863
 21
-26.50004597172142
 31
0.0
  0
LINE
  8
LY_1
  6
CONTINUOUS
 62
               3
  5
1FA
 10
211.0
 20
-26.5
 30
0.0
 11
215.0
 21
-26.5
 31
0.0
  0
LINE
  8
LY_1
  6
CONTINUOUS
 62
               3
  5
1FB
 10
210.0
 20
-27.5
 30
0.0
 11
210.0
 21
-92.5
 31
0.0
  0
LINE
  8
LY_1
  6
CONTINUOUS
 62
               3
  5
1FC
 10
211.0
 20
-26.5
 30
0.0
 11
211.0
 21
-93.5
 31
0.0
  0
LINE
  8
LY_1
  6
CONTINUOUS
 62
               3
  5
1FD
 10
215.0
 20
-25.5
 30
0.0
 11
215.0
 21
-94.5
 31
0.0
  0
LINE
  8
LY_1
  6
CONTINUOUS
 62
               3
  5
1FE
 10
215.0
 20
-25.5
 30
0.0
 11
283.0
 21
-25.5
 31
0.0
  0
LINE
  8
LY_1
  6
CONTINUOUS
 62
               3
  5
1FF
 10
283.0
 20
-95.0
 30
0.0
 11
322.0
 21
-95.0
 31
0.0
  0
LINE
  8
LY_1
  6
CONTINUOUS
 62
               3
  5
200
 10
283.0
 20
-25.0
 30
0.0
 11
322.0
 21
-25.0
 31
0.0
  0
LINE
  8
LY_1
  6
CENTER
 62
             110
  5
201
 10
275.80000305175781
 20
-31.0
 30
0.0
 11
284.43228149414062
 21
-31.0
 31
0.0
  0
LINE
  8
LY_1
  6
CENTER
 62
             110
  5
202
 10
275.80000305175781
 20
-89.0
 30
0.0
 11
284.78007507324219
 21
-89.0
 31
0.0
  0
LINE
  8
LY_1
  6
CONTINUOUS
 62
               3
  5
203
 10
290.0
 20
-25.0
 30
0.0
 11
290.0
 21
-95.0
 31
0.0
  0
LINE
  8
LY_1
  6
CONTINUOUS
 62
               3
  5
204
 10
283.0
 20
-25.0
 30
0.0
 11
283.0
 21
-95.0
 31
0.0
  0
LINE
  8
LY_1
  6
CONTINUOUS
 62
               3
  5
205
 10
215.0
 20
-94.5
 30
0.0
 11
283.0
 21
-94.5
 31
0.0
  0
LINE
  8
LY_1
  6
CONTINUOUS
 62
             110
  5
206
 10
280.9804422492175
 20
-90.883348072074568
 30
0.0
 11
279.16118899566982
 21
-89.833001572351804
 31
0.0
  0
LINE
  8
LY_1
  6
CONTINUOUS
 62
             110
  5
207
 10
280.854497308688
 20
-33.27242503696084
 30
0.0
 11
278.97817724240963
 21
-32.18913099302722
 31
0.0
  0
LINE
  8
LY_1
  6
CONTINUOUS
 62
               3
  5
208
 10
278.10021952207342
 20
-34.499868657782713
 30
0.0
 11
277.80021636302615
 21
-33.980248210565037
 31
0.0
  0
LINE
  8
LY_1
  6
CONTINUOUS
 62
             110
  5
209
 10
280.06822474226783
 20
-91.742316168985326
 30
0.0
 11
279.00735157037207
 21
-91.129820673606901
 31
0.0
  0
LINE
  8
LY_1
  6
CONTINUOUS
 62
               3
  5
20A
 10
322.0
 20
-25.0
 30
0.0
 11
322.0
 21
-96.0
 31
0.0
  0
LINE
  8
LY_1
  6
CENTER
 62
             110
  5
20B
 10
200.79156494140625
 20
-60.0
 30
0.0
 11
329.629150390625
 21
-60.0
 31
0.0
  0
LINE
  8
LY_1
  6
CONTINUOUS
 62
             110
  5
20C
 10
280.45938265286304
 20
-91.506278133934302
 30
0.0
 11
279.04854991131424
 21
-90.691733359098635
 31
0.0
  0
LINE
  8
LY_1
  6
CONTINUOUS
 62
             110
  5
20D
 10
280.85449169857611
 20
-91.27252128812006
 30
0.0
 11
278.97819145404583
 21
-90.189238688279602
 31
0.0
  0
LINE
  8
LY_1
  6
CONTINUOUS
 62
             110
  5
20E
 10
279.02573804539998
 20
-32.360007085064353
 30
0.0
 11
280.05724867212984
 21
-31.764464212846633
 31
0.0
  0
LINE
  8
LY_1
  6
CONTINUOUS
 62
             110
  5
20F
 10
279.04659258494712
 20
-91.271840177900629
 30
0.0
 11
280.93538107371955
 21
-90.181347755945296
 31
0.0
  0
LINE
  8
LY_1
  6
CONTINUOUS
 62
             110
  5
210
 10
279.02577102224427
 20
-90.360115180196999
 30
0.0
 11
280.05728164897414
 21
-89.764572307979279
 31
0.0
  0
LINE
  8
LY_1
  6
CONTINUOUS
 62
             110
  5
211
 10
280.94835298024782
 20
-90.402948130451932
 30
0.0
 11
279.87998718757672
 21
-89.786126767858605
 31
0.0
  0
LINE
  8
LY_1
  6
CONTINUOUS
 62
             110
  5
212
 10
278.96607495999638
 20
-90.85645387960102
 30
0.0
 11
280.68173987614432
 21
-89.865914387860528
 31
0.0
  0
LINE
  8
LY_1
  6
CONTINUOUS
 62
               3
  5
213
 10
278.10034507483442
 20
-92.499753222748495
 30
0.0
 11
277.80034191578716
 21
-91.980132775530819
 31
0.0
  0
LINE
  8
LY_1
  6
CONTINUOUS
 62
             110
  5
214
 10
280.45940338482251
 20
-33.506186208545842
 30
0.0
 11
279.04855742877498
 21
-32.691633804314733
 31
0.0
  0
LINE
  8
LY_1
  6
CONTINUOUS
 62
             110
  5
215
 10
280.06817940173369
 20
-33.742186096619662
 30
0.0
 11
279.00731944433664
 21
-33.129698230636677
 31
0.0
  0
LINE
  8
LY_1
  6
CONTINUOUS
 62
               3
  5
216
 10
277.80000305175781
 20
-28.019615173339844
 30
0.0
 11
277.80000305175781
 21
-33.980384826660156
 31
0.0
  0
LINE
  8
LY_1
  6
CONTINUOUS
 62
               3
  5
217
 10
278.10001596504048
 20
-27.500000718021738
 30
0.0
 11
277.80002043539048
 21
-28.019607950742511
 31
0.0
  0
LINE
  8
LY_1
  6
CONTINUOUS
 62
             110
  5
218
 10
279.76753403034149
 20
-91.779350817525653
 30
0.0
 11
280.93712296372018
 21
-91.104088406602557
 31
0.0
  0
LINE
  8
LY_1
  6
CONTINUOUS
 62
               3
  5
219
 10
278.10000610351562
 20
-27.5
 30
0.0
 11
281.80000305175781
 21
-27.5
 31
0.0
  0
LINE
  8
LY_1
  6
CONTINUOUS
 62
               3
  5
21A
 10
278.10000610351562
 20
-27.5
 30
0.0
 11
278.10000610351562
 21
-34.5
 31
0.0
  0
LINE
  8
LY_1
  6
CONTINUOUS
 62
               3
  5
21B
 10
278.10000610351562
 20
-34.5
 30
0.0
 11
281.80000305175781
 21
-34.5
 31
0.0
  0
LINE
  8
LY_1
  6
CONTINUOUS
 62
             110
  5
21C
 10
279.24174640715364
 20
-91.621041244167998
 30
0.0
 11
281.01422087017022
 21
-90.597702748874042
 31
0.0
  0
LINE
  8
LY_1
  6
CONTINUOUS
 62
               3
  5
21D
 10
322.0
 20
-18.499992370605469
 30
0.0
 11
322.0
 21
-25.0
 31
0.0
  0
LINE
  8
LY_1
  6
CONTINUOUS
 62
               3
  5
21E
 10
322.0
 20
-18.5
 30
0.0
 11
322.0
 21
18.5
 31
0.0
  0
LINE
  8
LY_1
  6
CONTINUOUS
 62
               3
  5
21F
 10
316.50001202025874
 20
19.000007725397381
 30
0.0
 11
317.00000176146045
 21
18.500017984195665
 31
0.0
  0
LINE
  8
LY_1
  6
CONTINUOUS
 62
               3
  5
220
 10
316.49992376508681
 20
-18.999942210452218
 30
0.0
 11
316.99992332650299
 21
-18.499940710278906
 31
0.0
  0
LINE
  8
LY_1
  6
CONTINUOUS
 62
               3
  5
221
 10
321.50000114381669
 20
19.000013120193898
 30
0.0
 11
322.00000167461144
 21
18.500012589399148
 31
0.0
  0
LINE
  8
LY_1
  6
CONTINUOUS
 62
               3
  5
222
 10
316.99990699428281
 20
18.500090582156645
 30
0.0
 11
317.49990760937135
 21
19.000091070804501
 31
0.0
  0
LINE
  8
LY_1
  6
CONTINUOUS
 62
               3
  5
223
 10
321.499941801055
 20
-18.999957087852408
 30
0.0
 11
321.99994233184975
 21
-18.499956557057658
 31
0.0
  0
LINE
  8
LY_1
  6
CONTINUOUS
 62
               3
  5
224
 10
316.9999539458513
 20
-18.500069953146181
 30
0.0
 11
317.49995430805848
 21
-19.000070694675401
 31
0.0
  0
LINE
  8
LY_1
  6
CONTINUOUS
 62
               3
  5
225
 10
317.5
 20
-19.0
 30
0.0
 11
321.49995422363281
 21
-19.0
 31
0.0
  0
LINE
  8
LY_1
  6
CONTINUOUS
 62
               3
  5
226
 10
317.49993133544922
 20
19.0
 30
0.0
 11
321.5
 21
19.0
 31
0.0
  0
LINE
  8
LY_1
  6
CONTINUOUS
 62
               3
  5
227
 10
132.00002288818359
 20
-19.0
 30
0.0
 11
316.49993896484375
 21
-19.0
 31
0.0
  0
LINE
  8
LY_1
  6
CONTINUOUS
 62
               3
  5
228
 10
132.00002288818359
 20
19.0
 30
0.0
 11
316.50003051757813
 21
19.0
 31
0.0
  0
LINE
  8
LY_1
  6
CENTER
 62
             110
  5
229
 10
104.3499755859375
 20
-29.349998474121094
 30
0.0
 11
128.34999084472656
 21
-29.349998474121094
 31
0.0
  0
LINE
  8
LY_1
  6
CENTER
 62
             110
  5
22A
 10
104.3499755859375
 20
29.349998474121094
 30
0.0
 11
128.34999084472656
 21
29.349998474121094
 31
0.0
  0
LINE
  8
LY_1
  6
CONTINUOUS
 62
               3
  5
22B
 10
122.69994072604112
 20
-33.849938273481257
 30
0.0
 11
121.89993360530588
 21
-34.649941550399035
 31
0.0
  0
LINE
  8
LY_1
  6
CONTINUOUS
 62
               3
  5
22C
 10
110.00012206978984
 20
-33.849896685476722
 30
0.0
 11
110.80012534670762
 21
-34.649903738776572
 31
0.0
  0
LINE
  8
LY_1
  6
CONTINUOUS
 62
               3
  5
22D
 10
110.80034917785179
 20
34.649679463250322
 30
0.0
 11
110.00019673553561
 21
33.849519399295787
 31
0.0
  0
LINE
  8
LY_1
  6
CONTINUOUS
 62
               3
  5
22E
 10
122.69991813560273
 20
33.849818637009321
 30
0.0
 11
121.89991101486748
 21
34.649821913927099
 31
0.0
  0
LINE
  8
LY_1
  6
CONTINUOUS
 62
               3
  5
22F
 10
122.69999694824219
 20
-33.849952697753906
 30
0.0
 11
122.69999694824219
 21
33.850002288818359
 31
0.0
  0
LINE
  8
LY_1
  6
CONTINUOUS
 62
               3
  5
230
 10
110.0
 20
-33.849945068359375
 30
0.0
 11
110.0
 21
33.850002288818359
 31
0.0
  0
LINE
  8
LY_1
  6
CONTINUOUS
 62
               3
  5
231
 10
110.79998779296875
 20
34.650001525878906
 30
0.0
 11
121.89999389648437
 21
34.650001525878906
 31
0.0
  0
LINE
  8
LY_1
  6
CONTINUOUS
 62
               3
  5
232
 10
110.79998779296875
 20
-34.650001525878906
 30
0.0
 11
121.89999389648437
 21
-34.650001525878906
 31
0.0
  0
LINE
  8
LY_1
  6
CONTINUOUS
 62
               3
  5
233
 10
81.0
 20
-6.0
 30
0.0
 11
110.0
 21
-6.0
 31
0.0
  0
LINE
  8
LY_1
  6
CONTINUOUS
 62
               3
  5
234
 10
81.0
 20
-6.0
 30
0.0
 11
81.0
 21
6.0
 31
0.0
  0
LINE
  8
LY_1
  6
CONTINUOUS
 62
               3
  5
235
 10
61.0
 20
3.0
 30
0.0
 11
61.0
 21
-4.0
 31
0.0
  0
LINE
  8
LY_1
  6
CONTINUOUS
 62
               3
  5
236
 10
60.000120055706248
 20
-2.9998402986848305
 30
0.0
 11
61.000121117295748
 21
-3.9998413602743312
 31
0.0
  0
LINE
  8
LY_1
  6
CONTINUOUS
 62
               3
  5
237
 10
60.0
 20
3.0
 30
0.0
 11
80.0
 21
3.0
 31
0.0
  0
LINE
  8
LY_1
  6
CONTINUOUS
 62
               3
  5
238
 10
61.0
 20
-4.0
 30
0.0
 11
80.0
 21
-4.0
 31
0.0
  0
LINE
  8
LY_1
  6
CONTINUOUS
 62
               3
  5
239
 10
79.999849714298762
 20
5.0001228437722602
 30
0.0
 11
80.999854653402508
 21
6.0001201121413033
 31
0.0
  0
LINE
  8
LY_1
  6
CONTINUOUS
 62
               3
  5
23A
 10
81.0
 20
6.0
 30
0.0
 11
110.0
 21
6.0
 31
0.0
  0
LINE
  8
LY_1
  6
CONTINUOUS
 62
               3
  5
23B
 10
80.0
 20
-5.0
 30
0.0
 11
80.0
 21
5.0
 31
0.0
  0
LINE
  8
LY_1
  6
CONTINUOUS
 62
               3
  5
23C
 10
60.0
 20
3.0
 30
0.0
 11
60.0
 21
-3.0
 31
0.0
  0
LINE
  8
LY_1
  6
CONTINUOUS
 62
               3
  5
23D
 10
1.7500322010121181
 20
-6.5317770906083297
 30
0.0
 11
2.8982638442396365
 21
-8.5205723627584575
 31
0.0
  0
LINE
  8
LY_1
  6
CONTINUOUS
 62
               3
  5
23E
 10
-2.8987231802702809
 20
-8.5203354690338529
 30
0.0
 11
-1.7504991664382032
 21
-6.5315534113824469
 31
0.0
  0
LINE
  8
LY_1
  6
CONTINUOUS
 62
               3
  5
23F
 10
-2.645751953125
 20
3.0
 30
0.0
 11
2.645751953125
 21
3.0
 31
0.0
  0
LINE
  8
LY_1
  6
CONTINUOUS
 62
               3
  5
240
 10
1.0
 20
-24.129287719726563
 30
0.0
 11
1.0
 21
-34.635566711425781
 31
0.0
  0
LINE
  8
LY_1
  6
CONTINUOUS
 62
               3
  5
241
 10
-1.0
 20
-24.129287719726563
 30
0.0
 11
-1.0
 21
-34.635566711425781
 31
0.0
  0
LINE
  8
LY_1
  6
CONTINUOUS
 62
               3
  5
242
 10
1.0
 20
34.635566711425781
 30
0.0
 11
1.0
 21
24.129287719726563
 31
0.0
  0
LINE
  8
LY_1
  6
CONTINUOUS
 62
               3
  5
243
 10
-1.0
 20
34.635566711425781
 30
0.0
 11
-1.0
 21
24.129287719726563
 31
0.0
  0
LINE
  8
LY_1
  6
CENTER
 62
             110
  5
244
 10
18.423625808095949
 20
-31.913750413341404
 30
0.0
 11
10.923643302054643
 21
-18.92339423059093
 31
0.0
  0
LINE
  8
LY_1
  6
CENTER
 62
             110
  5
245
 10
-18.425737004994517
 20
-31.912602608548696
 30
0.0
 11
-10.925750475647874
 21
-18.922249108001779
 31
0.0
  0
LINE
  8
LY_1
  6
CENTER
 62
             110
  5
246
 10
-18.425243382358985
 20
31.912942251037293
 30
0.0
 11
-10.925250117684755
 21
18.922574641923802
 31
0.0
  0
LINE
  8
LY_1
  6
CENTER
 62
             110
  5
247
 10
18.423354417796872
 20
31.913904565517441
 30
0.0
 11
10.923357576847593
 21
18.923539638610237
 31
0.0
  0
LINE
  8
LY_1
  6
CENTER
 62
             110
  5
248
 10
0.0
 20
40.0
 30
0.0
 11
0.0
 21
-40.0
 31
0.0
  0
LINE
  8
LY_1
  6
CENTER
 62
             110
  5
249
 10
-40.0
 20
0.0
 30
0.0
 11
40.0
 21
0.0
 31
0.0
  0
ENDSEC
  0
EOF
