  0
SECTION
  2
HEADER
  9
$ACADVER
  1
AC1009
  9
$DWGCODEPAGE
  3
dos932
  9
$INSBASE
 10
0.0
 20
0.0
 30
0.0
  9
$EXTMIN
 10
-39.649993896484375
 20
-121.0
 30
0.0
  9
$EXTMAX
 10
381.0
 20
69.233333110809326
 30
0.0
  9
$LIMMIN
 10
-39.649993896484375
 20
-121.0
  9
$LIMMAX
 10
381.0
 20
69.233333110809326
  9
$ORTHOMODE
 70
               0
  9
$REGENMODE
 70
               1
  9
$FILLMODE
 70
               1
  9
$QTEXTMODE
 70
               0
  9
$MIRRTEXT
 70
               1
  9
$DRAGMODE
 70
               2
  9
$LTSCALE
 40
1.0
  9
$OSMODE
 70
               0
  9
$ATTMODE
 70
               1
  9
$TEXTSIZE
 40
3.2000000476837158
  9
$TRACEWID
 40
0.05
  9
$TEXTSTYLE
  7
MX_NOTE_STANDARD
  9
$CLAYER
  8
0
  9
$CELTYPE
  6
CONTINUOUS
  9
$CECOLOR
 62
             256
  9
$DIMSCALE
 40
1.0
  9
$DIMASZ
 40
2.5
  9
$DIMEXO
 40
2.0
  9
$DIMDLI
 40
3.75
  9
$DIMRND
 40
0.0
  9
$DIMDLE
 40
0.0
  9
$DIMEXE
 40
1.0
  9
$DIMTP
 40
0.0
  9
$DIMTM
 40
0.0
  9
$DIMTXT
 40
4.1655998229980469
  9
$DIMCEN
 40
2.5
  9
$DIMTSZ
 40
0.0
  9
$DIMTOL
 70
               0
  9
$DIMLIM
 70
               0
  9
$DIMTIH
 70
               0
  9
$DIMTOH
 70
               0
  9
$DIMSE1
 70
               0
  9
$DIMSE2
 70
               0
  9
$DIMTAD
 70
               1
  9
$DIMZIN
 70
               8
  9
$DIMBLK
  1

  9
$DIMASO
 70
               1
  9
$DIMSHO
 70
               1
  9
$DIMPOST
  1

  9
$DIMAPOST
  1

  9
$DIMALT
 70
               0
  9
$DIMALTD
 70
               4
  9
$DIMALTF
 40
0.03937007874016
  9
$DIMLFAC
 40
1.0
  9
$DIMTOFL
 70
               1
  9
$DIMTVP
 40
0.0
  9
$DIMTIX
 70
               0
  9
$DIMSOXD
 70
               0
  9
$DIMSAH
 70
               1
  9
$DIMBLK1
  1
_OPEN30
  9
$DIMBLK2
  1
_OPEN30
  9
$DIMSTYLE
  2
MXDIMSTYLE
  9
$DIMCLRD
 70
               0
  9
$DIMCLRE
 70
               0
  9
$DIMCLRT
 70
               0
  9
$DIMTFAC
 40
1.0
  9
$DIMGAP
 40
1.0
  9
$LUNITS
 70
               2
  9
$LUPREC
 70
               4
  9
$AXISMODE
 70
               0
  9
$AXISUNIT
 10
0.0
 20
0.0
  9
$SKETCHINC
 40
0.1
  9
$FILLETRAD
 40
0.0
  9
$AUNITS
 70
               0
  9
$AUPREC
 70
               0
  9
$MENU
  1
acad
  9
$ELEVATION
 40
0.0
  9
$PELEVATION
 40
0.0
  9
$THICKNESS
 40
0.0
  9
$LIMCHECK
 70
               0
  9
$BLIPMODE
 70
               1
  9
$CHAMFERA
 40
0.0
  9
$CHAMFERB
 40
0.0
  9
$SKPOLY
 70
               0
  9
$TDCREATE
 40
2455216.573032408
  9
$TDUPDATE
 40
2455216.573032408
  9
$TDINDWG
 40
0.0000000000
  9
$TDUSRTIMER
 40
0.0000000000
  9
$USRTIMER
 70
               1
  9
$ANGBASE
 50
0.0
  9
$ANGDIR
 70
               0
  9
$PDMODE
 70
               0
  9
$PDSIZE
 40
0.0
  9
$PLINEWID
 40
0.0
  9
$COORDS
 70
               1
  9
$SPLFRAME
 70
               0
  9
$SPLINETYPE
 70
               6
  9
$SPLINESEGS
 70
               8
  9
$ATTDIA
 70
               0
  9
$ATTREQ
 70
               1
  9
$HANDLING
 70
               1
  9
$HANDSEED
  5
231
  9
$SURFTAB1
 70
               6
  9
$SURFTAB2
 70
               6
  9
$SURFTYPE
 70
               6
  9
$SURFU
 70
               6
  9
$SURFV
 70
               6
  9
$UCSNAME
  2

  9
$UCSORG
 10
0.0
 20
0.0
 30
0.0
  9
$UCSXDIR
 10
1.0
 20
0.0
 30
0.0
  9
$UCSYDIR
 10
0.0
 20
1.0
 30
0.0
  9
$PUCSNAME
  2

  9
$PUCSORG
 10
0.0
 20
0.0
 30
0.0
  9
$PUCSXDIR
 10
1.0
 20
0.0
 30
0.0
  9
$PUCSYDIR
 10
0.0
 20
1.0
 30
0.0
  9
$USERI1
 70
               0
  9
$USERI2
 70
               0
  9
$USERI3
 70
               0
  9
$USERI4
 70
               0
  9
$USERI5
 70
               0
  9
$USERR1
 40
0.0
  9
$USERR2
 40
0.0
  9
$USERR3
 40
0.0
  9
$USERR4
 40
0.0
  9
$USERR5
 40
0.0
  9
$WORLDVIEW
 70
               1
  9
$SHADEDGE
 70
               3
  9
$SHADEDIF
 70
              70
  9
$TILEMODE
 70
               1
  9
$MAXACTVP
 70
              16
  9
$PINSBASE
 10
0.0
 20
0.0
 30
0.0
  9
$PLIMCHECK
 70
               0
  9
$PEXTMIN
 10
1.0000000000000000E+20
 20
1.0000000000000000E+20
 30
1.0000000000000000E+20
  9
$PEXTMAX
 10
-1.0000000000000000E+20
 20
-1.0000000000000000E+20
 30
-1.0000000000000000E+20
  9
$PLIMMIN
 10
0.0
 20
0.0
  9
$PLIMMAX
 10
12.0
 20
9.0
  9
$UNITMODE
 70
               0
  9
$VISRETAIN
 70
               0
  9
$PLINEGEN
 70
               1
  9
$PSLTSCALE
 70
               0
  9
$TREEDEPTH
 70
            3020
  0
ENDSEC
  0
SECTION
  2
TABLES
  0
TABLE
  2
VPORT
 70
               1
  0
VPORT
  2
*ACTIVE
 70
               0
 10
0.0
 20
0.0
 11
1.0
 21
1.0
 12
170.67500305175781
 22
-25.883333444595337
 13
0.0
 23
0.0
 14
1.0
 24
1.0
 15
0.0
 25
0.0
 16
0.0
 26
0.0
 36
1.0
 17
0.0
 27
0.0
 37
0.0
 40
192.13566644191741
 41
1.7320508075688772
 42
50.0
 43
0.0
 44
0.0
 50
0.0
 51
0.0
 71
               0
 72
             100
 73
               1
 74
               1
 75
               0
 76
               0
 77
               0
 78
               0
  0
ENDTAB
  0
TABLE
  2
LTYPE
 70
               3
  0
LTYPE
  2
CONTINUOUS
 70
              64
  3
Solid line
 72
              65
 73
               0
 40
0.0
  0
LTYPE
  2
CENTER
 70
              64
  3
Center ____ _ ____ _ ____ _ ____ _ ____ _ ____
 72
              65
 73
               4
 40
50.800000000000004
 49
31.75
 49
-6.3499999999999996
 49
6.3499999999999996
 49
-6.3499999999999996
  0
LTYPE
  2
DASHED
 70
              64
  3
Dashed __ __ __ __ __ __ __ __ __ __ __ __ __ _
 72
              65
 73
               2
 40
19.049999999999997
 49
12.699999999999999
 49
-6.3499999999999996
  0
ENDTAB
  0
TABLE
  2
LAYER
 70
               3
  0
LAYER
  2
0
 70
               0
 62
               7
  6
CONTINUOUS
  0
LAYER
  2
DEFPOINTS
 70
               0
 62
               7
  6
CONTINUOUS
  0
LAYER
  2
LY_3
 70
               0
 62
               7
  6
CONTINUOUS
  0
ENDTAB
  0
TABLE
  2
STYLE
 70
               3
  0
STYLE
  2
MX_NOTE_STANDARD
 70
               0
 40
0.0
 41
1.0
 50
0.0
 71
               0
 42
3.2000000476837158
  3
txt.shx
  4
extfont.shx
  0
STYLE
  2
MX_DIMTXSTY_2
 70
               0
 40
0.0
 41
0.8500000000000001
 50
0.0
 71
               0
 42
3.2000000476837158
  3
txt.shx
  4
extfont.shx
  0
STYLE
  2
MX_DIMTXSTY_3
 70
               0
 40
0.0
 41
1.05
 50
0.0
 71
               0
 42
3.2000000476837158
  3
txt.shx
  4
extfont.shx
  0
ENDTAB
  0
TABLE
  2
VIEW
 70
               0
  0
ENDTAB
  0
TABLE
  2
UCS
 70
               0
  0
ENDTAB
  0
TABLE
  2
APPID
 70
               1
  0
APPID
  2
ACAD
 70
               0
  0
ENDTAB
  0
TABLE
  2
DIMSTYLE
 70
               1
  0
DIMSTYLE
  2
MXDIMSTYLE
 70
               0
  3

  4

  5

  6
_OPEN30
  7
_OPEN30
 40
1.0
 41
2.5
 42
2.0
 43
3.75
 44
1.0
 45
0.0
 46
0.0
 47
0.0
 48
0.0
 71
               0
 72
               0
 73
               0
 74
               0
 75
               0
 76
               0
 77
               1
 78
               8
140
4.1655998229980469
141
2.5
142
0.0
143
0.03937007874016
144
1.0
145
0.0
146
1.0
147
1.0
170
               0
171
               4
172
               1
173
               1
174
               0
175
               0
176
               0
177
               0
178
               0
  0
ENDTAB
  0
ENDSEC
  0
SECTION
  2
BLOCKS
  0
BLOCK
  8
0
  5
26
  2
*U0
 70
               1
 10
0.0
 20
0.0
 30
0.0
  3
*U0
  0
LINE
  8
0
  6
CONTINUOUS
 62
             110
  5
27
 10
0.0
 20
0.0
 30
0.0
 11
-1.0
 21
0.0
 31
0.0
  0
LINE
  8
0
  6
CONTINUOUS
 62
             110
  5
28
 10
0.0
 20
0.0
 30
0.0
 11
-1.0
 21
-0.267949
 31
0.0
  0
LINE
  8
0
  6
CONTINUOUS
 62
             110
  5
29
 10
-1.0
 20
0.267949
 30
0.0
 11
0.0
 21
0.0
 31
0.0
  0
ENDBLK
  8
0
  5
2A
  0
BLOCK
  8
0
  6
BYBLOCK
 62
               0
  5
21
  2
_OPEN30
 70
               2
 10
0.0
 20
0.0
 30
0.0
  3
_OPEN30
  0
LINE
  8
0
  6
BYBLOCK
 62
               0
  5
22
 10
-1.0
 20
0.267949
 30
0.0
 11
0.0
 21
0.0
 31
0.0
  0
LINE
  8
0
  6
BYBLOCK
 62
               0
  5
23
 10
0.0
 20
0.0
 30
0.0
 11
-1.0
 21
-0.267949
 31
0.0
  0
LINE
  8
0
  6
BYBLOCK
 62
               0
  5
24
 10
0.0
 20
0.0
 30
0.0
 11
-1.0
 21
0.0
 31
0.0
  0
ENDBLK
  8
0
  6
BYBLOCK
 62
               0
  5
25
  0
BLOCK
  8
0
  6
BYBLOCK
 62
               0
  5
191
  2
*D2
 70
               1
 10
0.0
 20
0.0
 30
0.0
  3
*D2
  0
LINE
  8
0
  6
CONTINUOUS
 62
             110
  5
192
 10
50.0
 20
3.0
 30
0.0
 11
50.0
 21
-4.0
 31
0.0
  0
LINE
  8
0
  6
CONTINUOUS
 62
             110
  5
193
 10
50.0
 20
13.850002527236938
 30
0.0
 11
50.0
 21
3.0
 31
0.0
  0
LINE
  8
0
  6
CONTINUOUS
 62
             110
  5
194
 10
5.1857519149780273
 20
3.0
 30
0.0
 11
52.286017417907715
 21
3.0
 31
0.0
  0
LINE
  8
0
  6
CONTINUOUS
 62
             110
  5
195
 10
2.5399999618530273
 20
-4.0
 30
0.0
 11
52.286016464233398
 21
-4.0
 31
0.0
  0
LINE
  8
0
  6
CONTINUOUS
 62
             110
  5
196
 10
50.0
 20
3.0
 30
0.0
 11
50.0
 21
7.0
 31
0.0
  0
LINE
  8
0
  6
CONTINUOUS
 62
             110
  5
197
 10
50.0
 20
-4.0
 30
0.0
 11
50.0
 21
-8.0
 31
0.0
  0
INSERT
  8
0
  6
CONTINUOUS
 62
             110
  5
198
  2
_OPEN30
 10
50.0
 20
3.0
 30
0.0
 41
2.77
 42
2.77
 50
270.0
 43
2.77
  0
INSERT
  8
0
  6
CONTINUOUS
 62
             110
  5
199
  2
_OPEN30
 10
50.0
 20
-4.0
 30
0.0
 41
2.77
 42
2.77
 50
90.0
 43
2.77
  0
TEXT
  8
0
  6
CONTINUOUS
 62
             110
  5
19A
 10
49.0
 20
8.8023723524716448
 30
0.0
 40
6.3000001907348633
  1
7
 50
90.000000000000014
 41
0.9070211243686402
  7
MX_NOTE_STANDARD
 11
45.849999904632568
 21
8.8023723524716448
 31
0.0
 73
               2
  0
POINT
  8
DEFPOINTS
  6
CONTINUOUS
 62
               0
  5
19B
 10
2.645751953125
 20
3.0
 30
0.0
  0
POINT
  8
DEFPOINTS
  6
CONTINUOUS
 62
               0
  5
19C
 10
0.0
 20
-4.0
 30
0.0
  0
POINT
  8
DEFPOINTS
  6
CONTINUOUS
 62
               0
  5
19D
 10
50.0
 20
-4.0
 30
0.0
  0
ENDBLK
  8
0
  6
BYBLOCK
 62
               0
  5
19E
  0
BLOCK
  8
0
  6
BYBLOCK
 62
               0
  5
1AA
  2
*D3
 70
               1
 10
0.0
 20
0.0
 30
0.0
  3
*D3
  0
LINE
  8
0
  6
CONTINUOUS
 62
             110
  5
1AB
 10
355.00000381469727
 20
-120.0
 30
0.0
 11
120.0
 21
-120.0
 31
0.0
  0
LINE
  8
0
  6
CONTINUOUS
 62
             110
  5
1AC
 10
355.00000381469727
 20
-98.0
 30
0.0
 11
355.00000381469727
 21
-121.0
 31
0.0
  0
LINE
  8
0
  6
CONTINUOUS
 62
             110
  5
1AD
 10
120.0
 20
-35.850006103515625
 30
0.0
 11
120.0
 21
-121.0
 31
0.0
  0
INSERT
  8
0
  6
CONTINUOUS
 62
             110
  5
1AE
  2
_OPEN30
 10
355.00000381469727
 20
-120.0
 30
0.0
 41
2.77
 42
2.77
 43
2.77
  0
INSERT
  8
0
  6
CONTINUOUS
 62
             110
  5
1AF
  2
_OPEN30
 10
120.0
 20
-120.0
 30
0.0
 41
2.77
 42
2.77
 50
180.0
 43
2.77
  0
TEXT
  8
0
  6
CONTINUOUS
 62
             110
  5
1B0
 10
234.00000381469727
 20
-119.0
 30
0.0
 40
3.2000000476837158
  1
235
 41
0.9374999860301616
  7
MX_NOTE_STANDARD
 11
234.00000381469727
 21
-117.39999997615814
 31
0.0
 73
               2
  0
POINT
  8
DEFPOINTS
  6
CONTINUOUS
 62
               0
  5
1B1
 10
355.00000381469727
 20
-96.0
 30
0.0
  0
POINT
  8
DEFPOINTS
  6
CONTINUOUS
 62
               0
  5
1B2
 10
120.0
 20
-33.850006103515625
 30
0.0
  0
POINT
  8
DEFPOINTS
  6
CONTINUOUS
 62
               0
  5
1B3
 10
120.0
 20
-120.0
 30
0.0
  0
ENDBLK
  8
0
  6
BYBLOCK
 62
               0
  5
1B4
  0
BLOCK
  8
0
  6
BYBLOCK
 62
               0
  5
1BB
  2
*D4
 70
               1
 10
0.0
 20
0.0
 30
0.0
  3
*D4
  0
LINE
  8
0
  6
CONTINUOUS
 62
             110
  5
1BC
 10
120.0
 20
-120.0
 30
0.0
 11
70.0
 21
-120.0
 31
0.0
  0
LINE
  8
0
  6
CONTINUOUS
 62
             110
  5
1BD
 10
70.0
 20
-5.0
 30
0.0
 11
70.0
 21
-121.0
 31
0.0
  0
INSERT
  8
0
  6
CONTINUOUS
 62
             110
  5
1BE
  2
_OPEN30
 10
120.0
 20
-120.0
 30
0.0
 41
2.77
 42
2.77
 43
2.77
  0
INSERT
  8
0
  6
CONTINUOUS
 62
             110
  5
1BF
  2
_OPEN30
 10
70.0
 20
-120.0
 30
0.0
 41
2.77
 42
2.77
 50
180.0
 43
2.77
  0
TEXT
  8
0
  6
CONTINUOUS
 62
             110
  5
1C1
 10
72.367493220074238
 20
-119.0
 30
0.0
 40
5.1999998092651367
  1
50+50ストローク
 41
1.0340073716084532
  7
MX_DIMTXSTY_2
 11
72.367493220074238
 21
-116.40000009536743
 31
0.0
 73
               2
  0
POINT
  8
DEFPOINTS
  6
CONTINUOUS
 62
               0
  5
1C2
 10
120.0
 20
-35.850006103515625
 30
0.0
  0
POINT
  8
DEFPOINTS
  6
CONTINUOUS
 62
               0
  5
1C3
 10
70.0
 20
-3.0
 30
0.0
  0
POINT
  8
DEFPOINTS
  6
CONTINUOUS
 62
               0
  5
1C4
 10
70.0
 20
-120.0
 30
0.0
  0
ENDBLK
  8
0
  6
BYBLOCK
 62
               0
  5
1C5
  0
BLOCK
  8
0
  6
BYBLOCK
 62
               0
  5
1C8
  2
*D5
 70
               1
 10
0.0
 20
0.0
 30
0.0
  3
*D5
  0
LINE
  8
0
  6
CONTINUOUS
 62
             110
  5
1C9
 10
90.0
 20
-40.0
 30
0.0
 11
70.0
 21
-40.0
 31
0.0
  0
LINE
  8
0
  6
CONTINUOUS
 62
             110
  5
1CA
 10
90.0
 20
-7.0
 30
0.0
 11
90.0
 21
-41.0
 31
0.0
  0
INSERT
  8
0
  6
CONTINUOUS
 62
             110
  5
1CB
  2
_OPEN30
 10
90.0
 20
-40.0
 30
0.0
 41
2.77
 42
2.77
 43
2.77
  0
INSERT
  8
0
  6
CONTINUOUS
 62
             110
  5
1CC
  2
_OPEN30
 10
70.0
 20
-40.0
 30
0.0
 41
2.77
 42
2.77
 50
180.0
 43
2.77
  0
TEXT
  8
0
  6
CONTINUOUS
 62
             110
  5
1CD
 10
76.897727629123636
 20
-39.0
 30
0.0
 40
5.1999998092651367
  1
20
 41
1.0227273213241959
  7
MX_NOTE_STANDARD
 11
76.897727629123636
 21
-36.400000095367432
 31
0.0
 73
               2
  0
POINT
  8
DEFPOINTS
  6
CONTINUOUS
 62
               0
  5
1CE
 10
90.0
 20
-5.0
 30
0.0
  0
POINT
  8
DEFPOINTS
  6
CONTINUOUS
 62
               0
  5
1CF
 10
70.0
 20
-5.0
 30
0.0
  0
POINT
  8
DEFPOINTS
  6
CONTINUOUS
 62
               0
  5
1D0
 10
70.0
 20
-40.0
 30
0.0
  0
ENDBLK
  8
0
  6
BYBLOCK
 62
               0
  5
1D1
  0
BLOCK
  8
0
  6
BYBLOCK
 62
               0
  5
1D4
  2
*D6
 70
               1
 10
0.0
 20
0.0
 30
0.0
  3
*D6
  0
LINE
  8
0
  6
CONTINUOUS
 62
             110
  5
1D5
 10
100.0
 20
6.0
 30
0.0
 11
100.0
 21
-6.0
 31
0.0
  0
LINE
  8
0
  6
CONTINUOUS
 62
             110
  5
1D6
 10
100.0
 20
32.998455047607422
 30
0.0
 11
100.0
 21
6.0
 31
0.0
  0
LINE
  8
0
  6
CONTINUOUS
 62
             110
  5
1D7
 10
100.0
 20
6.0
 30
0.0
 11
100.0
 21
10.0
 31
0.0
  0
LINE
  8
0
  6
CONTINUOUS
 62
             110
  5
1D8
 10
100.0
 20
-6.0
 30
0.0
 11
100.0
 21
-10.0
 31
0.0
  0
INSERT
  8
0
  6
CONTINUOUS
 62
             110
  5
1D9
  2
_OPEN30
 10
100.0
 20
6.0
 30
0.0
 41
2.77
 42
2.77
 50
270.0
 43
2.77
  0
INSERT
  8
0
  6
CONTINUOUS
 62
             110
  5
1DA
  2
_OPEN30
 10
100.0
 20
-6.0
 30
0.0
 41
2.77
 42
2.77
 50
90.0
 43
2.77
  0
TEXT
  8
0
  6
CONTINUOUS
 62
             110
  5
1DB
 10
99.0
 20
9.4344103515953108
 30
0.0
 40
5.1999998092651367
  1
%%c12ｇ6
 50
90.000000000000014
 41
0.9357176927694837
  7
MX_NOTE_STANDARD
 11
96.400000095367432
 21
9.4344103515953108
 31
0.0
 73
               2
  0
POINT
  8
DEFPOINTS
  6
CONTINUOUS
 62
               0
  5
1DC
 10
91.0
 20
6.0
 30
0.0
  0
POINT
  8
DEFPOINTS
  6
CONTINUOUS
 62
               0
  5
1DD
 10
91.0
 20
-6.0
 30
0.0
  0
POINT
  8
DEFPOINTS
  6
CONTINUOUS
 62
               0
  5
1DE
 10
100.0
 20
-6.0
 30
0.0
  0
ENDBLK
  8
0
  6
BYBLOCK
 62
               0
  5
1DF
  0
BLOCK
  8
0
  6
BYBLOCK
 62
               0
  5
1E2
  2
*D7
 70
               1
 10
0.0
 20
0.0
 30
0.0
  3
*D7
  0
LINE
  8
0
  6
CONTINUOUS
 62
             110
  5
1E3
 10
220.0
 20
-19.0
 30
0.0
 11
220.0
 21
18.999996185302734
 31
0.0
  0
INSERT
  8
0
  6
CONTINUOUS
 62
             110
  5
1E4
  2
_OPEN30
 10
220.0
 20
-19.0
 30
0.0
 41
2.77
 42
2.77
 50
270.0
 43
2.77
  0
INSERT
  8
0
  6
CONTINUOUS
 62
             110
  5
1E5
  2
_OPEN30
 10
220.0
 20
18.999996185302734
 30
0.0
 41
2.77
 42
2.77
 50
90.0
 43
2.77
  0
TEXT
  8
0
  6
CONTINUOUS
 62
             110
  5
1E6
 10
219.0
 20
4.4616751599011923
 30
0.0
 40
5.1999998092651367
  1
%%c38
 50
90.0
 41
1.0528075081335246
  7
MX_DIMTXSTY_2
 11
216.40000009536743
 21
4.4616751599011923
 31
0.0
 73
               2
  0
POINT
  8
DEFPOINTS
  6
CONTINUOUS
 62
               0
  5
1E7
 10
277.49997711181641
 20
-19.0
 30
0.0
  0
POINT
  8
DEFPOINTS
  6
CONTINUOUS
 62
               0
  5
1E8
 10
277.49999237060547
 20
18.999996185302734
 30
0.0
  0
POINT
  8
DEFPOINTS
  6
CONTINUOUS
 62
               0
  5
1E9
 10
220.0
 20
18.999996185302734
 30
0.0
  0
ENDBLK
  8
0
  6
BYBLOCK
 62
               0
  5
1EA
  0
BLOCK
  8
0
  6
BYBLOCK
 62
               0
  5
1ED
  2
*D8
 70
               1
 10
0.0
 20
0.0
 30
0.0
  3
*D8
  0
LINE
  8
0
  6
CONTINUOUS
 62
             110
  5
1EE
 10
370.0
 20
0.0
 30
0.0
 11
370.0
 21
-96.0
 31
0.0
  0
LINE
  8
0
  6
CONTINUOUS
 62
             110
  5
1EF
 10
315.38135528564453
 20
0.0
 30
0.0
 11
371.0
 21
0.0
 31
0.0
  0
LINE
  8
0
  6
CONTINUOUS
 62
             110
  5
1F0
 10
357.00000381469727
 20
-96.0
 30
0.0
 11
371.0
 21
-96.0
 31
0.0
  0
INSERT
  8
0
  6
CONTINUOUS
 62
             110
  5
1F1
  2
_OPEN30
 10
370.0
 20
0.0
 30
0.0
 41
2.77
 42
2.77
 50
90.0
 43
2.77
  0
INSERT
  8
0
  6
CONTINUOUS
 62
             110
  5
1F2
  2
_OPEN30
 10
370.0
 20
-96.0
 30
0.0
 41
2.77
 42
2.77
 50
270.0
 43
2.77
  0
TEXT
  8
0
  6
CONTINUOUS
 62
             110
  5
1F3
 10
369.0
 20
-51.25
 30
0.0
 40
5.1999998092651367
  1
96
 50
90.000000000000014
 41
0.9375000343872963
  7
MX_NOTE_STANDARD
 11
366.40000009536743
 21
-51.25
 31
0.0
 73
               2
  0
POINT
  8
DEFPOINTS
  6
CONTINUOUS
 62
               0
  5
1F4
 10
313.38135528564453
 20
0.0
 30
0.0
  0
POINT
  8
DEFPOINTS
  6
CONTINUOUS
 62
               0
  5
1F5
 10
355.00000381469727
 20
-96.0
 30
0.0
  0
POINT
  8
DEFPOINTS
  6
CONTINUOUS
 62
               0
  5
1F6
 10
370.0
 20
-96.0
 30
0.0
  0
ENDBLK
  8
0
  6
BYBLOCK
 62
               0
  5
1F7
  0
BLOCK
  8
0
  6
BYBLOCK
 62
               0
  5
1FA
  2
*D9
 70
               1
 10
0.0
 20
0.0
 30
0.0
  3
*D9
  0
LINE
  8
0
  6
CONTINUOUS
 62
             110
  5
1FB
 10
380.0
 20
55.999996185302734
 30
0.0
 11
380.0
 21
-96.0
 31
0.0
  0
LINE
  8
0
  6
CONTINUOUS
 62
             110
  5
1FC
 10
357.00000381469727
 20
55.999996185302734
 30
0.0
 11
381.0
 21
55.999996185302734
 31
0.0
  0
LINE
  8
0
  6
CONTINUOUS
 62
             110
  5
1FD
 10
357.00000381469727
 20
-96.0
 30
0.0
 11
381.0
 21
-96.0
 31
0.0
  0
INSERT
  8
0
  6
CONTINUOUS
 62
             110
  5
1FE
  2
_OPEN30
 10
380.0
 20
55.999996185302734
 30
0.0
 41
2.77
 42
2.77
 50
90.0
 43
2.77
  0
INSERT
  8
0
  6
CONTINUOUS
 62
             110
  5
1FF
  2
_OPEN30
 10
380.0
 20
-96.0
 30
0.0
 41
2.77
 42
2.77
 50
270.0
 43
2.77
  0
TEXT
  8
0
  6
CONTINUOUS
 62
             110
  5
201
 10
379.0
 20
-25.571431302698329
 30
0.0
 40
5.1999998092651367
  1
152
 50
90.000000000000014
 41
1.0044643150739749
  7
MX_DIMTXSTY_3
 11
376.40000009536743
 21
-25.571431302698329
 31
0.0
 73
               2
  0
POINT
  8
DEFPOINTS
  6
CONTINUOUS
 62
               0
  5
202
 10
355.00000381469727
 20
55.999996185302734
 30
0.0
  0
POINT
  8
DEFPOINTS
  6
CONTINUOUS
 62
               0
  5
203
 10
355.00000381469727
 20
-96.0
 30
0.0
  0
POINT
  8
DEFPOINTS
  6
CONTINUOUS
 62
               0
  5
204
 10
380.0
 20
-96.0
 30
0.0
  0
ENDBLK
  8
0
  6
BYBLOCK
 62
               0
  5
205
  0
BLOCK
  8
0
  6
BYBLOCK
 62
               0
  5
208
  2
*D10
 70
               1
 10
0.0
 20
0.0
 30
0.0
  3
*D10
  0
LINE
  8
0
  6
CONTINUOUS
 62
             110
  5
209
 10
-4.0
 20
50.0
 30
0.0
 11
4.0
 21
50.0
 31
0.0
  0
LINE
  8
0
  6
CONTINUOUS
 62
             110
  5
20A
 10
4.0
 20
50.0
 30
0.0
 11
30.621646881103516
 21
50.0
 31
0.0
  0
LINE
  8
0
  6
CONTINUOUS
 62
             110
  5
20B
 10
-4.0
 20
2.0
 30
0.0
 11
-4.0
 21
51.0
 31
0.0
  0
LINE
  8
0
  6
CONTINUOUS
 62
             110
  5
20C
 10
4.0
 20
2.0
 30
0.0
 11
4.0
 21
51.0
 31
0.0
  0
LINE
  8
0
  6
CONTINUOUS
 62
             110
  5
20D
 10
-4.0
 20
50.0
 30
0.0
 11
-8.0
 21
50.0
 31
0.0
  0
LINE
  8
0
  6
CONTINUOUS
 62
             110
  5
20E
 10
4.0
 20
50.0
 30
0.0
 11
8.0
 21
50.0
 31
0.0
  0
INSERT
  8
0
  6
CONTINUOUS
 62
             110
  5
20F
  2
_OPEN30
 10
-4.0
 20
50.0
 30
0.0
 41
2.77
 42
2.77
 43
2.77
  0
INSERT
  8
0
  6
CONTINUOUS
 62
             110
  5
210
  2
_OPEN30
 10
4.0
 20
50.0
 30
0.0
 41
2.77
 42
2.77
 50
180.0
 43
2.77
  0
TEXT
  8
0
  6
CONTINUOUS
 62
             110
  5
211
 10
12.044567762216989
 20
51.0
 30
0.0
 40
5.1999998092651367
  1
%%c8h7
 41
1.064908748037704
  7
MX_DIMTXSTY_2
 11
12.044567762216989
 21
53.599999904632568
 31
0.0
 73
               2
  0
POINT
  8
DEFPOINTS
  6
CONTINUOUS
 62
               0
  5
212
 10
-4.0
 20
0.0
 30
0.0
  0
POINT
  8
DEFPOINTS
  6
CONTINUOUS
 62
               0
  5
213
 10
4.0
 20
0.0
 30
0.0
  0
POINT
  8
DEFPOINTS
  6
CONTINUOUS
 62
               0
  5
214
 10
4.0
 20
50.0
 30
0.0
  0
ENDBLK
  8
0
  6
BYBLOCK
 62
               0
  5
215
  0
ENDSEC
  0
SECTION
  2
ENTITIES
  0
INSERT
  8
LY_3
  6
BYBLOCK
  5
2B
  2
*U0
 10
194.60888671875
 20
44.099967956542969
 30
0.0
 41
2.77
 42
2.77
 50
286.16510342140867
 43
2.77
  0
INSERT
  8
LY_3
  6
BYBLOCK
  5
2C
  2
*U0
 10
274.49998474121094
 20
49.999992370605469
 30
0.0
 41
2.77
 42
2.77
 50
294.22765625570105
 43
2.77
  0
INSERT
  8
LY_3
  6
BYBLOCK
  5
2D
  2
*U0
 10
209.99998474121094
 20
-94.5
 30
0.0
 41
2.77
 42
2.77
 50
122.82858161827289
 43
2.77
  0
INSERT
  8
LY_3
  6
BYBLOCK
  5
2E
  2
*U0
 10
126.34999847412109
 20
34.649997711181641
 30
0.0
 41
2.77
 42
2.77
 50
292.47393157223661
 43
2.77
  0
LINE
  8
LY_3
  6
CENTER
 62
             110
  5
30
 10
-39.649993896484375
 20
0.0
 30
0.0
 11
39.649993896484375
 21
0.0
 31
0.0
  0
LINE
  8
LY_3
  6
CONTINUOUS
 62
               3
  5
31
 10
161.99996948242187
 20
18.999996185302734
 30
0.0
 11
277.4999942779541
 21
18.999996185302734
 31
0.0
  0
LINE
  8
LY_3
  6
CONTINUOUS
 62
               3
  5
32
 10
161.99996948242187
 20
-19.0
 30
0.0
 11
277.49997901916504
 21
-19.0
 31
0.0
  0
LINE
  8
LY_3
  6
CONTINUOUS
 62
               3
  5
33
 10
278.49998474121094
 20
18.999996185302734
 30
0.0
 11
282.5000057220459
 21
18.999996185302734
 31
0.0
  0
LINE
  8
LY_3
  6
CONTINUOUS
 62
               3
  5
34
 10
277.99998422136377
 20
18.50000703306614
 30
0.0
 11
278.49998428854269
 21
19.000008027476724
 31
0.0
  0
LINE
  8
LY_3
  6
CONTINUOUS
 62
               3
  5
35
 10
282.49999193477515
 20
19.000011786451523
 30
0.0
 11
282.9999924655699
 21
18.500011255656773
 31
0.0
  0
LINE
  8
LY_3
  6
CONTINUOUS
 62
               3
  5
36
 10
282.99998474121094
 20
-96.0
 30
0.0
 11
355.00000381469727
 21
-96.0
 31
0.0
  0
LINE
  8
LY_3
  6
CONTINUOUS
 62
               3
  5
37
 10
282.99998474121094
 20
55.999996185302734
 30
0.0
 11
355.00000381469727
 21
55.999996185302734
 31
0.0
  0
LINE
  8
LY_3
  6
CONTINUOUS
 62
               3
  5
38
 10
282.99998474121094
 20
55.999996185302734
 30
0.0
 11
282.99998474121094
 21
54.999996185302734
 31
0.0
  0
LINE
  8
LY_3
  6
CONTINUOUS
 62
               3
  5
39
 10
282.99998474121094
 20
-96.0
 30
0.0
 11
282.99998474121094
 21
54.999996185302734
 31
0.0
  0
LINE
  8
LY_3
  6
CENTER
 62
             110
  5
3A
 10
167.88810729980469
 20
-60.0
 30
0.0
 11
290.6291332244873
 21
-60.0
 31
0.0
  0
LINE
  8
LY_3
  6
CENTER
 62
             110
  5
3B
 10
276.66665649414062
 20
-45.0
 30
0.0
 11
320.33331298828125
 21
-45.0
 31
0.0
  0
LINE
  8
LY_3
  6
CONTINUOUS
 62
               3
  5
3C
 10
254.99998474121094
 20
49.999996185302734
 30
0.0
 11
254.99998474121094
 21
29.999996185302734
 31
0.0
  0
LINE
  8
LY_3
  6
CONTINUOUS
 62
               3
  5
3D
 10
254.99998474121094
 20
36.999992370605469
 30
0.0
 11
244.99998474121094
 21
36.999992370605469
 31
0.0
  0
LINE
  8
LY_3
  6
CONTINUOUS
 62
               3
  5
3E
 10
254.99998474121094
 20
42.999992370605469
 30
0.0
 11
244.99998474121094
 21
42.999992370605469
 31
0.0
  0
LINE
  8
LY_3
  6
CONTINUOUS
 62
               3
  5
3F
 10
230.99992414084818
 20
43.000061323207547
 30
0.0
 11
229.9999222363208
 21
42.000061020262137
 31
0.0
  0
LINE
  8
LY_3
  6
CONTINUOUS
 62
               3
  5
40
 10
229.99997711181641
 20
41.999996185302734
 30
0.0
 11
229.99997711181641
 21
38.0
 31
0.0
  0
LINE
  8
LY_3
  6
CONTINUOUS
 62
               3
  5
41
 10
230.99997711181641
 20
42.999996185302734
 30
0.0
 11
230.99997711181641
 21
36.999996185302734
 31
0.0
  0
LINE
  8
LY_3
  6
CONTINUOUS
 62
               3
  5
42
 10
231.00014853075572
 20
37.000196396229057
 30
0.0
 11
230.00014797492895
 21
38.000198047875074
 31
0.0
  0
LINE
  8
LY_3
  6
CENTER
 62
             110
  5
43
 10
272.49998474121094
 20
49.799991607666016
 30
0.0
 11
272.49998474121094
 21
42.199993133544922
 31
0.0
  0
LINE
  8
LY_3
  6
CENTER
 62
             110
  5
44
 10
268.69998168945312
 20
33.999992370605469
 30
0.0
 11
276.29998779296875
 21
33.999992370605469
 31
0.0
  0
LINE
  8
LY_3
  6
CENTER
 62
             110
  5
45
 10
268.69998168945312
 20
45.999992370605469
 30
0.0
 11
276.29998779296875
 21
45.999992370605469
 31
0.0
  0
LINE
  8
LY_3
  6
CENTER
 62
             110
  5
46
 10
272.49998474121094
 20
37.799991607666016
 30
0.0
 11
272.49998474121094
 21
30.199993133544922
 31
0.0
  0
LINE
  8
LY_3
  6
CONTINUOUS
 62
               3
  5
47
 10
70.0
 20
-3.0
 30
0.0
 11
70.0
 21
3.0
 31
0.0
  0
LINE
  8
LY_3
  6
CONTINUOUS
 62
               3
  5
48
 10
71.0
 20
3.0
 30
0.0
 11
71.0
 21
-4.0
 31
0.0
  0
LINE
  8
LY_3
  6
CONTINUOUS
 62
               3
  5
49
 10
70.000138587965921
 20
-2.9998119610463618
 30
0.0
 11
71.000139649555422
 21
-3.9998130226358626
 31
0.0
  0
LINE
  8
LY_3
  6
CONTINUOUS
 62
               3
  5
4A
 10
71.0
 20
-4.0
 30
0.0
 11
90.0
 21
-4.0
 31
0.0
  0
LINE
  8
LY_3
  6
CONTINUOUS
 62
               3
  5
4B
 10
-2.645751953125
 20
3.0
 30
0.0
 11
2.645751953125
 21
3.0
 31
0.0
  0
LINE
  8
LY_3
  6
CONTINUOUS
 62
               3
  5
4C
 10
91.0
 20
-6.0
 30
0.0
 11
120.0
 21
-6.0
 31
0.0
  0
LINE
  8
LY_3
  6
CONTINUOUS
 62
               3
  5
4D
 10
90.0
 20
-5.0
 30
0.0
 11
90.0
 21
5.0
 31
0.0
  0
LINE
  8
LY_3
  6
CONTINUOUS
 62
               3
  5
4E
 10
90.000132845773351
 20
4.9999645554194103
 30
0.0
 11
91.000133907362851
 21
5.9999656170089111
 31
0.0
  0
LINE
  8
LY_3
  6
CONTINUOUS
 62
               3
  5
4F
 10
90.000128517272515
 20
-4.9998973432097955
 30
0.0
 11
91.000126712873225
 21
-5.9999012707880865
 31
0.0
  0
LINE
  8
LY_3
  6
CONTINUOUS
 62
               3
  5
50
 10
91.0
 20
6.0
 30
0.0
 11
91.0
 21
-6.0
 31
0.0
  0
LINE
  8
LY_3
  6
CONTINUOUS
 62
               3
  5
51
 10
91.0
 20
6.0
 30
0.0
 11
120.0
 21
6.0
 31
0.0
  0
LINE
  8
LY_3
  6
CONTINUOUS
 62
               3
  5
52
 10
120.0
 20
-33.850006103515625
 30
0.0
 11
120.0
 21
33.850017547607422
 31
0.0
  0
LINE
  8
LY_3
  6
CONTINUOUS
 62
               3
  5
53
 10
120.00011386716642
 20
33.850007187104438
 30
0.0
 11
120.80010837755117
 21
34.650001427751249
 31
0.0
  0
LINE
  8
LY_3
  6
CONTINUOUS
 62
               3
  5
54
 10
120.80000305175781
 20
34.649997711181641
 30
0.0
 11
131.89999389648437
 21
34.649997711181641
 31
0.0
  0
LINE
  8
LY_3
  6
CONTINUOUS
 62
               3
  5
55
 10
132.70008499715732
 20
33.850061158864264
 30
0.0
 11
131.90010060203167
 21
34.650043935584108
 31
0.0
  0
LINE
  8
LY_3
  6
CENTER
 62
             110
  5
56
 10
114.35000610351563
 20
29.349998474121094
 30
0.0
 11
138.35000610351562
 21
29.349998474121094
 31
0.0
  0
LINE
  8
LY_3
  6
CONTINUOUS
 62
               3
  5
57
 10
132.69999694824219
 20
-33.850006103515625
 30
0.0
 11
132.69999694824219
 21
33.849990844726563
 31
0.0
  0
LINE
  8
LY_3
  6
CONTINUOUS
 62
               3
  5
58
 10
120.80022886699112
 20
-34.649809413833054
 30
0.0
 11
120.00022383675309
 21
-33.849804113853452
 31
0.0
  0
LINE
  8
LY_3
  6
CONTINUOUS
 62
               3
  5
59
 10
120.79998779296875
 20
-34.650009155273437
 30
0.0
 11
131.89999389648437
 21
-34.650009155273437
 31
0.0
  0
LINE
  8
LY_3
  6
CONTINUOUS
 62
               3
  5
5A
 10
132.7000131169782
 20
-33.850051185733946
 30
0.0
 11
131.90000687290308
 21
-34.650055271876454
 31
0.0
  0
LINE
  8
LY_3
  6
CONTINUOUS
 62
               3
  5
5B
 10
175.99998474121094
 20
-94.5
 30
0.0
 11
243.99998474121094
 21
-94.5
 31
0.0
  0
LINE
  8
LY_3
  6
CONTINUOUS
 62
               3
  5
5C
 10
243.99998474121094
 20
-25.0
 30
0.0
 11
243.99998474121094
 21
-95.0
 31
0.0
  0
LINE
  8
LY_3
  6
CONTINUOUS
 62
               3
  5
5D
 10
250.99998474121094
 20
-25.0
 30
0.0
 11
250.99998474121094
 21
-95.0
 31
0.0
  0
LINE
  8
LY_3
  6
CENTER
 62
             110
  5
5E
 10
236.79998779296875
 20
-89.0
 30
0.0
 11
245.78005981445312
 21
-89.0
 31
0.0
  0
LINE
  8
LY_3
  6
CENTER
 62
             110
  5
5F
 10
236.79998779296875
 20
-31.0
 30
0.0
 11
245.43226623535156
 21
-31.0
 31
0.0
  0
LINE
  8
LY_3
  6
CONTINUOUS
 62
               3
  5
60
 10
243.99998474121094
 20
-25.0
 30
0.0
 11
282.99998474121094
 21
-25.0
 31
0.0
  0
LINE
  8
LY_3
  6
CONTINUOUS
 62
               3
  5
61
 10
243.99998474121094
 20
-95.0
 30
0.0
 11
282.99998474121094
 21
-95.0
 31
0.0
  0
LINE
  8
LY_3
  6
CONTINUOUS
 62
               3
  5
62
 10
175.99998474121094
 20
-25.5
 30
0.0
 11
243.99998474121094
 21
-25.5
 31
0.0
  0
LINE
  8
LY_3
  6
CONTINUOUS
 62
               3
  5
63
 10
175.99998474121094
 20
-25.5
 30
0.0
 11
175.99998474121094
 21
-94.5
 31
0.0
  0
LINE
  8
LY_3
  6
CONTINUOUS
 62
               3
  5
64
 10
171.99998474121094
 20
-26.5
 30
0.0
 11
171.99998474121094
 21
-93.5
 31
0.0
  0
LINE
  8
LY_3
  6
CONTINUOUS
 62
               3
  5
65
 10
170.99998474121094
 20
-27.5
 30
0.0
 11
170.99998474121094
 21
-92.5
 31
0.0
  0
LINE
  8
LY_3
  6
CONTINUOUS
 62
               3
  5
66
 10
171.99998474121094
 20
-26.5
 30
0.0
 11
175.99998474121094
 21
-26.5
 31
0.0
  0
LINE
  8
LY_3
  6
CONTINUOUS
 62
               3
  5
67
 10
171.00003069099438
 20
-27.500000488234207
 30
0.0
 11
172.00003175258388
 21
-26.499999426644706
 31
0.0
  0
LINE
  8
LY_3
  6
CONTINUOUS
 62
               3
  5
68
 10
171.00012577428299
 20
-92.499819307863277
 30
0.0
 11
172.00012683587249
 21
-93.499820369452777
 31
0.0
  0
LINE
  8
LY_3
  6
CONTINUOUS
 62
               3
  5
69
 10
171.99998474121094
 20
-93.5
 30
0.0
 11
175.99998474121094
 21
-93.5
 31
0.0
  0
LINE
  8
LY_3
  6
CENTER
 62
             110
  5
6A
 10
298.9999828338623
 20
-92.346359252929688
 30
0.0
 11
298.9999828338623
 21
-98.459121704101563
 31
0.0
  0
LINE
  8
LY_3
  6
CENTER
 62
             110
  5
6B
 10
298.9999828338623
 20
58.565650939941406
 30
0.0
 11
298.9999828338623
 21
52.519844055175781
 31
0.0
  0
LINE
  8
LY_3
  6
CONTINUOUS
 62
               3
  5
6C
 10
294.9999828338623
 20
-98.0
 30
0.0
 11
302.99998307228088
 21
-98.0
 31
0.0
  0
LINE
  8
LY_3
  6
CONTINUOUS
 62
               3
  5
6D
 10
293.4999828338623
 20
-96.0
 30
0.0
 11
293.4999828338623
 21
-96.5
 31
0.0
  0
LINE
  8
LY_3
  6
CONTINUOUS
 62
               3
  5
6E
 10
304.4999828338623
 20
-96.0
 30
0.0
 11
304.4999828338623
 21
-96.5
 31
0.0
  0
LINE
  8
LY_3
  6
CONTINUOUS
 62
               3
  5
6F
 10
294.9999828338623
 20
57.999996185302734
 30
0.0
 11
302.99998307228088
 21
57.999996185302734
 31
0.0
  0
LINE
  8
LY_3
  6
CONTINUOUS
 62
               3
  5
70
 10
293.4999828338623
 20
56.499996185302734
 30
0.0
 11
293.4999828338623
 21
55.999996185302734
 31
0.0
  0
LINE
  8
LY_3
  6
CONTINUOUS
 62
               3
  5
71
 10
304.4999828338623
 20
56.499996185302734
 30
0.0
 11
304.4999828338623
 21
55.999996185302734
 31
0.0
  0
LINE
  8
LY_3
  6
CONTINUOUS
 62
               3
  5
72
 10
265.99998474121094
 20
49.999992370605469
 30
0.0
 11
282.99998474121094
 21
49.999992370605469
 31
0.0
  0
LINE
  8
LY_3
  6
CONTINUOUS
 62
               3
  5
73
 10
265.99998474121094
 20
29.999992370605469
 30
0.0
 11
282.99998474121094
 21
29.999992370605469
 31
0.0
  0
LINE
  8
LY_3
  6
CONTINUOUS
 62
               3
  5
74
 10
265.99998474121094
 20
49.999992370605469
 30
0.0
 11
265.99998474121094
 21
29.999992370605469
 31
0.0
  0
LINE
  8
LY_3
  6
CENTER
 62
             110
  5
75
 10
158.82292175292969
 20
31.999992370605469
 30
0.0
 11
254.99998474121094
 21
31.999992370605469
 31
0.0
  0
LINE
  8
LY_3
  6
CONTINUOUS
 62
               3
  5
76
 10
162.00013732910156
 20
34.999992370605469
 30
0.0
 11
162.99998474121094
 21
34.999992370605469
 31
0.0
  0
LINE
  8
LY_3
  6
CONTINUOUS
 62
               3
  5
77
 10
162.00018310546875
 20
28.999992370605469
 30
0.0
 11
162.99998474121094
 21
28.999992370605469
 31
0.0
  0
LINE
  8
LY_3
  6
CONTINUOUS
 62
               3
  5
78
 10
160.99998474121094
 20
33.999992370605469
 30
0.0
 11
160.99998474121094
 21
29.999992370605469
 31
0.0
  0
LINE
  8
LY_3
  6
CONTINUOUS
 62
               3
  5
79
 10
161.00008953310453
 20
33.999941393549761
 30
0.0
 11
162.00006901550796
 21
34.999920875953194
 31
0.0
  0
LINE
  8
LY_3
  6
CONTINUOUS
 62
               3
  5
7A
 10
161.00010200693396
 20
30.000092194284662
 30
0.0
 11
162.000099275303
 21
29.000087339474703
 31
0.0
  0
LINE
  8
LY_3
  6
CONTINUOUS
 62
               3
  5
7B
 10
245.49110794067383
 20
28.999992370605469
 30
0.0
 11
281.99998474121094
 21
28.999992370605469
 31
0.0
  0
LINE
  8
LY_3
  6
CONTINUOUS
 62
               3
  5
7C
 10
245.49110794067383
 20
34.999992370605469
 30
0.0
 11
254.99998474121094
 21
34.999992370605469
 31
0.0
  0
LINE
  8
LY_3
  6
CONTINUOUS
 62
               3
  5
7D
 10
204.50887298583984
 20
34.999992370605469
 30
0.0
 11
225.49109649658203
 21
34.999992370605469
 31
0.0
  0
LINE
  8
LY_3
  6
CONTINUOUS
 62
               3
  5
7E
 10
204.50887298583984
 20
28.999992370605469
 30
0.0
 11
225.49109649658203
 21
28.999992370605469
 31
0.0
  0
LINE
  8
LY_3
  6
CONTINUOUS
 62
               3
  5
7F
 10
184.50887298583984
 20
38.499992370605469
 30
0.0
 11
184.50887298583984
 21
25.499992370605469
 31
0.0
  0
LINE
  8
LY_3
  6
CONTINUOUS
 62
               3
  5
80
 10
204.50887298583984
 20
38.499992370605469
 30
0.0
 11
204.50887298583984
 21
25.499992370605469
 31
0.0
  0
LINE
  8
LY_3
  6
CONTINUOUS
 62
               3
  5
81
 10
184.50888061523438
 20
38.499992370605469
 30
0.0
 11
204.50888061523437
 21
38.499992370605469
 31
0.0
  0
LINE
  8
LY_3
  6
CONTINUOUS
 62
               3
  5
82
 10
184.50888061523438
 20
25.499992370605469
 30
0.0
 11
204.50888061523437
 21
25.499992370605469
 31
0.0
  0
LINE
  8
LY_3
  6
CENTER
 62
             110
  5
83
 10
189.50887298583984
 20
46.902374267578125
 30
0.0
 11
189.50887298583984
 21
42.604957580566406
 31
0.0
  0
LINE
  8
LY_3
  6
CENTER
 62
             110
  5
84
 10
199.50887298583984
 20
46.902374267578125
 30
0.0
 11
199.50887298583984
 21
42.537811279296875
 31
0.0
  0
LINE
  8
LY_3
  6
CONTINUOUS
 62
               3
  5
85
 10
204.50888061523437
 20
44.099967956542969
 30
0.0
 11
184.70889282226562
 21
44.099967956542969
 31
0.0
  0
LINE
  8
LY_3
  6
CONTINUOUS
 62
               3
  5
86
 10
184.70888519287109
 20
38.499992370605469
 30
0.0
 11
184.70888519287109
 21
39.099967956542969
 31
0.0
  0
LINE
  8
LY_3
  6
CONTINUOUS
 62
               3
  5
87
 10
204.50887298583984
 20
44.099967956542969
 30
0.0
 11
204.50887298583984
 21
38.499992370605469
 31
0.0
  0
LINE
  8
LY_3
  6
CONTINUOUS
 62
               3
  5
88
 10
195.40888214111328
 20
38.499992370605469
 30
0.0
 11
195.40888214111328
 21
39.399986267089844
 31
0.0
  0
LINE
  8
LY_3
  6
CONTINUOUS
 62
               3
  5
89
 10
194.70888519287109
 20
38.499992370605469
 30
0.0
 11
194.70888519287109
 21
39.399986267089844
 31
0.0
  0
LINE
  8
LY_3
  6
CONTINUOUS
 62
               3
  5
8A
 10
201.80116271972656
 20
39.399986267089844
 30
0.0
 11
183.10888671875
 21
39.399986267089844
 31
0.0
  0
LINE
  8
LY_3
  6
CONTINUOUS
 62
               3
  5
8B
 10
201.80116271972656
 20
43.199974060058594
 30
0.0
 11
183.10888671875
 21
43.199974060058594
 31
0.0
  0
LINE
  8
LY_3
  6
CONTINUOUS
 62
               3
  5
8C
 10
201.80115509033203
 20
43.199974060058594
 30
0.0
 11
201.80115509033203
 21
39.399986267089844
 31
0.0
  0
LINE
  8
LY_3
  6
CONTINUOUS
 62
               3
  5
8D
 10
184.70888519287109
 20
43.499992370605469
 30
0.0
 11
184.70888519287109
 21
44.099967956542969
 31
0.0
  0
LINE
  8
LY_3
  6
CONTINUOUS
 62
               3
  5
8E
 10
195.40888214111328
 20
43.199974060058594
 30
0.0
 11
195.40888214111328
 21
44.099967956542969
 31
0.0
  0
LINE
  8
LY_3
  6
CONTINUOUS
 62
               3
  5
8F
 10
194.70888519287109
 20
43.199974060058594
 30
0.0
 11
194.70888519287109
 21
44.099967956542969
 31
0.0
  0
LINE
  8
LY_3
  6
CONTINUOUS
 62
               3
  5
90
 10
187.30867949940239
 20
42.39982313569044
 30
0.0
 11
186.80868950532476
 21
42.899812666162234
 31
0.0
  0
LINE
  8
LY_3
  6
CONTINUOUS
 62
               3
  5
91
 10
187.30887603759766
 20
40.199974060058594
 30
0.0
 11
187.30887603759766
 21
42.399986267089844
 31
0.0
  0
LINE
  8
LY_3
  6
CONTINUOUS
 62
               3
  5
92
 10
187.30890838051982
 20
40.199918447043274
 30
0.0
 11
186.80891834429622
 21
39.699929000863449
 31
0.0
  0
LINE
  8
LY_3
  6
CONTINUOUS
 62
               3
  5
93
 10
186.80889892578125
 20
39.699974060058594
 30
0.0
 11
183.00888061523438
 21
39.699974060058594
 31
0.0
  0
LINE
  8
LY_3
  6
CONTINUOUS
 62
               3
  5
94
 10
186.70888519287109
 20
39.699974060058594
 30
0.0
 11
186.70888519287109
 21
39.399986267089844
 31
0.0
  0
LINE
  8
LY_3
  6
CONTINUOUS
 62
               3
  5
95
 10
183.10887908935547
 20
39.699974060058594
 30
0.0
 11
183.10887908935547
 21
39.399986267089844
 31
0.0
  0
LINE
  8
LY_3
  6
CONTINUOUS
 62
               3
  5
96
 10
183.00845339278931
 20
39.69956237406268
 30
0.0
 11
182.50845214549736
 21
40.199562188360233
 31
0.0
  0
LINE
  8
LY_3
  6
CONTINUOUS
 62
               3
  5
97
 10
182.50888061523437
 20
40.199974060058594
 30
0.0
 11
182.50888061523437
 21
42.399986267089844
 31
0.0
  0
LINE
  8
LY_3
  6
CONTINUOUS
 62
               3
  5
98
 10
182.50853465765977
 20
42.40034203194773
 30
0.0
 11
183.00853590495171
 21
42.900341846245283
 31
0.0
  0
LINE
  8
LY_3
  6
CONTINUOUS
 62
               3
  5
99
 10
186.80888366699219
 20
42.899986267089844
 30
0.0
 11
183.00889587402344
 21
42.899986267089844
 31
0.0
  0
LINE
  8
LY_3
  6
CONTINUOUS
 62
               3
  5
9A
 10
183.10887908935547
 20
43.199974060058594
 30
0.0
 11
183.10887908935547
 21
42.899986267089844
 31
0.0
  0
LINE
  8
LY_3
  6
CONTINUOUS
 62
               3
  5
9B
 10
186.70888519287109
 20
42.899986267089844
 30
0.0
 11
186.70888519287109
 21
43.199974060058594
 31
0.0
  0
LINE
  8
LY_3
  6
CONTINUOUS
 62
               3
  5
9C
 10
186.10888671875
 20
43.499992370605469
 30
0.0
 11
183.70889282226562
 21
43.499992370605469
 31
0.0
  0
LINE
  8
LY_3
  6
CONTINUOUS
 62
               3
  5
9D
 10
186.10887908935547
 20
43.199974060058594
 30
0.0
 11
186.10887908935547
 21
43.499992370605469
 31
0.0
  0
LINE
  8
LY_3
  6
CONTINUOUS
 62
               3
  5
9E
 10
183.70888519287109
 20
43.199974060058594
 30
0.0
 11
183.70888519287109
 21
43.499992370605469
 31
0.0
  0
LINE
  8
LY_3
  6
CONTINUOUS
 62
               3
  5
9F
 10
183.70888519287109
 20
39.099967956542969
 30
0.0
 11
183.70888519287109
 21
39.399986267089844
 31
0.0
  0
LINE
  8
LY_3
  6
CONTINUOUS
 62
               3
  5
A0
 10
186.10888671875
 20
39.099967956542969
 30
0.0
 11
183.70889282226562
 21
39.099967956542969
 31
0.0
  0
LINE
  8
LY_3
  6
CONTINUOUS
 62
               3
  5
A1
 10
186.10887908935547
 20
39.099967956542969
 30
0.0
 11
186.10887908935547
 21
39.399986267089844
 31
0.0
  0
LINE
  8
LY_3
  6
CENTER
 62
             110
  5
A2
 10
184.90888214111328
 20
38.299980163574219
 30
0.0
 11
184.90888214111328
 21
44.299980163574219
 31
0.0
  0
LINE
  8
LY_3
  6
CONTINUOUS
 62
               3
  5
A3
 10
187.30888366699219
 20
44.599967956542969
 30
0.0
 11
191.70889282226562
 21
44.599967956542969
 31
0.0
  0
LINE
  8
LY_3
  6
CONTINUOUS
 62
               3
  5
A4
 10
187.30887603759766
 20
44.599967956542969
 30
0.0
 11
187.30887603759766
 21
44.099967956542969
 31
0.0
  0
LINE
  8
LY_3
  6
CONTINUOUS
 62
               3
  5
A5
 10
191.70888519287109
 20
44.599967956542969
 30
0.0
 11
191.70888519287109
 21
44.099967956542969
 31
0.0
  0
LINE
  8
LY_3
  6
CONTINUOUS
 62
               3
  5
A6
 10
189.94173727623604
 20
44.099905409432949
 30
0.0
 11
189.65306396138851
 21
44.599902466399953
 31
0.0
  0
LINE
  8
LY_3
  6
CONTINUOUS
 62
               3
  5
A7
 10
189.36441252367615
 20
44.099891820063704
 30
0.0
 11
189.07573157943636
 21
44.599902091531249
 31
0.0
  0
LINE
  8
LY_3
  6
CONTINUOUS
 62
               3
  5
A8
 10
197.30888366699219
 20
44.599967956542969
 30
0.0
 11
201.70889282226562
 21
44.599967956542969
 31
0.0
  0
LINE
  8
LY_3
  6
CONTINUOUS
 62
               3
  5
A9
 10
197.30887603759766
 20
44.599967956542969
 30
0.0
 11
197.30887603759766
 21
44.099967956542969
 31
0.0
  0
LINE
  8
LY_3
  6
CONTINUOUS
 62
               3
  5
AA
 10
201.70886993408203
 20
44.599967956542969
 30
0.0
 11
201.70886993408203
 21
44.099967956542969
 31
0.0
  0
LINE
  8
LY_3
  6
CONTINUOUS
 62
               3
  5
AB
 10
199.94174251959902
 20
44.09988231313389
 30
0.0
 11
199.65306539005536
 21
44.599885977351164
 31
0.0
  0
LINE
  8
LY_3
  6
CONTINUOUS
 62
               3
  5
AC
 10
199.36437601078558
 20
44.099895271365313
 30
0.0
 11
199.07570269593805
 21
44.599892328332317
 31
0.0
  0
LINE
  8
LY_3
  6
CENTER
 62
             110
  5
AD
 10
194.50887298583984
 20
34.547306060791016
 30
0.0
 11
194.50887298583984
 21
29.499992370605469
 31
0.0
  0
LINE
  8
LY_3
  6
CONTINUOUS
 62
               3
  5
AE
 10
272.31248474121094
 20
35.499992370605469
 30
0.0
 11
272.68748474121094
 21
35.499992370605469
 31
0.0
  0
LINE
  8
LY_3
  6
CONTINUOUS
 62
               3
  5
AF
 10
272.31248474121094
 20
32.499992370605469
 30
0.0
 11
272.68748474121094
 21
32.499992370605469
 31
0.0
  0
LINE
  8
LY_3
  6
CONTINUOUS
 62
               3
  5
B0
 10
273.99998474121094
 20
34.187492370605469
 30
0.0
 11
273.99998474121094
 21
33.812492370605469
 31
0.0
  0
LINE
  8
LY_3
  6
CONTINUOUS
 62
               3
  5
B1
 10
270.99998474121094
 20
34.187492370605469
 30
0.0
 11
270.99998474121094
 21
33.812492370605469
 31
0.0
  0
LINE
  8
LY_3
  6
CONTINUOUS
 62
               3
  5
B2
 10
272.68748474121094
 20
35.499992370605469
 30
0.0
 11
272.68748474121094
 21
34.809539794921875
 31
0.0
  0
LINE
  8
LY_3
  6
CONTINUOUS
 62
               3
  5
B3
 10
272.31248474121094
 20
35.499992370605469
 30
0.0
 11
272.31248474121094
 21
34.809539794921875
 31
0.0
  0
LINE
  8
LY_3
  6
CONTINUOUS
 62
               3
  5
B4
 10
270.99998474121094
 20
33.812492370605469
 30
0.0
 11
271.69043731689453
 21
33.812492370605469
 31
0.0
  0
LINE
  8
LY_3
  6
CONTINUOUS
 62
               3
  5
B5
 10
270.99998474121094
 20
34.187492370605469
 30
0.0
 11
271.69043731689453
 21
34.187492370605469
 31
0.0
  0
LINE
  8
LY_3
  6
CONTINUOUS
 62
               3
  5
B6
 10
272.31248474121094
 20
33.190444946289062
 30
0.0
 11
272.31248474121094
 21
32.499992370605469
 31
0.0
  0
LINE
  8
LY_3
  6
CONTINUOUS
 62
               3
  5
B7
 10
272.68748474121094
 20
33.190444946289062
 30
0.0
 11
272.68748474121094
 21
32.499992370605469
 31
0.0
  0
LINE
  8
LY_3
  6
CONTINUOUS
 62
               3
  5
B8
 10
273.30953216552734
 20
33.812492370605469
 30
0.0
 11
273.99998474121094
 21
33.812492370605469
 31
0.0
  0
LINE
  8
LY_3
  6
CONTINUOUS
 62
               3
  5
B9
 10
273.30953216552734
 20
34.187492370605469
 30
0.0
 11
273.99998474121094
 21
34.187492370605469
 31
0.0
  0
LINE
  8
LY_3
  6
CONTINUOUS
 62
               3
  5
BA
 10
272.31248474121094
 20
47.499992370605469
 30
0.0
 11
272.68748474121094
 21
47.499992370605469
 31
0.0
  0
LINE
  8
LY_3
  6
CONTINUOUS
 62
               3
  5
BB
 10
272.31248474121094
 20
44.499992370605469
 30
0.0
 11
272.68748474121094
 21
44.499992370605469
 31
0.0
  0
LINE
  8
LY_3
  6
CONTINUOUS
 62
               3
  5
BC
 10
273.99998474121094
 20
46.187492370605469
 30
0.0
 11
273.99998474121094
 21
45.812492370605469
 31
0.0
  0
LINE
  8
LY_3
  6
CONTINUOUS
 62
               3
  5
BD
 10
270.99998474121094
 20
46.187492370605469
 30
0.0
 11
270.99998474121094
 21
45.812492370605469
 31
0.0
  0
LINE
  8
LY_3
  6
CONTINUOUS
 62
               3
  5
BE
 10
272.68748474121094
 20
47.499992370605469
 30
0.0
 11
272.68748474121094
 21
46.809539794921875
 31
0.0
  0
LINE
  8
LY_3
  6
CONTINUOUS
 62
               3
  5
BF
 10
272.31248474121094
 20
47.499992370605469
 30
0.0
 11
272.31248474121094
 21
46.809539794921875
 31
0.0
  0
LINE
  8
LY_3
  6
CONTINUOUS
 62
               3
  5
C0
 10
270.99998474121094
 20
45.812492370605469
 30
0.0
 11
271.69043731689453
 21
45.812492370605469
 31
0.0
  0
LINE
  8
LY_3
  6
CONTINUOUS
 62
               3
  5
C1
 10
270.99998474121094
 20
46.187492370605469
 30
0.0
 11
271.69043731689453
 21
46.187492370605469
 31
0.0
  0
LINE
  8
LY_3
  6
CONTINUOUS
 62
               3
  5
C2
 10
272.31248474121094
 20
45.190444946289063
 30
0.0
 11
272.31248474121094
 21
44.499992370605469
 31
0.0
  0
LINE
  8
LY_3
  6
CONTINUOUS
 62
               3
  5
C3
 10
272.68748474121094
 20
45.190444946289063
 30
0.0
 11
272.68748474121094
 21
44.499992370605469
 31
0.0
  0
LINE
  8
LY_3
  6
CONTINUOUS
 62
               3
  5
C4
 10
273.30953216552734
 20
45.812492370605469
 30
0.0
 11
273.99998474121094
 21
45.812492370605469
 31
0.0
  0
LINE
  8
LY_3
  6
CONTINUOUS
 62
               3
  5
C5
 10
273.30953216552734
 20
46.187492370605469
 30
0.0
 11
273.99998474121094
 21
46.187492370605469
 31
0.0
  0
LINE
  8
LY_3
  6
CONTINUOUS
 62
               3
  5
C6
 10
242.79998779296875
 20
-85.5
 30
0.0
 11
243.99998474121094
 21
-85.5
 31
0.0
  0
LINE
  8
LY_3
  6
CONTINUOUS
 62
               3
  5
C7
 10
242.79998779296875
 20
-92.5
 30
0.0
 11
243.99998474121094
 21
-92.5
 31
0.0
  0
LINE
  8
LY_3
  6
CONTINUOUS
 62
               3
  5
C8
 10
244.00009024252722
 20
-88.365157611483482
 30
0.0
 11
242.80008144840576
 21
-89.057982598501439
 31
0.0
  0
LINE
  8
LY_3
  6
CONTINUOUS
 62
               3
  5
C9
 10
244.000109372304
 20
-88.94246149434457
 30
0.0
 11
242.80012700718362
 21
-89.635271222580741
 31
0.0
  0
LINE
  8
LY_3
  6
CONTINUOUS
 62
               3
  5
CA
 10
242.79998779296875
 20
-27.5
 30
0.0
 11
243.99998474121094
 21
-27.5
 31
0.0
  0
LINE
  8
LY_3
  6
CONTINUOUS
 62
               3
  5
CB
 10
242.79998779296875
 20
-34.5
 30
0.0
 11
243.99998474121094
 21
-34.5
 31
0.0
  0
LINE
  8
LY_3
  6
CONTINUOUS
 62
               3
  5
CC
 10
244.00001470972938
 20
-30.364987283529899
 30
0.0
 11
242.8000125228582
 21
-31.05780845585241
 31
0.0
  0
LINE
  8
LY_3
  6
CONTINUOUS
 62
               3
  5
CD
 10
244.00002089887266
 20
-30.94236030531556
 30
0.0
 11
242.8000121047512
 21
-31.635185292333517
 31
0.0
  0
LINE
  8
LY_3
  6
CONTINUOUS
 62
               3
  5
CE
 10
187.50887298583984
 20
45.244964599609375
 30
0.0
 11
187.50887298583984
 21
44.599967956542969
 31
0.0
  0
LINE
  8
LY_3
  6
CONTINUOUS
 62
               3
  5
CF
 10
191.50887298583984
 20
45.244964599609375
 30
0.0
 11
191.50887298583984
 21
44.599967956542969
 31
0.0
  0
LINE
  8
LY_3
  6
CONTINUOUS
 62
               3
  5
D0
 10
242.79998779296875
 20
-85.5
 30
0.0
 11
242.79998779296875
 21
-92.5
 31
0.0
  0
LINE
  8
LY_3
  6
CONTINUOUS
 62
               3
  5
D1
 10
238.79998779296875
 20
-86.019607543945313
 30
0.0
 11
238.79998779296875
 21
-91.980392456054687
 31
0.0
  0
LINE
  8
LY_3
  6
CONTINUOUS
 62
               3
  5
D2
 10
239.09999084472656
 20
-85.5
 30
0.0
 11
242.79998779296875
 21
-85.5
 31
0.0
  0
LINE
  8
LY_3
  6
CONTINUOUS
 62
               3
  5
D3
 10
239.09999084472656
 20
-92.5
 30
0.0
 11
242.79998779296875
 21
-92.5
 31
0.0
  0
LINE
  8
LY_3
  6
CONTINUOUS
 62
               3
  5
D4
 10
239.09999084472656
 20
-85.5
 30
0.0
 11
239.09999084472656
 21
-92.5
 31
0.0
  0
LINE
  8
LY_3
  6
CONTINUOUS
 62
               3
  5
D5
 10
239.09994067814989
 20
-85.499997033404156
 30
0.0
 11
238.79993751910263
 21
-86.019617480621832
 31
0.0
  0
LINE
  8
LY_3
  6
CONTINUOUS
 62
               3
  5
D6
 10
239.10020483280414
 20
-92.499837251042209
 30
0.0
 11
238.80020167375687
 21
-91.980216803824533
 31
0.0
  0
LINE
  8
LY_3
  6
CONTINUOUS
 62
             110
  5
D7
 10
241.06822353888265
 20
-91.742207343072096
 30
0.0
 11
240.00736358148561
 21
-91.129719477089111
 31
0.0
  0
LINE
  8
LY_3
  6
CONTINUOUS
 62
             110
  5
D8
 10
241.4594055969967
 20
-91.506165630266651
 30
0.0
 11
240.04855964094918
 21
-90.691613226035543
 31
0.0
  0
LINE
  8
LY_3
  6
CONTINUOUS
 62
             110
  5
D9
 10
241.85450142821105
 20
-91.272401155056968
 30
0.0
 11
239.97818796918204
 21
-90.189110925821069
 31
0.0
  0
LINE
  8
LY_3
  6
CONTINUOUS
 62
             110
  5
DA
 10
241.98044002368624
 20
-90.88325627535778
 30
0.0
 11
240.1611966810126
 21
-89.832915497681597
 31
0.0
  0
LINE
  8
LY_3
  6
CONTINUOUS
 62
             110
  5
DB
 10
240.24167844707222
 20
-91.620987344897003
 30
0.0
 11
242.01413928263605
 21
-90.597656717415703
 31
0.0
  0
LINE
  8
LY_3
  6
CONTINUOUS
 62
             110
  5
DC
 10
240.76746184260992
 20
-91.779290549423422
 30
0.0
 11
241.93705077598861
 21
-91.104028138500325
 31
0.0
  0
LINE
  8
LY_3
  6
CONTINUOUS
 62
             110
  5
DD
 10
241.94835405834124
 20
-90.402858241084004
 30
0.0
 11
240.87998496204546
 21
-89.786034971141817
 31
0.0
  0
LINE
  8
LY_3
  6
CONTINUOUS
 62
             110
  5
DE
 10
240.04651774373588
 20
-91.271728583789809
 30
0.0
 11
241.93531903405483
 21
-90.181228770858979
 31
0.0
  0
LINE
  8
LY_3
  6
CONTINUOUS
 62
             110
  5
DF
 10
239.96601952758147
 20
-90.856331079817664
 30
0.0
 11
241.68168444372941
 21
-89.865791588077172
 31
0.0
  0
LINE
  8
LY_3
  6
CONTINUOUS
 62
             110
  5
E0
 10
240.02571393801691
 20
-90.359993334087903
 30
0.0
 11
241.05723777924641
 21
-89.764442832476107
 31
0.0
  0
LINE
  8
LY_3
  6
CONTINUOUS
 62
               3
  5
E1
 10
242.79998779296875
 20
-27.5
 30
0.0
 11
242.79998779296875
 21
-34.5
 31
0.0
  0
LINE
  8
LY_3
  6
CONTINUOUS
 62
               3
  5
E2
 10
238.79998779296875
 20
-28.019615173339844
 30
0.0
 11
238.79998779296875
 21
-33.980384826660156
 31
0.0
  0
LINE
  8
LY_3
  6
CONTINUOUS
 62
               3
  5
E3
 10
239.09999084472656
 20
-27.5
 30
0.0
 11
242.79998779296875
 21
-27.5
 31
0.0
  0
LINE
  8
LY_3
  6
CONTINUOUS
 62
               3
  5
E4
 10
239.09999084472656
 20
-34.5
 30
0.0
 11
242.79998779296875
 21
-34.5
 31
0.0
  0
LINE
  8
LY_3
  6
CONTINUOUS
 62
               3
  5
E5
 10
239.09999084472656
 20
-27.5
 30
0.0
 11
239.09999084472656
 21
-34.5
 31
0.0
  0
LINE
  8
LY_3
  6
CONTINUOUS
 62
               3
  5
E6
 10
239.10002127110027
 20
-27.499998414197648
 30
0.0
 11
238.80002574145027
 21
-28.019605646918421
 31
0.0
  0
LINE
  8
LY_3
  6
CONTINUOUS
 62
               3
  5
E7
 10
239.10014700433976
 20
-34.49991358541547
 30
0.0
 11
238.8001438452925
 21
-33.980293138197794
 31
0.0
  0
LINE
  8
LY_3
  6
CONTINUOUS
 62
             110
  5
E8
 10
241.06817173016566
 20
-33.742135203963727
 30
0.0
 11
240.00731177276862
 21
-33.129647337980742
 31
0.0
  0
LINE
  8
LY_3
  6
CONTINUOUS
 62
             110
  5
E9
 10
241.45941571076918
 20
-33.506094003463488
 30
0.0
 11
240.04856975472165
 21
-32.69154159923238
 31
0.0
  0
LINE
  8
LY_3
  6
CONTINUOUS
 62
             110
  5
EA
 10
241.85452866929995
 20
-33.272321797383057
 30
0.0
 11
239.97820860302159
 21
-32.189027753449437
 31
0.0
  0
LINE
  8
LY_3
  6
CONTINUOUS
 62
             110
  5
EB
 10
241.9804123420148
 20
-32.883145208009068
 30
0.0
 11
240.16117230296584
 21
-31.832806337681745
 31
0.0
  0
LINE
  8
LY_3
  6
CONTINUOUS
 62
             110
  5
EC
 10
240.24161563948473
 20
-33.620887662884115
 30
0.0
 11
242.01406326054894
 21
-32.597564664796892
 31
0.0
  0
LINE
  8
LY_3
  6
CONTINUOUS
 62
             110
  5
ED
 10
240.76743132300726
 20
-33.779216274265536
 30
0.0
 11
241.93702025638595
 21
-33.10395386334244
 31
0.0
  0
LINE
  8
LY_3
  6
CONTINUOUS
 62
             110
  5
EE
 10
241.94836189063511
 20
-32.40276767773554
 30
0.0
 11
240.88000270521337
 21
-31.785950129839932
 31
0.0
  0
LINE
  8
LY_3
  6
CONTINUOUS
 62
             110
  5
EF
 10
240.04652128252656
 20
-33.271652264343402
 30
0.0
 11
241.93530275109606
 21
-32.181163895503687
 31
0.0
  0
LINE
  8
LY_3
  6
CONTINUOUS
 62
             110
  5
F0
 10
239.96595038662417
 20
-32.856296722038678
 30
0.0
 11
241.68161530277212
 21
-31.865757230298186
 31
0.0
  0
LINE
  8
LY_3
  6
CONTINUOUS
 62
             110
  5
F1
 10
240.02568825525555
 20
-32.359942695376503
 30
0.0
 11
241.05719888198541
 21
-31.764399823158783
 31
0.0
  0
LINE
  8
LY_3
  6
CONTINUOUS
 62
               3
  5
F2
 10
197.50887298583984
 20
45.244964599609375
 30
0.0
 11
197.50887298583984
 21
44.599967956542969
 31
0.0
  0
LINE
  8
LY_3
  6
CONTINUOUS
 62
               3
  5
F3
 10
201.50887298583984
 20
45.244964599609375
 30
0.0
 11
201.50887298583984
 21
44.599967956542969
 31
0.0
  0
LINE
  8
LY_3
  6
CENTER
 62
             110
  5
F4
 10
0.0
 20
39.649997711181641
 30
0.0
 11
0.0
 21
-39.650009155273438
 31
0.0
  0
LINE
  8
LY_3
  6
CENTER
 62
             110
  5
F5
 10
66.841796875
 20
0.0
 30
0.0
 11
313.38135623931885
 21
0.0
 31
0.0
  0
LINE
  8
LY_3
  6
CENTER
 62
             110
  5
F6
 10
11.474972898515261
 20
19.875312433458021
 30
0.0
 11
17.874983579669788
 21
30.960452497398364
 31
0.0
  0
LINE
  8
LY_3
  6
CENTER
 62
             110
  5
F7
 10
-17.875010022199604
 20
-30.960395679620888
 30
0.0
 11
-11.475000103985622
 21
-19.875254852739999
 31
0.0
  0
LINE
  8
LY_3
  6
CONTINUOUS
 62
               3
  5
F8
 10
-3.9144450670191873
 20
-10.279929853411886
 30
0.0
 11
-2.6756448705145885
 21
-8.134265266933653
 31
0.0
  0
LINE
  8
LY_3
  6
CONTINUOUS
 62
               3
  5
F9
 10
2.6755741621773268
 20
-8.1343023742274454
 30
0.0
 11
3.9143743586819255
 21
-10.279966960705679
 31
0.0
  0
LINE
  8
LY_3
  6
CONTINUOUS
 62
               3
  5
FA
 10
70.0
 20
3.0
 30
0.0
 11
90.0
 21
3.0
 31
0.0
  0
LINE
  8
LY_3
  6
CENTER
 62
             110
  5
FB
 10
-17.875000645781711
 20
30.960393168137216
 30
0.0
 11
-11.47500217166089
 21
19.875272163004411
 31
0.0
  0
LINE
  8
LY_3
  6
CENTER
 62
             110
  5
FC
 10
11.475001327131849
 20
-19.875294478698834
 30
0.0
 11
17.87499789390381
 21
-30.960412180206959
 31
0.0
  0
LINE
  8
LY_3
  6
CENTER
 62
             110
  5
FD
 10
344.28407669067383
 20
39.999992370605469
 30
0.0
 11
227.59666442871094
 21
39.999992370605469
 31
0.0
  0
LINE
  8
LY_3
  6
CONTINUOUS
 62
               3
  5
FE
 10
265.99998474121094
 20
29.999992370605469
 30
0.0
 11
254.99998474121094
 21
29.999992370605469
 31
0.0
  0
LINE
  8
LY_3
  6
CONTINUOUS
 62
               3
  5
FF
 10
265.99998474121094
 20
49.999992370605469
 30
0.0
 11
254.99998474121094
 21
49.999992370605469
 31
0.0
  0
LINE
  8
LY_3
  6
CONTINUOUS
 62
               3
  5
100
 10
277.49998932422591
 20
19.000003694256748
 30
0.0
 11
277.99998985502066
 21
18.500003163461997
 31
0.0
  0
LINE
  8
LY_3
  6
CONTINUOUS
 62
               3
  5
101
 10
277.99998474121094
 20
18.499996185302734
 30
0.0
 11
277.99998474121094
 21
-18.500007552914269
 31
0.0
  0
LINE
  8
LY_3
  6
CONTINUOUS
 62
               3
  5
102
 10
355.00000381469727
 20
55.999996185302734
 30
0.0
 11
355.00000381469727
 21
-96.0
 31
0.0
  0
LINE
  8
LY_3
  6
CONTINUOUS
 62
               3
  5
103
 10
225.49109649658203
 20
38.499992370605469
 30
0.0
 11
225.49109649658203
 21
25.499992370605469
 31
0.0
  0
LINE
  8
LY_3
  6
CONTINUOUS
 62
               3
  5
104
 10
229.99997711181641
 20
38.499992370605469
 30
0.0
 11
225.49109649658203
 21
38.499992370605469
 31
0.0
  0
LINE
  8
LY_3
  6
CONTINUOUS
 62
               3
  5
105
 10
245.49110794067383
 20
25.499992370605469
 30
0.0
 11
244.99998474121094
 21
25.499992370605469
 31
0.0
  0
LINE
  8
LY_3
  6
CENTER
 62
             110
  5
106
 10
230.49109649658203
 20
46.902374267578125
 30
0.0
 11
230.49109649658203
 21
42.537811279296875
 31
0.0
  0
LINE
  8
LY_3
  6
CONTINUOUS
 62
               3
  5
107
 10
225.49109649658203
 20
44.099967956542969
 30
0.0
 11
234.99998474121094
 21
44.099967956542969
 31
0.0
  0
LINE
  8
LY_3
  6
CONTINUOUS
 62
               3
  5
108
 10
225.49109649658203
 20
44.099967956542969
 30
0.0
 11
225.49109649658203
 21
38.499992370605469
 31
0.0
  0
LINE
  8
LY_3
  6
CONTINUOUS
 62
               3
  5
109
 10
228.19881439208984
 20
39.399986267089844
 30
0.0
 11
229.99997711181641
 21
39.399986267089844
 31
0.0
  0
LINE
  8
LY_3
  6
CONTINUOUS
 62
               3
  5
10A
 10
228.19881439208984
 20
43.199974060058594
 30
0.0
 11
234.99998474121094
 21
43.199974060058594
 31
0.0
  0
LINE
  8
LY_3
  6
CONTINUOUS
 62
               3
  5
10B
 10
228.19881439208984
 20
43.199974060058594
 30
0.0
 11
228.19881439208984
 21
39.399986267089844
 31
0.0
  0
LINE
  8
LY_3
  6
CONTINUOUS
 62
               3
  5
10C
 10
234.59108734130859
 20
43.199974060058594
 30
0.0
 11
234.59108734130859
 21
44.099967956542969
 31
0.0
  0
LINE
  8
LY_3
  6
CONTINUOUS
 62
               3
  5
10D
 10
246.51622009277344
 20
43.199974060058594
 30
0.0
 11
246.51622009277344
 21
42.999992370605469
 31
0.0
  0
LINE
  8
LY_3
  6
CONTINUOUS
 62
               3
  5
10E
 10
244.99998474121094
 20
43.499992370605469
 30
0.0
 11
245.91621398925781
 21
43.499992370605469
 31
0.0
  0
LINE
  8
LY_3
  6
CONTINUOUS
 62
               3
  5
10F
 10
245.91621398925781
 20
43.199974060058594
 30
0.0
 11
245.91621398925781
 21
43.499992370605469
 31
0.0
  0
LINE
  8
LY_3
  6
CONTINUOUS
 62
               3
  5
110
 10
232.69109344482422
 20
44.599967956542969
 30
0.0
 11
228.29108428955078
 21
44.599967956542969
 31
0.0
  0
LINE
  8
LY_3
  6
DASHED
 62
               3
  5
112
 10
231.54109954833984
 20
44.599967956542969
 30
0.0
 11
231.54109954833984
 21
44.099967956542969
 31
0.0
  0
LINE
  8
LY_3
  6
DASHED
 62
               3
  5
113
 10
229.44109344482422
 20
44.599967956542969
 30
0.0
 11
229.44109344482422
 21
44.099967956542969
 31
0.0
  0
LINE
  8
LY_3
  6
CONTINUOUS
 62
               3
  5
114
 10
232.69109344482422
 20
44.599967956542969
 30
0.0
 11
232.69109344482422
 21
44.099967956542969
 31
0.0
  0
LINE
  8
LY_3
  6
CONTINUOUS
 62
               3
  5
115
 10
228.29109954833984
 20
44.599967956542969
 30
0.0
 11
228.29109954833984
 21
44.099967956542969
 31
0.0
  0
LINE
  8
LY_3
  6
CONTINUOUS
 62
               3
  5
116
 10
230.0581884657604
 20
44.099894169321487
 30
0.0
 11
230.34687228352414
 21
44.599902788942927
 31
0.0
  0
LINE
  8
LY_3
  6
CONTINUOUS
 62
               3
  5
117
 10
230.6355678171285
 20
44.099914448769596
 30
0.0
 11
230.92424156213292
 21
44.599911264848743
 31
0.0
  0
LINE
  8
LY_3
  6
CENTER
 62
             110
  5
118
 10
235.49109649658203
 20
33.0
 30
0.0
 11
235.49109649658203
 21
29.499992370605469
 31
0.0
  0
LINE
  8
LY_3
  6
CONTINUOUS
 62
               3
  5
119
 10
232.49109649658203
 20
45.244964599609375
 30
0.0
 11
232.49109649658203
 21
44.599967956542969
 31
0.0
  0
LINE
  8
LY_3
  6
CONTINUOUS
 62
               3
  5
11A
 10
228.49109649658203
 20
45.244964599609375
 30
0.0
 11
228.49109649658203
 21
44.599967956542969
 31
0.0
  0
LINE
  8
LY_3
  6
CONTINUOUS
 62
               3
  5
11B
 10
244.99998474121094
 20
43.199974060058594
 30
0.0
 11
246.51622009277344
 21
43.199974060058594
 31
0.0
  0
LINE
  8
LY_3
  6
CONTINUOUS
 62
               3
  5
11C
 10
281.99998474121094
 20
28.199993133544922
 30
0.0
 11
282.99998474121094
 21
28.199993133544922
 31
0.0
  0
LINE
  8
LY_3
  6
CONTINUOUS
 62
               3
  5
11D
 10
281.99998474121094
 20
29.999996185302734
 30
0.0
 11
281.99998474121094
 21
28.199993133544922
 31
0.0
  0
LINE
  8
LY_3
  6
CONTINUOUS
 62
               3
  5
11E
 10
234.99998474121094
 20
46.999996185302734
 30
0.0
 11
244.99998474121094
 21
46.999996185302734
 31
0.0
  0
LINE
  8
LY_3
  6
CONTINUOUS
 62
               3
  5
11F
 10
241.99998474121094
 20
33.0
 30
0.0
 11
241.99998474121094
 21
18.999996185302734
 31
0.0
  0
LINE
  8
LY_3
  6
CONTINUOUS
 62
               3
  5
120
 10
234.99998474121094
 20
33.0
 30
0.0
 11
241.99998474121094
 21
33.0
 31
0.0
  0
LINE
  8
LY_3
  6
CONTINUOUS
 62
               3
  5
121
 10
244.99998474121094
 20
18.999996185302734
 30
0.0
 11
244.99998474121094
 21
46.999996185302734
 31
0.0
  0
LINE
  8
LY_3
  6
CONTINUOUS
 62
               3
  5
122
 10
281.99998474121094
 20
35.799991607666016
 30
0.0
 11
282.99998474121094
 21
35.799991607666016
 31
0.0
  0
LINE
  8
LY_3
  6
CONTINUOUS
 62
               3
  5
123
 10
281.99998474121094
 20
30.249992370605469
 30
0.0
 11
281.99998474121094
 21
35.749992370605469
 31
0.0
  0
LINE
  8
LY_3
  6
CONTINUOUS
 62
               3
  5
124
 10
279.19998168945312
 20
35.749992370605469
 30
0.0
 11
281.99998474121094
 21
35.749992370605469
 31
0.0
  0
LINE
  8
LY_3
  6
CONTINUOUS
 62
               3
  5
125
 10
278.9999725661163
 20
35.403574638507962
 30
0.0
 11
279.19996945475475
 21
35.749979555687787
 31
0.0
  0
LINE
  8
LY_3
  6
CONTINUOUS
 62
               3
  5
126
 10
279.19998168945312
 20
30.249992370605469
 30
0.0
 11
279.19998168945312
 21
35.749992370605469
 31
0.0
  0
LINE
  8
LY_3
  6
CONTINUOUS
 62
               3
  5
127
 10
278.99998474121094
 20
30.596405029296875
 30
0.0
 11
278.99998474121094
 21
35.403579711914063
 31
0.0
  0
LINE
  8
LY_3
  6
CONTINUOUS
 62
               3
  5
128
 10
283.00000219535463
 20
33.0000085281483
 30
0.0
 11
281.99999486692008
 21
33.577362787235614
 31
0.0
  0
LINE
  8
LY_3
  6
CONTINUOUS
 62
               3
  5
129
 10
283.00000715005871
 20
32.422651045004187
 30
0.0
 11
281.99999899571787
 21
33.000005780928518
 31
0.0
  0
LINE
  8
LY_3
  6
CONTINUOUS
 62
               3
  5
12A
 10
281.99998474121094
 20
30.199993133544922
 30
0.0
 11
282.99998474121094
 21
30.199993133544922
 31
0.0
  0
LINE
  8
LY_3
  6
CONTINUOUS
 62
               3
  5
12B
 10
279.19998168945312
 20
30.249992370605469
 30
0.0
 11
281.99998474121094
 21
30.249992370605469
 31
0.0
  0
LINE
  8
LY_3
  6
CONTINUOUS
 62
               3
  5
12C
 10
278.9999841774748
 20
30.596388017593085
 30
0.0
 11
279.19998538148423
 21
30.249974579087734
 31
0.0
  0
LINE
  8
LY_3
  6
CENTER
 62
             110
  5
12D
 10
293.69104862213135
 20
32.999992370605469
 30
0.0
 11
278.19772338867187
 21
32.999992370605469
 31
0.0
  0
LINE
  8
LY_3
  6
CONTINUOUS
 62
               3
  5
12E
 10
282.99997449262833
 20
47.000006461279469
 30
0.0
 11
281.99996878160243
 21
47.577362778397571
 31
0.0
  0
LINE
  8
LY_3
  6
CONTINUOUS
 62
               3
  5
12F
 10
281.99998474121094
 20
44.249992370605469
 30
0.0
 11
281.99998474121094
 21
49.749992370605469
 31
0.0
  0
LINE
  8
LY_3
  6
CONTINUOUS
 62
               3
  5
130
 10
281.99998474121094
 20
49.799991607666016
 30
0.0
 11
282.99998474121094
 21
49.799991607666016
 31
0.0
  0
LINE
  8
LY_3
  6
CONTINUOUS
 62
               3
  5
131
 10
279.19998168945312
 20
49.749992370605469
 30
0.0
 11
281.99998474121094
 21
49.749992370605469
 31
0.0
  0
LINE
  8
LY_3
  6
CONTINUOUS
 62
               3
  5
132
 10
279.19998168945312
 20
44.249992370605469
 30
0.0
 11
279.19998168945312
 21
49.749992370605469
 31
0.0
  0
LINE
  8
LY_3
  6
CONTINUOUS
 62
               3
  5
133
 10
278.99998474121094
 20
44.596401214599609
 30
0.0
 11
278.99998474121094
 21
49.403581619262695
 31
0.0
  0
LINE
  8
LY_3
  6
CONTINUOUS
 62
               3
  5
134
 10
278.99998338447182
 20
49.403575565026642
 30
0.0
 11
279.19998027311027
 21
49.749980482206468
 31
0.0
  0
LINE
  8
LY_3
  6
CENTER
 62
             110
  5
135
 10
292.69109344482422
 20
46.999992370605469
 30
0.0
 11
278.22782897949219
 21
46.999992370605469
 31
0.0
  0
LINE
  8
LY_3
  6
CONTINUOUS
 62
               3
  5
136
 10
282.99997308685874
 20
46.422656629739379
 30
0.0
 11
281.99997878365411
 21
47.000003477271122
 31
0.0
  0
LINE
  8
LY_3
  6
CONTINUOUS
 62
               3
  5
137
 10
281.99998474121094
 20
44.199993133544922
 30
0.0
 11
282.99998474121094
 21
44.199993133544922
 31
0.0
  0
LINE
  8
LY_3
  6
CONTINUOUS
 62
               3
  5
138
 10
279.19998168945312
 20
44.249992370605469
 30
0.0
 11
281.99998474121094
 21
44.249992370605469
 31
0.0
  0
LINE
  8
LY_3
  6
CONTINUOUS
 62
               3
  5
139
 10
279.00002354231594
 20
44.596399912643847
 30
0.0
 11
279.2000204309544
 21
44.249994995464021
 31
0.0
  0
LINE
  8
LY_3
  6
CONTINUOUS
 62
               3
  5
13A
 10
162.99998474121094
 20
-24.0
 30
0.0
 11
170.99998474121094
 21
-24.0
 31
0.0
  0
LINE
  8
LY_3
  6
CONTINUOUS
 62
               3
  5
13B
 10
162.99998474121094
 20
-24.0
 30
0.0
 11
162.99998474121094
 21
-19.0
 31
0.0
  0
LINE
  8
LY_3
  6
CONTINUOUS
 62
               3
  5
13C
 10
170.99998474121094
 20
-24.0
 30
0.0
 11
170.99998474121094
 21
-19.0
 31
0.0
  0
LINE
  8
LY_3
  6
CONTINUOUS
 62
               3
  5
13D
 10
162.99998474121094
 20
38.362899780273437
 30
0.0
 11
170.99998474121094
 21
38.362899780273437
 31
0.0
  0
LINE
  8
LY_3
  6
CONTINUOUS
 62
               3
  5
13E
 10
170.99998474121094
 20
18.999996185302734
 30
0.0
 11
170.99998474121094
 21
38.362899780273437
 31
0.0
  0
LINE
  8
LY_3
  6
CONTINUOUS
 62
               3
  5
13F
 10
234.99998474121094
 20
33.0
 30
0.0
 11
234.99998474121094
 21
46.999996185302734
 31
0.0
  0
LINE
  8
LY_3
  6
CONTINUOUS
 62
               3
  5
140
 10
245.49110794067383
 20
36.999992370605469
 30
0.0
 11
245.49110794067383
 21
25.499992370605469
 31
0.0
  0
LINE
  8
LY_3
  6
CONTINUOUS
 62
               3
  5
141
 10
241.99998474121094
 20
25.499992370605469
 30
0.0
 11
225.49109649658203
 21
25.499992370605469
 31
0.0
  0
LINE
  8
LY_3
  6
CONTINUOUS
 62
               3
  5
142
 10
132.69999694824219
 20
12.5
 30
0.0
 11
152.49996948242187
 21
12.5
 31
0.0
  0
LINE
  8
LY_3
  6
CONTINUOUS
 62
               3
  5
143
 10
132.69999694824219
 20
-12.5
 30
0.0
 11
152.49996948242187
 21
-12.5
 31
0.0
  0
LINE
  8
LY_3
  6
CONTINUOUS
 62
               3
  5
144
 10
162.99998474121094
 20
18.999996185302734
 30
0.0
 11
162.99998474121094
 21
38.362899780273437
 31
0.0
  0
LINE
  8
LY_3
  6
CONTINUOUS
 62
               3
  5
145
 10
162.00009155273438
 20
34.999992370605469
 30
0.0
 11
162.00009155273438
 21
28.999992370605469
 31
0.0
  0
LINE
  8
LY_3
  6
CONTINUOUS
 62
               3
  5
146
 10
152.99996948242187
 20
-20.0
 30
0.0
 11
152.99996948242187
 21
20.0
 31
0.0
  0
LINE
  8
LY_3
  6
CONTINUOUS
 62
               3
  5
147
 10
153.99997051081573
 20
21.000005297267762
 30
0.0
 11
152.99996944922623
 21
20.000004151384474
 31
0.0
  0
LINE
  8
LY_3
  6
CONTINUOUS
 62
               3
  5
148
 10
153.99997461311023
 20
-20.999996383286089
 30
0.0
 11
152.99997355152072
 21
-19.9999952374028
 31
0.0
  0
LINE
  8
LY_3
  6
CENTER
 62
             110
  5
149
 10
157.99996948242187
 20
22.207977294921875
 30
0.0
 11
157.99996948242187
 21
11.37139892578125
 31
0.0
  0
LINE
  8
LY_3
  6
CONTINUOUS
 62
               3
  5
14A
 10
161.49996948242187
 20
21.0
 30
0.0
 11
153.99996948242187
 21
21.0
 31
0.0
  0
LINE
  8
LY_3
  6
CONTINUOUS
 62
               3
  5
14B
 10
161.99996948242187
 20
-20.5
 30
0.0
 11
161.99996948242187
 21
20.5
 31
0.0
  0
LINE
  8
LY_3
  6
CONTINUOUS
 62
               3
  5
14C
 10
161.49996308211348
 20
20.99999570957425
 30
0.0
 11
161.99996361290823
 21
20.499995136632606
 31
0.0
  0
LINE
  8
LY_3
  6
CONTINUOUS
 62
               3
  5
14D
 10
161.49996976941293
 20
-20.999997585185611
 30
0.0
 11
161.99997030020768
 21
-20.499997012243966
 31
0.0
  0
LINE
  8
LY_3
  6
CONTINUOUS
 62
               3
  5
14E
 10
161.49996948242187
 20
-21.0
 30
0.0
 11
153.99996948242187
 21
-21.0
 31
0.0
  0
LINE
  8
LY_3
  6
CENTER
 62
             110
  5
14F
 10
157.99996948242187
 20
-22.207977294921875
 30
0.0
 11
157.99996948242187
 21
-11.37139892578125
 31
0.0
  0
ARC
  8
LY_3
  6
CONTINUOUS
 62
               3
  5
150
 10
294.9999828338623
 20
-96.5
 30
0.0
 40
1.5
 50
179.99998133066532
 51
270.00001798608935
  0
ARC
  8
LY_3
  6
CONTINUOUS
 62
               3
  5
151
 10
302.99998307228088
 20
-96.5
 30
0.0
 40
1.5
 50
270.00001798608935
 51
0.0
  0
ARC
  8
LY_3
  6
CONTINUOUS
 62
               3
  5
152
 10
294.9999828338623
 20
56.499996185302734
 30
0.0
 40
1.5
 50
89.999982013910653
 51
179.99996402782131
  0
ARC
  8
LY_3
  6
CONTINUOUS
 62
               3
  5
153
 10
302.99998307228088
 20
56.499996185302734
 30
0.0
 40
1.5
 50
0.0
 51
89.999982013910653
  0
CIRCLE
  8
LY_3
  6
DASHED
 62
               3
  5
154
 10
194.50887298583984
 20
31.999992370605469
 30
0.0
 40
1.5
  0
CIRCLE
  8
LY_3
  6
DASHED
 62
               3
  5
155
 10
194.50887298583984
 20
31.999992370605469
 30
0.0
 40
1.2000000476837158
  0
CIRCLE
  8
LY_3
  6
CONTINUOUS
 62
             110
  5
156
 10
199.40888214111328
 20
41.299980163574219
 30
0.0
 40
0.25
  0
ARC
  8
LY_3
  6
CONTINUOUS
 62
               3
  5
157
 10
271.6904296875
 20
34.809535980224609
 30
0.0
 40
0.622045636177063
 50
270.00001798608935
 51
0.0
  0
ARC
  8
LY_3
  6
CONTINUOUS
 62
               3
  5
158
 10
271.6904296875
 20
33.190448760986328
 30
0.0
 40
0.622045636177063
 50
0.0
 51
89.999982013910653
  0
ARC
  8
LY_3
  6
CONTINUOUS
 62
               3
  5
159
 10
273.30952453613281
 20
33.190448760986328
 30
0.0
 40
0.622045636177063
 50
89.999982013910653
 51
179.99996402782131
  0
ARC
  8
LY_3
  6
CONTINUOUS
 62
               3
  5
15A
 10
273.30952453613281
 20
34.809535980224609
 30
0.0
 40
0.622045636177063
 50
179.99998133066532
 51
270.00001798608935
  0
CIRCLE
  8
LY_3
  6
CONTINUOUS
 62
               3
  5
15B
 10
272.49998474121094
 20
33.999992370605469
 30
0.0
 40
2.7999999523162842
  0
ARC
  8
LY_3
  6
CONTINUOUS
 62
               3
  5
15C
 10
271.6904296875
 20
46.809539794921875
 30
0.0
 40
0.622045636177063
 50
270.00001798608935
 51
0.0
  0
ARC
  8
LY_3
  6
CONTINUOUS
 62
               3
  5
15D
 10
271.6904296875
 20
45.190444946289063
 30
0.0
 40
0.622045636177063
 50
0.0
 51
89.999982013910653
  0
ARC
  8
LY_3
  6
CONTINUOUS
 62
               3
  5
15E
 10
273.30952453613281
 20
45.190444946289063
 30
0.0
 40
0.622045636177063
 50
89.999982013910653
 51
179.99996402782131
  0
ARC
  8
LY_3
  6
CONTINUOUS
 62
               3
  5
15F
 10
273.30952453613281
 20
46.809539794921875
 30
0.0
 40
0.622045636177063
 50
179.99998133066532
 51
270.00001798608935
  0
CIRCLE
  8
LY_3
  6
CONTINUOUS
 62
               3
  5
160
 10
272.49998474121094
 20
45.999992370605469
 30
0.0
 40
2.7999999523162842
  0
ARC
  8
LY_3
  6
CONTINUOUS
 62
               3
  5
161
 10
189.50887298583984
 20
42.999969482421875
 30
0.0
 40
3.2000000476837158
 50
56.251033777637176
 51
123.74895757094082
  0
ARC
  8
LY_3
  6
CONTINUOUS
 62
               3
  5
162
 10
191.00887298583984
 20
45.244960784912109
 30
0.0
 40
0.5
 50
359.99998633962167
 51
56.251033777637176
  0
ARC
  8
LY_3
  6
CONTINUOUS
 62
               3
  5
163
 10
188.00887298583984
 20
45.244960784912109
 30
0.0
 40
0.5
 50
123.74895757094082
 51
180.00000500895632
  0
ARC
  8
LY_3
  6
CONTINUOUS
 62
               3
  5
164
 10
199.50887298583984
 20
42.999969482421875
 30
0.0
 40
3.2000000476837158
 50
56.251033777637176
 51
123.74895757094082
  0
ARC
  8
LY_3
  6
CONTINUOUS
 62
               3
  5
165
 10
201.00887298583984
 20
45.244964599609375
 30
0.0
 40
0.5
 50
359.99998633962167
 51
56.251033777637176
  0
ARC
  8
LY_3
  6
CONTINUOUS
 62
               3
  5
166
 10
198.00887298583984
 20
45.244964599609375
 30
0.0
 40
0.5
 50
123.74895757094082
 51
180.00000500895632
  0
CIRCLE
  8
LY_3
  6
CONTINUOUS
 62
               3
  5
167
 10
0.0
 20
0.0
 30
0.0
 40
34.650001525878906
  0
CIRCLE
  8
LY_3
  6
CENTER
 62
             110
  5
168
 10
0.0
 20
0.0
 30
0.0
 40
29.350000381469727
  0
CIRCLE
  8
LY_3
  6
CONTINUOUS
 62
               3
  5
169
 10
-29.350006103515625
 20
0.0
 30
0.0
 40
3.4000000953674316
  0
CIRCLE
  8
LY_3
  6
CONTINUOUS
 62
               3
  5
16A
 10
-14.67498779296875
 20
25.4178466796875
 30
0.0
 40
3.4000000953674316
  0
CIRCLE
  8
LY_3
  6
CONTINUOUS
 62
               3
  5
16B
 10
14.67498779296875
 20
25.4178466796875
 30
0.0
 40
3.4000000953674316
  0
CIRCLE
  8
LY_3
  6
CONTINUOUS
 62
               3
  5
16C
 10
-14.67498779296875
 20
-25.4178466796875
 30
0.0
 40
3.4000000953674316
  0
CIRCLE
  8
LY_3
  6
CONTINUOUS
 62
               3
  5
16D
 10
14.67498779296875
 20
-25.417854309082031
 30
0.0
 40
3.4000000953674316
  0
CIRCLE
  8
LY_3
  6
CONTINUOUS
 62
               3
  5
16E
 10
29.350006103515625
 20
0.0
 30
0.0
 40
3.4000000953674316
  0
CIRCLE
  8
LY_3
  6
CONTINUOUS
 62
               3
  5
16F
 10
0.0
 20
0.0
 30
0.0
 40
24.149999618530273
  0
CIRCLE
  8
LY_3
  6
CONTINUOUS
 62
               3
  5
170
 10
0.0
 20
0.0
 30
0.0
 40
20.899999618530273
  0
CIRCLE
  8
LY_3
  6
CONTINUOUS
 62
               3
  5
171
 10
0.0
 20
0.0
 30
0.0
 40
12.850000381469727
  0
CIRCLE
  8
LY_3
  6
CONTINUOUS
 62
               3
  5
172
 10
0.0
 20
0.0
 30
0.0
 40
12.0
  0
CIRCLE
  8
LY_3
  6
CONTINUOUS
 62
               3
  5
173
 10
0.0
 20
0.0
 30
0.0
 40
11.0
  0
ARC
  8
LY_3
  6
CONTINUOUS
 62
               3
  5
174
 10
0.0
 20
-0.625
 30
0.0
 40
9.625
 50
322.12916237321804
 51
217.87080848479243
  0
CIRCLE
  8
LY_3
  6
CONTINUOUS
 62
               3
  5
175
 10
-4.725006103515625
 20
-8.1839447021484375
 30
0.0
 40
1.0
  0
CIRCLE
  8
LY_3
  6
CONTINUOUS
 62
               3
  5
176
 10
4.725006103515625
 20
-8.1839447021484375
 30
0.0
 40
1.0
  0
ARC
  8
LY_3
  6
CONTINUOUS
 62
               3
  5
177
 10
-4.725006103515625
 20
-8.1839447021484375
 30
0.0
 40
2.0499999523162842
 50
1.388136804340421
 51
132.156537948633
  0
ARC
  8
LY_3
  6
CONTINUOUS
 62
               3
  5
178
 10
4.725006103515625
 20
-8.1839447021484375
 30
0.0
 40
2.0499999523162842
 50
47.843494381080014
 51
178.61187834317795
  0
ARC
  8
LY_3
  6
CONTINUOUS
 62
               3
  5
179
 10
-6.788818359375
 20
-5.9044036865234375
 30
0.0
 40
1.0249999761581421
 50
217.87082578763645
 51
312.15651586420375
  0
ARC
  8
LY_3
  6
CONTINUOUS
 62
               3
  5
17A
 10
6.788818359375
 20
-5.9044036865234375
 30
0.0
 40
1.0249999761581421
 50
227.843462051367
 51
322.12916920340723
  0
ARC
  8
LY_3
  6
CONTINUOUS
 62
               3
  5
17B
 10
0.0
 20
0.0
 30
0.0
 40
4.0
 50
131.40964310251377
 51
48.590372151726328
  0
ARC
  8
LY_3
  6
CONTINUOUS
 62
               3
  5
17C
 10
0.0
 20
-4.5
 30
0.0
 40
3.0
 50
194.47749618223446
 51
345.52248685597812
  0
ARC
  8
LY_3
  6
CONTINUOUS
 62
               3
  5
17D
 10
0.0
 20
0.0
 30
0.0
 40
6.0
 50
208.95501103380366
 51
298.95491108544422
  0
ARC
  8
LY_3
  6
CONTINUOUS
 62
               3
  5
17E
 10
-4.5
 20
0.0
 30
0.0
 40
3.0
 50
104.47753101642566
 51
255.52245851091951
  0
ARC
  8
LY_3
  6
CONTINUOUS
 62
               3
  5
17F
 10
0.0
 20
0.0
 30
0.0
 40
6.0
 50
118.95502537742729
 51
208.95499373095961
  0
ARC
  8
LY_3
  6
CONTINUOUS
 62
             110
  5
180
 10
0.0
 20
0.0
 30
0.0
 40
6.0
 50
61.044972801339874
 51
118.95502537742729
  0
ARC
  8
LY_3
  6
CONTINUOUS
 62
               3
  5
181
 10
0.0
 20
0.0
 30
0.0
 40
6.0
 50
298.9550271986601
 51
28.955022872949126
  0
ARC
  8
LY_3
  6
CONTINUOUS
 62
               3
  5
182
 10
4.5
 20
0.0
 30
0.0
 40
3.0
 50
0.0
 51
75.522487652909021
  0
ARC
  8
LY_3
  6
CONTINUOUS
 62
               3
  5
183
 10
4.5
 20
0.0
 30
0.0
 40
3.0
 50
284.47751234709096
 51
0.0
  0
ARC
  8
LY_3
  6
CONTINUOUS
 62
               3
  5
184
 10
0.0
 20
4.5
 30
0.0
 40
3.0
 50
14.477514851569147
 51
165.52250381776554
  0
ARC
  8
LY_3
  6
CONTINUOUS
 62
               3
  5
185
 10
0.0
 20
0.0
 30
0.0
 40
6.0
 50
28.955022872949126
 51
61.044972801339874
  0
ARC
  8
LY_3
  6
CONTINUOUS
 62
               3
  5
186
 10
231.99109649658203
 20
45.244964599609375
 30
0.0
 40
0.5
 50
359.99995901886496
 51
56.251006456880489
  0
ARC
  8
LY_3
  6
CONTINUOUS
 62
               3
  5
187
 10
228.99109649658203
 20
45.244964599609375
 30
0.0
 40
0.5
 50
123.74893025018415
 51
179.99997768819969
  0
ARC
  8
LY_3
  6
DASHED
 62
               3
  5
188
 10
235.49109649658203
 20
31.999992370605469
 30
0.0
 40
1.2000000476837158
 50
0.0
 51
45.417168716175951
  0
ARC
  8
LY_3
  6
CONTINUOUS
 62
               3
  5
189
 10
230.49109649658203
 20
42.999969482421875
 30
0.0
 40
3.2000000476837158
 50
56.251006456880489
 51
123.74893025018415
  0
ARC
  8
LY_3
  6
DASHED
 62
               3
  5
18A
 10
235.49109649658203
 20
31.999992370605469
 30
0.0
 40
1.5
 50
0.0
 51
41.810415607964437
  0
ARC
  8
LY_3
  6
DASHED
 62
               3
  5
18B
 10
235.49109649658203
 20
31.999992370605469
 30
0.0
 40
1.5
 50
109.11154116071251
 51
0.0000100179126691
  0
ARC
  8
LY_3
  6
DASHED
 62
               3
  5
18C
 10
235.49109649658203
 20
31.999992370605469
 30
0.0
 40
1.2000000476837158
 50
114.15835427805661
 51
0.0000100179126691
  0
ARC
  8
LY_3
  6
CONTINUOUS
 62
               3
  5
18D
 10
152.49996948242187
 20
13.0
 30
0.0
 40
0.5
 50
269.99999749552182
 51
0.0
  0
ARC
  8
LY_3
  6
CONTINUOUS
 62
               3
  5
18E
 10
152.49996948242187
 20
-13.0
 30
0.0
 40
0.5
 50
0.0
 51
90.000002504478161
  0
TEXT
  8
LY_3
  6
CONTINUOUS
 62
             110
  5
18F
 10
195.20888213813305
 20
41.249980162829161
 30
0.0
 40
0.1000000014901161
  1
形ＳＳ－
 41
0.833333300219643
  7
MX_NOTE_STANDARD
 72
               1
 11
195.40888214111328
 21
41.299980163574219
 31
0.0
 73
               2
  0
DIMENSION
  8
LY_3
  6
CONTINUOUS
 62
             110
  5
19F
  2
*D2
 10
50.0
 20
-4.0
 30
0.0
 11
50.0
 21
10.850001335144043
 31
0.0
 70
             128
  1
<>
 13
2.645751953125
 23
3.0
 33
0.0
 14
0.0
 24
-4.0
 34
0.0
 50
90.0
  3
MXDIMSTYLE
1001
ACAD
1000
DSTYLE
1002
{
1070
              41
1040
2.77
1070
              42
1040
2.5399999618530273
1070
              44
1040
2.2860174179077148
1070
             140
1040
6.3000001907348633
1070
             271
1070
               0
1070
             284
1070
               8
1002
}
  0
LINE
  8
LY_3
  6
CONTINUOUS
 62
               3
  5
1A0
 10
234.99998474121094
 20
42.999992370605469
 30
0.0
 11
230.99997711181641
 21
42.999992370605469
 31
0.0
  0
LINE
  8
LY_3
  6
CONTINUOUS
 62
               3
  5
1A1
 10
234.99998474121094
 20
36.999992370605469
 30
0.0
 11
230.99997711181641
 21
36.999992370605469
 31
0.0
  0
LINE
  8
LY_3
  6
CONTINUOUS
 62
               3
  5
1A2
 10
152.49996946056618
 20
12.5
 30
0.0
 11
152.49996946056618
 21
-12.5
 31
0.0
  0
LINE
  8
LY_3
  6
CONTINUOUS
 62
               3
  5
1A3
 10
277.99998526105907
 20
-18.500007033067106
 30
0.0
 11
277.49998426664848
 21
-19.000007100246023
 31
0.0
  0
LINE
  8
LY_3
  6
CONTINUOUS
 62
               3
  5
1A4
 10
282.49999193477515
 20
-19.000011786451523
 30
0.0
 11
282.9999924655699
 21
-18.500011255656773
 31
0.0
  0
LINE
  8
LY_3
  6
CONTINUOUS
 62
               3
  5
1A5
 10
278.49998474121094
 20
-18.999996185302734
 30
0.0
 11
282.5000057220459
 21
-18.999996185302734
 31
0.0
  0
LINE
  8
LY_3
  6
CONTINUOUS
 62
               3
  5
1A6
 10
277.99998422136377
 20
-18.50000703306614
 30
0.0
 11
278.49998428854269
 21
-19.000008027476724
 31
0.0
  0
LINE
  8
LY_3
  6
CONTINUOUS
 62
               3
  5
1A7
 10
170.99998474121094
 20
34.999992370605469
 30
0.0
 11
184.50887298583984
 21
34.999992370605469
 31
0.0
  0
LINE
  8
LY_3
  6
CONTINUOUS
 62
               3
  5
1A8
 10
170.99998474121094
 20
28.999992370605469
 30
0.0
 11
184.50887298583984
 21
28.999992370605469
 31
0.0
  0
DIMENSION
  8
LY_3
  6
CONTINUOUS
 62
             110
  5
1B5
  2
*D3
 10
120.0
 20
-120.0
 30
0.0
 11
238.00000381469727
 21
-120.0
 31
0.0
 70
             128
  1
<>
 13
355.00000381469727
 23
-96.0
 33
0.0
 14
120.0
 24
-33.850006103515625
 34
0.0
  3
MXDIMSTYLE
1001
ACAD
1000
DSTYLE
1002
{
1070
              41
1040
2.77
1070
             140
1040
3.2000000476837158
1070
             271
1070
               4
1070
             284
1070
               8
1002
}
  0
LINE
  8
LY_3
  6
CONTINUOUS
 62
               3
  5
1B6
 10
120.80010837755117
 20
34.650001427751249
 30
0.0
 11
120.80010837755117
 21
-34.650009155273437
 31
0.0
  0
LINE
  8
LY_3
  6
CONTINUOUS
 62
               3
  5
1B7
 10
131.89999389648437
 20
-34.650009155273437
 30
0.0
 11
131.89999389648437
 21
34.649997711181641
 31
0.0
  0
LINE
  8
LY_3
  6
CONTINUOUS
 62
               3
  5
1B8
 10
153.99997051081573
 20
21.000005297267762
 30
0.0
 11
153.99997051081573
 21
-21.0
 31
0.0
  0
LINE
  8
LY_3
  6
CONTINUOUS
 62
               3
  5
1B9
 10
161.4999587916881
 20
21.0
 30
0.0
 11
161.4999587916881
 21
-21.0
 31
0.0
  0
DIMENSION
  8
LY_3
  6
CONTINUOUS
 62
             110
  5
1C6
  2
*D4
 10
70.0
 20
-120.0
 30
0.0
 11
95.846353530883789
 21
-120.0
 31
0.0
 70
             128
  1
<>
 13
120.0
 23
-35.850006103515625
 33
0.0
 14
70.0
 24
-3.0
 34
0.0
  3
MXDIMSTYLE
1001
ACAD
1000
DSTYLE
1002
{
1070
              41
1040
2.77
1070
              75
1070
               1
1070
             140
1040
5.1999998092651367
1070
             271
1070
               4
1070
             284
1070
               8
1070
             340
1005
1C0
1002
}
  0
DIMENSION
  8
LY_3
  6
CONTINUOUS
 62
             110
  5
1D2
  2
*D5
 10
70.0
 20
-40.0
 30
0.0
 11
80.886363983154297
 21
-40.0
 31
0.0
 70
             128
  1
<>
 13
90.0
 23
-5.0
 33
0.0
 14
70.0
 24
-5.0
 34
0.0
  3
MXDIMSTYLE
1001
ACAD
1000
DSTYLE
1002
{
1070
              41
1040
2.77
1070
              76
1070
               1
1070
             140
1040
5.1999998092651367
1070
             271
1070
               4
1070
             284
1070
               8
1002
}
  0
DIMENSION
  8
LY_3
  6
CONTINUOUS
 62
             110
  5
1E0
  2
*D6
 10
100.0
 20
-6.0
 30
0.0
 11
100.0
 21
20.810955047607422
 31
0.0
 70
             128
  1
%%c<>
 13
91.0
 23
6.0
 33
0.0
 14
91.0
 24
-6.0
 34
0.0
 50
90.0
  3
MXDIMSTYLE
1001
ACAD
1000
DSTYLE
1002
{
1070
              41
1040
2.77
1070
              75
1070
               1
1070
              76
1070
               1
1070
             140
1040
5.1999998092651367
1070
             271
1070
               4
1070
             284
1070
               8
1002
}
  0
DIMENSION
  8
LY_3
  6
CONTINUOUS
 62
             110
  5
1EB
  2
*D7
 10
220.0
 20
18.999996185302734
 30
0.0
 11
220.0
 21
10.86174201965332
 31
0.0
 70
             128
  1
%%c<>
 13
277.49997711181641
 23
-19.0
 33
0.0
 14
277.49999237060547
 24
18.999996185302734
 34
0.0
 50
90.0
  3
MXDIMSTYLE
1001
ACAD
1000
DSTYLE
1002
{
1070
              41
1040
2.77
1070
              75
1070
               1
1070
              76
1070
               1
1070
             140
1040
5.1999998092651367
1070
             271
1070
               4
1070
             284
1070
               8
1070
             340
1005
1C0
1002
}
  0
DIMENSION
  8
LY_3
  6
CONTINUOUS
 62
             110
  5
1F8
  2
*D8
 10
370.0
 20
-96.0
 30
0.0
 11
370.0
 21
-47.1875
 31
0.0
 70
             128
  1
<>
 13
313.38135528564453
 23
0.0
 33
0.0
 14
355.00000381469727
 24
-96.0
 34
0.0
 50
90.0
  3
MXDIMSTYLE
1001
ACAD
1000
DSTYLE
1002
{
1070
              41
1040
2.77
1070
             140
1040
5.1999998092651367
1070
             271
1070
               4
1070
             284
1070
               8
1002
}
  0
DIMENSION
  8
LY_3
  6
CONTINUOUS
 62
             110
  5
206
  2
*D9
 10
380.0
 20
-96.0
 30
0.0
 11
380.0
 21
-19.129467010498047
 31
0.0
 70
             128
  1
<>
 13
355.00000381469727
 23
55.999996185302734
 33
0.0
 14
355.00000381469727
 24
-96.0
 34
0.0
 50
90.0
  3
MXDIMSTYLE
1001
ACAD
1000
DSTYLE
1002
{
1070
              41
1040
2.77
1070
             140
1040
5.1999998092651367
1070
             271
1070
               4
1070
             284
1070
               8
1070
             340
1005
200
1002
}
  0
DIMENSION
  8
LY_3
  6
CONTINUOUS
 62
             110
  5
216
  2
*D10
 10
4.0
 20
50.0
 30
0.0
 11
20.871646881103516
 21
50.0
 31
0.0
 70
             128
  1
%%c<>
 13
-4.0
 23
0.0
 33
0.0
 14
4.0
 24
0.0
 34
0.0
  3
MXDIMSTYLE
1001
ACAD
1000
DSTYLE
1002
{
1070
              41
1040
2.77
1070
             140
1040
5.1999998092651367
1070
             271
1070
               4
1070
             284
1070
               8
1070
             340
1005
1C0
1002
}
  0
TEXT
  8
LY_3
  6
CONTINUOUS
 62
             110
  5
217
 10
144.94169598114161
 20
62.300000190734863
 30
0.0
 40
5.1999998092651367
  1
マイクロスイッチ
 41
0.7812499976119945
  7
MX_NOTE_STANDARD
 11
144.94169598114161
 21
64.900000095367432
 31
0.0
 73
               2
  0
POLYLINE
  8
LY_3
  6
CONTINUOUS
 62
             110
  5
218
 66
               1
 10
0.0
 20
0.0
 30
0.0
  0
VERTEX
  8
LY_3
  6
CONTINUOUS
 62
             110
  5
220
 10
194.60888671875
 20
44.099967956542969
 30
0.0
  0
VERTEX
  8
LY_3
  6
CONTINUOUS
 62
             110
  5
221
 10
190.0
 20
60.0
 30
0.0
  0
VERTEX
  8
LY_3
  6
CONTINUOUS
 62
             110
  5
222
 10
144.26461267471313
 20
60.0
 30
0.0
  0
SEQEND
  8
LY_3
  6
CONTINUOUS
 62
             110
  5
223
  0
TEXT
  8
LY_3
  6
CONTINUOUS
 62
             110
  5
219
 10
218.83010511886744
 20
62.300000190734863
 30
0.0
 40
5.1999998092651367
  1
ポテンショメーター
 41
0.7812499976119945
  7
MX_NOTE_STANDARD
 11
218.83010511886744
 21
64.900000095367432
 31
0.0
 73
               2
  0
POLYLINE
  8
LY_3
  6
CONTINUOUS
 62
             110
  5
21A
 66
               1
 10
0.0
 20
0.0
 30
0.0
  0
VERTEX
  8
LY_3
  6
CONTINUOUS
 62
             110
  5
224
 10
274.49998474121094
 20
49.999992370605469
 30
0.0
  0
VERTEX
  8
LY_3
  6
CONTINUOUS
 62
             110
  5
225
 10
270.0
 20
60.0
 30
0.0
  0
VERTEX
  8
LY_3
  6
CONTINUOUS
 62
             110
  5
226
 10
218.15302181243896
 20
60.0
 30
0.0
  0
SEQEND
  8
LY_3
  6
CONTINUOUS
 62
             110
  5
227
  0
TEXT
  8
LY_3
  6
CONTINUOUS
 62
             110
  5
21B
 10
227.81818800460962
 20
-107.69999980926514
 30
0.0
 40
5.1999998092651367
  1
モ－タ－
 41
0.7812499976119945
  7
MX_NOTE_STANDARD
 11
227.81818800460962
 21
-105.09999990463257
 31
0.0
 73
               2
  0
POLYLINE
  8
LY_3
  6
CONTINUOUS
 62
             110
  5
21C
 66
               1
 10
0.0
 20
0.0
 30
0.0
  0
VERTEX
  8
LY_3
  6
CONTINUOUS
 62
             110
  5
228
 10
209.99998474121094
 20
-94.5
 30
0.0
  0
VERTEX
  8
LY_3
  6
CONTINUOUS
 62
             110
  5
229
 10
220.0
 20
-110.0
 30
0.0
  0
VERTEX
  8
LY_3
  6
CONTINUOUS
 62
             110
  5
22A
 10
246.64110469818115
 20
-110.0
 30
0.0
  0
SEQEND
  8
LY_3
  6
CONTINUOUS
 62
             110
  5
22B
  0
TEXT
  8
LY_3
  6
CONTINUOUS
 62
             110
  5
21D
 10
92.23383912235667
 20
52.300000190734863
 30
0.0
 40
5.1999998092651367
  1
CF70
 41
0.9782609105179519
  7
MX_NOTE_STANDARD
 11
92.23383912235667
 21
54.900000095367432
 31
0.0
 73
               2
  0
POLYLINE
  8
LY_3
  6
CONTINUOUS
 62
             110
  5
21E
 66
               1
 10
0.0
 20
0.0
 30
0.0
  0
VERTEX
  8
LY_3
  6
CONTINUOUS
 62
             110
  5
22C
 10
126.34999847412109
 20
34.649997711181641
 30
0.0
  0
VERTEX
  8
LY_3
  6
CONTINUOUS
 62
             110
  5
22D
 10
120.0
 20
50.0
 30
0.0
  0
VERTEX
  8
LY_3
  6
CONTINUOUS
 62
             110
  5
22E
 10
91.386013031005859
 20
50.0
 30
0.0
  0
SEQEND
  8
LY_3
  6
CONTINUOUS
 62
             110
  5
22F
  0
ENDSEC
  0
EOF
