  0
SECTION
  2
HEADER
  9
$ACADVER
  1
AC1015
  9
$ACADMAINTVER
 70
     6
  9
$DWGCODEPAGE
  3
ANSI_932
  9
$INSBASE
 10
0.0
 20
0.0
 30
0.0
  9
$EXTMIN
 10
-21.899994
 20
-40.0
 30
0.0
  9
$EXTMAX
 10
357.441242
 20
177.65
 30
0.0
  9
$LIMMIN
 10
-21.899994
 20
-40.0
  9
$LIMMAX
 10
357.441242
 20
177.65
  9
$ORTHOMODE
 70
     0
  9
$REGENMODE
 70
     1
  9
$FILLMODE
 70
     1
  9
$QTEXTMODE
 70
     0
  9
$MIRRTEXT
 70
     1
  9
$LTSCALE
 40
1.0
  9
$ATTMODE
 70
     1
  9
$TEXTSIZE
 40
3.2
  9
$TRACEWID
 40
0.05
  9
$TEXTSTYLE
  7
MX_NOTE_STANDARD
  9
$CLAYER
  8
0
  9
$CELTYPE
  6
CONTINUOUS
  9
$CECOLOR
 62
   256
  9
$CELTSCALE
 40
1.0
  9
$DISPSILH
 70
     0
  9
$DIMSCALE
 40
1.0
  9
$DIMASZ
 40
2.5
  9
$DIMEXO
 40
2.0
  9
$DIMDLI
 40
3.75
  9
$DIMRND
 40
0.0
  9
$DIMDLE
 40
0.0
  9
$DIMEXE
 40
1.0
  9
$DIMTP
 40
0.0
  9
$DIMTM
 40
0.0
  9
$DIMTXT
 40
4.1656
  9
$DIMCEN
 40
2.5
  9
$DIMTSZ
 40
0.0
  9
$DIMTOL
 70
     0
  9
$DIMLIM
 70
     0
  9
$DIMTIH
 70
     0
  9
$DIMTOH
 70
     0
  9
$DIMSE1
 70
     0
  9
$DIMSE2
 70
     0
  9
$DIMTAD
 70
     1
  9
$DIMZIN
 70
     8
  9
$DIMBLK
  1

  9
$DIMASO
 70
     1
  9
$DIMSHO
 70
     1
  9
$DIMPOST
  1

  9
$DIMAPOST
  1

  9
$DIMALT
 70
     0
  9
$DIMALTD
 70
     4
  9
$DIMALTF
 40
0.03937
  9
$DIMLFAC
 40
1.0
  9
$DIMTOFL
 70
     1
  9
$DIMTVP
 40
0.0
  9
$DIMTIX
 70
     0
  9
$DIMSOXD
 70
     0
  9
$DIMSAH
 70
     1
  9
$DIMBLK1
  1
_OPEN30
  9
$DIMBLK2
  1
_OPEN30
  9
$DIMSTYLE
  2
MXDIMSTYLE
  9
$DIMCLRD
 70
     0
  9
$DIMCLRE
 70
     0
  9
$DIMCLRT
 70
     0
  9
$DIMTFAC
 40
1.0
  9
$DIMGAP
 40
1.0
  9
$DIMJUST
 70
     0
  9
$DIMSD1
 70
     0
  9
$DIMSD2
 70
     0
  9
$DIMTOLJ
 70
     0
  9
$DIMTZIN
 70
     0
  9
$DIMALTZ
 70
     0
  9
$DIMALTTZ
 70
     0
  9
$DIMUPT
 70
     0
  9
$DIMDEC
 70
     2
  9
$DIMTDEC
 70
     2
  9
$DIMALTU
 70
     2
  9
$DIMALTTD
 70
     4
  9
$DIMTXSTY
  7
MX_NOTE_STANDARD
  9
$DIMAUNIT
 70
     0
  9
$DIMADEC
 70
     0
  9
$DIMALTRND
 40
0.0
  9
$DIMAZIN
 70
     0
  9
$DIMDSEP
 70
    46
  9
$DIMATFIT
 70
     3
  9
$DIMFRAC
 70
     0
  9
$DIMLDRBLK
  1
_OPEN30
  9
$DIMLUNIT
 70
     2
  9
$DIMLWD
 70
    -2
  9
$DIMLWE
 70
    -2
  9
$DIMTMOVE
 70
     0
  9
$LUNITS
 70
     2
  9
$LUPREC
 70
     4
  9
$SKETCHINC
 40
0.1
  9
$FILLETRAD
 40
0.0
  9
$AUNITS
 70
     0
  9
$AUPREC
 70
     0
  9
$MENU
  1
acad
  9
$ELEVATION
 40
0.0
  9
$PELEVATION
 40
0.0
  9
$THICKNESS
 40
0.0
  9
$LIMCHECK
 70
     0
  9
$CHAMFERA
 40
0.0
  9
$CHAMFERB
 40
0.0
  9
$CHAMFERC
 40
0.0
  9
$CHAMFERD
 40
0.0
  9
$SKPOLY
 70
     0
  9
$TDCREATE
 40
2456119.525520833
  9
$TDUCREATE
 40
0.000000000
  9
$TDUPDATE
 40
2456119.525520833
  9
$TDUUPDATE
 40
0.000000000
  9
$TDINDWG
 40
0.0000000000
  9
$TDUSRTIMER
 40
0.0000000000
  9
$USRTIMER
 70
     1
  9
$ANGBASE
 50
0.0
  9
$ANGDIR
 70
     0
  9
$PDMODE
 70
     0
  9
$PDSIZE
 40
0.0
  9
$PLINEWID
 40
0.0
  9
$SPLFRAME
 70
     0
  9
$SPLINETYPE
 70
     6
  9
$SPLINESEGS
 70
     8
  9
$HANDSEED
  5
33A
  9
$SURFTAB1
 70
     6
  9
$SURFTAB2
 70
     6
  9
$SURFTYPE
 70
     6
  9
$SURFU
 70
     6
  9
$SURFV
 70
     6
  9
$UCSBASE
  2

  9
$UCSNAME
  2

  9
$UCSORG
 10
0.0
 20
0.0
 30
0.0
  9
$UCSXDIR
 10
1.0
 20
0.0
 30
0.0
  9
$UCSYDIR
 10
0.0
 20
1.0
 30
0.0
  9
$UCSORTHOREF
  2

  9
$UCSORTHOVIEW
 70
     0
  9
$UCSORGTOP
 10
0.0
 20
0.0
 30
0.0
  9
$UCSORGBOTTOM
 10
0.0
 20
0.0
 30
0.0
  9
$UCSORGLEFT
 10
0.0
 20
0.0
 30
0.0
  9
$UCSORGRIGHT
 10
0.0
 20
0.0
 30
0.0
  9
$UCSORGFRONT
 10
0.0
 20
0.0
 30
0.0
  9
$UCSORGBACK
 10
0.0
 20
0.0
 30
0.0
  9
$PUCSBASE
  2

  9
$PUCSNAME
  2

  9
$PUCSORG
 10
0.0
 20
0.0
 30
0.0
  9
$PUCSXDIR
 10
1.0
 20
0.0
 30
0.0
  9
$PUCSYDIR
 10
0.0
 20
1.0
 30
0.0
  9
$PUCSORTHOREF
  2

  9
$PUCSORTHOVIEW
 70
     0
  9
$PUCSORGTOP
 10
0.0
 20
0.0
 30
0.0
  9
$PUCSORGBOTTOM
 10
0.0
 20
0.0
 30
0.0
  9
$PUCSORGLEFT
 10
0.0
 20
0.0
 30
0.0
  9
$PUCSORGRIGHT
 10
0.0
 20
0.0
 30
0.0
  9
$PUCSORGFRONT
 10
0.0
 20
0.0
 30
0.0
  9
$PUCSORGBACK
 10
0.0
 20
0.0
 30
0.0
  9
$USERI1
 70
     0
  9
$USERI2
 70
     0
  9
$USERI3
 70
     0
  9
$USERI4
 70
     0
  9
$USERI5
 70
     0
  9
$USERR1
 40
0.0
  9
$USERR2
 40
0.0
  9
$USERR3
 40
0.0
  9
$USERR4
 40
0.0
  9
$USERR5
 40
0.0
  9
$WORLDVIEW
 70
     1
  9
$SHADEDGE
 70
     3
  9
$SHADEDIF
 70
    70
  9
$TILEMODE
 70
     1
  9
$MAXACTVP
 70
    16
  9
$PINSBASE
 10
0.0
 20
0.0
 30
0.0
  9
$PLIMCHECK
 70
     0
  9
$PEXTMIN
 10
1.000000E+20
 20
1.000000E+20
 30
1.000000E+20
  9
$PEXTMAX
 10
-1.000000E+20
 20
-1.000000E+20
 30
-1.000000E+20
  9
$PLIMMIN
 10
0.0
 20
0.0
  9
$PLIMMAX
 10
12.0
 20
9.0
  9
$UNITMODE
 70
     0
  9
$VISRETAIN
 70
     0
  9
$PLINEGEN
 70
     1
  9
$PSLTSCALE
 70
     0
  9
$TREEDEPTH
 70
  3020
  9
$CMLSTYLE
  2
Standard
  9
$CMLJUST
 70
     0
  9
$CMLSCALE
 40
1.0
  9
$PROXYGRAPHICS
 70
     0
  9
$MEASUREMENT
 70
     1
  9
$CELWEIGHT
370
     0
  9
$ENDCAPS
280
     0
  9
$JOINSTYLE
280
     0
  9
$LWDISPLAY
290
     0
  9
$INSUNITS
 70
     0
  9
$HYPERLINKBASE
  1

  9
$STYLESHEET
  1

  9
$XEDIT
290
     1
  9
$CEPSNTYPE
380
     0
  9
$PSTYLEMODE
290
     1
  9
$FINGERPRINTGUID
  2

  9
$VERSIONGUID
  2

  9
$EXTNAMES
290
     1
  9
$PSVPSCALE
 40
0.0
  0
ENDSEC
  0
SECTION
  2
CLASSES
  0
CLASS
  1
LWPOLYLINE
  2
AcDbPolyline
  3
AutoCAD 2000
 90
        0
280
     0
281
     1
  0
CLASS
  1
IMAGE
  2
AcDbRasterImage
  3
ISM
 90
      127
280
     0
281
     1
  0
CLASS
  1
OLE2FRAME
  2
AcDbOle2Frame
  3
AutoCAD 2000
 90
        0
280
     0
281
     1
  0
CLASS
  1
HATCH
  2
AcDbHatch
  3
AutoCAD 2000
 90
        0
280
     0
281
     1
  0
CLASS
  1
DICTIONARYVAR
  2
AcDbDictionaryVar
  3
AutoCAD 2000
 90
        0
280
     0
281
     0
  0
CLASS
  1
RASTERVARIABLES
  2
AcDbRasterVariables
  3
ISM
 90
        0
280
     0
281
     0
  0
CLASS
  1
IMAGEDEF
  2
AcDbRasterImageDef
  3
ISM
 90
        0
280
     0
281
     0
  0
CLASS
  1
IMAGEDEF_REACTOR
  2
AcDbRasterImageDefReactor
  3
ISM
 90
        1
280
     0
281
     0
  0
CLASS
  1
IDBUFFER
  2
AcDbIdBuffer
  3
AutoCAD 2000
 90
        0
280
     0
281
     0
  0
CLASS
  1
SPATIAL_FILTER
  2
AcDbSpatialFilter
  3
AutoCAD 2000
 90
        0
280
     0
281
     0
  0
CLASS
  1
XRECORD
  2
AcDbXrecord
  3
AutoCAD 2000
 90
        0
280
     0
281
     0
  0
CLASS
  1
SORTENTSTABLE
  2
AcDbSortentsTable
  3
AutoCAD 2000
 90
        0
280
     0
281
     0
  0
CLASS
  1
LAYER_INDEX
  2
AcDbLayerIndex
  3
AutoCAD 2000
 90
        0
280
     0
281
     0
  0
CLASS
  1
SPATIAL_INDEX
  2
AcDbSpatialIndex
  3
AutoCAD 2000
 90
        0
280
     0
281
     0
  0
CLASS
  1
OBJECT_PTR
  2
CAseDLPNTableRecord
  3
"ASE-LPNTableRecord"
 90
        1
280
     0
281
     0
  0
CLASS
  1
LAYOUT
  2
AcDbLayout
  3
AutoCAD 2000
 90
        0
280
     0
281
     0
  0
CLASS
  1
PLOTSETTINGS
  2
AcDbPlotSettings
  3
AutoCAD 2000
 90
        0
280
     0
281
     0
  0
CLASS
  1
ACDBDICTIONARYWDFLT
  2
AcDbDictionaryWithDefault
  3
AutoCAD 2000
 90
        0
280
     0
281
     0
  0
CLASS
  1
ACDBPLACEHOLDER
  2
AcDbPlaceHolder
  3
AutoCAD 2000
 90
        0
280
     0
281
     0
  0
ENDSEC
  0
SECTION
  2
TABLES
  0
TABLE
  2
VPORT
  5
7
100
AcDbSymbolTable
 70
     1
  0
VPORT
  5
15
100
AcDbSymbolTableRecord
100
AcDbViewportTableRecord
  2
*ACTIVE
 70
     0
 10
0.0
 20
0.0
 11
1.0
 21
1.0
 12
167.770624
 22
68.825
 13
0.0
 23
0.0
 14
1.0
 24
1.0
 15
0.0
 25
0.0
 16
0.0
 26
0.0
 36
1.0
 17
0.0
 27
0.0
 37
0.0
 40
219.8265
 41
1.732051
 42
50.0
 43
0.0
 44
0.0
 50
0.0
 51
0.0
 71
     0
 72
   100
 73
     1
 74
     1
 75
     0
 76
     0
 77
     0
 78
     0
281
     0
 65
     0
110
0.0
120
0.0
130
0.0
111
1.0
121
0.0
131
0.0
112
0.0
122
1.0
132
0.0
345
0
346
0
 79
     0
146
0.0
  0
ENDTAB
  0
TABLE
  2
LTYPE
  5
4
100
AcDbSymbolTable
 70
     5
  0
LTYPE
  5
11
100
AcDbSymbolTableRecord
100
AcDbLinetypeTableRecord
  2
BYBLOCK
 70
    64
  3

 72
    65
 73
     0
 40
0.0
  0
LTYPE
  5
12
100
AcDbSymbolTableRecord
100
AcDbLinetypeTableRecord
  2
BYLAYER
 70
    64
  3

 72
    65
 73
     0
 40
0.0
  0
LTYPE
  5
13
100
AcDbSymbolTableRecord
100
AcDbLinetypeTableRecord
  2
CONTINUOUS
 70
    64
  3
Solid line
 72
    65
 73
     0
 40
0.0
  0
LTYPE
  5
188
100
AcDbSymbolTableRecord
100
AcDbLinetypeTableRecord
  2
CENTER
 70
    64
  3
Center ____ _ ____ _ ____ _ ____ _ ____ _ ____
 72
    65
 73
     4
 40
50.8
 49
31.75
 74
     0
 49
-6.35
 74
     0
 49
6.35
 74
     0
 49
-6.35
 74
     0
  0
LTYPE
  5
264
100
AcDbSymbolTableRecord
100
AcDbLinetypeTableRecord
  2
PHANTOM
 70
    64
  3
Phantom ______  __  __  ______  __  __  ______
 72
    65
 73
     6
 40
63.5
 49
31.75
 74
     0
 49
-6.35
 74
     0
 49
6.35
 74
     0
 49
-6.35
 74
     0
 49
6.35
 74
     0
 49
-6.35
 74
     0
  0
ENDTAB
  0
TABLE
  2
LAYER
  5
2
100
AcDbSymbolTable
 70
     3
  0
LAYER
  5
14
100
AcDbSymbolTableRecord
100
AcDbLayerTableRecord
  2
0
 70
     0
 62
     7
  6
CONTINUOUS
290
     1
370
    -3
390
1D
  0
LAYER
  5
23
100
AcDbSymbolTableRecord
100
AcDbLayerTableRecord
  2
DEFPOINTS
 70
     0
 62
     7
  6
CONTINUOUS
290
     0
370
    -3
390
1D
  0
LAYER
  5
24
100
AcDbSymbolTableRecord
100
AcDbLayerTableRecord
  2
LY_3
 70
     0
 62
     7
  6
CONTINUOUS
290
     1
370
    -3
390
1D
  0
ENDTAB
  0
TABLE
  2
STYLE
  5
3
100
AcDbSymbolTable
 70
     4
  0
STYLE
  5
17
100
AcDbSymbolTableRecord
100
AcDbTextStyleTableRecord
  2
MX_NOTE_STANDARD
 70
     0
 40
0.0
 41
1.0
 50
0.0
 71
     0
 42
3.2
  3
txt.shx
  4
extfont.shx
  0
STYLE
  5
38
100
AcDbSymbolTableRecord
100
AcDbTextStyleTableRecord
  2
MX_DIMTXSTY_2
 70
     0
 40
0.0
 41
1.1
 50
0.0
 71
     0
 42
3.2
  3
txt.shx
  4
extfont.shx
  0
STYLE
  5
5F
100
AcDbSymbolTableRecord
100
AcDbTextStyleTableRecord
  2
MX_DIMTXSTY_3
 70
     0
 40
0.0
 41
0.85
 50
0.0
 71
     0
 42
3.2
  3
txt.shx
  4
extfont.shx
  0
STYLE
  5
A1
100
AcDbSymbolTableRecord
100
AcDbTextStyleTableRecord
  2
MX_DIMTXSTY_4
 70
     0
 40
0.0
 41
1.05
 50
0.0
 71
     0
 42
3.2
  3
txt.shx
  4
extfont.shx
  0
ENDTAB
  0
TABLE
  2
VIEW
  5
5
100
AcDbSymbolTable
 70
     0
  0
ENDTAB
  0
TABLE
  2
UCS
  5
6
100
AcDbSymbolTable
 70
     0
  0
ENDTAB
  0
TABLE
  2
APPID
  5
8
100
AcDbSymbolTable
 70
     1
  0
APPID
  5
16
100
AcDbSymbolTableRecord
100
AcDbRegAppTableRecord
  2
ACAD
 70
     0
  0
ENDTAB
  0
TABLE
  2
DIMSTYLE
  5
9
100
AcDbSymbolTable
 70
     1
100
AcDbDimStyleTable
 71
     0
  0
DIMSTYLE
105
18
100
AcDbSymbolTableRecord
100
AcDbDimStyleTableRecord
  2
MXDIMSTYLE
 70
     0
  3

  4

 40
1.0
 41
2.5
 42
2.0
 43
3.75
 44
1.0
 45
0.0
 46
0.0
 47
0.0
 48
0.0
 71
     0
 72
     0
 73
     0
 74
     0
 75
     0
 76
     0
 77
     1
 78
     8
 79
     0
140
4.1656
141
2.5
142
0.0
143
0.03937
144
1.0
145
0.0
146
1.0
147
1.0
148
0.0
170
     0
171
     4
172
     1
173
     1
174
     0
175
     0
176
     0
177
     0
178
     0
179
     0
271
     2
272
     2
273
     2
274
     4
275
     0
276
     0
277
     2
278
    46
279
     0
280
     0
281
     0
282
     0
283
     0
284
     0
285
     0
286
     0
288
     0
289
     3
340
17
341
26
342
0
343
26
344
26
371
    -2
372
    -2
  0
ENDTAB
  0
TABLE
  2
BLOCK_RECORD
  5
1
100
AcDbSymbolTable
 70
    11
  0
BLOCK_RECORD
  5
A
100
AcDbSymbolTableRecord
100
AcDbBlockTableRecord
  2
*MODEL_SPACE
340
20
  0
BLOCK_RECORD
  5
B
100
AcDbSymbolTableRecord
100
AcDbBlockTableRecord
  2
*PAPER_SPACE
340
21
  0
BLOCK_RECORD
  5
25
100
AcDbSymbolTableRecord
100
AcDbBlockTableRecord
  2
*U0
340
0
102
{BLKREFS
331
A8
331
A9
331
AA
331
AB
331
AC
331
AD
331
AE
331
AF
331
B0
331
B1
102
}
  0
BLOCK_RECORD
  5
26
100
AcDbSymbolTableRecord
100
AcDbBlockTableRecord
  2
_OPEN30
340
0
102
{BLKREFS
331
36
331
37
331
44
331
45
331
50
331
51
331
5D
331
5E
331
6B
331
6C
331
77
331
78
331
85
331
86
331
92
331
93
331
9F
331
A0
102
}
  0
BLOCK_RECORD
  5
31
100
AcDbSymbolTableRecord
100
AcDbBlockTableRecord
  2
*D2
340
0
  0
BLOCK_RECORD
  5
3F
100
AcDbSymbolTableRecord
100
AcDbBlockTableRecord
  2
*D3
340
0
  0
BLOCK_RECORD
  5
4C
100
AcDbSymbolTableRecord
100
AcDbBlockTableRecord
  2
*D4
340
0
  0
BLOCK_RECORD
  5
58
100
AcDbSymbolTableRecord
100
AcDbBlockTableRecord
  2
*D5
340
0
  0
BLOCK_RECORD
  5
66
100
AcDbSymbolTableRecord
100
AcDbBlockTableRecord
  2
*D6
340
0
  0
BLOCK_RECORD
  5
73
100
AcDbSymbolTableRecord
100
AcDbBlockTableRecord
  2
*D7
340
0
  0
BLOCK_RECORD
  5
7F
100
AcDbSymbolTableRecord
100
AcDbBlockTableRecord
  2
*D8
340
0
  0
BLOCK_RECORD
  5
8D
100
AcDbSymbolTableRecord
100
AcDbBlockTableRecord
  2
*D9
340
0
  0
BLOCK_RECORD
  5
9A
100
AcDbSymbolTableRecord
100
AcDbBlockTableRecord
  2
*D10
340
0
  0
ENDTAB
  0
ENDSEC
  0
SECTION
  2
BLOCKS
  0
BLOCK
  5
D
100
AcDbEntity
  8
0
390
0
100
AcDbBlockBegin
  2
*MODEL_SPACE
 70
     0
 10
0.0
 20
0.0
 30
0.0
  3
*MODEL_SPACE
  1

  0
ENDBLK
  5
E
100
AcDbEntity
  8
0
390
0
100
AcDbBlockEnd
  0
BLOCK
  5
F
100
AcDbEntity
 67
     1
  8
0
390
0
100
AcDbBlockBegin
  2
*PAPER_SPACE
 70
     0
 10
0.0
 20
0.0
 30
0.0
  3
*PAPER_SPACE
  1

  0
ENDBLK
  5
10
100
AcDbEntity
 67
     1
  8
0
390
0
100
AcDbBlockEnd
  0
BLOCK
  5
2C
100
AcDbEntity
  8
0
370
    -2
390
0
100
AcDbBlockBegin
  2
*U0
 70
     1
 10
0.0
 20
0.0
 30
0.0
  3
*U0
  1

  0
LINE
  5
2D
100
AcDbEntity
  8
0
390
0
  6
CONTINUOUS
 62
   110
100
AcDbLine
 10
-1.0
 20
0.267949
 30
0.0
 11
0.0
 21
0.0
 31
0.0
  0
LINE
  5
2E
100
AcDbEntity
  8
0
390
0
  6
CONTINUOUS
 62
   110
100
AcDbLine
 10
0.0
 20
0.0
 30
0.0
 11
-1.0
 21
-0.267949
 31
0.0
  0
LINE
  5
2F
100
AcDbEntity
  8
0
390
0
  6
CONTINUOUS
 62
   110
100
AcDbLine
 10
0.0
 20
0.0
 30
0.0
 11
-1.0
 21
0.0
 31
0.0
  0
ENDBLK
  5
30
100
AcDbEntity
  8
0
370
    -2
390
0
100
AcDbBlockEnd
  0
BLOCK
  5
27
100
AcDbEntity
  8
0
370
    -2
390
0
  6
ByBlock
 62
     0
100
AcDbBlockBegin
  2
_OPEN30
 70
     2
 10
0.0
 20
0.0
 30
0.0
  3
_OPEN30
  1

  0
LINE
  5
28
100
AcDbEntity
  8
0
370
    -2
390
0
  6
ByBlock
 62
     0
100
AcDbLine
 10
-1.0
 20
0.267949
 30
0.0
 11
0.0
 21
0.0
 31
0.0
  0
LINE
  5
29
100
AcDbEntity
  8
0
370
    -2
390
0
  6
ByBlock
 62
     0
100
AcDbLine
 10
0.0
 20
0.0
 30
0.0
 11
-1.0
 21
-0.267949
 31
0.0
  0
LINE
  5
2A
100
AcDbEntity
  8
0
370
    -2
390
0
  6
ByBlock
 62
     0
100
AcDbLine
 10
0.0
 20
0.0
 30
0.0
 11
-1.0
 21
0.0
 31
0.0
  0
ENDBLK
  5
2B
100
AcDbEntity
  8
0
370
    -2
390
0
  6
ByBlock
 62
     0
100
AcDbBlockEnd
  0
BLOCK
  5
32
100
AcDbEntity
  8
0
370
    -2
390
0
  6
ByBlock
 62
     0
100
AcDbBlockBegin
  2
*D2
 70
     1
 10
0.0
 20
0.0
 30
0.0
  3
*D2
  1

  0
LINE
  5
33
100
AcDbEntity
  8
0
390
0
  6
CONTINUOUS
 62
   110
100
AcDbLine
 10
330.0
 20
16.999996
 30
0.0
 11
330.0
 21
0.0
 31
0.0
  0
LINE
  5
34
100
AcDbEntity
  8
0
390
0
  6
CONTINUOUS
 62
   110
100
AcDbLine
 10
326.229187
 20
16.999996
 30
0.0
 11
331.0
 21
16.999996
 31
0.0
  0
LINE
  5
35
100
AcDbEntity
  8
0
390
0
  6
CONTINUOUS
 62
   110
100
AcDbLine
 10
304.419739
 20
0.0
 30
0.0
 11
331.0
 21
0.0
 31
0.0
  0
INSERT
  5
36
100
AcDbEntity
  8
0
390
0
  6
CONTINUOUS
 62
   110
100
AcDbBlockReference
  2
_OPEN30
 10
330.0
 20
16.999996
 30
0.0
 41
2.77
 42
2.77
 43
2.77
 50
90.0
  0
INSERT
  5
37
100
AcDbEntity
  8
0
390
0
  6
CONTINUOUS
 62
   110
100
AcDbBlockReference
  2
_OPEN30
 10
330.0
 20
0.0
 30
0.0
 41
2.77
 42
2.77
 43
2.77
 50
270.0
  0
MTEXT
  5
39
100
AcDbEntity
  8
0
390
0
  6
CONTINUOUS
 62
   110
100
AcDbMText
 10
326.5
 20
8.499998
 30
0.0
 40
5.0
 41
0.0
 71
     5
 72
     1
  1
\A1;17
  7
MX_DIMTXSTY_2
 11
0.0
 21
1.0
 31
0.0
 73
     1
 44
0.9
  0
POINT
  5
3A
100
AcDbEntity
  8
DEFPOINTS
390
0
  6
CONTINUOUS
 62
     0
100
AcDbPoint
 10
324.229187
 20
16.999996
 30
0.0
  0
POINT
  5
3B
100
AcDbEntity
  8
DEFPOINTS
390
0
  6
CONTINUOUS
 62
     0
100
AcDbPoint
 10
302.419739
 20
0.0
 30
0.0
  0
POINT
  5
3C
100
AcDbEntity
  8
DEFPOINTS
390
0
  6
CONTINUOUS
 62
     0
100
AcDbPoint
 10
330.0
 20
0.0
 30
0.0
  0
ENDBLK
  5
3D
100
AcDbEntity
  8
0
370
    -2
390
0
  6
ByBlock
 62
     0
100
AcDbBlockEnd
  0
BLOCK
  5
40
100
AcDbEntity
  8
0
370
    -2
390
0
  6
ByBlock
 62
     0
100
AcDbBlockBegin
  2
*D3
 70
     1
 10
0.0
 20
0.0
 30
0.0
  3
*D3
  1

  0
LINE
  5
41
100
AcDbEntity
  8
0
390
0
  6
CONTINUOUS
 62
   110
100
AcDbLine
 10
340.0
 20
25.5
 30
0.0
 11
340.0
 21
-25.5
 31
0.0
  0
LINE
  5
42
100
AcDbEntity
  8
0
390
0
  6
CONTINUOUS
 62
   110
100
AcDbLine
 10
288.581696
 20
25.5
 30
0.0
 11
341.0
 21
25.5
 31
0.0
  0
LINE
  5
43
100
AcDbEntity
  8
0
390
0
  6
CONTINUOUS
 62
   110
100
AcDbLine
 10
288.581696
 20
-25.5
 30
0.0
 11
341.0
 21
-25.5
 31
0.0
  0
INSERT
  5
44
100
AcDbEntity
  8
0
390
0
  6
CONTINUOUS
 62
   110
100
AcDbBlockReference
  2
_OPEN30
 10
340.0
 20
25.5
 30
0.0
 41
2.77
 42
2.77
 43
2.77
 50
90.0
  0
INSERT
  5
45
100
AcDbEntity
  8
0
390
0
  6
CONTINUOUS
 62
   110
100
AcDbBlockReference
  2
_OPEN30
 10
340.0
 20
-25.5
 30
0.0
 41
2.77
 42
2.77
 43
2.77
 50
270.0
  0
MTEXT
  5
46
100
AcDbEntity
  8
0
390
0
  6
CONTINUOUS
 62
   110
100
AcDbMText
 10
336.5
 20
0.0
 30
0.0
 40
5.0
 41
0.0
 71
     5
 72
     1
  1
\A1;\U+220551
 11
0.0
 21
1.0
 31
0.0
 73
     1
 44
0.9
  0
POINT
  5
47
100
AcDbEntity
  8
DEFPOINTS
390
0
  6
CONTINUOUS
 62
     0
100
AcDbPoint
 10
286.581696
 20
25.5
 30
0.0
  0
POINT
  5
48
100
AcDbEntity
  8
DEFPOINTS
390
0
  6
CONTINUOUS
 62
     0
100
AcDbPoint
 10
286.581696
 20
-25.5
 30
0.0
  0
POINT
  5
49
100
AcDbEntity
  8
DEFPOINTS
390
0
  6
CONTINUOUS
 62
     0
100
AcDbPoint
 10
340.0
 20
-25.5
 30
0.0
  0
ENDBLK
  5
4A
100
AcDbEntity
  8
0
370
    -2
390
0
  6
ByBlock
 62
     0
100
AcDbBlockEnd
  0
BLOCK
  5
4D
100
AcDbEntity
  8
0
370
    -2
390
0
  6
ByBlock
 62
     0
100
AcDbBlockBegin
  2
*D4
 70
     1
 10
0.0
 20
0.0
 30
0.0
  3
*D4
  1

  0
LINE
  5
4E
100
AcDbEntity
  8
0
390
0
  6
CONTINUOUS
 62
   110
100
AcDbLine
 10
79.581696
 20
40.0
 30
0.0
 11
63.581696
 21
40.0
 31
0.0
  0
LINE
  5
4F
100
AcDbEntity
  8
0
390
0
  6
CONTINUOUS
 62
   110
100
AcDbLine
 10
79.581696
 20
5.0
 30
0.0
 11
79.581696
 21
41.0
 31
0.0
  0
INSERT
  5
50
100
AcDbEntity
  8
0
390
0
  6
CONTINUOUS
 62
   110
100
AcDbBlockReference
  2
_OPEN30
 10
79.581696
 20
40.0
 30
0.0
 41
2.77
 42
2.77
 43
2.77
  0
INSERT
  5
51
100
AcDbEntity
  8
0
390
0
  6
CONTINUOUS
 62
   110
100
AcDbBlockReference
  2
_OPEN30
 10
63.581696
 20
40.0
 30
0.0
 41
2.77
 42
2.77
 43
2.77
 50
180.0
  0
MTEXT
  5
52
100
AcDbEntity
  8
0
390
0
  6
CONTINUOUS
 62
   110
100
AcDbMText
 10
71.581696
 20
43.5
 30
0.0
 40
5.0
 41
0.0
 71
     5
 72
     1
  1
\A1;16
  7
MX_DIMTXSTY_2
 11
1.0
 21
0.0
 31
0.0
 73
     1
 44
0.9
  0
POINT
  5
53
100
AcDbEntity
  8
DEFPOINTS
390
0
  6
CONTINUOUS
 62
     0
100
AcDbPoint
 10
79.581696
 20
3.0
 30
0.0
  0
POINT
  5
54
100
AcDbEntity
  8
DEFPOINTS
390
0
  6
CONTINUOUS
 62
     0
100
AcDbPoint
 10
63.581696
 20
50.0
 30
0.0
  0
POINT
  5
55
100
AcDbEntity
  8
DEFPOINTS
390
0
  6
CONTINUOUS
 62
     0
100
AcDbPoint
 10
63.581696
 20
40.0
 30
0.0
  0
ENDBLK
  5
56
100
AcDbEntity
  8
0
370
    -2
390
0
  6
ByBlock
 62
     0
100
AcDbBlockEnd
  0
BLOCK
  5
59
100
AcDbEntity
  8
0
370
    -2
390
0
  6
ByBlock
 62
     0
100
AcDbBlockBegin
  2
*D5
 70
     1
 10
0.0
 20
0.0
 30
0.0
  3
*D5
  1

  0
LINE
  5
5A
100
AcDbEntity
  8
0
390
0
  6
CONTINUOUS
 62
   110
100
AcDbLine
 10
63.581696
 20
50.0
 30
0.0
 11
113.581696
 21
50.0
 31
0.0
  0
LINE
  5
5B
100
AcDbEntity
  8
0
390
0
  6
CONTINUOUS
 62
   110
100
AcDbLine
 10
63.581696
 20
4.0
 30
0.0
 11
63.581696
 21
51.0
 31
0.0
  0
LINE
  5
5C
100
AcDbEntity
  8
0
390
0
  6
CONTINUOUS
 62
   110
100
AcDbLine
 10
113.581696
 20
18.099998
 30
0.0
 11
113.581696
 21
51.0
 31
0.0
  0
INSERT
  5
5D
100
AcDbEntity
  8
0
390
0
  6
CONTINUOUS
 62
   110
100
AcDbBlockReference
  2
_OPEN30
 10
63.581696
 20
50.0
 30
0.0
 41
2.77
 42
2.77
 43
2.77
 50
180.0
  0
INSERT
  5
5E
100
AcDbEntity
  8
0
390
0
  6
CONTINUOUS
 62
   110
100
AcDbBlockReference
  2
_OPEN30
 10
113.581696
 20
50.0
 30
0.0
 41
2.77
 42
2.77
 43
2.77
  0
MTEXT
  5
60
100
AcDbEntity
  8
0
390
0
  6
CONTINUOUS
 62
   110
100
AcDbMText
 10
88.581696
 20
53.5
 30
0.0
 40
5.0
 41
0.0
 71
     5
 72
     1
  1
\A1;50+50ストローク
  7
MX_DIMTXSTY_3
 73
     1
 44
0.9
  0
POINT
  5
61
100
AcDbEntity
  8
DEFPOINTS
390
0
  6
CONTINUOUS
 62
     0
100
AcDbPoint
 10
63.581696
 20
2.0
 30
0.0
  0
POINT
  5
62
100
AcDbEntity
  8
DEFPOINTS
390
0
  6
CONTINUOUS
 62
     0
100
AcDbPoint
 10
113.581696
 20
16.099998
 30
0.0
  0
POINT
  5
63
100
AcDbEntity
  8
DEFPOINTS
390
0
  6
CONTINUOUS
 62
     0
100
AcDbPoint
 10
113.581696
 20
50.0
 30
0.0
  0
ENDBLK
  5
64
100
AcDbEntity
  8
0
370
    -2
390
0
  6
ByBlock
 62
     0
100
AcDbBlockEnd
  0
BLOCK
  5
67
100
AcDbEntity
  8
0
370
    -2
390
0
  6
ByBlock
 62
     0
100
AcDbBlockBegin
  2
*D6
 70
     1
 10
0.0
 20
0.0
 30
0.0
  3
*D6
  1

  0
LINE
  5
68
100
AcDbEntity
  8
0
390
0
  6
CONTINUOUS
 62
   110
100
AcDbLine
 10
120.781693
 20
40.0
 30
0.0
 11
145.781693
 21
40.0
 31
0.0
  0
LINE
  5
69
100
AcDbEntity
  8
0
390
0
  6
CONTINUOUS
 62
   110
100
AcDbLine
 10
120.781693
 20
18.099998
 30
0.0
 11
120.781693
 21
41.0
 31
0.0
  0
LINE
  5
6A
100
AcDbEntity
  8
0
390
0
  6
CONTINUOUS
 62
   110
100
AcDbLine
 10
145.781693
 20
22.0
 30
0.0
 11
145.781693
 21
41.0
 31
0.0
  0
INSERT
  5
6B
100
AcDbEntity
  8
0
390
0
  6
CONTINUOUS
 62
   110
100
AcDbBlockReference
  2
_OPEN30
 10
120.781693
 20
40.0
 30
0.0
 41
2.77
 42
2.77
 43
2.77
 50
180.0
  0
INSERT
  5
6C
100
AcDbEntity
  8
0
390
0
  6
CONTINUOUS
 62
   110
100
AcDbBlockReference
  2
_OPEN30
 10
145.781693
 20
40.0
 30
0.0
 41
2.77
 42
2.77
 43
2.77
  0
MTEXT
  5
6D
100
AcDbEntity
  8
0
390
0
  6
CONTINUOUS
 62
   110
100
AcDbMText
 10
133.281693
 20
43.5
 30
0.0
 40
5.0
 41
0.0
 71
     5
 72
     1
  1
\A1;25
 73
     1
 44
0.9
  0
POINT
  5
6E
100
AcDbEntity
  8
DEFPOINTS
390
0
  6
CONTINUOUS
 62
     0
100
AcDbPoint
 10
120.781693
 20
16.099998
 30
0.0
  0
POINT
  5
6F
100
AcDbEntity
  8
DEFPOINTS
390
0
  6
CONTINUOUS
 62
     0
100
AcDbPoint
 10
145.781693
 20
20.0
 30
0.0
  0
POINT
  5
70
100
AcDbEntity
  8
DEFPOINTS
390
0
  6
CONTINUOUS
 62
     0
100
AcDbPoint
 10
145.781693
 20
40.0
 30
0.0
  0
ENDBLK
  5
71
100
AcDbEntity
  8
0
370
    -2
390
0
  6
ByBlock
 62
     0
100
AcDbBlockEnd
  0
BLOCK
  5
74
100
AcDbEntity
  8
0
370
    -2
390
0
  6
ByBlock
 62
     0
100
AcDbBlockBegin
  2
*D7
 70
     1
 10
0.0
 20
0.0
 30
0.0
  3
*D7
  1

  0
LINE
  5
75
100
AcDbEntity
  8
0
390
0
  6
CONTINUOUS
 62
   110
100
AcDbLine
 10
292.581696
 20
40.0
 30
0.0
 11
316.581696
 21
40.0
 31
0.0
  0
LINE
  5
76
100
AcDbEntity
  8
0
390
0
  6
CONTINUOUS
 62
   110
100
AcDbLine
 10
316.581696
 20
23.499996
 30
0.0
 11
316.581696
 21
41.0
 31
0.0
  0
INSERT
  5
77
100
AcDbEntity
  8
0
390
0
  6
CONTINUOUS
 62
   110
100
AcDbBlockReference
  2
_OPEN30
 10
292.581696
 20
40.0
 30
0.0
 41
2.77
 42
2.77
 43
2.77
 50
180.0
  0
INSERT
  5
78
100
AcDbEntity
  8
0
390
0
  6
CONTINUOUS
 62
   110
100
AcDbBlockReference
  2
_OPEN30
 10
316.581696
 20
40.0
 30
0.0
 41
2.77
 42
2.77
 43
2.77
  0
MTEXT
  5
79
100
AcDbEntity
  8
0
390
0
  6
CONTINUOUS
 62
   110
100
AcDbMText
 10
304.581696
 20
43.5
 30
0.0
 40
5.0
 41
0.0
 71
     5
 72
     1
  1
\A1;24
 73
     1
 44
0.9
  0
POINT
  5
7A
100
AcDbEntity
  8
DEFPOINTS
390
0
  6
CONTINUOUS
 62
     0
100
AcDbPoint
 10
292.581696
 20
24.5
 30
0.0
  0
POINT
  5
7B
100
AcDbEntity
  8
DEFPOINTS
390
0
  6
CONTINUOUS
 62
     0
100
AcDbPoint
 10
316.581696
 20
21.499996
 30
0.0
  0
POINT
  5
7C
100
AcDbEntity
  8
DEFPOINTS
390
0
  6
CONTINUOUS
 62
     0
100
AcDbPoint
 10
316.581696
 20
40.0
 30
0.0
  0
ENDBLK
  5
7D
100
AcDbEntity
  8
0
370
    -2
390
0
  6
ByBlock
 62
     0
100
AcDbBlockEnd
  0
BLOCK
  5
80
100
AcDbEntity
  8
0
370
    -2
390
0
  6
ByBlock
 62
     0
100
AcDbBlockBegin
  2
*D8
 70
     1
 10
0.0
 20
0.0
 30
0.0
  3
*D8
  1

  0
LINE
  5
81
100
AcDbEntity
  8
0
390
0
  6
CONTINUOUS
 62
   110
100
AcDbLine
 10
299.581696
 20
50.0
 30
0.0
 11
292.581696
 21
50.0
 31
0.0
  0
LINE
  5
82
100
AcDbEntity
  8
0
390
0
  6
CONTINUOUS
 62
   110
100
AcDbLine
 10
310.284686
 20
50.0
 30
0.0
 11
299.581696
 21
50.0
 31
0.0
  0
LINE
  5
83
100
AcDbEntity
  8
0
390
0
  6
CONTINUOUS
 62
   110
100
AcDbLine
 10
299.581696
 20
50.0
 30
0.0
 11
303.581696
 21
50.0
 31
0.0
  0
LINE
  5
84
100
AcDbEntity
  8
0
390
0
  6
CONTINUOUS
 62
   110
100
AcDbLine
 10
292.581696
 20
50.0
 30
0.0
 11
288.581696
 21
50.0
 31
0.0
  0
INSERT
  5
85
100
AcDbEntity
  8
0
390
0
  6
CONTINUOUS
 62
   110
100
AcDbBlockReference
  2
_OPEN30
 10
299.581696
 20
50.0
 30
0.0
 41
2.77
 42
2.77
 43
2.77
 50
180.0
  0
INSERT
  5
86
100
AcDbEntity
  8
0
390
0
  6
CONTINUOUS
 62
   110
100
AcDbBlockReference
  2
_OPEN30
 10
292.581696
 20
50.0
 30
0.0
 41
2.77
 42
2.77
 43
2.77
  0
MTEXT
  5
87
100
AcDbEntity
  8
0
390
0
  6
CONTINUOUS
 62
   110
100
AcDbMText
 10
307.940936
 20
53.5
 30
0.0
 40
5.0
 41
0.0
 71
     5
 72
     1
  1
\A1;7
 11
1.0
 21
0.0
 31
0.0
 73
     1
 44
0.9
  0
POINT
  5
88
100
AcDbEntity
  8
DEFPOINTS
390
0
  6
CONTINUOUS
 62
     0
100
AcDbPoint
 10
299.581696
 20
60.0
 30
0.0
  0
POINT
  5
89
100
AcDbEntity
  8
DEFPOINTS
390
0
  6
CONTINUOUS
 62
     0
100
AcDbPoint
 10
292.581696
 20
50.0
 30
0.0
  0
POINT
  5
8A
100
AcDbEntity
  8
DEFPOINTS
390
0
  6
CONTINUOUS
 62
     0
100
AcDbPoint
 10
292.581696
 20
50.0
 30
0.0
  0
ENDBLK
  5
8B
100
AcDbEntity
  8
0
370
    -2
390
0
  6
ByBlock
 62
     0
100
AcDbBlockEnd
  0
BLOCK
  5
8E
100
AcDbEntity
  8
0
370
    -2
390
0
  6
ByBlock
 62
     0
100
AcDbBlockBegin
  2
*D9
 70
     1
 10
0.0
 20
0.0
 30
0.0
  3
*D9
  1

  0
LINE
  5
8F
100
AcDbEntity
  8
0
390
0
  6
CONTINUOUS
 62
   110
100
AcDbLine
 10
63.581696
 20
60.0
 30
0.0
 11
299.581696
 21
60.0
 31
0.0
  0
LINE
  5
90
100
AcDbEntity
  8
0
390
0
  6
CONTINUOUS
 62
   110
100
AcDbLine
 10
63.581696
 20
4.0
 30
0.0
 11
63.581696
 21
61.0
 31
0.0
  0
LINE
  5
91
100
AcDbEntity
  8
0
390
0
  6
CONTINUOUS
 62
   110
100
AcDbLine
 10
299.581696
 20
2.0
 30
0.0
 11
299.581696
 21
61.0
 31
0.0
  0
INSERT
  5
92
100
AcDbEntity
  8
0
390
0
  6
CONTINUOUS
 62
   110
100
AcDbBlockReference
  2
_OPEN30
 10
63.581696
 20
60.0
 30
0.0
 41
2.77
 42
2.77
 43
2.77
 50
180.0
  0
INSERT
  5
93
100
AcDbEntity
  8
0
390
0
  6
CONTINUOUS
 62
   110
100
AcDbBlockReference
  2
_OPEN30
 10
299.581696
 20
60.0
 30
0.0
 41
2.77
 42
2.77
 43
2.77
  0
MTEXT
  5
94
100
AcDbEntity
  8
0
390
0
  6
CONTINUOUS
 62
   110
100
AcDbMText
 10
181.581696
 20
63.5
 30
0.0
 40
5.0
 41
0.0
 71
     5
 72
     1
  1
\A1;286～236（50ストローク）
  7
MX_DIMTXSTY_3
 73
     1
 44
0.9
  0
POINT
  5
95
100
AcDbEntity
  8
DEFPOINTS
390
0
  6
CONTINUOUS
 62
     0
100
AcDbPoint
 10
63.581696
 20
2.0
 30
0.0
  0
POINT
  5
96
100
AcDbEntity
  8
DEFPOINTS
390
0
  6
CONTINUOUS
 62
     0
100
AcDbPoint
 10
299.581696
 20
0.0
 30
0.0
  0
POINT
  5
97
100
AcDbEntity
  8
DEFPOINTS
390
0
  6
CONTINUOUS
 62
     0
100
AcDbPoint
 10
299.581696
 20
60.0
 30
0.0
  0
ENDBLK
  5
98
100
AcDbEntity
  8
0
370
    -2
390
0
  6
ByBlock
 62
     0
100
AcDbBlockEnd
  0
BLOCK
  5
9B
100
AcDbEntity
  8
0
370
    -2
390
0
  6
ByBlock
 62
     0
100
AcDbBlockBegin
  2
*D10
 70
     1
 10
0.0
 20
0.0
 30
0.0
  3
*D10
  1

  0
LINE
  5
9C
100
AcDbEntity
  8
0
390
0
  6
CONTINUOUS
 62
   110
100
AcDbLine
 10
113.581696
 20
50.0
 30
0.0
 11
292.581696
 21
50.0
 31
0.0
  0
LINE
  5
9D
100
AcDbEntity
  8
0
390
0
  6
CONTINUOUS
 62
   110
100
AcDbLine
 10
113.581696
 20
18.099998
 30
0.0
 11
113.581696
 21
51.0
 31
0.0
  0
LINE
  5
9E
100
AcDbEntity
  8
0
390
0
  6
CONTINUOUS
 62
   110
100
AcDbLine
 10
292.581696
 20
24.5
 30
0.0
 11
292.581696
 21
51.0
 31
0.0
  0
INSERT
  5
9F
100
AcDbEntity
  8
0
390
0
  6
CONTINUOUS
 62
   110
100
AcDbBlockReference
  2
_OPEN30
 10
113.581696
 20
50.0
 30
0.0
 41
2.77
 42
2.77
 43
2.77
 50
180.0
  0
INSERT
  5
A0
100
AcDbEntity
  8
0
390
0
  6
CONTINUOUS
 62
   110
100
AcDbBlockReference
  2
_OPEN30
 10
292.581696
 20
50.0
 30
0.0
 41
2.77
 42
2.77
 43
2.77
  0
MTEXT
  5
A2
100
AcDbEntity
  8
0
390
0
  6
CONTINUOUS
 62
   110
100
AcDbMText
 10
203.081696
 20
53.5
 30
0.0
 40
5.0
 41
0.0
 71
     5
 72
     1
  1
\A1;179
  7
MX_DIMTXSTY_4
 73
     1
 44
0.9
  0
POINT
  5
A3
100
AcDbEntity
  8
DEFPOINTS
390
0
  6
CONTINUOUS
 62
     0
100
AcDbPoint
 10
113.581696
 20
16.099998
 30
0.0
  0
POINT
  5
A4
100
AcDbEntity
  8
DEFPOINTS
390
0
  6
CONTINUOUS
 62
     0
100
AcDbPoint
 10
292.581696
 20
22.5
 30
0.0
  0
POINT
  5
A5
100
AcDbEntity
  8
DEFPOINTS
390
0
  6
CONTINUOUS
 62
     0
100
AcDbPoint
 10
292.581696
 20
50.0
 30
0.0
  0
ENDBLK
  5
A6
100
AcDbEntity
  8
0
370
    -2
390
0
  6
ByBlock
 62
     0
100
AcDbBlockEnd
  0
ENDSEC
  0
SECTION
  2
ENTITIES
  0
DIMENSION
  5
3E
100
AcDbEntity
  8
0
390
0
  6
CONTINUOUS
 62
   110
100
AcDbDimension
  2
*D2
 10
330.0
 20
0.0
 30
0.0
 11
330.0
 21
8.499998
 31
0.0
 70
   128
 71
     5
 72
     1
 41
0.9
 42
16.999996
  1
\A1;<>
  3
MXDIMSTYLE
100
AcDbAlignedDimension
 13
324.229187
 23
16.999996
 33
0.0
 14
302.419739
 24
0.0
 34
0.0
 50
90.0
100
AcDbRotatedDimension
1001
ACAD
1000
DSTYLE
1002
{
1070
    41
1040
2.77
1070
   140
1040
5.0
1070
   284
1070
     8
1070
   340
1005
38
1002
}
  0
DIMENSION
  5
4B
100
AcDbEntity
  8
0
390
0
  6
CONTINUOUS
 62
   110
100
AcDbDimension
  2
*D3
 10
340.0
 20
-25.5
 30
0.0
 11
340.0
 21
0.0
 31
0.0
 70
   128
 71
     5
 72
     1
 41
0.9
 42
51.0
  1
\A1;\U+2205<>
  3
MXDIMSTYLE
100
AcDbAlignedDimension
 13
286.581696
 23
25.5
 33
0.0
 14
286.581696
 24
-25.5
 34
0.0
 50
90.0
100
AcDbRotatedDimension
1001
ACAD
1000
DSTYLE
1002
{
1070
    41
1040
2.77
1070
   140
1040
5.0
1070
   284
1070
     8
1002
}
  0
DIMENSION
  5
57
100
AcDbEntity
  8
0
390
0
  6
CONTINUOUS
 62
   110
100
AcDbDimension
  2
*D4
 10
63.581696
 20
40.0
 30
0.0
 11
71.581696
 21
40.0
 31
0.0
 70
   128
 71
     5
 72
     1
 41
0.9
 42
16.0
  1
\A1;<>
  3
MXDIMSTYLE
100
AcDbAlignedDimension
 13
79.581696
 23
3.0
 33
0.0
 14
63.581696
 24
50.0
 34
0.0
100
AcDbRotatedDimension
1001
ACAD
1000
DSTYLE
1002
{
1070
    41
1040
2.77
1070
    76
1070
     1
1070
   140
1040
5.0
1070
   284
1070
     8
1070
   340
1005
38
1002
}
  0
DIMENSION
  5
65
100
AcDbEntity
  8
0
390
0
  6
CONTINUOUS
 62
   110
100
AcDbDimension
  2
*D5
 10
113.581696
 20
50.0
 30
0.0
 11
88.581696
 21
50.0
 31
0.0
 70
   128
 71
     5
 72
     1
 41
0.9
 42
50.0
  1
\A1;<>+50ストローク
  3
MXDIMSTYLE
100
AcDbAlignedDimension
 13
63.581696
 23
2.0
 33
0.0
 14
113.581696
 24
16.099998
 34
0.0
100
AcDbRotatedDimension
1001
ACAD
1000
DSTYLE
1002
{
1070
    41
1040
2.77
1070
   140
1040
5.0
1070
   284
1070
     8
1070
   340
1005
5F
1002
}
  0
DIMENSION
  5
72
100
AcDbEntity
  8
0
390
0
  6
CONTINUOUS
 62
   110
100
AcDbDimension
  2
*D6
 10
145.781693
 20
40.0
 30
0.0
 11
133.281693
 21
40.0
 31
0.0
 70
   128
 71
     5
 72
     1
 41
0.9
 42
25.0
  1
\A1;<>
  3
MXDIMSTYLE
100
AcDbAlignedDimension
 13
120.781693
 23
16.099998
 33
0.0
 14
145.781693
 24
20.0
 34
0.0
100
AcDbRotatedDimension
1001
ACAD
1000
DSTYLE
1002
{
1070
    41
1040
2.77
1070
   140
1040
5.0
1070
   284
1070
     8
1002
}
  0
DIMENSION
  5
7E
100
AcDbEntity
  8
0
390
0
  6
CONTINUOUS
 62
   110
100
AcDbDimension
  2
*D7
 10
316.581696
 20
40.0
 30
0.0
 11
304.581696
 21
40.0
 31
0.0
 70
   128
 71
     5
 72
     1
 41
0.9
 42
24.0
  1
\A1;<>
  3
MXDIMSTYLE
100
AcDbAlignedDimension
 13
292.581696
 23
24.5
 33
0.0
 14
316.581696
 24
21.499996
 34
0.0
100
AcDbRotatedDimension
1001
ACAD
1000
DSTYLE
1002
{
1070
    41
1040
2.77
1070
    75
1070
     1
1070
   140
1040
5.0
1070
   284
1070
     8
1002
}
  0
DIMENSION
  5
8C
100
AcDbEntity
  8
0
390
0
  6
CONTINUOUS
 62
   110
100
AcDbDimension
  2
*D8
 10
292.581696
 20
50.0
 30
0.0
 11
307.940936
 21
50.0
 31
0.0
 70
   128
 71
     5
 72
     1
 41
0.9
 42
7.0
  1
\A1;<>
  3
MXDIMSTYLE
100
AcDbAlignedDimension
 13
299.581696
 23
60.0
 33
0.0
 14
292.581696
 24
50.0
 34
0.0
100
AcDbRotatedDimension
1001
ACAD
1000
DSTYLE
1002
{
1070
    41
1040
2.77
1070
    75
1070
     1
1070
    76
1070
     1
1070
   140
1040
5.0
1070
   284
1070
     8
1002
}
  0
DIMENSION
  5
99
100
AcDbEntity
  8
0
390
0
  6
CONTINUOUS
 62
   110
100
AcDbDimension
  2
*D9
 10
299.581696
 20
60.0
 30
0.0
 11
181.581696
 21
60.0
 31
0.0
 70
   128
 71
     5
 72
     1
 41
0.9
 42
236.0
  1
\A1;286～<>（50ストローク）
  3
MXDIMSTYLE
100
AcDbAlignedDimension
 13
63.581696
 23
2.0
 33
0.0
 14
299.581696
 24
0.0
 34
0.0
100
AcDbRotatedDimension
1001
ACAD
1000
DSTYLE
1002
{
1070
    41
1040
2.77
1070
   140
1040
5.0
1070
   284
1070
     8
1070
   340
1005
5F
1002
}
  0
DIMENSION
  5
A7
100
AcDbEntity
  8
0
390
0
  6
CONTINUOUS
 62
   110
100
AcDbDimension
  2
*D10
 10
292.581696
 20
50.0
 30
0.0
 11
203.081696
 21
50.0
 31
0.0
 70
   128
 71
     5
 72
     1
 41
0.9
 42
179.0
  1
\A1;<>
  3
MXDIMSTYLE
100
AcDbAlignedDimension
 13
113.581696
 23
16.099998
 33
0.0
 14
292.581696
 24
22.5
 34
0.0
100
AcDbRotatedDimension
1001
ACAD
1000
DSTYLE
1002
{
1070
    41
1040
2.77
1070
   140
1040
5.0
1070
   284
1070
     8
1070
   340
1005
A1
1002
}
  0
INSERT
  5
A8
100
AcDbEntity
  8
LY_3
390
0
  6
ByBlock
100
AcDbBlockReference
  2
*U0
 10
161.733068
 20
-13.464632
 30
0.0
 41
4.155
 42
4.155
 43
4.155
 50
124.543501
  0
INSERT
  5
A9
100
AcDbEntity
  8
LY_3
390
0
  6
ByBlock
100
AcDbBlockReference
  2
*U0
 10
120.081695
 20
-5.999997
 30
0.0
 41
4.155
 42
4.155
 43
4.155
 50
106.262747
  0
INSERT
  5
AA
100
AcDbEntity
  8
LY_3
390
0
  6
ByBlock
100
AcDbBlockReference
  2
*U0
 10
116.77623
 20
-6.441254
 30
0.0
 41
4.155
 42
4.155
 43
4.155
 50
78.584251
  0
INSERT
  5
AB
100
AcDbEntity
  8
LY_3
390
0
  6
ByBlock
100
AcDbBlockReference
  2
*U0
 10
311.141812
 20
134.941803
 30
0.0
 41
4.155
 42
4.155
 43
4.155
 50
243.006301
  0
INSERT
  5
AC
100
AcDbEntity
  8
LY_3
390
0
  6
ByBlock
100
AcDbBlockReference
  2
*U0
 10
257.26726
 20
109.339318
 30
0.0
 41
4.155
 42
4.155
 43
4.155
 50
121.244269
  0
INSERT
  5
AD
100
AcDbEntity
  8
LY_3
390
0
  6
ByBlock
100
AcDbBlockReference
  2
*U0
 10
198.568909
 20
124.117989
 30
0.0
 41
4.155
 42
4.155
 43
4.155
 50
107.000268
  0
INSERT
  5
AE
100
AcDbEntity
  8
LY_3
390
0
  6
ByBlock
100
AcDbBlockReference
  2
*U0
 10
285.081698
 20
154.081629
 30
0.0
 41
4.155
 42
4.155
 43
4.155
 50
256.171572
  0
INSERT
  5
AF
100
AcDbEntity
  8
LY_3
390
0
  6
ByBlock
100
AcDbBlockReference
  2
*U0
 10
235.421474
 20
132.59701
 30
0.0
 41
4.155
 42
4.155
 43
4.155
 50
250.047424
  0
INSERT
  5
B0
100
AcDbEntity
  8
LY_3
390
0
  6
ByBlock
100
AcDbBlockReference
  2
*U0
 10
210.358432
 20
148.999998
 30
0.0
 41
4.155
 42
4.155
 43
4.155
 50
247.632677
  0
INSERT
  5
B1
100
AcDbEntity
  8
LY_3
390
0
  6
ByBlock
100
AcDbBlockReference
  2
*U0
 10
116.081695
 20
146.081633
 30
0.0
 41
4.155
 42
4.155
 43
4.155
 50
260.696448
  0
LINE
  5
B2
100
AcDbEntity
  8
LY_3
390
0
  6
CONTINUOUS
 62
     3
100
AcDbLine
 10
150.594193
 20
131.5
 30
0.0
 11
150.969193
 21
131.5
 31
0.0
  0
LINE
  5
B3
100
AcDbEntity
  8
LY_3
390
0
  6
CONTINUOUS
 62
     3
100
AcDbLine
 10
150.594193
 20
128.5
 30
0.0
 11
150.969193
 21
128.5
 31
0.0
  0
LINE
  5
B4
100
AcDbEntity
  8
LY_3
390
0
  6
CONTINUOUS
 62
     3
100
AcDbLine
 10
152.281693
 20
130.1875
 30
0.0
 11
152.281693
 21
129.8125
 31
0.0
  0
LINE
  5
B5
100
AcDbEntity
  8
LY_3
390
0
  6
CONTINUOUS
 62
     3
100
AcDbLine
 10
149.281693
 20
130.1875
 30
0.0
 11
149.281693
 21
129.8125
 31
0.0
  0
LINE
  5
B6
100
AcDbEntity
  8
LY_3
390
0
  6
CONTINUOUS
 62
     3
100
AcDbLine
 10
150.969193
 20
131.5
 30
0.0
 11
150.969193
 21
130.809546
 31
0.0
  0
LINE
  5
B7
100
AcDbEntity
  8
LY_3
390
0
  6
CONTINUOUS
 62
     3
100
AcDbLine
 10
150.594193
 20
131.5
 30
0.0
 11
150.594193
 21
130.809546
 31
0.0
  0
LINE
  5
B8
100
AcDbEntity
  8
LY_3
390
0
  6
CONTINUOUS
 62
     3
100
AcDbLine
 10
149.281693
 20
129.8125
 30
0.0
 11
149.972147
 21
129.8125
 31
0.0
  0
LINE
  5
B9
100
AcDbEntity
  8
LY_3
390
0
  6
CONTINUOUS
 62
     3
100
AcDbLine
 10
149.281693
 20
130.1875
 30
0.0
 11
149.972147
 21
130.1875
 31
0.0
  0
LINE
  5
BA
100
AcDbEntity
  8
LY_3
390
0
  6
CONTINUOUS
 62
     3
100
AcDbLine
 10
150.594193
 20
129.190454
 30
0.0
 11
150.594193
 21
128.5
 31
0.0
  0
LINE
  5
BB
100
AcDbEntity
  8
LY_3
390
0
  6
CONTINUOUS
 62
     3
100
AcDbLine
 10
150.969193
 20
129.190454
 30
0.0
 11
150.969193
 21
128.5
 31
0.0
  0
LINE
  5
BC
100
AcDbEntity
  8
LY_3
390
0
  6
CONTINUOUS
 62
     3
100
AcDbLine
 10
151.591238
 20
129.8125
 30
0.0
 11
152.281693
 21
129.8125
 31
0.0
  0
LINE
  5
BD
100
AcDbEntity
  8
LY_3
390
0
  6
CONTINUOUS
 62
     3
100
AcDbLine
 10
151.591238
 20
130.1875
 30
0.0
 11
152.281693
 21
130.1875
 31
0.0
  0
ARC
  5
BE
100
AcDbEntity
  8
LY_3
390
0
  6
CONTINUOUS
 62
     3
100
AcDbCircle
 10
149.972147
 20
130.809546
 30
0.0
 40
0.622046
100
AcDbArc
 50
270.000018
 51
0.0
  0
ARC
  5
BF
100
AcDbEntity
  8
LY_3
390
0
  6
CONTINUOUS
 62
     3
100
AcDbCircle
 10
149.972147
 20
129.190454
 30
0.0
 40
0.622046
100
AcDbArc
 50
0.0
 51
89.999982
  0
ARC
  5
C0
100
AcDbEntity
  8
LY_3
390
0
  6
CONTINUOUS
 62
     3
100
AcDbCircle
 10
151.591238
 20
129.190454
 30
0.0
 40
0.622046
100
AcDbArc
 50
89.999982
 51
179.999964
  0
ARC
  5
C1
100
AcDbEntity
  8
LY_3
390
0
  6
CONTINUOUS
 62
     3
100
AcDbCircle
 10
151.591238
 20
130.809546
 30
0.0
 40
0.622046
100
AcDbArc
 50
179.999981
 51
270.000018
  0
CIRCLE
  5
C2
100
AcDbEntity
  8
LY_3
390
0
  6
CONTINUOUS
 62
     3
100
AcDbCircle
 10
150.781693
 20
130.0
 30
0.0
 40
2.75
  0
LINE
  5
C3
100
AcDbEntity
  8
LY_3
390
0
  6
CONTINUOUS
 62
     3
100
AcDbLine
 10
316.081696
 20
21.999996
 30
0.0
 11
316.081696
 21
11.999996
 31
0.0
  0
LINE
  5
C4
100
AcDbEntity
  8
LY_3
390
0
  6
CONTINUOUS
 62
     3
100
AcDbLine
 10
316.581696
 20
12.499996
 30
0.0
 11
316.081696
 21
11.999996
 31
0.0
  0
LINE
  5
C5
100
AcDbEntity
  8
LY_3
390
0
  6
CONTINUOUS
 62
     3
100
AcDbLine
 10
316.081696
 20
21.999996
 30
0.0
 11
316.581696
 21
21.499996
 31
0.0
  0
LINE
  5
C6
100
AcDbEntity
  8
LY_3
390
0
  6
CONTINUOUS
 62
     3
100
AcDbLine
 10
287.081696
 20
25.0
 30
0.0
 11
290.081696
 21
25.0
 31
0.0
  0
LINE
  5
C7
100
AcDbEntity
  8
LY_3
390
0
  6
CONTINUOUS
 62
     3
100
AcDbLine
 10
287.081697
 20
25.000003
 30
0.0
 11
286.581697
 21
25.500004
 31
0.0
  0
LINE
  5
C8
100
AcDbEntity
  8
LY_3
390
0
  6
CONTINUOUS
 62
     3
100
AcDbLine
 10
287.081703
 20
-24.999998
 30
0.0
 11
286.581703
 21
-25.499999
 31
0.0
  0
LINE
  5
C9
100
AcDbEntity
  8
LY_3
390
0
  6
CONTINUOUS
 62
     3
100
AcDbLine
 10
287.081696
 20
25.0
 30
0.0
 11
287.081696
 21
-25.0
 31
0.0
  0
LINE
  5
CA
100
AcDbEntity
  8
LY_3
390
0
  6
CONTINUOUS
 62
     3
100
AcDbLine
 10
286.581696
 20
25.5
 30
0.0
 11
286.581696
 21
-25.5
 31
0.0
  0
LINE
  5
CB
100
AcDbEntity
  8
LY_3
390
0
  6
CONTINUOUS
 62
     3
100
AcDbLine
 10
287.081696
 20
-25.0
 30
0.0
 11
290.081696
 21
-25.0
 31
0.0
  0
LINE
  5
CC
100
AcDbEntity
  8
LY_3
390
0
  6
CONTINUOUS
 62
     3
100
AcDbLine
 10
273.581694
 20
-25.500003
 30
0.0
 11
273.081696
 21
-25.000006
 31
0.0
  0
LINE
  5
CD
100
AcDbEntity
  8
LY_3
390
0
  6
CONTINUOUS
 62
     3
100
AcDbLine
 10
273.581696
 20
-25.5
 30
0.0
 11
286.581696
 21
-25.5
 31
0.0
  0
LINE
  5
CE
100
AcDbEntity
  8
LY_3
390
0
  6
CONTINUOUS
 62
     3
100
AcDbLine
 10
266.581665
 20
-24.000039
 30
0.0
 11
267.581666
 21
-25.000041
 31
0.0
  0
LINE
  5
CF
100
AcDbEntity
  8
LY_3
390
0
  6
CONTINUOUS
 62
     3
100
AcDbLine
 10
267.581696
 20
-25.0
 30
0.0
 11
273.081696
 21
-25.0
 31
0.0
  0
LINE
  5
D0
100
AcDbEntity
  8
LY_3
390
0
  6
CONTINUOUS
 62
     3
100
AcDbLine
 10
265.581696
 20
-21.999733
 30
0.0
 11
266.581696
 21
-21.999733
 31
0.0
  0
LINE
  5
D1
100
AcDbEntity
  8
LY_3
390
0
  6
CONTINUOUS
 62
   110
100
AcDbLine
 10
254.581696
 20
-12.931015
 30
0.0
 11
258.581696
 21
-12.931015
 31
0.0
  0
LINE
  5
D2
100
AcDbEntity
  8
LY_3
390
0
  6
CONTINUOUS
 62
   110
100
AcDbLine
 10
254.581696
 20
-20.672974
 30
0.0
 11
258.581696
 21
-20.672974
 31
0.0
  0
MTEXT
  5
D3
100
AcDbEntity
  8
LY_3
390
0
  6
CONTINUOUS
 62
   110
100
AcDbMText
 10
259.954016
 20
-12.931015
 30
0.0
 40
3.2
 41
0.0
 71
     2
 72
     1
  1
\W0.952;\A1;3
 11
0.0
 21
1.0
 31
0.0
 73
     1
 44
1.0
  0
MTEXT
  5
D4
100
AcDbEntity
  8
LY_3
390
0
  6
CONTINUOUS
 62
   110
100
AcDbMText
 10
259.954016
 20
-20.672974
 30
0.0
 40
3.2
 41
0.0
 71
     2
 72
     1
  1
\W0.952;\A1;4
 11
0.0
 21
1.0
 31
0.0
 73
     1
 44
1.0
  0
LINE
  5
D5
100
AcDbEntity
  8
LY_3
390
0
  6
CONTINUOUS
 62
     3
100
AcDbLine
 10
254.581683
 20
-21.037365
 30
0.0
 11
265.581672
 21
-21.999736
 31
0.0
  0
LINE
  5
D6
100
AcDbEntity
  8
LY_3
390
0
  6
CONTINUOUS
 62
     3
100
AcDbLine
 10
254.581696
 20
-21.037361
 30
0.0
 11
254.581696
 21
21.037903
 31
0.0
  0
LINE
  5
D7
100
AcDbEntity
  8
LY_3
390
0
  6
CONTINUOUS
 62
   110
100
AcDbLine
 10
254.581696
 20
-0.000015
 30
0.0
 11
258.581696
 21
-0.000015
 31
0.0
  0
MTEXT
  5
D8
100
AcDbEntity
  8
LY_3
390
0
  6
CONTINUOUS
 62
   110
100
AcDbMText
 10
259.954016
 20
0.000275
 30
0.0
 40
3.2
 41
0.0
 71
     2
 72
     1
  1
\W0.952;\A1;2
 11
0.0
 21
1.0
 31
0.0
 73
     1
 44
1.0
  0
MTEXT
  5
D9
100
AcDbEntity
  8
LY_3
390
0
  6
CONTINUOUS
 62
   110
100
AcDbMText
 10
259.954016
 20
20.674698
 30
0.0
 40
3.2
 41
0.0
 71
     2
 72
     1
  1
\W1.143;\A1;0
 11
0.0
 21
1.0
 31
0.0
 73
     1
 44
1.0
  0
MTEXT
  5
DA
100
AcDbEntity
  8
LY_3
390
0
  6
CONTINUOUS
 62
   110
100
AcDbMText
 10
259.981696
 20
12.931
 30
0.0
 40
3.2
 41
0.0
 71
     2
 72
     1
  1
\W1.500;\A1;1
 11
0.0
 21
1.0
 31
0.0
 73
     1
 44
1.0
  0
LINE
  5
DB
100
AcDbEntity
  8
LY_3
390
0
  6
CONTINUOUS
 62
   110
100
AcDbLine
 10
254.581696
 20
20.674698
 30
0.0
 11
258.581696
 21
20.674698
 31
0.0
  0
LINE
  5
DC
100
AcDbEntity
  8
LY_3
390
0
  6
CONTINUOUS
 62
   110
100
AcDbLine
 10
254.581696
 20
12.931
 30
0.0
 11
258.581696
 21
12.931
 31
0.0
  0
LINE
  5
DD
100
AcDbEntity
  8
LY_3
390
0
  6
CONTINUOUS
 62
     3
100
AcDbLine
 10
265.581696
 20
22.000275
 30
0.0
 11
266.581696
 21
22.000275
 31
0.0
  0
LINE
  5
DE
100
AcDbEntity
  8
LY_3
390
0
  6
CONTINUOUS
 62
     3
100
AcDbLine
 10
266.581704
 20
23.999972
 30
0.0
 11
267.581705
 21
24.999973
 31
0.0
  0
LINE
  5
DF
100
AcDbEntity
  8
LY_3
390
0
  6
CONTINUOUS
 62
     3
100
AcDbLine
 10
267.581696
 20
25.0
 30
0.0
 11
267.581696
 21
-25.0
 31
0.0
  0
LINE
  5
E0
100
AcDbEntity
  8
LY_3
390
0
  6
CONTINUOUS
 62
     3
100
AcDbLine
 10
266.581696
 20
24.0
 30
0.0
 11
266.581696
 21
-24.0
 31
0.0
  0
LINE
  5
E1
100
AcDbEntity
  8
LY_3
390
0
  6
CONTINUOUS
 62
     3
100
AcDbLine
 10
254.581675
 20
21.038032
 30
0.0
 11
265.581673
 21
22.000407
 31
0.0
  0
LINE
  5
E2
100
AcDbEntity
  8
LY_3
390
0
  6
CONTINUOUS
 62
     3
100
AcDbLine
 10
273.581704
 20
25.500003
 30
0.0
 11
273.081703
 21
25.000003
 31
0.0
  0
LINE
  5
E3
100
AcDbEntity
  8
LY_3
390
0
  6
CONTINUOUS
 62
     3
100
AcDbLine
 10
273.081696
 20
25.0
 30
0.0
 11
273.081696
 21
-25.0
 31
0.0
  0
LINE
  5
E4
100
AcDbEntity
  8
LY_3
390
0
  6
CONTINUOUS
 62
     3
100
AcDbLine
 10
273.581696
 20
25.5
 30
0.0
 11
273.581696
 21
-25.5
 31
0.0
  0
LINE
  5
E5
100
AcDbEntity
  8
LY_3
390
0
  6
CONTINUOUS
 62
     3
100
AcDbLine
 10
267.581696
 20
25.0
 30
0.0
 11
273.081696
 21
25.0
 31
0.0
  0
LINE
  5
E6
100
AcDbEntity
  8
LY_3
390
0
  6
CONTINUOUS
 62
   110
100
AcDbLine
 10
273.581696
 20
20.5
 30
0.0
 11
286.581696
 21
20.5
 31
0.0
  0
LINE
  5
E7
100
AcDbEntity
  8
LY_3
390
0
  6
CONTINUOUS
 62
   110
100
AcDbLine
 10
273.581696
 20
21.0
 30
0.0
 11
286.581696
 21
21.0
 31
0.0
  0
LINE
  5
E8
100
AcDbEntity
  8
LY_3
390
0
  6
CONTINUOUS
 62
   110
100
AcDbLine
 10
273.581696
 20
21.5
 30
0.0
 11
286.581696
 21
21.5
 31
0.0
  0
LINE
  5
E9
100
AcDbEntity
  8
LY_3
390
0
  6
CONTINUOUS
 62
   110
100
AcDbLine
 10
273.581696
 20
22.0
 30
0.0
 11
286.581696
 21
22.0
 31
0.0
  0
LINE
  5
EA
100
AcDbEntity
  8
LY_3
390
0
  6
CONTINUOUS
 62
   110
100
AcDbLine
 10
273.581696
 20
22.5
 30
0.0
 11
286.581696
 21
22.5
 31
0.0
  0
LINE
  5
EB
100
AcDbEntity
  8
LY_3
390
0
  6
CONTINUOUS
 62
   110
100
AcDbLine
 10
273.581696
 20
23.0
 30
0.0
 11
286.581696
 21
23.0
 31
0.0
  0
LINE
  5
EC
100
AcDbEntity
  8
LY_3
390
0
  6
CONTINUOUS
 62
   110
100
AcDbLine
 10
273.581696
 20
23.5
 30
0.0
 11
286.581696
 21
23.5
 31
0.0
  0
LINE
  5
ED
100
AcDbEntity
  8
LY_3
390
0
  6
CONTINUOUS
 62
   110
100
AcDbLine
 10
273.581696
 20
24.0
 30
0.0
 11
286.581696
 21
24.0
 31
0.0
  0
LINE
  5
EE
100
AcDbEntity
  8
LY_3
390
0
  6
CONTINUOUS
 62
   110
100
AcDbLine
 10
273.581696
 20
24.5
 30
0.0
 11
286.581696
 21
24.5
 31
0.0
  0
LINE
  5
EF
100
AcDbEntity
  8
LY_3
390
0
  6
CONTINUOUS
 62
   110
100
AcDbLine
 10
273.581696
 20
25.0
 30
0.0
 11
286.581696
 21
25.0
 31
0.0
  0
LINE
  5
F0
100
AcDbEntity
  8
LY_3
390
0
  6
CONTINUOUS
 62
     3
100
AcDbLine
 10
273.581696
 20
25.5
 30
0.0
 11
286.581696
 21
25.5
 31
0.0
  0
LINE
  5
F1
100
AcDbEntity
  8
LY_3
390
0
  6
CONTINUOUS
 62
   110
100
AcDbLine
 10
140.081696
 20
109.0
 30
0.0
 11
140.081696
 21
151.0
 31
0.0
  0
LINE
  5
F2
100
AcDbEntity
  8
LY_3
390
0
  6
CONTINUOUS
 62
   110
100
AcDbLine
 10
140.081696
 20
151.0
 30
0.0
 11
140.081696
 21
166.045272
 31
0.0
  0
LINE
  5
F3
100
AcDbEntity
  8
LY_3
390
0
  6
CONTINUOUS
 62
   110
100
AcDbLine
 10
143.741693
 20
109.0
 30
0.0
 11
137.795696
 21
109.0
 31
0.0
  0
LINE
  5
F4
100
AcDbEntity
  8
LY_3
390
0
  6
CONTINUOUS
 62
   110
100
AcDbLine
 10
143.741693
 20
151.0
 30
0.0
 11
137.795696
 21
151.0
 31
0.0
  0
MTEXT
  5
F5
100
AcDbEntity
  8
LY_3
390
0
  6
CONTINUOUS
 62
   110
100
AcDbMText
 10
134.281695
 20
152.408908
 30
0.0
 40
4.8
 41
0.0
 71
     1
 72
     1
  1
\W0.955;\A1;\U+220542
 11
0.0
 21
1.0
 31
0.0
 73
     1
 44
1.0
  0
LINE
  5
F6
100
AcDbEntity
  8
LY_3
390
0
  6
CONTINUOUS
 62
   110
100
AcDbLine
 10
141.195024
 20
113.155
 30
0.0
 11
140.081696
 21
109.0
 31
0.0
  0
LINE
  5
F7
100
AcDbEntity
  8
LY_3
390
0
  6
CONTINUOUS
 62
   110
100
AcDbLine
 10
140.081696
 20
109.0
 30
0.0
 11
138.968367
 21
113.155
 31
0.0
  0
LINE
  5
F8
100
AcDbEntity
  8
LY_3
390
0
  6
CONTINUOUS
 62
   110
100
AcDbLine
 10
138.968367
 20
146.845
 30
0.0
 11
140.081696
 21
151.0
 31
0.0
  0
LINE
  5
F9
100
AcDbEntity
  8
LY_3
390
0
  6
CONTINUOUS
 62
   110
100
AcDbLine
 10
140.081696
 20
151.0
 30
0.0
 11
141.195024
 21
146.845
 31
0.0
  0
LINE
  5
FA
100
AcDbEntity
  8
LY_3
390
0
  6
CONTINUOUS
 62
   110
100
AcDbLine
 10
132.081696
 20
139.0
 30
0.0
 11
132.081696
 21
121.0
 31
0.0
  0
LINE
  5
FB
100
AcDbEntity
  8
LY_3
390
0
  6
CONTINUOUS
 62
   110
100
AcDbLine
 10
132.081696
 20
158.095194
 30
0.0
 11
132.081696
 21
139.0
 31
0.0
  0
MTEXT
  5
FC
100
AcDbEntity
  8
LY_3
390
0
  6
CONTINUOUS
 62
   110
100
AcDbMText
 10
126.281695
 20
144.508753
 30
0.0
 40
4.8
 41
0.0
 71
     1
 72
     1
  1
\W1.017;\A1;\U+220518
 11
0.0
 21
1.0
 31
0.0
 73
     1
 44
1.0
  0
LINE
  5
FD
100
AcDbEntity
  8
LY_3
390
0
  6
CONTINUOUS
 62
   110
100
AcDbLine
 10
133.195024
 20
143.155
 30
0.0
 11
132.081696
 21
139.0
 31
0.0
  0
LINE
  5
FE
100
AcDbEntity
  8
LY_3
390
0
  6
CONTINUOUS
 62
   110
100
AcDbLine
 10
132.081696
 20
139.0
 30
0.0
 11
130.968367
 21
143.155
 31
0.0
  0
LINE
  5
FF
100
AcDbEntity
  8
LY_3
390
0
  6
CONTINUOUS
 62
   110
100
AcDbLine
 10
130.968367
 20
116.845
 30
0.0
 11
132.081696
 21
121.0
 31
0.0
  0
LINE
  5
100
100
AcDbEntity
  8
LY_3
390
0
  6
CONTINUOUS
 62
   110
100
AcDbLine
 10
132.081696
 20
121.0
 30
0.0
 11
133.195024
 21
116.845
 31
0.0
  0
LINE
  5
101
100
AcDbEntity
  8
LY_3
390
0
  6
CONTINUOUS
 62
   110
100
AcDbLine
 10
132.081696
 20
121.0
 30
0.0
 11
132.081696
 21
116.845
 31
0.0
  0
LWPOLYLINE
  5
102
100
AcDbEntity
  8
LY_3
390
0
  6
CONTINUOUS
 62
   110
100
AcDbPolyline
 90
        3
 70
     0
 10
161.733068
 20
-13.464632
 10
180.0
 20
-40.0
 10
234.309608
 20
-40.0
  0
MTEXT
  5
103
100
AcDbEntity
  8
LY_3
390
0
  6
CONTINUOUS
 62
   110
100
AcDbMText
 10
183.668983
 20
-33.75
 30
0.0
 40
4.2
 41
0.0
 71
     1
 72
     1
  1
\W0.781;\A1;ベロ－ズ（ＳＵＳ３１６Ｌ）
 73
     1
 44
1.0
  0
LWPOLYLINE
  5
104
100
AcDbEntity
  8
LY_3
390
0
  6
CONTINUOUS
 62
   110
100
AcDbPolyline
 90
        3
 70
     0
 10
120.081695
 20
-5.999997
 10
130.0
 20
-40.0
 10
167.483241
 20
-40.0
  0
MTEXT
  5
105
100
AcDbEntity
  8
LY_3
390
0
  6
CONTINUOUS
 62
   110
100
AcDbMText
 10
132.592616
 20
-33.75
 30
0.0
 40
4.2
 41
0.0
 71
     1
 72
     1
  1
\W0.781;\A1;軸受（ポリイミド）
 73
     1
 44
1.0
  0
LWPOLYLINE
  5
106
100
AcDbEntity
  8
LY_3
390
0
  6
CONTINUOUS
 62
   110
100
AcDbPolyline
 90
        3
 70
     0
 10
116.77623
 20
-6.441254
 10
110.0
 20
-40.0
 10
86.090394
 20
-40.0
  0
MTEXT
  5
107
100
AcDbEntity
  8
LY_3
390
0
  6
CONTINUOUS
 62
   110
100
AcDbMText
 10
86.637269
 20
-33.75
 30
0.0
 40
4.2
 41
0.0
 71
     1
 72
     1
  1
\W0.781;\A1;Ｃ型止め輪
 73
     1
 44
1.0
  0
LWPOLYLINE
  5
108
100
AcDbEntity
  8
LY_3
390
0
  6
CONTINUOUS
 62
   110
100
AcDbPolyline
 90
        3
 70
     0
 10
311.141812
 20
134.941803
 10
329.0
 20
170.0
 10
357.441242
 20
170.0
  0
MTEXT
  5
109
100
AcDbEntity
  8
LY_3
390
0
  6
CONTINUOUS
 62
   110
100
AcDbMText
 10
330.425617
 20
176.25
 30
0.0
 40
4.2
 41
0.0
 71
     1
 72
     1
  1
\W0.781;\A1;グリップカラ－
 73
     1
 44
1.0
  0
LWPOLYLINE
  5
10A
100
AcDbEntity
  8
LY_3
390
0
  6
CONTINUOUS
 62
   110
100
AcDbPolyline
 90
        3
 70
     0
 10
257.26726
 20
109.339318
 10
269.0
 20
90.0
 10
307.308082
 20
90.0
  0
MTEXT
  5
10B
100
AcDbEntity
  8
LY_3
390
0
  6
CONTINUOUS
 62
   110
100
AcDbMText
 10
272.417457
 20
96.25
 30
0.0
 40
4.2
 41
0.0
 71
     1
 72
     1
  1
\W0.781;\A1;目盛リング１０分割
 73
     1
 44
1.0
  0
LWPOLYLINE
  5
10C
100
AcDbEntity
  8
LY_3
390
0
  6
CONTINUOUS
 62
   110
100
AcDbPolyline
 90
        3
 70
     0
 10
198.568909
 20
124.117989
 10
209.0
 20
90.0
 10
238.644198
 20
90.0
  0
MTEXT
  5
10D
100
AcDbEntity
  8
LY_3
390
0
  6
CONTINUOUS
 62
   110
100
AcDbMText
 10
211.628573
 20
96.25
 30
0.0
 40
4.2
 41
0.0
 71
     1
 72
     1
  1
\W0.781;\A1;目盛１
 73
     1
 44
1.0
  0
MTEXT
  5
10E
100
AcDbEntity
  8
LY_3
390
0
  6
CONTINUOUS
 62
   110
100
AcDbMText
 10
223.167635
 20
93.625
 30
0.0
 40
2.1
 41
0.0
 71
     1
 72
     1
  1
\W0.781;\A1;ｍｍ
 73
     1
 44
1.0
  0
MTEXT
  5
10F
100
AcDbEntity
  8
LY_3
390
0
  6
CONTINUOUS
 62
   110
100
AcDbMText
 10
227.378573
 20
96.25
 30
0.0
 40
4.2
 41
0.0
 71
     1
 72
     1
  1
\W0.781;\A1;ピッチ
 73
     1
 44
1.0
  0
LWPOLYLINE
  5
110
100
AcDbEntity
  8
LY_3
390
0
  6
CONTINUOUS
 62
   110
100
AcDbPolyline
 90
        3
 70
     0
 10
285.081698
 20
154.081629
 10
289.0
 20
170.0
 10
307.321466
 20
170.0
  0
MTEXT
  5
111
100
AcDbEntity
  8
LY_3
390
0
  6
CONTINUOUS
 62
   110
100
AcDbMText
 10
292.118341
 20
176.25
 30
0.0
 40
4.2
 41
0.0
 71
     1
 72
     1
  1
\W0.781;\A1;ハンドル
 73
     1
 44
1.0
  0
LWPOLYLINE
  5
112
100
AcDbEntity
  8
LY_3
390
0
  6
CONTINUOUS
 62
   110
100
AcDbPolyline
 90
        3
 70
     0
 10
235.421474
 20
132.59701
 10
249.0
 20
170.0
 10
278.644196
 20
170.0
  0
MTEXT
  5
113
100
AcDbEntity
  8
LY_3
390
0
  6
CONTINUOUS
 62
   110
100
AcDbMText
 10
251.62857
 20
176.25
 30
0.0
 40
4.2
 41
0.0
 71
     1
 72
     1
  1
\W0.781;\A1;インジケ－タ－
 73
     1
 44
1.0
  0
LWPOLYLINE
  5
114
100
AcDbEntity
  8
LY_3
390
0
  6
CONTINUOUS
 62
   110
100
AcDbPolyline
 90
        3
 70
     0
 10
210.358432
 20
148.999998
 10
219.0
 20
170.0
 10
230.956696
 20
170.0
  0
MTEXT
  5
115
100
AcDbEntity
  8
LY_3
390
0
  6
CONTINUOUS
 62
   110
100
AcDbMText
 10
223.62857
 20
176.25
 30
0.0
 40
4.2
 41
0.0
 71
     1
 72
     1
  1
\W0.781;\A1;本体
 73
     1
 44
1.0
  0
LWPOLYLINE
  5
116
100
AcDbEntity
  8
LY_3
390
0
  6
CONTINUOUS
 62
   110
100
AcDbPolyline
 90
        3
 70
     0
 10
116.081695
 20
146.081633
 10
120.0
 20
170.0
 10
144.071785
 20
170.0
  0
MTEXT
  5
117
100
AcDbEntity
  8
LY_3
390
0
  6
CONTINUOUS
 62
   110
100
AcDbMText
 10
124.93116
 20
176.25
 30
0.0
 40
4.2
 41
0.0
 71
     1
 72
     1
  1
\W0.781;\A1;ＣＦ０３４
 73
     1
 44
1.0
  0
LINE
  5
118
100
AcDbEntity
  8
LY_3
390
0
  6
CONTINUOUS
 62
   110
100
AcDbLine
 10
90.0
 20
134.0
 30
0.0
 11
90.0
 21
126.0
 31
0.0
  0
LINE
  5
119
100
AcDbEntity
  8
LY_3
390
0
  6
CONTINUOUS
 62
   110
100
AcDbLine
 10
90.0
 20
126.0
 30
0.0
 11
90.0
 21
105.946666
 31
0.0
  0
MTEXT
  5
11A
100
AcDbEntity
  8
LY_3
390
0
  6
CONTINUOUS
 62
   110
100
AcDbMText
 10
84.2
 20
106.693332
 30
0.0
 40
4.8
 41
0.0
 71
     1
 72
     1
  1
\W0.933;\A1;\U+22058
 11
0.0
 21
1.0
 31
0.0
 73
     1
 44
1.0
  0
LINE
  5
11B
100
AcDbEntity
  8
LY_3
390
0
  6
CONTINUOUS
 62
   110
100
AcDbLine
 10
91.113328
 20
138.155
 30
0.0
 11
90.0
 21
134.0
 31
0.0
  0
LINE
  5
11C
100
AcDbEntity
  8
LY_3
390
0
  6
CONTINUOUS
 62
   110
100
AcDbLine
 10
90.0
 20
134.0
 30
0.0
 11
88.886672
 21
138.155
 31
0.0
  0
LINE
  5
11D
100
AcDbEntity
  8
LY_3
390
0
  6
CONTINUOUS
 62
   110
100
AcDbLine
 10
90.0
 20
134.0
 30
0.0
 11
90.0
 21
138.155
 31
0.0
  0
LINE
  5
11E
100
AcDbEntity
  8
LY_3
390
0
  6
CONTINUOUS
 62
   110
100
AcDbLine
 10
88.886672
 20
121.845
 30
0.0
 11
90.0
 21
126.0
 31
0.0
  0
LINE
  5
11F
100
AcDbEntity
  8
LY_3
390
0
  6
CONTINUOUS
 62
   110
100
AcDbLine
 10
90.0
 20
126.0
 30
0.0
 11
91.113328
 21
121.845
 31
0.0
  0
LINE
  5
120
100
AcDbEntity
  8
LY_3
390
0
  6
CONTINUOUS
 62
   110
100
AcDbLine
 10
50.0
 20
127.0
 30
0.0
 11
50.0
 21
133.0
 31
0.0
  0
LINE
  5
121
100
AcDbEntity
  8
LY_3
390
0
  6
CONTINUOUS
 62
   110
100
AcDbLine
 10
50.0
 20
133.0
 30
0.0
 11
50.0
 21
154.042074
 31
0.0
  0
LINE
  5
122
100
AcDbEntity
  8
LY_3
390
0
  6
CONTINUOUS
 62
   110
100
AcDbLine
 10
62.041696
 20
127.0
 30
0.0
 11
47.714001
 21
127.0
 31
0.0
  0
LINE
  5
123
100
AcDbEntity
  8
LY_3
390
0
  6
CONTINUOUS
 62
   110
100
AcDbLine
 10
62.041696
 20
133.0
 30
0.0
 11
47.714001
 21
133.0
 31
0.0
  0
MTEXT
  5
124
100
AcDbEntity
  8
LY_3
390
0
  6
CONTINUOUS
 62
   110
100
AcDbMText
 10
44.2
 20
138.134497
 30
0.0
 40
4.8
 41
0.0
 71
     1
 72
     1
  1
\T0.983;\W1.004;\A1;\U+22056h7
 11
0.0
 21
1.0
 31
0.0
 73
     1
 44
1.0
  0
LINE
  5
125
100
AcDbEntity
  8
LY_3
390
0
  6
CONTINUOUS
 62
   110
100
AcDbLine
 10
48.886672
 20
122.845
 30
0.0
 11
50.0
 21
127.0
 31
0.0
  0
LINE
  5
126
100
AcDbEntity
  8
LY_3
390
0
  6
CONTINUOUS
 62
   110
100
AcDbLine
 10
50.0
 20
127.0
 30
0.0
 11
51.113328
 21
122.845
 31
0.0
  0
LINE
  5
127
100
AcDbEntity
  8
LY_3
390
0
  6
CONTINUOUS
 62
   110
100
AcDbLine
 10
50.0
 20
127.0
 30
0.0
 11
50.0
 21
122.845
 31
0.0
  0
LINE
  5
128
100
AcDbEntity
  8
LY_3
390
0
  6
CONTINUOUS
 62
   110
100
AcDbLine
 10
51.113328
 20
137.155
 30
0.0
 11
50.0
 21
133.0
 31
0.0
  0
LINE
  5
129
100
AcDbEntity
  8
LY_3
390
0
  6
CONTINUOUS
 62
   110
100
AcDbLine
 10
50.0
 20
133.0
 30
0.0
 11
48.886672
 21
137.155
 31
0.0
  0
LINE
  5
12A
100
AcDbEntity
  8
LY_3
390
0
  6
CONTINUOUS
 62
   110
100
AcDbLine
 10
163.226135
 20
111.0
 30
0.0
 11
163.226135
 21
149.0
 31
0.0
  0
MTEXT
  5
12B
100
AcDbEntity
  8
LY_3
390
0
  6
CONTINUOUS
 62
   110
100
AcDbMText
 10
157.426135
 20
132.087419
 30
0.0
 40
4.8
 41
0.0
 71
     1
 72
     1
  1
\W0.955;\A1;\U+220538
 11
0.0
 21
1.0
 31
0.0
 73
     1
 44
1.0
  0
LINE
  5
12C
100
AcDbEntity
  8
LY_3
390
0
  6
CONTINUOUS
 62
   110
100
AcDbLine
 10
164.339463
 20
115.155
 30
0.0
 11
163.226135
 21
111.0
 31
0.0
  0
LINE
  5
12D
100
AcDbEntity
  8
LY_3
390
0
  6
CONTINUOUS
 62
   110
100
AcDbLine
 10
163.226135
 20
111.0
 30
0.0
 11
162.112807
 21
115.155
 31
0.0
  0
LINE
  5
12E
100
AcDbEntity
  8
LY_3
390
0
  6
CONTINUOUS
 62
   110
100
AcDbLine
 10
162.112807
 20
144.845
 30
0.0
 11
163.226135
 21
149.0
 31
0.0
  0
LINE
  5
12F
100
AcDbEntity
  8
LY_3
390
0
  6
CONTINUOUS
 62
   110
100
AcDbLine
 10
163.226135
 20
149.0
 30
0.0
 11
164.339463
 21
144.845
 31
0.0
  0
LINE
  5
130
100
AcDbEntity
  8
LY_3
390
0
  6
CONTINUOUS
 62
   110
100
AcDbLine
 10
30.0
 20
2.0
 30
0.0
 11
30.0
 21
-3.0
 31
0.0
  0
LINE
  5
131
100
AcDbEntity
  8
LY_3
390
0
  6
CONTINUOUS
 62
   110
100
AcDbLine
 10
30.0
 20
12.236775
 30
0.0
 11
30.0
 21
2.0
 31
0.0
  0
LINE
  5
132
100
AcDbEntity
  8
LY_3
390
0
  6
CONTINUOUS
 62
   110
100
AcDbLine
 10
4.776069
 20
2.0
 30
0.0
 11
32.285999
 21
2.0
 31
0.0
  0
LINE
  5
133
100
AcDbEntity
  8
LY_3
390
0
  6
CONTINUOUS
 62
   110
100
AcDbLine
 10
2.54
 20
-3.0
 30
0.0
 11
32.285999
 21
-3.0
 31
0.0
  0
MTEXT
  5
134
100
AcDbEntity
  8
LY_3
390
0
  6
CONTINUOUS
 62
   110
100
AcDbMText
 10
24.2
 20
8.390962
 30
0.0
 40
4.8
 41
0.0
 71
     1
 72
     1
  1
\W0.907;\A1;5
 11
0.0
 21
1.0
 31
0.0
 73
     1
 44
1.0
  0
LINE
  5
135
100
AcDbEntity
  8
LY_3
390
0
  6
CONTINUOUS
 62
   110
100
AcDbLine
 10
31.113328
 20
6.155
 30
0.0
 11
30.0
 21
2.0
 31
0.0
  0
LINE
  5
136
100
AcDbEntity
  8
LY_3
390
0
  6
CONTINUOUS
 62
   110
100
AcDbLine
 10
30.0
 20
2.0
 30
0.0
 11
28.886672
 21
6.155
 31
0.0
  0
LINE
  5
137
100
AcDbEntity
  8
LY_3
390
0
  6
CONTINUOUS
 62
   110
100
AcDbLine
 10
28.886672
 20
-7.155
 30
0.0
 11
30.0
 21
-3.0
 31
0.0
  0
LINE
  5
138
100
AcDbEntity
  8
LY_3
390
0
  6
CONTINUOUS
 62
   110
100
AcDbLine
 10
30.0
 20
-3.0
 30
0.0
 11
31.113328
 21
-7.155
 31
0.0
  0
LINE
  5
139
100
AcDbEntity
  8
LY_3
390
0
  6
CONTINUOUS
 62
   110
100
AcDbLine
 10
30.0
 20
-3.0
 30
0.0
 11
30.0
 21
-7.155
 31
0.0
  0
MTEXT
  5
13A
100
AcDbEntity
  8
LY_3
390
0
  6
CONTINUOUS
 62
   110
100
AcDbMText
 10
259.954016
 20
117.068985
 30
0.0
 40
3.2
 41
0.0
 71
     2
 72
     1
  1
\W1.500;\A1;1
 11
0.0
 21
1.0
 31
0.0
 73
     1
 44
1.0
  0
MTEXT
  5
13B
100
AcDbEntity
  8
LY_3
390
0
  6
CONTINUOUS
 62
   110
100
AcDbMText
 10
259.981696
 20
142.931
 30
0.0
 40
3.2
 41
0.0
 71
     2
 72
     1
  1
\W0.952;\A1;9
 11
0.0
 21
1.0
 31
0.0
 73
     1
 44
1.0
  0
MTEXT
  5
13C
100
AcDbEntity
  8
LY_3
390
0
  6
CONTINUOUS
 62
   110
100
AcDbMText
 10
259.954016
 20
150.674698
 30
0.0
 40
3.2
 41
0.0
 71
     2
 72
     1
  1
\W0.952;\A1;8
 11
0.0
 21
1.0
 31
0.0
 73
     1
 44
1.0
  0
MTEXT
  5
13D
100
AcDbEntity
  8
LY_3
390
0
  6
CONTINUOUS
 62
   110
100
AcDbMText
 10
259.954016
 20
130.000275
 30
0.0
 40
3.2
 41
0.0
 71
     2
 72
     1
  1
\W1.143;\A1;0
 11
0.0
 21
1.0
 31
0.0
 73
     1
 44
1.0
  0
MTEXT
  5
13E
100
AcDbEntity
  8
LY_3
390
0
  6
CONTINUOUS
 62
   110
100
AcDbMText
 10
259.954016
 20
109.327026
 30
0.0
 40
3.2
 41
0.0
 71
     2
 72
     1
  1
\W0.952;\A1;2
 11
0.0
 21
1.0
 31
0.0
 73
     1
 44
1.0
  0
MTEXT
  5
13F
100
AcDbEntity
  8
LY_3
390
0
  6
CONTINUOUS
 62
   110
100
AcDbMText
 10
246.331718
 20
130.0
 30
0.0
 40
3.5
 41
0.0
 71
     2
 72
     1
  1
\W1.143;\A1;0
 11
0.0
 21
1.0
 31
0.0
 73
     1
 44
1.0
  0
MTEXT
  5
140
100
AcDbEntity
  8
LY_3
390
0
  6
CONTINUOUS
 62
   110
100
AcDbMText
 10
185.581696
 20
120.6
 30
0.0
 40
3.2
 41
0.0
 71
     2
 72
     1
  1
\W1.091;\A1;50
 73
     1
 44
1.0
  0
MTEXT
  5
141
100
AcDbEntity
  8
LY_3
390
0
  6
CONTINUOUS
 62
   110
100
AcDbMText
 10
195.581699
 20
120.6
 30
0.0
 40
3.2
 41
0.0
 71
     2
 72
     1
  1
\W1.091;\A1;40
 73
     1
 44
1.0
  0
MTEXT
  5
142
100
AcDbEntity
  8
LY_3
390
0
  6
CONTINUOUS
 62
   110
100
AcDbMText
 10
205.581699
 20
120.6
 30
0.0
 40
3.2
 41
0.0
 71
     2
 72
     1
  1
\W1.091;\A1;30
 73
     1
 44
1.0
  0
MTEXT
  5
143
100
AcDbEntity
  8
LY_3
390
0
  6
CONTINUOUS
 62
   110
100
AcDbMText
 10
215.581696
 20
120.6
 30
0.0
 40
3.2
 41
0.0
 71
     2
 72
     1
  1
\W1.091;\A1;20
 73
     1
 44
1.0
  0
MTEXT
  5
144
100
AcDbEntity
  8
LY_3
390
0
  6
CONTINUOUS
 62
   110
100
AcDbMText
 10
225.581696
 20
120.6
 30
0.0
 40
3.2
 41
0.0
 71
     2
 72
     1
  1
\W1.333;\A1;10
 73
     1
 44
1.0
  0
MTEXT
  5
145
100
AcDbEntity
  8
LY_3
390
0
  6
CONTINUOUS
 62
   110
100
AcDbMText
 10
235.581696
 20
120.6
 30
0.0
 40
3.2
 41
0.0
 71
     2
 72
     1
  1
\W1.143;\A1;0
 73
     1
 44
1.0
  0
LWPOLYLINE
  5
146
100
AcDbEntity
  8
LY_3
390
0
  6
CONTINUOUS
 62
   110
100
AcDbPolyline
 90
       41
 70
     0
 10
171.547703
 20
18.999453
 10
171.849496
 20
18.042158
 10
172.128472
 20
17.078209
 10
172.382626
 20
16.108572
 10
172.609955
 20
15.134211
 10
172.808452
 20
14.15609
 10
172.976114
 20
13.175174
 10
173.110934
 20
12.192426
 10
173.210909
 20
11.208811
 10
173.274032
 20
10.225293
 10
173.2983
 20
9.242837
 10
173.281707
 20
8.262406
 10
173.222248
 20
7.284966
 10
173.125177
 20
6.357884
 10
172.992886
 20
5.433917
 10
172.83082
 20
4.512596
 10
172.644427
 20
3.593451
 10
172.439152
 20
2.676013
 10
172.220441
 20
1.759813
 10
171.99374
 20
0.844381
 10
171.764497
 20
-0.070751
 10
171.538156
 20
-0.986052
 10
171.320164
 20
-1.901993
 10
171.115968
 20
-2.819041
 10
170.931013
 20
-3.737667
 10
170.770745
 20
-4.658338
 10
170.640612
 20
-5.581526
 10
170.546059
 20
-6.507698
 10
170.490101
 20
-7.47177
 10
170.476553
 20
-8.438652
 10
170.503684
 20
-9.407439
 10
170.569766
 20
-10.377226
 10
170.673071
 20
-11.347108
 10
170.811868
 20
-12.316179
 10
170.984429
 20
-13.283533
 10
171.189025
 20
-14.248266
 10
171.423927
 20
-15.209472
 10
171.687405
 20
-16.166246
 10
171.977731
 20
-17.117683
 10
172.293177
 20
-18.062876
 10
172.632011
 20
-19.000921
  0
ARC
  5
147
100
AcDbEntity
  8
LY_3
390
0
  6
CONTINUOUS
 62
     3
100
AcDbCircle
 10
152.781693
 20
-18.968628
 30
0.0
 40
0.8
100
AcDbArc
 50
179.999978
 51
225.00001
  0
ARC
  5
148
100
AcDbEntity
  8
LY_3
390
0
  6
CONTINUOUS
 62
     3
100
AcDbCircle
 10
148.781693
 20
-18.968628
 30
0.0
 40
0.8
100
AcDbArc
 50
314.999985
 51
0.000018
  0
ARC
  5
149
100
AcDbEntity
  8
LY_3
390
0
  6
CONTINUOUS
 62
     3
100
AcDbCircle
 10
152.781693
 20
18.968628
 30
0.0
 40
0.8
100
AcDbArc
 50
134.999987
 51
180.000019
  0
ARC
  5
14A
100
AcDbEntity
  8
LY_3
390
0
  6
CONTINUOUS
 62
     3
100
AcDbCircle
 10
148.781693
 20
18.968628
 30
0.0
 40
0.8
100
AcDbArc
 50
359.999982
 51
45.000015
  0
CIRCLE
  5
14B
100
AcDbEntity
  8
LY_3
390
0
  6
CONTINUOUS
 62
     3
100
AcDbCircle
 10
150.781693
 20
130.0
 30
0.0
 40
3.000001
  0
ARC
  5
14C
100
AcDbEntity
  8
LY_3
390
0
  6
CONTINUOUS
 62
     3
100
AcDbCircle
 10
145.281693
 20
139.5
 30
0.0
 40
0.5
100
AcDbArc
 50
270.000018
 51
0.0
  0
ARC
  5
14D
100
AcDbEntity
  8
LY_3
390
0
  6
CONTINUOUS
 62
     3
100
AcDbCircle
 10
145.281693
 20
120.5
 30
0.0
 40
0.5
100
AcDbArc
 50
0.0
 51
90.000003
  0
ARC
  5
14E
100
AcDbEntity
  8
LY_3
390
0
  6
CONTINUOUS
 62
     3
100
AcDbCircle
 10
145.281693
 20
-9.5
 30
0.0
 40
0.5
100
AcDbArc
 50
0.0
 51
89.999982
  0
ARC
  5
14F
100
AcDbEntity
  8
LY_3
390
0
  6
CONTINUOUS
 62
     3
100
AcDbCircle
 10
290.581696
 20
107.0
 30
0.0
 40
2.0
100
AcDbArc
 50
269.999997
 51
0.0
  0
ARC
  5
150
100
AcDbEntity
  8
LY_3
390
0
  6
CONTINUOUS
 62
     3
100
AcDbCircle
 10
290.581696
 20
153.0
 30
0.0
 40
2.0
100
AcDbArc
 50
0.0
 51
90.000003
  0
ARC
  5
151
100
AcDbEntity
  8
LY_3
390
0
  6
CONTINUOUS
 62
     3
100
AcDbCircle
 10
293.081696
 20
130.0
 30
0.0
 40
6.5
100
AcDbArc
 50
50.284864
 51
90.971843
  0
ARC
  5
152
100
AcDbEntity
  8
LY_3
390
0
  6
CONTINUOUS
 62
     3
100
AcDbCircle
 10
290.481689
 20
135.75
 30
0.0
 40
2.6
100
AcDbArc
 50
343.234126
 51
36.128695
  0
ARC
  5
153
100
AcDbEntity
  8
LY_3
390
0
  6
CONTINUOUS
 62
     3
100
AcDbCircle
 10
293.081696
 20
130.0
 30
0.0
 40
6.5
100
AcDbArc
 50
269.028157
 51
309.715136
  0
ARC
  5
154
100
AcDbEntity
  8
LY_3
390
0
  6
CONTINUOUS
 62
     3
100
AcDbCircle
 10
290.481689
 20
124.25
 30
0.0
 40
2.6
100
AcDbArc
 50
323.871305
 51
16.765874
  0
CIRCLE
  5
155
100
AcDbEntity
  8
LY_3
390
0
  6
CONTINUOUS
 62
     3
100
AcDbCircle
 10
270.581696
 20
130.0
 30
0.0
 40
1.2
  0
CIRCLE
  5
156
100
AcDbEntity
  8
LY_3
390
0
  6
CONTINUOUS
 62
   110
100
AcDbCircle
 10
270.581696
 20
130.0
 30
0.0
 40
1.5
  0
ARC
  5
157
100
AcDbEntity
  8
LY_3
390
0
  6
CONTINUOUS
 62
     3
100
AcDbCircle
 10
290.081696
 20
-22.5
 30
0.0
 40
2.5
100
AcDbArc
 50
269.999997
 51
0.0
  0
ARC
  5
158
100
AcDbEntity
  8
LY_3
390
0
  6
CONTINUOUS
 62
     3
100
AcDbCircle
 10
290.081696
 20
22.5
 30
0.0
 40
2.5
100
AcDbArc
 50
0.0
 51
90.000003
  0
ARC
  5
159
100
AcDbEntity
  8
LY_3
390
0
  6
CONTINUOUS
 62
     3
100
AcDbCircle
 10
290.481689
 20
-5.75
 30
0.0
 40
2.6
100
AcDbArc
 50
323.871304
 51
36.128696
  0
ARC
  5
15A
100
AcDbEntity
  8
LY_3
390
0
  6
CONTINUOUS
 62
     3
100
AcDbCircle
 10
293.320282
 20
-6.995934
 30
0.0
 40
0.5
100
AcDbArc
 50
91.953334
 51
156.302104
  0
ARC
  5
15B
100
AcDbEntity
  8
LY_3
390
0
  6
CONTINUOUS
 62
     3
100
AcDbCircle
 10
293.320282
 20
6.995934
 30
0.0
 40
0.5
100
AcDbArc
 50
203.697842
 51
268.046611
  0
ARC
  5
15C
100
AcDbEntity
  8
LY_3
390
0
  6
CONTINUOUS
 62
     3
100
AcDbCircle
 10
293.081696
 20
0.0
 30
0.0
 40
6.5
100
AcDbArc
 50
271.953343
 51
88.046603
  0
ARC
  5
15D
100
AcDbEntity
  8
LY_3
390
0
  6
CONTINUOUS
 62
     3
100
AcDbCircle
 10
290.481689
 20
5.75
 30
0.0
 40
2.6
100
AcDbArc
 50
323.871304
 51
36.128696
  0
ARC
  5
15E
100
AcDbEntity
  8
LY_3
390
0
  6
CONTINUOUS
 62
     3
100
AcDbCircle
 10
281.081696
 20
0.0
 30
0.0
 40
12.0
100
AcDbArc
 50
343.402158
 51
16.597842
  0
ARC
  5
15F
100
AcDbEntity
  8
LY_3
390
0
  6
CONTINUOUS
 62
     3
100
AcDbCircle
 10
126.781693
 20
120.25
 30
0.0
 40
1.25
100
AcDbArc
 50
36.869853
 51
143.130084
  0
ARC
  5
160
100
AcDbEntity
  8
LY_3
390
0
  6
CONTINUOUS
 62
     3
100
AcDbCircle
 10
126.781693
 20
139.75
 30
0.0
 40
1.25
100
AcDbArc
 50
216.869875
 51
323.130103
  0
ARC
  5
161
100
AcDbEntity
  8
LY_3
390
0
  6
CONTINUOUS
 62
     3
100
AcDbCircle
 10
145.281693
 20
9.5
 30
0.0
 40
0.5
100
AcDbArc
 50
269.999997
 51
0.0
  0
ARC
  5
162
100
AcDbEntity
  8
LY_3
390
0
  6
CONTINUOUS
 62
     3
100
AcDbCircle
 10
126.781693
 20
-9.75
 30
0.0
 40
1.25
100
AcDbArc
 50
36.869853
 51
143.130084
  0
ARC
  5
163
100
AcDbEntity
  8
LY_3
390
0
  6
CONTINUOUS
 62
     3
100
AcDbCircle
 10
126.781693
 20
9.75
 30
0.0
 40
1.25
100
AcDbArc
 50
216.869875
 51
323.130103
  0
CIRCLE
  5
164
100
AcDbEntity
  8
LY_3
390
0
  6
CONTINUOUS
 62
     3
100
AcDbCircle
 10
242.581696
 20
130.0
 30
0.0
 40
2.8
  0
ARC
  5
165
100
AcDbEntity
  8
LY_3
390
0
  6
CONTINUOUS
 62
     3
100
AcDbCircle
 10
243.391243
 20
130.80954
 30
0.0
 40
0.622046
100
AcDbArc
 50
179.999981
 51
270.000018
  0
ARC
  5
166
100
AcDbEntity
  8
LY_3
390
0
  6
CONTINUOUS
 62
     3
100
AcDbCircle
 10
243.391243
 20
129.19046
 30
0.0
 40
0.622046
100
AcDbArc
 50
89.999982
 51
179.999964
  0
ARC
  5
167
100
AcDbEntity
  8
LY_3
390
0
  6
CONTINUOUS
 62
     3
100
AcDbCircle
 10
241.772156
 20
129.19046
 30
0.0
 40
0.622046
100
AcDbArc
 50
0.0
 51
89.999982
  0
ARC
  5
168
100
AcDbEntity
  8
LY_3
390
0
  6
CONTINUOUS
 62
     3
100
AcDbCircle
 10
241.772156
 20
130.80954
 30
0.0
 40
0.622046
100
AcDbArc
 50
270.000018
 51
0.0
  0
ARC
  5
169
100
AcDbEntity
  8
LY_3
390
0
  6
CONTINUOUS
 62
     3
100
AcDbCircle
 10
241.581696
 20
130.0
 30
0.0
 40
4.0
100
AcDbArc
 50
270.000018
 51
0.0
  0
ARC
  5
16A
100
AcDbEntity
  8
LY_3
390
0
  6
CONTINUOUS
 62
     3
100
AcDbCircle
 10
241.581696
 20
130.0
 30
0.0
 40
4.0
100
AcDbArc
 50
0.0
 51
89.999982
  0
ARC
  5
16B
100
AcDbEntity
  8
LY_3
390
0
  6
CONTINUOUS
 62
     3
100
AcDbCircle
 10
179.581696
 20
130.0
 30
0.0
 40
4.0
100
AcDbArc
 50
89.999982
 51
270.000001
  0
ARC
  5
16C
100
AcDbEntity
  8
LY_3
390
0
  6
CONTINUOUS
 62
     3
100
AcDbCircle
 10
122.781693
 20
-5.0
 30
0.0
 40
1.0
100
AcDbArc
 50
0.0
 51
89.999982
  0
ARC
  5
16D
100
AcDbEntity
  8
LY_3
390
0
  6
CONTINUOUS
 62
     3
100
AcDbCircle
 10
118.781708
 20
-5.0
 30
0.0
 40
1.0
100
AcDbArc
 50
89.999982
 51
179.999964
  0
ARC
  5
16E
100
AcDbEntity
  8
LY_3
390
0
  6
CONTINUOUS
 62
     3
100
AcDbCircle
 10
122.781693
 20
5.0
 30
0.0
 40
1.0
100
AcDbArc
 50
270.000018
 51
0.0
  0
ARC
  5
16F
100
AcDbEntity
  8
LY_3
390
0
  6
CONTINUOUS
 62
     3
100
AcDbCircle
 10
118.781708
 20
5.0
 30
0.0
 40
1.0
100
AcDbArc
 50
179.999981
 51
270.000018
  0
ARC
  5
170
100
AcDbEntity
  8
LY_3
390
0
  6
CONTINUOUS
 62
     3
100
AcDbCircle
 10
4.753723
 20
-3.165443
 30
0.0
 40
0.9
100
AcDbArc
 50
230.188157
 51
330.720362
  0
ARC
  5
171
100
AcDbEntity
  8
LY_3
390
0
  6
CONTINUOUS
 62
     3
100
AcDbCircle
 10
-4.753723
 20
-3.165443
 30
0.0
 40
0.9
100
AcDbArc
 50
209.279623
 51
309.811818
  0
ARC
  5
172
100
AcDbEntity
  8
LY_3
390
0
  6
CONTINUOUS
 62
     3
100
AcDbCircle
 10
3.024994
 20
-5.239456
 30
0.0
 40
1.8
100
AcDbArc
 50
50.188172
 51
171.05758
  0
ARC
  5
173
100
AcDbEntity
  8
LY_3
390
0
  6
CONTINUOUS
 62
     3
100
AcDbCircle
 10
-3.024994
 20
-5.239456
 30
0.0
 40
1.8
100
AcDbArc
 50
8.942434
 51
129.811843
  0
CIRCLE
  5
174
100
AcDbEntity
  8
LY_3
390
0
  6
CONTINUOUS
 62
     3
100
AcDbCircle
 10
3.024994
 20
-5.239456
 30
0.0
 40
0.85
  0
CIRCLE
  5
175
100
AcDbEntity
  8
LY_3
390
0
  6
CONTINUOUS
 62
     3
100
AcDbCircle
 10
-3.024994
 20
-5.239456
 30
0.0
 40
0.85
  0
ARC
  5
176
100
AcDbEntity
  8
LY_3
390
0
  6
CONTINUOUS
 62
     3
100
AcDbCircle
 10
0.0
 20
-0.5
 30
0.0
 40
6.35
100
AcDbArc
 50
330.720359
 51
209.279605
  0
ARC
  5
177
100
AcDbEntity
  8
LY_3
390
0
  6
CONTINUOUS
 62
     3
100
AcDbCircle
 10
0.0
 20
0.0
 30
0.0
 40
4.0
100
AcDbArc
 50
121.044995
 51
241.044944
  0
ARC
  5
178
100
AcDbEntity
  8
LY_3
390
0
  6
CONTINUOUS
 62
     3
100
AcDbCircle
 10
0.0
 20
0.0
 30
0.0
 40
4.0
100
AcDbArc
 50
1.04497
 51
121.044968
  0
ARC
  5
179
100
AcDbEntity
  8
LY_3
390
0
  6
CONTINUOUS
 62
     3
100
AcDbCircle
 10
-2.598083
 20
1.5
 30
0.0
 40
2.0
100
AcDbArc
 50
74.477503
 51
225.522492
  0
ARC
  5
17A
100
AcDbEntity
  8
LY_3
390
0
  6
CONTINUOUS
 62
     3
100
AcDbCircle
 10
2.598083
 20
1.5
 30
0.0
 40
2.0
100
AcDbArc
 50
314.4775
 51
105.522488
  0
ARC
  5
17B
100
AcDbEntity
  8
LY_3
390
0
  6
CONTINUOUS
 62
     3
100
AcDbCircle
 10
0.0
 20
0.0
 30
0.0
 40
4.0
100
AcDbArc
 50
241.044934
 51
0.0
  0
ARC
  5
17C
100
AcDbEntity
  8
LY_3
390
0
  6
CONTINUOUS
 62
     3
100
AcDbCircle
 10
0.0
 20
-3.0
 30
0.0
 40
2.0
100
AcDbArc
 50
194.477483
 51
345.522512
  0
ARC
  5
17D
100
AcDbEntity
  8
LY_3
390
0
  6
CONTINUOUS
 62
     3
100
AcDbCircle
 10
0.0
 20
0.0
 30
0.0
 40
4.0
100
AcDbArc
 50
0.0
 51
1.044964
  0
ARC
  5
17E
100
AcDbEntity
  8
LY_3
390
0
  6
CONTINUOUS
 62
     3
100
AcDbCircle
 10
0.0
 20
0.0
 30
0.0
 40
3.0
100
AcDbArc
 50
138.189712
 51
41.810303
  0
CIRCLE
  5
17F
100
AcDbEntity
  8
LY_3
390
0
  6
CONTINUOUS
 62
     3
100
AcDbCircle
 10
-0.102921
 20
0.0
 30
0.0
 40
7.6
  0
CIRCLE
  5
180
100
AcDbEntity
  8
LY_3
390
0
  6
CONTINUOUS
 62
     3
100
AcDbCircle
 10
0.019409
 20
0.0
 30
0.0
 40
9.150011
  0
CIRCLE
  5
181
100
AcDbEntity
  8
LY_3
390
0
  6
CONTINUOUS
 62
     3
100
AcDbCircle
 10
0.019409
 20
0.0
 30
0.0
 40
10.7
  0
CIRCLE
  5
182
100
AcDbEntity
  8
LY_3
390
0
  6
CONTINUOUS
 62
     3
100
AcDbCircle
 10
6.75
 20
-11.691345
 30
0.0
 40
2.2
  0
CIRCLE
  5
183
100
AcDbEntity
  8
LY_3
390
0
  6
CONTINUOUS
 62
     3
100
AcDbCircle
 10
-6.75
 20
-11.691345
 30
0.0
 40
2.2
  0
CIRCLE
  5
184
100
AcDbEntity
  8
LY_3
390
0
  6
CONTINUOUS
 62
     3
100
AcDbCircle
 10
6.75
 20
11.691345
 30
0.0
 40
2.2
  0
CIRCLE
  5
185
100
AcDbEntity
  8
LY_3
390
0
  6
CONTINUOUS
 62
     3
100
AcDbCircle
 10
13.5
 20
0.0
 30
0.0
 40
2.2
  0
CIRCLE
  5
186
100
AcDbEntity
  8
LY_3
390
0
  6
CONTINUOUS
 62
     3
100
AcDbCircle
 10
-13.5
 20
0.0
 30
0.0
 40
2.2
  0
CIRCLE
  5
187
100
AcDbEntity
  8
LY_3
390
0
  6
CONTINUOUS
 62
     3
100
AcDbCircle
 10
-6.75
 20
11.691345
 30
0.0
 40
2.2
  0
CIRCLE
  5
189
100
AcDbEntity
  8
LY_3
390
0
  6
CENTER
 62
   110
100
AcDbCircle
 10
0.0
 20
0.0
 30
0.0
 40
13.5
  0
CIRCLE
  5
18A
100
AcDbEntity
  8
LY_3
390
0
  6
CONTINUOUS
 62
     3
100
AcDbCircle
 10
0.0
 20
0.0
 30
0.0
 40
16.9
  0
ARC
  5
18B
100
AcDbEntity
  8
LY_3
390
0
  6
CONTINUOUS
 62
     3
100
AcDbCircle
 10
122.781693
 20
120.25
 30
0.0
 40
1.25
100
AcDbArc
 50
36.869897
 51
143.130084
  0
ARC
  5
18C
100
AcDbEntity
  8
LY_3
390
0
  6
CONTINUOUS
 62
     3
100
AcDbCircle
 10
122.781693
 20
139.75
 30
0.0
 40
1.25
100
AcDbArc
 50
216.869875
 51
323.130103
  0
ARC
  5
18D
100
AcDbEntity
  8
LY_3
390
0
  6
CONTINUOUS
 62
     3
100
AcDbCircle
 10
122.781693
 20
-9.75
 30
0.0
 40
1.25
100
AcDbArc
 50
36.869897
 51
143.130084
  0
ARC
  5
18E
100
AcDbEntity
  8
LY_3
390
0
  6
CONTINUOUS
 62
     3
100
AcDbCircle
 10
122.781693
 20
9.75
 30
0.0
 40
1.25
100
AcDbArc
 50
216.869875
 51
323.130103
  0
ARC
  5
18F
100
AcDbEntity
  8
LY_3
390
0
  6
CONTINUOUS
 62
     3
100
AcDbCircle
 10
114.388809
 20
-10.449997
 30
0.0
 40
0.25
100
AcDbArc
 50
270.000018
 51
20.000078
  0
ARC
  5
190
100
AcDbEntity
  8
LY_3
390
0
  6
CONTINUOUS
 62
     3
100
AcDbCircle
 10
114.388809
 20
10.449997
 30
0.0
 40
0.25
100
AcDbArc
 50
339.999922
 51
89.999982
  0
LINE
  5
191
100
AcDbEntity
  8
LY_3
390
0
  6
CENTER
 62
   110
100
AcDbLine
 10
242.581696
 20
135.0
 30
0.0
 11
242.581696
 21
125.0
 31
0.0
  0
LINE
  5
192
100
AcDbEntity
  8
LY_3
390
0
  6
CONTINUOUS
 62
   110
100
AcDbLine
 10
254.581696
 20
117.068985
 30
0.0
 11
258.581696
 21
117.068985
 31
0.0
  0
LINE
  5
193
100
AcDbEntity
  8
LY_3
390
0
  6
CENTER
 62
   110
100
AcDbLine
 10
264.298676
 20
130.0
 30
0.0
 11
335.090225
 21
130.0
 31
0.0
  0
LINE
  5
194
100
AcDbEntity
  8
LY_3
390
0
  6
CONTINUOUS
 62
     3
100
AcDbLine
 10
123.781693
 20
6.5
 30
0.0
 11
155.781693
 21
6.5
 31
0.0
  0
LINE
  5
195
100
AcDbEntity
  8
LY_3
390
0
  6
CONTINUOUS
 62
     3
100
AcDbLine
 10
153.781693
 20
-14.5
 30
0.0
 11
154.181692
 21
-14.5
 31
0.0
  0
LINE
  5
196
100
AcDbEntity
  8
LY_3
390
0
  6
CONTINUOUS
 62
     3
100
AcDbLine
 10
155.181692
 20
-13.5
 30
0.0
 11
156.181693
 21
-14.500001
 31
0.0
  0
LINE
  5
197
100
AcDbEntity
  8
LY_3
390
0
  6
CONTINUOUS
 62
     3
100
AcDbLine
 10
154.181693
 20
-14.499998
 30
0.0
 11
155.181692
 21
-13.5
 31
0.0
  0
LINE
  5
198
100
AcDbEntity
  8
LY_3
390
0
  6
CONTINUOUS
 62
     3
100
AcDbLine
 10
155.181692
 20
13.500002
 30
0.0
 11
156.181691
 21
14.500001
 31
0.0
  0
LINE
  5
199
100
AcDbEntity
  8
LY_3
390
0
  6
CONTINUOUS
 62
     3
100
AcDbLine
 10
154.181693
 20
14.5
 30
0.0
 11
155.181692
 21
13.500002
 31
0.0
  0
LINE
  5
19A
100
AcDbEntity
  8
LY_3
390
0
  6
CONTINUOUS
 62
     3
100
AcDbLine
 10
156.181692
 20
14.5
 30
0.0
 11
156.781693
 21
14.5
 31
0.0
  0
LINE
  5
19B
100
AcDbEntity
  8
LY_3
390
0
  6
CONTINUOUS
 62
     3
100
AcDbLine
 10
154.281695
 20
151.0
 30
0.0
 11
154.281695
 21
109.0
 31
0.0
  0
LINE
  5
19C
100
AcDbEntity
  8
LY_3
390
0
  6
CONTINUOUS
 62
     3
100
AcDbLine
 10
146.781679
 20
151.0
 30
0.0
 11
146.781679
 21
109.0
 31
0.0
  0
LINE
  5
19D
100
AcDbEntity
  8
LY_3
390
0
  6
CONTINUOUS
 62
     3
100
AcDbLine
 10
154.781693
 20
19.0
 30
0.0
 11
254.581696
 21
19.0
 31
0.0
  0
LINE
  5
19E
100
AcDbEntity
  8
LY_3
390
0
  6
CONTINUOUS
 62
     3
100
AcDbLine
 10
154.781693
 20
-17.0
 30
0.0
 11
171.940336
 21
-17.0
 31
0.0
  0
LINE
  5
19F
100
AcDbEntity
  8
LY_3
390
0
  6
CONTINUOUS
 62
     3
100
AcDbLine
 10
154.781693
 20
-17.099998
 30
0.0
 11
154.781693
 21
-17.0
 31
0.0
  0
LINE
  5
1A0
100
AcDbEntity
  8
LY_3
390
0
  6
CONTINUOUS
 62
     3
100
AcDbLine
 10
151.982307
 20
-19.0
 30
0.0
 11
154.281693
 21
-19.0
 31
0.0
  0
LINE
  5
1A1
100
AcDbEntity
  8
LY_3
390
0
  6
CONTINUOUS
 62
   110
100
AcDbLine
 10
152.281693
 20
-18.949997
 30
0.0
 11
152.281693
 21
-18.349998
 31
0.0
  0
LINE
  5
1A2
100
AcDbEntity
  8
LY_3
390
0
  6
CONTINUOUS
 62
     3
100
AcDbLine
 10
152.281695
 20
-18.349999
 30
0.0
 11
151.981696
 21
-18.778443
 31
0.0
  0
LINE
  5
1A3
100
AcDbEntity
  8
LY_3
390
0
  6
CONTINUOUS
 62
     3
100
AcDbLine
 10
151.981689
 20
-18.968628
 30
0.0
 11
151.981689
 21
-18.778442
 31
0.0
  0
LINE
  5
1A4
100
AcDbEntity
  8
LY_3
390
0
  6
CONTINUOUS
 62
     3
100
AcDbLine
 10
152.078445
 20
-19.349998
 30
0.0
 11
149.48494
 21
-19.349998
 31
0.0
  0
LINE
  5
1A5
100
AcDbEntity
  8
LY_3
390
0
  6
CONTINUOUS
 62
     3
100
AcDbLine
 10
149.581696
 20
-18.968628
 30
0.0
 11
149.581696
 21
-18.778442
 31
0.0
  0
LINE
  5
1A6
100
AcDbEntity
  8
LY_3
390
0
  6
CONTINUOUS
 62
     3
100
AcDbLine
 10
152.281693
 20
-18.349998
 30
0.0
 11
149.281693
 21
-18.349998
 31
0.0
  0
LINE
  5
1A7
100
AcDbEntity
  8
LY_3
390
0
  6
CONTINUOUS
 62
     3
100
AcDbLine
 10
149.281691
 20
-18.350007
 30
0.0
 11
149.58169
 21
-18.778451
 31
0.0
  0
LINE
  5
1A8
100
AcDbEntity
  8
LY_3
390
0
  6
CONTINUOUS
 62
   110
100
AcDbLine
 10
149.281693
 20
-18.949997
 30
0.0
 11
149.281693
 21
-18.349998
 31
0.0
  0
LINE
  5
1A9
100
AcDbEntity
  8
LY_3
390
0
  6
CONTINUOUS
 62
     3
100
AcDbLine
 10
148.081696
 20
-18.949997
 30
0.0
 11
149.581696
 21
-18.949997
 31
0.0
  0
LINE
  5
1AA
100
AcDbEntity
  8
LY_3
390
0
  6
CONTINUOUS
 62
     3
100
AcDbLine
 10
148.081689
 20
-18.950005
 30
0.0
 11
147.78169
 21
-18.650005
 31
0.0
  0
LINE
  5
1AB
100
AcDbEntity
  8
LY_3
390
0
  6
CONTINUOUS
 62
     3
100
AcDbLine
 10
147.781693
 20
-19.0
 30
0.0
 11
149.581078
 21
-19.0
 31
0.0
  0
LINE
  5
1AC
100
AcDbEntity
  8
LY_3
390
0
  6
CONTINUOUS
 62
     3
100
AcDbLine
 10
147.781693
 20
-19.0
 30
0.0
 11
147.781693
 21
-17.050003
 31
0.0
  0
LINE
  5
1AD
100
AcDbEntity
  8
LY_3
390
0
  6
CONTINUOUS
 62
     3
100
AcDbLine
 10
147.781693
 20
-17.050003
 30
0.0
 11
149.281693
 21
-17.050003
 31
0.0
  0
LINE
  5
1AE
100
AcDbEntity
  8
LY_3
390
0
  6
CONTINUOUS
 62
     3
100
AcDbLine
 10
147.781695
 20
-17.400004
 30
0.0
 11
148.081694
 21
-17.100005
 31
0.0
  0
LINE
  5
1AF
100
AcDbEntity
  8
LY_3
390
0
  6
CONTINUOUS
 62
     3
100
AcDbLine
 10
148.081696
 20
-17.099998
 30
0.0
 11
149.581696
 21
-17.099998
 31
0.0
  0
LINE
  5
1B0
100
AcDbEntity
  8
LY_3
390
0
  6
CONTINUOUS
 62
     3
100
AcDbLine
 10
153.281691
 20
-17.050005
 30
0.0
 11
153.781691
 21
-16.550005
 31
0.0
  0
LINE
  5
1B1
100
AcDbEntity
  8
LY_3
390
0
  6
CONTINUOUS
 62
     3
100
AcDbLine
 10
152.281693
 20
-17.050003
 30
0.0
 11
153.281693
 21
-17.050003
 31
0.0
  0
LINE
  5
1B2
100
AcDbEntity
  8
LY_3
390
0
  6
CONTINUOUS
 62
     3
100
AcDbLine
 10
151.981689
 20
-17.099998
 30
0.0
 11
154.781693
 21
-17.099998
 31
0.0
  0
LINE
  5
1B3
100
AcDbEntity
  8
LY_3
390
0
  6
CONTINUOUS
 62
     3
100
AcDbLine
 10
149.281693
 20
-18.349998
 30
0.0
 11
149.281693
 21
-15.0
 31
0.0
  0
LINE
  5
1B4
100
AcDbEntity
  8
LY_3
390
0
  6
CONTINUOUS
 62
   110
100
AcDbLine
 10
149.581696
 20
-18.778442
 30
0.0
 11
149.581696
 21
-15.0
 31
0.0
  0
LINE
  5
1B5
100
AcDbEntity
  8
LY_3
390
0
  6
CONTINUOUS
 62
     3
100
AcDbLine
 10
152.281693
 20
-15.0
 30
0.0
 11
149.281693
 21
-15.0
 31
0.0
  0
LINE
  5
1B6
100
AcDbEntity
  8
LY_3
390
0
  6
CONTINUOUS
 62
     3
100
AcDbLine
 10
152.281693
 20
-18.349998
 30
0.0
 11
152.281693
 21
-15.0
 31
0.0
  0
LINE
  5
1B7
100
AcDbEntity
  8
LY_3
390
0
  6
CONTINUOUS
 62
   110
100
AcDbLine
 10
151.981689
 20
-18.778442
 30
0.0
 11
151.981689
 21
-15.0
 31
0.0
  0
LINE
  5
1B8
100
AcDbEntity
  8
LY_3
390
0
  6
CONTINUOUS
 62
     3
100
AcDbLine
 10
152.381691
 20
-17.050003
 30
0.0
 11
152.381691
 21
-13.549999
 31
0.0
  0
LINE
  5
1B9
100
AcDbEntity
  8
LY_3
390
0
  6
CONTINUOUS
 62
     3
100
AcDbLine
 10
150.78169
 20
-12.62624
 30
0.0
 11
152.381692
 21
-13.550001
 31
0.0
  0
LINE
  5
1BA
100
AcDbEntity
  8
LY_3
390
0
  6
CENTER
 62
   110
100
AcDbLine
 10
150.781693
 20
-22.207977
 30
0.0
 11
150.781693
 21
-11.371395
 31
0.0
  0
LINE
  5
1BB
100
AcDbEntity
  8
LY_3
390
0
  6
CONTINUOUS
 62
     3
100
AcDbLine
 10
149.181693
 20
-13.550001
 30
0.0
 11
150.781691
 21
-12.626242
 31
0.0
  0
LINE
  5
1BC
100
AcDbEntity
  8
LY_3
390
0
  6
CONTINUOUS
 62
     3
100
AcDbLine
 10
149.181694
 20
-13.549999
 30
0.0
 11
152.381691
 21
-13.549999
 31
0.0
  0
LINE
  5
1BD
100
AcDbEntity
  8
LY_3
390
0
  6
CONTINUOUS
 62
     3
100
AcDbLine
 10
149.181694
 20
-17.050003
 30
0.0
 11
149.181694
 21
-13.549999
 31
0.0
  0
LINE
  5
1BE
100
AcDbEntity
  8
LY_3
390
0
  6
CONTINUOUS
 62
     3
100
AcDbLine
 10
154.781693
 20
17.0
 30
0.0
 11
172.149979
 21
17.0
 31
0.0
  0
LINE
  5
1BF
100
AcDbEntity
  8
LY_3
390
0
  6
CONTINUOUS
 62
     3
100
AcDbLine
 10
150.781695
 20
12.62624
 30
0.0
 11
152.381693
 21
13.55
 31
0.0
  0
LINE
  5
1C0
100
AcDbEntity
  8
LY_3
390
0
  6
CONTINUOUS
 62
     3
100
AcDbLine
 10
149.181692
 20
13.550004
 30
0.0
 11
150.781691
 21
12.626244
 31
0.0
  0
LINE
  5
1C1
100
AcDbEntity
  8
LY_3
390
0
  6
CONTINUOUS
 62
     3
100
AcDbLine
 10
149.181694
 20
17.049999
 30
0.0
 11
149.181694
 21
13.549999
 31
0.0
  0
LINE
  5
1C2
100
AcDbEntity
  8
LY_3
390
0
  6
CONTINUOUS
 62
     3
100
AcDbLine
 10
152.381691
 20
17.049999
 30
0.0
 11
152.381691
 21
13.549999
 31
0.0
  0
LINE
  5
1C3
100
AcDbEntity
  8
LY_3
390
0
  6
CONTINUOUS
 62
     3
100
AcDbLine
 10
152.281693
 20
18.35
 30
0.0
 11
152.281693
 21
15.0
 31
0.0
  0
LINE
  5
1C4
100
AcDbEntity
  8
LY_3
390
0
  6
CONTINUOUS
 62
     3
100
AcDbLine
 10
149.281693
 20
18.35
 30
0.0
 11
149.281693
 21
15.0
 31
0.0
  0
LINE
  5
1C5
100
AcDbEntity
  8
LY_3
390
0
  6
CONTINUOUS
 62
     3
100
AcDbLine
 10
155.781669
 20
12.500056
 30
0.0
 11
156.781676
 21
13.500062
 31
0.0
  0
LINE
  5
1C6
100
AcDbEntity
  8
LY_3
390
0
  6
CONTINUOUS
 62
     3
100
AcDbLine
 10
155.78167
 20
4.0
 30
0.0
 11
155.78167
 21
12.500053
 31
0.0
  0
LINE
  5
1C7
100
AcDbEntity
  8
LY_3
390
0
  6
CONTINUOUS
 62
     3
100
AcDbLine
 10
155.78167
 20
-4.0
 30
0.0
 11
155.78167
 21
-12.500053
 31
0.0
  0
LINE
  5
1C8
100
AcDbEntity
  8
LY_3
390
0
  6
CONTINUOUS
 62
     3
100
AcDbLine
 10
154.781693
 20
-19.0
 30
0.0
 11
154.781693
 21
-18.949997
 31
0.0
  0
LINE
  5
1C9
100
AcDbEntity
  8
LY_3
390
0
  6
CONTINUOUS
 62
     3
100
AcDbLine
 10
154.781693
 20
17.099998
 30
0.0
 11
154.781693
 21
17.0
 31
0.0
  0
LINE
  5
1CA
100
AcDbEntity
  8
LY_3
390
0
  6
CONTINUOUS
 62
     3
100
AcDbLine
 10
153.281689
 20
17.050005
 30
0.0
 11
153.78169
 21
16.550005
 31
0.0
  0
LINE
  5
1CB
100
AcDbEntity
  8
LY_3
390
0
  6
CONTINUOUS
 62
     3
100
AcDbLine
 10
154.781692
 20
-19.499998
 30
0.0
 11
154.281692
 21
-18.999998
 31
0.0
  0
LINE
  5
1CC
100
AcDbEntity
  8
LY_3
390
0
  6
CONTINUOUS
 62
     3
100
AcDbLine
 10
151.981689
 20
-18.949997
 30
0.0
 11
154.781693
 21
-18.949997
 31
0.0
  0
LINE
  5
1CD
100
AcDbEntity
  8
LY_3
390
0
  6
CONTINUOUS
 62
     3
100
AcDbLine
 10
152.281693
 20
-19.599998
 30
0.0
 11
152.381691
 21
-19.599998
 31
0.0
  0
LINE
  5
1CE
100
AcDbEntity
  8
LY_3
390
0
  6
CONTINUOUS
 62
     3
100
AcDbLine
 10
152.381695
 20
-19.599999
 30
0.0
 11
153.781693
 21
-20.999997
 31
0.0
  0
LINE
  5
1CF
100
AcDbEntity
  8
LY_3
390
0
  6
CONTINUOUS
 62
     3
100
AcDbLine
 10
149.181696
 20
-19.599999
 30
0.0
 11
147.781687
 21
-21.000008
 31
0.0
  0
LINE
  5
1D0
100
AcDbEntity
  8
LY_3
390
0
  6
CONTINUOUS
 62
     3
100
AcDbLine
 10
149.281693
 20
-19.599998
 30
0.0
 11
149.181694
 21
-19.599998
 31
0.0
  0
LINE
  5
1D1
100
AcDbEntity
  8
LY_3
390
0
  6
CONTINUOUS
 62
     3
100
AcDbLine
 10
149.181694
 20
-19.599998
 30
0.0
 11
149.181694
 21
-19.0
 31
0.0
  0
LINE
  5
1D2
100
AcDbEntity
  8
LY_3
390
0
  6
CONTINUOUS
 62
     3
100
AcDbLine
 10
148.043028
 20
-20.83866
 30
0.0
 11
149.347376
 21
-19.534311
 31
0.0
  0
LINE
  5
1D3
100
AcDbEntity
  8
LY_3
390
0
  6
CONTINUOUS
 62
     3
100
AcDbLine
 10
153.531698
 20
-20.849996
 30
0.0
 11
152.21601
 21
-19.534307
 31
0.0
  0
LINE
  5
1D4
100
AcDbEntity
  8
LY_3
390
0
  6
CONTINUOUS
 62
     3
100
AcDbLine
 10
148.031693
 20
-21.0
 30
0.0
 11
148.031693
 21
-20.849998
 31
0.0
  0
LINE
  5
1D5
100
AcDbEntity
  8
LY_3
390
0
  6
CONTINUOUS
 62
     3
100
AcDbLine
 10
153.531693
 20
-21.0
 30
0.0
 11
153.531693
 21
-20.849998
 31
0.0
  0
LINE
  5
1D6
100
AcDbEntity
  8
LY_3
390
0
  6
CONTINUOUS
 62
     3
100
AcDbLine
 10
153.531693
 20
-20.849998
 30
0.0
 11
148.031693
 21
-20.849998
 31
0.0
  0
LINE
  5
1D7
100
AcDbEntity
  8
LY_3
390
0
  6
CONTINUOUS
 62
     3
100
AcDbLine
 10
154.281693
 20
-21.0
 30
0.0
 11
146.781685
 21
-21.0
 31
0.0
  0
LINE
  5
1D8
100
AcDbEntity
  8
LY_3
390
0
  6
CONTINUOUS
 62
     3
100
AcDbLine
 10
152.381691
 20
-19.599998
 30
0.0
 11
152.381691
 21
-19.0
 31
0.0
  0
LINE
  5
1D9
100
AcDbEntity
  8
LY_3
390
0
  6
CONTINUOUS
 62
     3
100
AcDbLine
 10
154.781693
 20
-20.5
 30
0.0
 11
154.781693
 21
-19.5
 31
0.0
  0
LINE
  5
1DA
100
AcDbEntity
  8
LY_3
390
0
  6
CONTINUOUS
 62
     3
100
AcDbLine
 10
154.281692
 20
-21.0
 30
0.0
 11
154.781693
 21
-20.499999
 31
0.0
  0
LINE
  5
1DB
100
AcDbEntity
  8
LY_3
390
0
  6
CONTINUOUS
 62
     3
100
AcDbLine
 10
147.781697
 20
17.399999
 30
0.0
 11
148.081696
 21
17.099999
 31
0.0
  0
LINE
  5
1DC
100
AcDbEntity
  8
LY_3
390
0
  6
CONTINUOUS
 62
     3
100
AcDbLine
 10
148.08169
 20
18.949999
 30
0.0
 11
147.781691
 21
18.65
 31
0.0
  0
LINE
  5
1DD
100
AcDbEntity
  8
LY_3
390
0
  6
CONTINUOUS
 62
     3
100
AcDbLine
 10
152.281693
 20
17.049999
 30
0.0
 11
153.281693
 21
17.049999
 31
0.0
  0
LINE
  5
1DE
100
AcDbEntity
  8
LY_3
390
0
  6
CONTINUOUS
 62
     3
100
AcDbLine
 10
147.781693
 20
17.049999
 30
0.0
 11
149.281693
 21
17.049999
 31
0.0
  0
LINE
  5
1DF
100
AcDbEntity
  8
LY_3
390
0
  6
CONTINUOUS
 62
     3
100
AcDbLine
 10
151.981689
 20
17.099998
 30
0.0
 11
154.781693
 21
17.099998
 31
0.0
  0
LINE
  5
1E0
100
AcDbEntity
  8
LY_3
390
0
  6
CONTINUOUS
 62
     3
100
AcDbLine
 10
148.081696
 20
17.099998
 30
0.0
 11
149.581696
 21
17.099998
 31
0.0
  0
LINE
  5
1E1
100
AcDbEntity
  8
LY_3
390
0
  6
CONTINUOUS
 62
     3
100
AcDbLine
 10
154.781693
 20
19.0
 30
0.0
 11
154.781693
 21
18.950001
 31
0.0
  0
LINE
  5
1E2
100
AcDbEntity
  8
LY_3
390
0
  6
CONTINUOUS
 62
     3
100
AcDbLine
 10
154.781691
 20
19.499998
 30
0.0
 11
154.28169
 21
18.999998
 31
0.0
  0
LINE
  5
1E3
100
AcDbEntity
  8
LY_3
390
0
  6
CONTINUOUS
 62
     3
100
AcDbLine
 10
151.981689
 20
18.950001
 30
0.0
 11
154.781693
 21
18.950001
 31
0.0
  0
LINE
  5
1E4
100
AcDbEntity
  8
LY_3
390
0
  6
CONTINUOUS
 62
     3
100
AcDbLine
 10
154.28169
 20
21.0
 30
0.0
 11
154.781691
 21
20.499999
 31
0.0
  0
LINE
  5
1E5
100
AcDbEntity
  8
LY_3
390
0
  6
CONTINUOUS
 62
     3
100
AcDbLine
 10
154.781693
 20
20.5
 30
0.0
 11
154.781693
 21
19.5
 31
0.0
  0
LINE
  5
1E6
100
AcDbEntity
  8
LY_3
390
0
  6
CONTINUOUS
 62
     3
100
AcDbLine
 10
148.081696
 20
18.950001
 30
0.0
 11
149.581696
 21
18.950001
 31
0.0
  0
LINE
  5
1E7
100
AcDbEntity
  8
LY_3
390
0
  6
CONTINUOUS
 62
     3
100
AcDbLine
 10
149.181694
 20
13.549999
 30
0.0
 11
152.381691
 21
13.549999
 31
0.0
  0
LINE
  5
1E8
100
AcDbEntity
  8
LY_3
390
0
  6
CONTINUOUS
 62
     3
100
AcDbLine
 10
152.281693
 20
19.6
 30
0.0
 11
152.381691
 21
19.6
 31
0.0
  0
LINE
  5
1E9
100
AcDbEntity
  8
LY_3
390
0
  6
CONTINUOUS
 62
     3
100
AcDbLine
 10
152.381692
 20
19.599998
 30
0.0
 11
153.781696
 21
21.000002
 31
0.0
  0
LINE
  5
1EA
100
AcDbEntity
  8
LY_3
390
0
  6
CONTINUOUS
 62
     3
100
AcDbLine
 10
149.181693
 20
19.599998
 30
0.0
 11
147.78169
 21
21.000002
 31
0.0
  0
LINE
  5
1EB
100
AcDbEntity
  8
LY_3
390
0
  6
CONTINUOUS
 62
     3
100
AcDbLine
 10
149.281693
 20
19.6
 30
0.0
 11
149.181694
 21
19.6
 31
0.0
  0
LINE
  5
1EC
100
AcDbEntity
  8
LY_3
390
0
  6
CONTINUOUS
 62
     3
100
AcDbLine
 10
149.181694
 20
19.6
 30
0.0
 11
149.181694
 21
19.0
 31
0.0
  0
LINE
  5
1ED
100
AcDbEntity
  8
LY_3
390
0
  6
CONTINUOUS
 62
   110
100
AcDbLine
 10
149.581696
 20
18.778444
 30
0.0
 11
149.581696
 21
15.0
 31
0.0
  0
LINE
  5
1EE
100
AcDbEntity
  8
LY_3
390
0
  6
CONTINUOUS
 62
   110
100
AcDbLine
 10
151.981689
 20
18.778444
 30
0.0
 11
151.981689
 21
15.0
 31
0.0
  0
LINE
  5
1EF
100
AcDbEntity
  8
LY_3
390
0
  6
CONTINUOUS
 62
     3
100
AcDbLine
 10
149.281696
 20
18.350001
 30
0.0
 11
149.581695
 21
18.778444
 31
0.0
  0
LINE
  5
1F0
100
AcDbEntity
  8
LY_3
390
0
  6
CONTINUOUS
 62
     3
100
AcDbLine
 10
152.281693
 20
18.349999
 30
0.0
 11
151.981693
 21
18.778443
 31
0.0
  0
LINE
  5
1F1
100
AcDbEntity
  8
LY_3
390
0
  6
CONTINUOUS
 62
     3
100
AcDbLine
 10
148.04303
 20
20.838667
 30
0.0
 11
149.347379
 21
19.534319
 31
0.0
  0
LINE
  5
1F2
100
AcDbEntity
  8
LY_3
390
0
  6
CONTINUOUS
 62
     3
100
AcDbLine
 10
153.531696
 20
20.850003
 30
0.0
 11
152.216008
 21
19.534315
 31
0.0
  0
LINE
  5
1F3
100
AcDbEntity
  8
LY_3
390
0
  6
CONTINUOUS
 62
     3
100
AcDbLine
 10
148.031693
 20
21.0
 30
0.0
 11
148.031693
 21
20.85
 31
0.0
  0
LINE
  5
1F4
100
AcDbEntity
  8
LY_3
390
0
  6
CONTINUOUS
 62
     3
100
AcDbLine
 10
153.531693
 20
21.0
 30
0.0
 11
153.531693
 21
20.85
 31
0.0
  0
LINE
  5
1F5
100
AcDbEntity
  8
LY_3
390
0
  6
CONTINUOUS
 62
     3
100
AcDbLine
 10
152.281693
 20
18.35
 30
0.0
 11
149.281693
 21
18.35
 31
0.0
  0
LINE
  5
1F6
100
AcDbEntity
  8
LY_3
390
0
  6
CONTINUOUS
 62
     3
100
AcDbLine
 10
152.281693
 20
15.0
 30
0.0
 11
149.281693
 21
15.0
 31
0.0
  0
LINE
  5
1F7
100
AcDbEntity
  8
LY_3
390
0
  6
CONTINUOUS
 62
     3
100
AcDbLine
 10
152.078445
 20
19.35
 30
0.0
 11
149.48494
 21
19.35
 31
0.0
  0
LINE
  5
1F8
100
AcDbEntity
  8
LY_3
390
0
  6
CONTINUOUS
 62
     3
100
AcDbLine
 10
149.581696
 20
18.968628
 30
0.0
 11
149.581696
 21
18.778444
 31
0.0
  0
LINE
  5
1F9
100
AcDbEntity
  8
LY_3
390
0
  6
CONTINUOUS
 62
     3
100
AcDbLine
 10
151.981689
 20
18.968628
 30
0.0
 11
151.981689
 21
18.778444
 31
0.0
  0
LINE
  5
1FA
100
AcDbEntity
  8
LY_3
390
0
  6
CONTINUOUS
 62
     3
100
AcDbLine
 10
153.531693
 20
20.85
 30
0.0
 11
148.031693
 21
20.85
 31
0.0
  0
LINE
  5
1FB
100
AcDbEntity
  8
LY_3
390
0
  6
CONTINUOUS
 62
   110
100
AcDbLine
 10
149.281693
 20
18.950001
 30
0.0
 11
149.281693
 21
18.35
 31
0.0
  0
LINE
  5
1FC
100
AcDbEntity
  8
LY_3
390
0
  6
CONTINUOUS
 62
   110
100
AcDbLine
 10
152.281693
 20
18.950001
 30
0.0
 11
152.281693
 21
18.35
 31
0.0
  0
LINE
  5
1FD
100
AcDbEntity
  8
LY_3
390
0
  6
CONTINUOUS
 62
     3
100
AcDbLine
 10
154.281693
 20
21.0
 30
0.0
 11
146.781685
 21
21.0
 31
0.0
  0
LINE
  5
1FE
100
AcDbEntity
  8
LY_3
390
0
  6
CONTINUOUS
 62
     3
100
AcDbLine
 10
152.381691
 20
19.6
 30
0.0
 11
152.381691
 21
19.0
 31
0.0
  0
LINE
  5
1FF
100
AcDbEntity
  8
LY_3
390
0
  6
CONTINUOUS
 62
     3
100
AcDbLine
 10
156.781693
 20
-14.5
 30
0.0
 11
156.781693
 21
-4.0
 31
0.0
  0
LINE
  5
200
100
AcDbEntity
  8
LY_3
390
0
  6
CENTER
 62
   110
100
AcDbLine
 10
150.781693
 20
22.207977
 30
0.0
 11
150.781693
 21
11.371395
 31
0.0
  0
LINE
  5
201
100
AcDbEntity
  8
LY_3
390
0
  6
CONTINUOUS
 62
     3
100
AcDbLine
 10
153.781693
 20
16.550003
 30
0.0
 11
153.781693
 21
14.5
 31
0.0
  0
LINE
  5
202
100
AcDbEntity
  8
LY_3
390
0
  6
CONTINUOUS
 62
     3
100
AcDbLine
 10
147.781693
 20
19.0
 30
0.0
 11
147.781693
 21
17.049999
 31
0.0
  0
LINE
  5
203
100
AcDbEntity
  8
LY_3
390
0
  6
CONTINUOUS
 62
     3
100
AcDbLine
 10
147.781693
 20
19.0
 30
0.0
 11
149.581078
 21
19.0
 31
0.0
  0
LINE
  5
204
100
AcDbEntity
  8
LY_3
390
0
  6
CONTINUOUS
 62
     3
100
AcDbLine
 10
155.781671
 20
-12.500054
 30
0.0
 11
156.781678
 21
-13.50006
 31
0.0
  0
LINE
  5
205
100
AcDbEntity
  8
LY_3
390
0
  6
CONTINUOUS
 62
     3
100
AcDbLine
 10
156.181692
 20
-14.5
 30
0.0
 11
156.781693
 21
-14.5
 31
0.0
  0
LINE
  5
206
100
AcDbEntity
  8
LY_3
390
0
  6
CONTINUOUS
 62
     3
100
AcDbLine
 10
153.781693
 20
-16.550003
 30
0.0
 11
153.781693
 21
-14.5
 31
0.0
  0
LINE
  5
207
100
AcDbEntity
  8
LY_3
390
0
  6
CONTINUOUS
 62
     3
100
AcDbLine
 10
153.781693
 20
14.5
 30
0.0
 11
154.181692
 21
14.5
 31
0.0
  0
LINE
  5
208
100
AcDbEntity
  8
LY_3
390
0
  6
CONTINUOUS
 62
     3
100
AcDbLine
 10
156.781693
 20
14.5
 30
0.0
 11
156.781693
 21
4.0
 31
0.0
  0
LINE
  5
209
100
AcDbEntity
  8
LY_3
390
0
  6
CONTINUOUS
 62
     3
100
AcDbLine
 10
151.982307
 20
19.0
 30
0.0
 11
154.281693
 21
19.0
 31
0.0
  0
LINE
  5
20A
100
AcDbEntity
  8
LY_3
390
0
  6
CONTINUOUS
 62
     3
100
AcDbLine
 10
146.781697
 20
-20.999998
 30
0.0
 11
145.781696
 21
-19.999996
 31
0.0
  0
LINE
  5
20B
100
AcDbEntity
  8
LY_3
390
0
  6
CONTINUOUS
 62
     3
100
AcDbLine
 10
145.781693
 20
-20.0
 30
0.0
 11
145.781693
 21
-9.5
 31
0.0
  0
LINE
  5
20C
100
AcDbEntity
  8
LY_3
390
0
  6
CONTINUOUS
 62
     3
100
AcDbLine
 10
146.781693
 20
21.000003
 30
0.0
 11
145.781692
 21
20.000002
 31
0.0
  0
LINE
  5
20D
100
AcDbEntity
  8
LY_3
390
0
  6
CONTINUOUS
 62
     3
100
AcDbLine
 10
145.781693
 20
20.0
 30
0.0
 11
145.781693
 21
9.5
 31
0.0
  0
LINE
  5
20E
100
AcDbEntity
  8
LY_3
390
0
  6
CENTER
 62
   110
100
AcDbLine
 10
150.781693
 20
133.419022
 30
0.0
 11
150.781693
 21
126.554657
 31
0.0
  0
LINE
  5
20F
100
AcDbEntity
  8
LY_3
390
0
  6
CONTINUOUS
 62
     3
100
AcDbLine
 10
154.281692
 20
109.000002
 30
0.0
 11
154.781692
 21
109.500003
 31
0.0
  0
LINE
  5
210
100
AcDbEntity
  8
LY_3
390
0
  6
CONTINUOUS
 62
     3
100
AcDbLine
 10
154.781693
 20
150.5
 30
0.0
 11
154.781693
 21
109.5
 31
0.0
  0
LINE
  5
211
100
AcDbEntity
  8
LY_3
390
0
  6
CONTINUOUS
 62
     3
100
AcDbLine
 10
154.281696
 20
151.000002
 30
0.0
 11
154.781697
 21
150.500001
 31
0.0
  0
LINE
  5
212
100
AcDbEntity
  8
LY_3
390
0
  6
CONTINUOUS
 62
     3
100
AcDbLine
 10
146.781684
 20
151.000008
 30
0.0
 11
145.781683
 21
150.000006
 31
0.0
  0
LINE
  5
213
100
AcDbEntity
  8
LY_3
390
0
  6
CONTINUOUS
 62
     3
100
AcDbLine
 10
146.781693
 20
151.0
 30
0.0
 11
154.281693
 21
151.0
 31
0.0
  0
LINE
  5
214
100
AcDbEntity
  8
LY_3
390
0
  6
CONTINUOUS
 62
     3
100
AcDbLine
 10
145.781693
 20
150.0
 30
0.0
 11
145.781693
 21
110.0
 31
0.0
  0
LINE
  5
215
100
AcDbEntity
  8
LY_3
390
0
  6
CONTINUOUS
 62
     3
100
AcDbLine
 10
146.781692
 20
108.999993
 30
0.0
 11
145.781691
 21
109.999995
 31
0.0
  0
LINE
  5
216
100
AcDbEntity
  8
LY_3
390
0
  6
CONTINUOUS
 62
     3
100
AcDbLine
 10
146.781693
 20
109.0
 30
0.0
 11
154.281685
 21
109.0
 31
0.0
  0
LINE
  5
217
100
AcDbEntity
  8
LY_3
390
0
  6
CONTINUOUS
 62
   110
100
AcDbLine
 10
273.581696
 20
150.5
 30
0.0
 11
286.581696
 21
150.5
 31
0.0
  0
LINE
  5
218
100
AcDbEntity
  8
LY_3
390
0
  6
CONTINUOUS
 62
   110
100
AcDbLine
 10
273.581696
 20
151.0
 30
0.0
 11
286.581696
 21
151.0
 31
0.0
  0
LINE
  5
219
100
AcDbEntity
  8
LY_3
390
0
  6
CONTINUOUS
 62
   110
100
AcDbLine
 10
273.581696
 20
151.5
 30
0.0
 11
286.581696
 21
151.5
 31
0.0
  0
LINE
  5
21A
100
AcDbEntity
  8
LY_3
390
0
  6
CONTINUOUS
 62
   110
100
AcDbLine
 10
273.581696
 20
152.0
 30
0.0
 11
286.581696
 21
152.0
 31
0.0
  0
LINE
  5
21B
100
AcDbEntity
  8
LY_3
390
0
  6
CONTINUOUS
 62
   110
100
AcDbLine
 10
273.581696
 20
152.5
 30
0.0
 11
286.581696
 21
152.5
 31
0.0
  0
LINE
  5
21C
100
AcDbEntity
  8
LY_3
390
0
  6
CONTINUOUS
 62
   110
100
AcDbLine
 10
273.581696
 20
153.0
 30
0.0
 11
286.581696
 21
153.0
 31
0.0
  0
LINE
  5
21D
100
AcDbEntity
  8
LY_3
390
0
  6
CONTINUOUS
 62
   110
100
AcDbLine
 10
273.581696
 20
153.5
 30
0.0
 11
286.581696
 21
153.5
 31
0.0
  0
LINE
  5
21E
100
AcDbEntity
  8
LY_3
390
0
  6
CONTINUOUS
 62
   110
100
AcDbLine
 10
273.581696
 20
154.0
 30
0.0
 11
286.581696
 21
154.0
 31
0.0
  0
LINE
  5
21F
100
AcDbEntity
  8
LY_3
390
0
  6
CONTINUOUS
 62
   110
100
AcDbLine
 10
273.581696
 20
154.5
 30
0.0
 11
286.581696
 21
154.5
 31
0.0
  0
LINE
  5
220
100
AcDbEntity
  8
LY_3
390
0
  6
CONTINUOUS
 62
   110
100
AcDbLine
 10
273.581696
 20
155.0
 30
0.0
 11
286.581696
 21
155.0
 31
0.0
  0
LINE
  5
221
100
AcDbEntity
  8
LY_3
390
0
  6
CONTINUOUS
 62
     3
100
AcDbLine
 10
273.581696
 20
155.5
 30
0.0
 11
286.581696
 21
155.5
 31
0.0
  0
LINE
  5
222
100
AcDbEntity
  8
LY_3
390
0
  6
CONTINUOUS
 62
     3
100
AcDbLine
 10
287.081696
 20
155.0
 30
0.0
 11
287.081696
 21
105.0
 31
0.0
  0
LINE
  5
223
100
AcDbEntity
  8
LY_3
390
0
  6
CONTINUOUS
 62
     3
100
AcDbLine
 10
286.581696
 20
155.5
 30
0.0
 11
286.581696
 21
104.5
 31
0.0
  0
LINE
  5
224
100
AcDbEntity
  8
LY_3
390
0
  6
CONTINUOUS
 62
     3
100
AcDbLine
 10
273.081696
 20
155.0
 30
0.0
 11
273.081696
 21
105.0
 31
0.0
  0
LINE
  5
225
100
AcDbEntity
  8
LY_3
390
0
  6
CONTINUOUS
 62
     3
100
AcDbLine
 10
273.581696
 20
155.5
 30
0.0
 11
273.581696
 21
104.5
 31
0.0
  0
LINE
  5
226
100
AcDbEntity
  8
LY_3
390
0
  6
CONTINUOUS
 62
     3
100
AcDbLine
 10
273.581704
 20
155.500003
 30
0.0
 11
273.081703
 21
155.000003
 31
0.0
  0
LINE
  5
227
100
AcDbEntity
  8
LY_3
390
0
  6
CONTINUOUS
 62
     3
100
AcDbLine
 10
293.081696
 20
125.0
 30
0.0
 11
293.081696
 21
124.25
 31
0.0
  0
LINE
  5
228
100
AcDbEntity
  8
LY_3
390
0
  6
CONTINUOUS
 62
     3
100
AcDbLine
 10
316.081696
 20
135.0
 30
0.0
 11
316.081696
 21
125.0
 31
0.0
  0
LINE
  5
229
100
AcDbEntity
  8
LY_3
390
0
  6
CONTINUOUS
 62
     3
100
AcDbLine
 10
316.581699
 20
125.499996
 30
0.0
 11
316.081698
 21
124.999996
 31
0.0
  0
LINE
  5
22A
100
AcDbEntity
  8
LY_3
390
0
  6
CONTINUOUS
 62
     3
100
AcDbLine
 10
316.081704
 20
135.000001
 30
0.0
 11
316.581705
 21
134.500001
 31
0.0
  0
LINE
  5
22B
100
AcDbEntity
  8
LY_3
390
0
  6
CONTINUOUS
 62
     3
100
AcDbLine
 10
287.081696
 20
105.0
 30
0.0
 11
290.581696
 21
105.0
 31
0.0
  0
LINE
  5
22C
100
AcDbEntity
  8
LY_3
390
0
  6
CONTINUOUS
 62
     3
100
AcDbLine
 10
287.081696
 20
155.0
 30
0.0
 11
290.581696
 21
155.0
 31
0.0
  0
LINE
  5
22D
100
AcDbEntity
  8
LY_3
390
0
  6
CONTINUOUS
 62
     3
100
AcDbLine
 10
292.581696
 20
153.0
 30
0.0
 11
292.581696
 21
107.0
 31
0.0
  0
LINE
  5
22E
100
AcDbEntity
  8
LY_3
390
0
  6
CONTINUOUS
 62
     3
100
AcDbLine
 10
287.081697
 20
155.000003
 30
0.0
 11
286.581697
 21
155.500004
 31
0.0
  0
LINE
  5
22F
100
AcDbEntity
  8
LY_3
390
0
  6
CONTINUOUS
 62
     3
100
AcDbLine
 10
273.581694
 20
104.499997
 30
0.0
 11
273.081696
 21
104.999994
 31
0.0
  0
LINE
  5
230
100
AcDbEntity
  8
LY_3
390
0
  6
CONTINUOUS
 62
     3
100
AcDbLine
 10
267.581696
 20
105.0
 30
0.0
 11
273.081696
 21
105.0
 31
0.0
  0
LINE
  5
231
100
AcDbEntity
  8
LY_3
390
0
  6
CONTINUOUS
 62
     3
100
AcDbLine
 10
287.081703
 20
105.000002
 30
0.0
 11
286.581703
 21
104.500001
 31
0.0
  0
LINE
  5
232
100
AcDbEntity
  8
LY_3
390
0
  6
CONTINUOUS
 62
     3
100
AcDbLine
 10
273.581696
 20
104.5
 30
0.0
 11
286.581696
 21
104.5
 31
0.0
  0
LINE
  5
233
100
AcDbEntity
  8
LY_3
390
0
  6
CONTINUOUS
 62
     3
100
AcDbLine
 10
316.581696
 20
134.5
 30
0.0
 11
316.581696
 21
125.5
 31
0.0
  0
LINE
  5
234
100
AcDbEntity
  8
LY_3
390
0
  6
CONTINUOUS
 62
     3
100
AcDbLine
 10
292.581696
 20
135.0
 30
0.0
 11
316.081696
 21
135.0
 31
0.0
  0
LINE
  5
235
100
AcDbEntity
  8
LY_3
390
0
  6
CONTINUOUS
 62
     3
100
AcDbLine
 10
292.581696
 20
125.0
 30
0.0
 11
316.081696
 21
125.0
 31
0.0
  0
LINE
  5
236
100
AcDbEntity
  8
LY_3
390
0
  6
CONTINUOUS
 62
     3
100
AcDbLine
 10
293.081696
 20
135.75
 30
0.0
 11
293.081696
 21
135.0
 31
0.0
  0
LINE
  5
237
100
AcDbEntity
  8
LY_3
390
0
  6
CENTER
 62
   110
100
AcDbLine
 10
270.581696
 20
134.5
 30
0.0
 11
270.581696
 21
125.5
 31
0.0
  0
LINE
  5
238
100
AcDbEntity
  8
LY_3
390
0
  6
CONTINUOUS
 62
     3
100
AcDbLine
 10
267.581696
 20
155.0
 30
0.0
 11
267.581696
 21
105.0
 31
0.0
  0
LINE
  5
239
100
AcDbEntity
  8
LY_3
390
0
  6
CONTINUOUS
 62
     3
100
AcDbLine
 10
266.581665
 20
105.999961
 30
0.0
 11
267.581666
 21
104.999959
 31
0.0
  0
LINE
  5
23A
100
AcDbEntity
  8
LY_3
390
0
  6
CONTINUOUS
 62
     3
100
AcDbLine
 10
266.581704
 20
153.999972
 30
0.0
 11
267.581705
 21
154.999973
 31
0.0
  0
LINE
  5
23B
100
AcDbEntity
  8
LY_3
390
0
  6
CONTINUOUS
 62
     3
100
AcDbLine
 10
266.581696
 20
154.0
 30
0.0
 11
266.581696
 21
106.0
 31
0.0
  0
LINE
  5
23C
100
AcDbEntity
  8
LY_3
390
0
  6
CONTINUOUS
 62
     3
100
AcDbLine
 10
267.581696
 20
155.0
 30
0.0
 11
273.081696
 21
155.0
 31
0.0
  0
LINE
  5
23D
100
AcDbEntity
  8
LY_3
390
0
  6
CONTINUOUS
 62
     3
100
AcDbLine
 10
292.581696
 20
11.999996
 30
0.0
 11
316.081696
 21
11.999996
 31
0.0
  0
LINE
  5
23E
100
AcDbEntity
  8
LY_3
390
0
  6
CONTINUOUS
 62
     3
100
AcDbLine
 10
292.581696
 20
21.999996
 30
0.0
 11
316.081696
 21
21.999996
 31
0.0
  0
LINE
  5
23F
100
AcDbEntity
  8
LY_3
390
0
  6
CONTINUOUS
 62
     3
100
AcDbLine
 10
316.581696
 20
12.499996
 30
0.0
 11
316.581696
 21
21.499996
 31
0.0
  0
LINE
  5
240
100
AcDbEntity
  8
LY_3
390
0
  6
CONTINUOUS
 62
     3
100
AcDbLine
 10
292.581696
 20
-22.5
 30
0.0
 11
292.581696
 21
22.5
 31
0.0
  0
LINE
  5
241
100
AcDbEntity
  8
LY_3
390
0
  6
CENTER
 62
   110
100
AcDbLine
 10
280.06456
 20
16.999996
 30
0.0
 11
324.229187
 21
16.999996
 31
0.0
  0
LINE
  5
242
100
AcDbEntity
  8
LY_3
390
0
  6
CONTINUOUS
 62
     3
100
AcDbLine
 10
293.081696
 20
-5.75
 30
0.0
 11
293.081696
 21
5.75
 31
0.0
  0
LINE
  5
243
100
AcDbEntity
  8
LY_3
390
0
  6
CONTINUOUS
 62
     3
100
AcDbLine
 10
127.781693
 20
139.0
 30
0.0
 11
127.781693
 21
121.0
 31
0.0
  0
LINE
  5
244
100
AcDbEntity
  8
LY_3
390
0
  6
CONTINUOUS
 62
     3
100
AcDbLine
 10
125.781693
 20
139.0
 30
0.0
 11
125.781693
 21
121.0
 31
0.0
  0
LINE
  5
245
100
AcDbEntity
  8
LY_3
390
0
  6
CONTINUOUS
 62
     3
100
AcDbLine
 10
127.781693
 20
121.0
 30
0.0
 11
145.281693
 21
121.0
 31
0.0
  0
LINE
  5
246
100
AcDbEntity
  8
LY_3
390
0
  6
CONTINUOUS
 62
     3
100
AcDbLine
 10
124.781693
 20
121.0
 30
0.0
 11
125.781693
 21
121.0
 31
0.0
  0
LINE
  5
247
100
AcDbEntity
  8
LY_3
390
0
  6
CONTINUOUS
 62
     3
100
AcDbLine
 10
127.781693
 20
139.0
 30
0.0
 11
145.281693
 21
139.0
 31
0.0
  0
LINE
  5
248
100
AcDbEntity
  8
LY_3
390
0
  6
CONTINUOUS
 62
     3
100
AcDbLine
 10
124.781693
 20
139.0
 30
0.0
 11
125.781693
 21
139.0
 31
0.0
  0
LINE
  5
249
100
AcDbEntity
  8
LY_3
390
0
  6
CONTINUOUS
 62
     3
100
AcDbLine
 10
123.781693
 20
-6.5
 30
0.0
 11
155.781693
 21
-6.5
 31
0.0
  0
LINE
  5
24A
100
AcDbEntity
  8
LY_3
390
0
  6
CONTINUOUS
 62
     3
100
AcDbLine
 10
127.781693
 20
-9.0
 30
0.0
 11
145.281693
 21
-9.0
 31
0.0
  0
LINE
  5
24B
100
AcDbEntity
  8
LY_3
390
0
  6
CONTINUOUS
 62
     3
100
AcDbLine
 10
124.781693
 20
-9.0
 30
0.0
 11
125.781693
 21
-9.0
 31
0.0
  0
LINE
  5
24C
100
AcDbEntity
  8
LY_3
390
0
  6
CONTINUOUS
 62
     3
100
AcDbLine
 10
124.781693
 20
-9.0
 30
0.0
 11
124.781693
 21
-7.5
 31
0.0
  0
LINE
  5
24D
100
AcDbEntity
  8
LY_3
390
0
  6
CONTINUOUS
 62
     3
100
AcDbLine
 10
123.781693
 20
-7.5
 30
0.0
 11
124.781693
 21
-7.5
 31
0.0
  0
LINE
  5
24E
100
AcDbEntity
  8
LY_3
390
0
  6
CONTINUOUS
 62
     3
100
AcDbLine
 10
123.781693
 20
-7.5
 30
0.0
 11
123.781693
 21
-4.0
 31
0.0
  0
LINE
  5
24F
100
AcDbEntity
  8
LY_3
390
0
  6
CONTINUOUS
 62
     3
100
AcDbLine
 10
127.781693
 20
9.0
 30
0.0
 11
145.281693
 21
9.0
 31
0.0
  0
LINE
  5
250
100
AcDbEntity
  8
LY_3
390
0
  6
CONTINUOUS
 62
     3
100
AcDbLine
 10
123.781693
 20
7.5
 30
0.0
 11
124.781693
 21
7.5
 31
0.0
  0
LINE
  5
251
100
AcDbEntity
  8
LY_3
390
0
  6
CONTINUOUS
 62
     3
100
AcDbLine
 10
124.781693
 20
9.0
 30
0.0
 11
124.781693
 21
7.5
 31
0.0
  0
LINE
  5
252
100
AcDbEntity
  8
LY_3
390
0
  6
CONTINUOUS
 62
     3
100
AcDbLine
 10
124.781693
 20
9.0
 30
0.0
 11
125.781693
 21
9.0
 31
0.0
  0
LINE
  5
253
100
AcDbEntity
  8
LY_3
390
0
  6
CONTINUOUS
 62
     3
100
AcDbLine
 10
123.781693
 20
7.5
 30
0.0
 11
123.781693
 21
4.0
 31
0.0
  0
LINE
  5
254
100
AcDbEntity
  8
LY_3
390
0
  6
CONTINUOUS
 62
     3
100
AcDbLine
 10
160.781714
 20
14.5
 30
0.0
 11
161.281714
 21
7.000001
 31
0.0
  0
LINE
  5
255
100
AcDbEntity
  8
LY_3
390
0
  6
CONTINUOUS
 62
     3
100
AcDbLine
 10
161.281655
 20
7.00001
 30
0.0
 11
161.781659
 21
14.500009
 31
0.0
  0
LINE
  5
256
100
AcDbEntity
  8
LY_3
390
0
  6
CONTINUOUS
 62
     3
100
AcDbLine
 10
161.781726
 20
14.500002
 30
0.0
 11
162.281726
 21
6.999996
 31
0.0
  0
LINE
  5
257
100
AcDbEntity
  8
LY_3
390
0
  6
CONTINUOUS
 62
     3
100
AcDbLine
 10
162.281696
 20
7.000001
 30
0.0
 11
162.781697
 21
14.500004
 31
0.0
  0
LINE
  5
258
100
AcDbEntity
  8
LY_3
390
0
  6
CONTINUOUS
 62
     3
100
AcDbLine
 10
163.781742
 20
14.499992
 30
0.0
 11
163.281742
 21
6.999992
 31
0.0
  0
LINE
  5
259
100
AcDbEntity
  8
LY_3
390
0
  6
CONTINUOUS
 62
     3
100
AcDbLine
 10
163.28173
 20
6.999999
 30
0.0
 11
162.781729
 21
14.500002
 31
0.0
  0
LINE
  5
25A
100
AcDbEntity
  8
LY_3
390
0
  6
CONTINUOUS
 62
     3
100
AcDbLine
 10
164.281722
 20
7.000004
 30
0.0
 11
163.781721
 21
14.500011
 31
0.0
  0
LINE
  5
25B
100
AcDbEntity
  8
LY_3
390
0
  6
CONTINUOUS
 62
     3
100
AcDbLine
 10
164.781711
 20
14.500011
 30
0.0
 11
164.281711
 21
7.000004
 31
0.0
  0
LINE
  5
25C
100
AcDbEntity
  8
LY_3
390
0
  6
CONTINUOUS
 62
     3
100
AcDbLine
 10
160.781735
 20
-14.499998
 30
0.0
 11
161.281735
 21
-6.999992
 31
0.0
  0
LINE
  5
25D
100
AcDbEntity
  8
LY_3
390
0
  6
CONTINUOUS
 62
     3
100
AcDbLine
 10
161.281736
 20
-6.999989
 30
0.0
 11
161.781728
 21
-14.499981
 31
0.0
  0
LINE
  5
25E
100
AcDbEntity
  8
LY_3
390
0
  6
CONTINUOUS
 62
     3
100
AcDbLine
 10
161.781724
 20
-14.499994
 30
0.0
 11
162.281724
 21
-6.999991
 31
0.0
  0
LINE
  5
25F
100
AcDbEntity
  8
LY_3
390
0
  6
CONTINUOUS
 62
     3
100
AcDbLine
 10
162.281707
 20
-6.999995
 30
0.0
 11
162.781708
 21
-14.499994
 31
0.0
  0
LINE
  5
260
100
AcDbEntity
  8
LY_3
390
0
  6
CONTINUOUS
 62
     3
100
AcDbLine
 10
163.281722
 20
-7.0
 30
0.0
 11
162.781722
 21
-14.5
 31
0.0
  0
LINE
  5
261
100
AcDbEntity
  8
LY_3
390
0
  6
CONTINUOUS
 62
     3
100
AcDbLine
 10
163.781703
 20
-14.499996
 30
0.0
 11
163.281703
 21
-6.999997
 31
0.0
  0
LINE
  5
262
100
AcDbEntity
  8
LY_3
390
0
  6
CONTINUOUS
 62
     3
100
AcDbLine
 10
164.281716
 20
-6.999989
 30
0.0
 11
163.781724
 21
-14.499989
 31
0.0
  0
LINE
  5
263
100
AcDbEntity
  8
LY_3
390
0
  6
CONTINUOUS
 62
     3
100
AcDbLine
 10
164.78171
 20
-14.500005
 30
0.0
 11
164.28171
 21
-7.000006
 31
0.0
  0
LINE
  5
265
100
AcDbEntity
  8
LY_3
390
0
  6
PHANTOM
 62
   110
100
AcDbLine
 10
184.581696
 20
134.0
 30
0.0
 11
184.581696
 21
126.0
 31
0.0
  0
LINE
  5
266
100
AcDbEntity
  8
LY_3
390
0
  6
PHANTOM
 62
   110
100
AcDbLine
 10
185.581696
 20
134.0
 30
0.0
 11
185.581696
 21
126.0
 31
0.0
  0
LINE
  5
267
100
AcDbEntity
  8
LY_3
390
0
  6
PHANTOM
 62
   110
100
AcDbLine
 10
186.581696
 20
134.0
 30
0.0
 11
186.581696
 21
126.0
 31
0.0
  0
LINE
  5
268
100
AcDbEntity
  8
LY_3
390
0
  6
CONTINUOUS
 62
     3
100
AcDbLine
 10
119.98172
 20
146.899994
 30
0.0
 11
119.98172
 21
113.099998
 31
0.0
  0
LINE
  5
269
100
AcDbEntity
  8
LY_3
390
0
  6
CONTINUOUS
 62
     3
100
AcDbLine
 10
114.381714
 20
146.899994
 30
0.0
 11
114.381714
 21
113.099998
 31
0.0
  0
LINE
  5
26A
100
AcDbEntity
  8
LY_3
390
0
  6
CONTINUOUS
 62
     3
100
AcDbLine
 10
243.391243
 20
130.1875
 30
0.0
 11
244.081696
 21
130.1875
 31
0.0
  0
LINE
  5
26B
100
AcDbEntity
  8
LY_3
390
0
  6
CONTINUOUS
 62
     3
100
AcDbLine
 10
243.391243
 20
129.8125
 30
0.0
 11
244.081696
 21
129.8125
 31
0.0
  0
LINE
  5
26C
100
AcDbEntity
  8
LY_3
390
0
  6
CONTINUOUS
 62
     3
100
AcDbLine
 10
242.769196
 20
129.19046
 30
0.0
 11
242.769196
 21
128.5
 31
0.0
  0
LINE
  5
26D
100
AcDbEntity
  8
LY_3
390
0
  6
CONTINUOUS
 62
     3
100
AcDbLine
 10
242.394196
 20
129.19046
 30
0.0
 11
242.394196
 21
128.5
 31
0.0
  0
LINE
  5
26E
100
AcDbEntity
  8
LY_3
390
0
  6
CONTINUOUS
 62
     3
100
AcDbLine
 10
241.081696
 20
130.1875
 30
0.0
 11
241.772156
 21
130.1875
 31
0.0
  0
LINE
  5
26F
100
AcDbEntity
  8
LY_3
390
0
  6
CONTINUOUS
 62
     3
100
AcDbLine
 10
241.081696
 20
129.8125
 30
0.0
 11
241.772156
 21
129.8125
 31
0.0
  0
LINE
  5
270
100
AcDbEntity
  8
LY_3
390
0
  6
CONTINUOUS
 62
     3
100
AcDbLine
 10
242.394196
 20
131.5
 30
0.0
 11
242.394196
 21
130.80954
 31
0.0
  0
LINE
  5
271
100
AcDbEntity
  8
LY_3
390
0
  6
CONTINUOUS
 62
     3
100
AcDbLine
 10
242.769196
 20
131.5
 30
0.0
 11
242.769196
 21
130.80954
 31
0.0
  0
LINE
  5
272
100
AcDbEntity
  8
LY_3
390
0
  6
CONTINUOUS
 62
     3
100
AcDbLine
 10
241.081696
 20
130.1875
 30
0.0
 11
241.081696
 21
129.8125
 31
0.0
  0
LINE
  5
273
100
AcDbEntity
  8
LY_3
390
0
  6
CONTINUOUS
 62
     3
100
AcDbLine
 10
244.081696
 20
130.1875
 30
0.0
 11
244.081696
 21
129.8125
 31
0.0
  0
LINE
  5
274
100
AcDbEntity
  8
LY_3
390
0
  6
CONTINUOUS
 62
     3
100
AcDbLine
 10
242.394196
 20
128.5
 30
0.0
 11
242.769196
 21
128.5
 31
0.0
  0
LINE
  5
275
100
AcDbEntity
  8
LY_3
390
0
  6
CONTINUOUS
 62
     3
100
AcDbLine
 10
242.394196
 20
131.5
 30
0.0
 11
242.769196
 21
131.5
 31
0.0
  0
LINE
  5
276
100
AcDbEntity
  8
LY_3
390
0
  6
CONTINUOUS
 62
     3
100
AcDbLine
 10
179.581696
 20
126.0
 30
0.0
 11
241.581696
 21
126.0
 31
0.0
  0
LINE
  5
277
100
AcDbEntity
  8
LY_3
390
0
  6
CONTINUOUS
 62
     3
100
AcDbLine
 10
179.581696
 20
134.0
 30
0.0
 11
241.581696
 21
134.0
 31
0.0
  0
LINE
  5
278
100
AcDbEntity
  8
LY_3
390
0
  6
CONTINUOUS
 62
     3
100
AcDbLine
 10
80.581711
 20
134.0
 30
0.0
 11
80.581711
 21
126.0
 31
0.0
  0
LINE
  5
279
100
AcDbEntity
  8
LY_3
390
0
  6
CONTINUOUS
 62
     3
100
AcDbLine
 10
79.581699
 20
127.000011
 30
0.0
 11
80.5817
 21
126.00001
 31
0.0
  0
LINE
  5
27A
100
AcDbEntity
  8
LY_3
390
0
  6
CONTINUOUS
 62
     3
100
AcDbLine
 10
79.581789
 20
132.999903
 30
0.0
 11
80.58179
 21
133.999904
 31
0.0
  0
LINE
  5
27B
100
AcDbEntity
  8
LY_3
390
0
  6
CONTINUOUS
 62
   110
100
AcDbLine
 10
64.581692
 20
131.999986
 30
0.0
 11
79.581702
 21
127.999983
 31
0.0
  0
LINE
  5
27C
100
AcDbEntity
  8
LY_3
390
0
  6
CONTINUOUS
 62
   110
100
AcDbLine
 10
64.581703
 20
127.999932
 30
0.0
 11
79.581713
 21
131.999935
 31
0.0
  0
LINE
  5
27D
100
AcDbEntity
  8
LY_3
390
0
  6
CONTINUOUS
 62
     3
100
AcDbLine
 10
64.581696
 20
133.0
 30
0.0
 11
64.581696
 21
127.0
 31
0.0
  0
LINE
  5
27E
100
AcDbEntity
  8
LY_3
390
0
  6
CONTINUOUS
 62
     3
100
AcDbLine
 10
63.58171
 20
128.000019
 30
0.0
 11
64.581711
 21
127.000018
 31
0.0
  0
LINE
  5
27F
100
AcDbEntity
  8
LY_3
390
0
  6
CONTINUOUS
 62
     3
100
AcDbLine
 10
63.581773
 20
131.999914
 30
0.0
 11
64.581774
 21
132.999915
 31
0.0
  0
LINE
  5
280
100
AcDbEntity
  8
LY_3
390
0
  6
CONTINUOUS
 62
   110
100
AcDbLine
 10
117.781699
 20
7.549977
 30
0.0
 11
123.408482
 21
4.22079
 31
0.0
  0
LINE
  5
281
100
AcDbEntity
  8
LY_3
390
0
  6
CONTINUOUS
 62
   110
100
AcDbLine
 10
118.154895
 20
4.220825
 30
0.0
 11
123.781692
 21
7.55002
 31
0.0
  0
LINE
  5
282
100
AcDbEntity
  8
LY_3
390
0
  6
CONTINUOUS
 62
   110
100
AcDbLine
 10
118.154916
 20
-4.220847
 30
0.0
 11
123.781699
 21
-7.550034
 31
0.0
  0
LINE
  5
283
100
AcDbEntity
  8
LY_3
390
0
  6
CONTINUOUS
 62
   110
100
AcDbLine
 10
117.781689
 20
-7.549997
 30
0.0
 11
123.408472
 21
-4.22081
 31
0.0
  0
LINE
  5
284
100
AcDbEntity
  8
LY_3
390
0
  6
CONTINUOUS
 62
     3
100
AcDbLine
 10
159.281731
 20
6.999998
 30
0.0
 11
158.78173
 21
14.500005
 31
0.0
  0
LINE
  5
285
100
AcDbEntity
  8
LY_3
390
0
  6
CONTINUOUS
 62
     3
100
AcDbLine
 10
159.781712
 20
14.499994
 30
0.0
 11
159.281711
 21
6.999988
 31
0.0
  0
LINE
  5
286
100
AcDbEntity
  8
LY_3
390
0
  6
CONTINUOUS
 62
     3
100
AcDbLine
 10
160.281722
 20
7.000003
 30
0.0
 11
159.781722
 21
14.50001
 31
0.0
  0
LINE
  5
287
100
AcDbEntity
  8
LY_3
390
0
  6
CONTINUOUS
 62
     3
100
AcDbLine
 10
160.781728
 20
14.499999
 30
0.0
 11
160.281728
 21
7.0
 31
0.0
  0
LINE
  5
288
100
AcDbEntity
  8
LY_3
390
0
  6
CONTINUOUS
 62
     3
100
AcDbLine
 10
159.281709
 20
-6.999995
 30
0.0
 11
158.781709
 21
-14.499998
 31
0.0
  0
LINE
  5
289
100
AcDbEntity
  8
LY_3
390
0
  6
CONTINUOUS
 62
     3
100
AcDbLine
 10
159.781696
 20
-14.499998
 30
0.0
 11
159.281696
 21
-6.999999
 31
0.0
  0
LINE
  5
28A
100
AcDbEntity
  8
LY_3
390
0
  6
CONTINUOUS
 62
     3
100
AcDbLine
 10
160.281711
 20
-6.999988
 30
0.0
 11
159.781719
 21
-14.499988
 31
0.0
  0
LINE
  5
28B
100
AcDbEntity
  8
LY_3
390
0
  6
CONTINUOUS
 62
     3
100
AcDbLine
 10
160.781727
 20
-14.500005
 30
0.0
 11
160.281726
 21
-6.999998
 31
0.0
  0
LINE
  5
28C
100
AcDbEntity
  8
LY_3
390
0
  6
CONTINUOUS
 62
     3
100
AcDbLine
 10
80.581696
 20
4.0
 30
0.0
 11
80.581696
 21
-4.0
 31
0.0
  0
LINE
  5
28D
100
AcDbEntity
  8
LY_3
390
0
  6
CONTINUOUS
 62
     3
100
AcDbLine
 10
64.581711
 20
2.0
 30
0.0
 11
64.581711
 21
-3.0
 31
0.0
  0
LINE
  5
28E
100
AcDbEntity
  8
LY_3
390
0
  6
CONTINUOUS
 62
     3
100
AcDbLine
 10
79.581699
 20
2.999987
 30
0.0
 11
80.5817
 21
3.999988
 31
0.0
  0
LINE
  5
28F
100
AcDbEntity
  8
LY_3
390
0
  6
CONTINUOUS
 62
     3
100
AcDbLine
 10
79.581831
 20
-2.999854
 30
0.0
 11
80.581814
 21
-3.999852
 31
0.0
  0
LINE
  5
290
100
AcDbEntity
  8
LY_3
390
0
  6
CONTINUOUS
 62
     3
100
AcDbLine
 10
63.581734
 20
-1.999942
 30
0.0
 11
64.581735
 21
-2.999943
 31
0.0
  0
LINE
  5
291
100
AcDbEntity
  8
LY_3
390
0
  6
CONTINUOUS
 62
     3
100
AcDbLine
 10
156.781707
 20
-14.500001
 30
0.0
 11
157.281707
 21
-7.000002
 31
0.0
  0
LINE
  5
292
100
AcDbEntity
  8
LY_3
390
0
  6
CONTINUOUS
 62
     3
100
AcDbLine
 10
157.281743
 20
-6.999993
 30
0.0
 11
157.781741
 21
-14.499993
 31
0.0
  0
LINE
  5
293
100
AcDbEntity
  8
LY_3
390
0
  6
CONTINUOUS
 62
     3
100
AcDbLine
 10
157.781725
 20
-14.499993
 30
0.0
 11
158.281725
 21
-6.99999
 31
0.0
  0
LINE
  5
294
100
AcDbEntity
  8
LY_3
390
0
  6
CONTINUOUS
 62
     3
100
AcDbLine
 10
158.281713
 20
-7.000007
 30
0.0
 11
158.781714
 21
-14.50001
 31
0.0
  0
LINE
  5
295
100
AcDbEntity
  8
LY_3
390
0
  6
CONTINUOUS
 62
     3
100
AcDbLine
 10
158.281698
 20
6.999998
 30
0.0
 11
158.781698
 21
14.499997
 31
0.0
  0
LINE
  5
296
100
AcDbEntity
  8
LY_3
390
0
  6
CONTINUOUS
 62
     3
100
AcDbLine
 10
157.781707
 20
14.500001
 30
0.0
 11
158.281707
 21
6.999998
 31
0.0
  0
LINE
  5
297
100
AcDbEntity
  8
LY_3
390
0
  6
CONTINUOUS
 62
     3
100
AcDbLine
 10
157.281714
 20
7.000007
 30
0.0
 11
157.781714
 21
14.500006
 31
0.0
  0
LINE
  5
298
100
AcDbEntity
  8
LY_3
390
0
  6
CONTINUOUS
 62
     3
100
AcDbLine
 10
156.781716
 20
14.499999
 30
0.0
 11
157.281716
 21
7.0
 31
0.0
  0
LINE
  5
299
100
AcDbEntity
  8
LY_3
390
0
  6
PHANTOM
 62
   110
100
AcDbLine
 10
164.281708
 20
-7.000053
 30
0.0
 11
170.512018
 21
-7.000053
 31
0.0
  0
LINE
  5
29A
100
AcDbEntity
  8
LY_3
390
0
  6
PHANTOM
 62
   110
100
AcDbLine
 10
164.281708
 20
6.999962
 30
0.0
 11
173.196516
 21
6.999962
 31
0.0
  0
LINE
  5
29B
100
AcDbEntity
  8
LY_3
390
0
  6
PHANTOM
 62
   110
100
AcDbLine
 10
164.781708
 20
-14.500038
 30
0.0
 11
171.247673
 21
-14.500038
 31
0.0
  0
LINE
  5
29C
100
AcDbEntity
  8
LY_3
390
0
  6
PHANTOM
 62
   110
100
AcDbLine
 10
164.781708
 20
14.499969
 30
0.0
 11
172.742174
 21
14.499969
 31
0.0
  0
LINE
  5
29D
100
AcDbEntity
  8
LY_3
390
0
  6
CONTINUOUS
 62
     3
100
AcDbLine
 10
1.246658
 20
-4.959804
 30
0.0
 11
2.504662
 21
-7.138729
 31
0.0
  0
LINE
  5
29E
100
AcDbEntity
  8
LY_3
390
0
  6
CONTINUOUS
 62
     3
100
AcDbLine
 10
-2.539722
 20
-7.198731
 30
0.0
 11
-1.246959
 21
-4.9596
 31
0.0
  0
LINE
  5
29F
100
AcDbEntity
  8
LY_3
390
0
  6
CONTINUOUS
 62
     3
100
AcDbLine
 10
-2.236069
 20
2.0
 30
0.0
 11
2.236069
 21
2.0
 31
0.0
  0
LINE
  5
2A0
100
AcDbEntity
  8
LY_3
390
0
  6
CONTINUOUS
 62
     3
100
AcDbLine
 10
0.5
 20
-10.689201
 30
0.0
 11
0.5
 21
-16.892601
 31
0.0
  0
LINE
  5
2A1
100
AcDbEntity
  8
LY_3
390
0
  6
CONTINUOUS
 62
     3
100
AcDbLine
 10
-0.5
 20
-10.687386
 30
0.0
 11
-0.5
 21
-16.892601
 31
0.0
  0
LINE
  5
2A2
100
AcDbEntity
  8
LY_3
390
0
  6
CONTINUOUS
 62
     3
100
AcDbLine
 10
-0.5
 20
16.892601
 30
0.0
 11
-0.5
 21
10.687386
 31
0.0
  0
LINE
  5
2A3
100
AcDbEntity
  8
LY_3
390
0
  6
CONTINUOUS
 62
     3
100
AcDbLine
 10
0.5
 20
16.892601
 30
0.0
 11
0.5
 21
10.689201
 31
0.0
  0
LINE
  5
2A4
100
AcDbEntity
  8
LY_3
390
0
  6
CENTER
 62
   110
100
AcDbLine
 10
8.350317
 20
-14.462381
 30
0.0
 11
5.15032
 21
-8.919824
 31
0.0
  0
LINE
  5
2A5
100
AcDbEntity
  8
LY_3
390
0
  6
CENTER
 62
   110
100
AcDbLine
 10
-8.350055
 20
-14.462565
 30
0.0
 11
-5.150058
 21
-8.920008
 31
0.0
  0
LINE
  5
2A6
100
AcDbEntity
  8
LY_3
390
0
  6
CENTER
 62
   110
100
AcDbLine
 10
8.349936
 20
14.462664
 30
0.0
 11
5.149946
 21
8.92012
 31
0.0
  0
LINE
  5
2A7
100
AcDbEntity
  8
LY_3
390
0
  6
CENTER
 62
   110
100
AcDbLine
 10
-8.350163
 20
14.462517
 30
0.0
 11
-5.150158
 21
8.919946
 31
0.0
  0
LINE
  5
2A8
100
AcDbEntity
  8
LY_3
390
0
  6
CENTER
 62
   110
100
AcDbLine
 10
0.0
 20
21.900002
 30
0.0
 11
0.0
 21
-21.900002
 31
0.0
  0
LINE
  5
2A9
100
AcDbEntity
  8
LY_3
390
0
  6
CENTER
 62
   110
100
AcDbLine
 10
-21.899994
 20
0.0
 30
0.0
 11
21.899994
 21
0.0
 31
0.0
  0
LINE
  5
2AA
100
AcDbEntity
  8
LY_3
390
0
  6
CONTINUOUS
 62
   110
100
AcDbLine
 10
235.581696
 20
134.0
 30
0.0
 11
235.581696
 21
126.0
 31
0.0
  0
LINE
  5
2AB
100
AcDbEntity
  8
LY_3
390
0
  6
CONTINUOUS
 62
     3
100
AcDbLine
 10
236.581696
 20
134.0
 30
0.0
 11
236.581696
 21
126.0
 31
0.0
  0
LINE
  5
2AC
100
AcDbEntity
  8
LY_3
390
0
  6
CONTINUOUS
 62
     3
100
AcDbLine
 10
234.581696
 20
134.0
 30
0.0
 11
234.581696
 21
126.0
 31
0.0
  0
LINE
  5
2AD
100
AcDbEntity
  8
LY_3
390
0
  6
CONTINUOUS
 62
     3
100
AcDbLine
 10
265.581696
 20
152.000275
 30
0.0
 11
266.581696
 21
152.000275
 31
0.0
  0
LINE
  5
2AE
100
AcDbEntity
  8
LY_3
390
0
  6
CONTINUOUS
 62
     3
100
AcDbLine
 10
254.581675
 20
151.038032
 30
0.0
 11
265.581673
 21
152.000407
 31
0.0
  0
LINE
  5
2AF
100
AcDbEntity
  8
LY_3
390
0
  6
CONTINUOUS
 62
   110
100
AcDbLine
 10
254.581696
 20
150.674698
 30
0.0
 11
258.581696
 21
150.674698
 31
0.0
  0
LINE
  5
2B0
100
AcDbEntity
  8
LY_3
390
0
  6
CONTINUOUS
 62
   110
100
AcDbLine
 10
254.581696
 20
142.931
 30
0.0
 11
258.581696
 21
142.931
 31
0.0
  0
LINE
  5
2B1
100
AcDbEntity
  8
LY_3
390
0
  6
CONTINUOUS
 62
     3
100
AcDbLine
 10
254.581696
 20
108.962639
 30
0.0
 11
254.581696
 21
151.037903
 31
0.0
  0
LINE
  5
2B2
100
AcDbEntity
  8
LY_3
390
0
  6
CONTINUOUS
 62
     3
100
AcDbLine
 10
265.581696
 20
108.000267
 30
0.0
 11
266.581696
 21
108.000267
 31
0.0
  0
LINE
  5
2B3
100
AcDbEntity
  8
LY_3
390
0
  6
CONTINUOUS
 62
     3
100
AcDbLine
 10
254.581683
 20
108.962635
 30
0.0
 11
265.581672
 21
108.000264
 31
0.0
  0
LINE
  5
2B4
100
AcDbEntity
  8
LY_3
390
0
  6
CONTINUOUS
 62
   110
100
AcDbLine
 10
254.581696
 20
109.327026
 30
0.0
 11
258.581696
 21
109.327026
 31
0.0
  0
LINE
  5
2B5
100
AcDbEntity
  8
LY_3
390
0
  6
CONTINUOUS
 62
   110
100
AcDbLine
 10
254.581696
 20
129.999985
 30
0.0
 11
258.581696
 21
129.999985
 31
0.0
  0
LINE
  5
2B6
100
AcDbEntity
  8
LY_3
390
0
  6
CONTINUOUS
 62
     3
100
AcDbLine
 10
250.581696
 20
130.0
 30
0.0
 11
253.581696
 21
130.0
 31
0.0
  0
LINE
  5
2B7
100
AcDbEntity
  8
LY_3
390
0
  6
CENTER
 62
   110
100
AcDbLine
 10
253.281693
 20
130.0
 30
0.0
 11
259.481987
 21
130.0
 31
0.0
  0
LINE
  5
2B8
100
AcDbEntity
  8
LY_3
390
0
  6
CONTINUOUS
 62
   110
100
AcDbLine
 10
185.581696
 20
126.0
 30
0.0
 11
185.581696
 21
122.0
 31
0.0
  0
LINE
  5
2B9
100
AcDbEntity
  8
LY_3
390
0
  6
CONTINUOUS
 62
   110
100
AcDbLine
 10
186.581696
 20
126.0
 30
0.0
 11
186.581696
 21
124.0
 31
0.0
  0
LINE
  5
2BA
100
AcDbEntity
  8
LY_3
390
0
  6
CONTINUOUS
 62
   110
100
AcDbLine
 10
187.581696
 20
126.0
 30
0.0
 11
187.581696
 21
124.0
 31
0.0
  0
LINE
  5
2BB
100
AcDbEntity
  8
LY_3
390
0
  6
CONTINUOUS
 62
   110
100
AcDbLine
 10
188.581696
 20
126.0
 30
0.0
 11
188.581696
 21
124.0
 31
0.0
  0
LINE
  5
2BC
100
AcDbEntity
  8
LY_3
390
0
  6
CONTINUOUS
 62
   110
100
AcDbLine
 10
189.581699
 20
126.0
 30
0.0
 11
189.581699
 21
124.0
 31
0.0
  0
LINE
  5
2BD
100
AcDbEntity
  8
LY_3
390
0
  6
CONTINUOUS
 62
   110
100
AcDbLine
 10
190.581699
 20
126.0
 30
0.0
 11
190.581699
 21
123.0
 31
0.0
  0
LINE
  5
2BE
100
AcDbEntity
  8
LY_3
390
0
  6
CONTINUOUS
 62
   110
100
AcDbLine
 10
191.581699
 20
126.0
 30
0.0
 11
191.581699
 21
124.0
 31
0.0
  0
LINE
  5
2BF
100
AcDbEntity
  8
LY_3
390
0
  6
CONTINUOUS
 62
   110
100
AcDbLine
 10
192.581699
 20
126.0
 30
0.0
 11
192.581699
 21
124.0
 31
0.0
  0
LINE
  5
2C0
100
AcDbEntity
  8
LY_3
390
0
  6
CONTINUOUS
 62
   110
100
AcDbLine
 10
193.581699
 20
126.0
 30
0.0
 11
193.581699
 21
124.0
 31
0.0
  0
LINE
  5
2C1
100
AcDbEntity
  8
LY_3
390
0
  6
CONTINUOUS
 62
   110
100
AcDbLine
 10
194.581699
 20
126.0
 30
0.0
 11
194.581699
 21
124.0
 31
0.0
  0
LINE
  5
2C2
100
AcDbEntity
  8
LY_3
390
0
  6
CONTINUOUS
 62
   110
100
AcDbLine
 10
195.581699
 20
126.0
 30
0.0
 11
195.581699
 21
122.0
 31
0.0
  0
LINE
  5
2C3
100
AcDbEntity
  8
LY_3
390
0
  6
CONTINUOUS
 62
   110
100
AcDbLine
 10
196.581699
 20
126.0
 30
0.0
 11
196.581699
 21
124.0
 31
0.0
  0
LINE
  5
2C4
100
AcDbEntity
  8
LY_3
390
0
  6
CONTINUOUS
 62
   110
100
AcDbLine
 10
197.581699
 20
126.0
 30
0.0
 11
197.581699
 21
124.0
 31
0.0
  0
LINE
  5
2C5
100
AcDbEntity
  8
LY_3
390
0
  6
CONTINUOUS
 62
   110
100
AcDbLine
 10
198.581699
 20
126.0
 30
0.0
 11
198.581699
 21
124.0
 31
0.0
  0
LINE
  5
2C6
100
AcDbEntity
  8
LY_3
390
0
  6
CONTINUOUS
 62
   110
100
AcDbLine
 10
199.581699
 20
126.0
 30
0.0
 11
199.581699
 21
124.0
 31
0.0
  0
LINE
  5
2C7
100
AcDbEntity
  8
LY_3
390
0
  6
CONTINUOUS
 62
   110
100
AcDbLine
 10
200.581699
 20
126.0
 30
0.0
 11
200.581699
 21
123.0
 31
0.0
  0
LINE
  5
2C8
100
AcDbEntity
  8
LY_3
390
0
  6
CONTINUOUS
 62
   110
100
AcDbLine
 10
201.581699
 20
126.0
 30
0.0
 11
201.581699
 21
124.0
 31
0.0
  0
LINE
  5
2C9
100
AcDbEntity
  8
LY_3
390
0
  6
CONTINUOUS
 62
   110
100
AcDbLine
 10
202.581699
 20
126.0
 30
0.0
 11
202.581699
 21
124.0
 31
0.0
  0
LINE
  5
2CA
100
AcDbEntity
  8
LY_3
390
0
  6
CONTINUOUS
 62
   110
100
AcDbLine
 10
203.581699
 20
126.0
 30
0.0
 11
203.581699
 21
124.0
 31
0.0
  0
LINE
  5
2CB
100
AcDbEntity
  8
LY_3
390
0
  6
CONTINUOUS
 62
   110
100
AcDbLine
 10
204.581699
 20
126.0
 30
0.0
 11
204.581699
 21
124.0
 31
0.0
  0
LINE
  5
2CC
100
AcDbEntity
  8
LY_3
390
0
  6
CONTINUOUS
 62
   110
100
AcDbLine
 10
205.581699
 20
126.0
 30
0.0
 11
205.581699
 21
122.0
 31
0.0
  0
LINE
  5
2CD
100
AcDbEntity
  8
LY_3
390
0
  6
CONTINUOUS
 62
   110
100
AcDbLine
 10
206.581699
 20
126.0
 30
0.0
 11
206.581699
 21
124.0
 31
0.0
  0
LINE
  5
2CE
100
AcDbEntity
  8
LY_3
390
0
  6
CONTINUOUS
 62
   110
100
AcDbLine
 10
207.581696
 20
126.0
 30
0.0
 11
207.581696
 21
124.0
 31
0.0
  0
LINE
  5
2CF
100
AcDbEntity
  8
LY_3
390
0
  6
CONTINUOUS
 62
   110
100
AcDbLine
 10
208.581696
 20
126.0
 30
0.0
 11
208.581696
 21
124.0
 31
0.0
  0
LINE
  5
2D0
100
AcDbEntity
  8
LY_3
390
0
  6
CONTINUOUS
 62
   110
100
AcDbLine
 10
209.581696
 20
126.0
 30
0.0
 11
209.581696
 21
124.0
 31
0.0
  0
LINE
  5
2D1
100
AcDbEntity
  8
LY_3
390
0
  6
CONTINUOUS
 62
   110
100
AcDbLine
 10
210.581696
 20
126.0
 30
0.0
 11
210.581696
 21
123.0
 31
0.0
  0
LINE
  5
2D2
100
AcDbEntity
  8
LY_3
390
0
  6
CONTINUOUS
 62
   110
100
AcDbLine
 10
211.581696
 20
126.0
 30
0.0
 11
211.581696
 21
124.0
 31
0.0
  0
LINE
  5
2D3
100
AcDbEntity
  8
LY_3
390
0
  6
CONTINUOUS
 62
   110
100
AcDbLine
 10
212.581696
 20
126.0
 30
0.0
 11
212.581696
 21
124.0
 31
0.0
  0
LINE
  5
2D4
100
AcDbEntity
  8
LY_3
390
0
  6
CONTINUOUS
 62
   110
100
AcDbLine
 10
213.581696
 20
126.0
 30
0.0
 11
213.581696
 21
124.0
 31
0.0
  0
LINE
  5
2D5
100
AcDbEntity
  8
LY_3
390
0
  6
CONTINUOUS
 62
   110
100
AcDbLine
 10
214.581696
 20
126.0
 30
0.0
 11
214.581696
 21
124.0
 31
0.0
  0
LINE
  5
2D6
100
AcDbEntity
  8
LY_3
390
0
  6
CONTINUOUS
 62
   110
100
AcDbLine
 10
215.581696
 20
126.0
 30
0.0
 11
215.581696
 21
122.0
 31
0.0
  0
LINE
  5
2D7
100
AcDbEntity
  8
LY_3
390
0
  6
CONTINUOUS
 62
   110
100
AcDbLine
 10
216.581696
 20
126.0
 30
0.0
 11
216.581696
 21
124.0
 31
0.0
  0
LINE
  5
2D8
100
AcDbEntity
  8
LY_3
390
0
  6
CONTINUOUS
 62
   110
100
AcDbLine
 10
217.581696
 20
126.0
 30
0.0
 11
217.581696
 21
124.0
 31
0.0
  0
LINE
  5
2D9
100
AcDbEntity
  8
LY_3
390
0
  6
CONTINUOUS
 62
   110
100
AcDbLine
 10
218.581696
 20
126.0
 30
0.0
 11
218.581696
 21
124.0
 31
0.0
  0
LINE
  5
2DA
100
AcDbEntity
  8
LY_3
390
0
  6
CONTINUOUS
 62
   110
100
AcDbLine
 10
219.581696
 20
126.0
 30
0.0
 11
219.581696
 21
124.0
 31
0.0
  0
LINE
  5
2DB
100
AcDbEntity
  8
LY_3
390
0
  6
CONTINUOUS
 62
   110
100
AcDbLine
 10
220.581696
 20
126.0
 30
0.0
 11
220.581696
 21
123.0
 31
0.0
  0
LINE
  5
2DC
100
AcDbEntity
  8
LY_3
390
0
  6
CONTINUOUS
 62
   110
100
AcDbLine
 10
221.581696
 20
126.0
 30
0.0
 11
221.581696
 21
124.0
 31
0.0
  0
LINE
  5
2DD
100
AcDbEntity
  8
LY_3
390
0
  6
CONTINUOUS
 62
   110
100
AcDbLine
 10
222.581696
 20
126.0
 30
0.0
 11
222.581696
 21
124.0
 31
0.0
  0
LINE
  5
2DE
100
AcDbEntity
  8
LY_3
390
0
  6
CONTINUOUS
 62
   110
100
AcDbLine
 10
223.581696
 20
126.0
 30
0.0
 11
223.581696
 21
124.0
 31
0.0
  0
LINE
  5
2DF
100
AcDbEntity
  8
LY_3
390
0
  6
CONTINUOUS
 62
   110
100
AcDbLine
 10
224.581696
 20
126.0
 30
0.0
 11
224.581696
 21
124.0
 31
0.0
  0
LINE
  5
2E0
100
AcDbEntity
  8
LY_3
390
0
  6
CONTINUOUS
 62
   110
100
AcDbLine
 10
225.581696
 20
126.0
 30
0.0
 11
225.581696
 21
122.0
 31
0.0
  0
LINE
  5
2E1
100
AcDbEntity
  8
LY_3
390
0
  6
CONTINUOUS
 62
   110
100
AcDbLine
 10
226.581696
 20
126.0
 30
0.0
 11
226.581696
 21
124.0
 31
0.0
  0
LINE
  5
2E2
100
AcDbEntity
  8
LY_3
390
0
  6
CONTINUOUS
 62
   110
100
AcDbLine
 10
227.581696
 20
126.0
 30
0.0
 11
227.581696
 21
124.0
 31
0.0
  0
LINE
  5
2E3
100
AcDbEntity
  8
LY_3
390
0
  6
CONTINUOUS
 62
   110
100
AcDbLine
 10
228.581696
 20
126.0
 30
0.0
 11
228.581696
 21
124.0
 31
0.0
  0
LINE
  5
2E4
100
AcDbEntity
  8
LY_3
390
0
  6
CONTINUOUS
 62
   110
100
AcDbLine
 10
229.581696
 20
126.0
 30
0.0
 11
229.581696
 21
124.0
 31
0.0
  0
LINE
  5
2E5
100
AcDbEntity
  8
LY_3
390
0
  6
CONTINUOUS
 62
   110
100
AcDbLine
 10
230.581696
 20
126.0
 30
0.0
 11
230.581696
 21
123.0
 31
0.0
  0
LINE
  5
2E6
100
AcDbEntity
  8
LY_3
390
0
  6
CONTINUOUS
 62
   110
100
AcDbLine
 10
231.581696
 20
126.0
 30
0.0
 11
231.581696
 21
124.0
 31
0.0
  0
LINE
  5
2E7
100
AcDbEntity
  8
LY_3
390
0
  6
CONTINUOUS
 62
   110
100
AcDbLine
 10
232.581696
 20
126.0
 30
0.0
 11
232.581696
 21
124.0
 31
0.0
  0
LINE
  5
2E8
100
AcDbEntity
  8
LY_3
390
0
  6
CONTINUOUS
 62
   110
100
AcDbLine
 10
233.581696
 20
126.0
 30
0.0
 11
233.581696
 21
124.0
 31
0.0
  0
LINE
  5
2E9
100
AcDbEntity
  8
LY_3
390
0
  6
CONTINUOUS
 62
   110
100
AcDbLine
 10
234.581696
 20
126.0
 30
0.0
 11
234.581696
 21
124.0
 31
0.0
  0
LINE
  5
2EA
100
AcDbEntity
  8
LY_3
390
0
  6
CONTINUOUS
 62
   110
100
AcDbLine
 10
235.581696
 20
126.0
 30
0.0
 11
235.581696
 21
122.0
 31
0.0
  0
LINE
  5
2EB
100
AcDbEntity
  8
LY_3
390
0
  6
CONTINUOUS
 62
     3
100
AcDbLine
 10
64.581696
 20
132.0
 30
0.0
 11
79.581696
 21
132.0
 31
0.0
  0
LINE
  5
2EC
100
AcDbEntity
  8
LY_3
390
0
  6
CONTINUOUS
 62
     3
100
AcDbLine
 10
64.581696
 20
128.0
 30
0.0
 11
79.581696
 21
128.0
 31
0.0
  0
LINE
  5
2ED
100
AcDbEntity
  8
LY_3
390
0
  6
CONTINUOUS
 62
     3
100
AcDbLine
 10
64.581696
 20
133.0
 30
0.0
 11
79.581696
 21
133.0
 31
0.0
  0
LINE
  5
2EE
100
AcDbEntity
  8
LY_3
390
0
  6
CONTINUOUS
 62
     3
100
AcDbLine
 10
123.781693
 20
139.0
 30
0.0
 11
123.781693
 21
121.0
 31
0.0
  0
LINE
  5
2EF
100
AcDbEntity
  8
LY_3
390
0
  6
CONTINUOUS
 62
     3
100
AcDbLine
 10
121.781693
 20
139.0
 30
0.0
 11
121.781693
 21
121.0
 31
0.0
  0
LINE
  5
2F0
100
AcDbEntity
  8
LY_3
390
0
  6
CONTINUOUS
 62
     3
100
AcDbLine
 10
154.781693
 20
149.0
 30
0.0
 11
254.581696
 21
149.0
 31
0.0
  0
LINE
  5
2F1
100
AcDbEntity
  8
LY_3
390
0
  6
CONTINUOUS
 62
     3
100
AcDbLine
 10
154.781693
 20
111.0
 30
0.0
 11
254.581696
 21
111.0
 31
0.0
  0
LINE
  5
2F2
100
AcDbEntity
  8
LY_3
390
0
  6
CONTINUOUS
 62
     3
100
AcDbLine
 10
124.781693
 20
139.0
 30
0.0
 11
124.781693
 21
121.0
 31
0.0
  0
LINE
  5
2F3
100
AcDbEntity
  8
LY_3
390
0
  6
CONTINUOUS
 62
     3
100
AcDbLine
 10
123.781693
 20
121.0
 30
0.0
 11
124.781693
 21
121.0
 31
0.0
  0
LINE
  5
2F4
100
AcDbEntity
  8
LY_3
390
0
  6
CONTINUOUS
 62
     3
100
AcDbLine
 10
123.781693
 20
139.0
 30
0.0
 11
124.781693
 21
139.0
 31
0.0
  0
LINE
  5
2F5
100
AcDbEntity
  8
LY_3
390
0
  6
CENTER
 62
   110
100
AcDbLine
 10
109.181686
 20
116.5
 30
0.0
 11
125.181686
 21
116.5
 31
0.0
  0
LINE
  5
2F6
100
AcDbEntity
  8
LY_3
390
0
  6
CENTER
 62
   110
100
AcDbLine
 10
109.181686
 20
143.5
 30
0.0
 11
125.181686
 21
143.5
 31
0.0
  0
LINE
  5
2F7
100
AcDbEntity
  8
LY_3
390
0
  6
CONTINUOUS
 62
     3
100
AcDbLine
 10
120.781693
 20
121.0
 30
0.0
 11
121.781693
 21
121.0
 31
0.0
  0
LINE
  5
2F8
100
AcDbEntity
  8
LY_3
390
0
  6
CONTINUOUS
 62
     3
100
AcDbLine
 10
120.781693
 20
139.0
 30
0.0
 11
121.781693
 21
139.0
 31
0.0
  0
LINE
  5
2F9
100
AcDbEntity
  8
LY_3
390
0
  6
CONTINUOUS
 62
     3
100
AcDbLine
 10
120.781731
 20
113.899949
 30
0.0
 11
119.981737
 21
113.099955
 31
0.0
  0
LINE
  5
2FA
100
AcDbEntity
  8
LY_3
390
0
  6
CONTINUOUS
 62
     3
100
AcDbLine
 10
113.581694
 20
113.900024
 30
0.0
 11
114.381699
 21
113.100018
 31
0.0
  0
LINE
  5
2FB
100
AcDbEntity
  8
LY_3
390
0
  6
CONTINUOUS
 62
     3
100
AcDbLine
 10
113.493156
 20
146.011343
 30
0.0
 11
114.381744
 21
146.899931
 31
0.0
  0
LINE
  5
2FC
100
AcDbEntity
  8
LY_3
390
0
  6
CONTINUOUS
 62
     3
100
AcDbLine
 10
119.981721
 20
146.900022
 30
0.0
 11
120.781726
 21
146.100017
 31
0.0
  0
LINE
  5
2FD
100
AcDbEntity
  8
LY_3
390
0
  6
CONTINUOUS
 62
     3
100
AcDbLine
 10
114.381699
 20
146.899994
 30
0.0
 11
119.981705
 21
146.899994
 31
0.0
  0
LINE
  5
2FE
100
AcDbEntity
  8
LY_3
390
0
  6
CONTINUOUS
 62
     3
100
AcDbLine
 10
114.381699
 20
113.099998
 30
0.0
 11
119.981705
 21
113.099998
 31
0.0
  0
LINE
  5
2FF
100
AcDbEntity
  8
LY_3
390
0
  6
CONTINUOUS
 62
     3
100
AcDbLine
 10
120.781693
 20
146.100006
 30
0.0
 11
120.781693
 21
113.900009
 31
0.0
  0
LINE
  5
300
100
AcDbEntity
  8
LY_3
390
0
  6
CONTINUOUS
 62
     3
100
AcDbLine
 10
113.581696
 20
146.100006
 30
0.0
 11
113.581696
 21
113.899963
 31
0.0
  0
LINE
  5
301
100
AcDbEntity
  8
LY_3
390
0
  6
CONTINUOUS
 62
     3
100
AcDbLine
 10
80.581696
 20
126.0
 30
0.0
 11
113.581696
 21
126.0
 31
0.0
  0
LINE
  5
302
100
AcDbEntity
  8
LY_3
390
0
  6
CONTINUOUS
 62
     3
100
AcDbLine
 10
64.581696
 20
127.0
 30
0.0
 11
79.581696
 21
127.0
 31
0.0
  0
LINE
  5
303
100
AcDbEntity
  8
LY_3
390
0
  6
CONTINUOUS
 62
     3
100
AcDbLine
 10
80.581696
 20
134.0
 30
0.0
 11
113.581696
 21
134.0
 31
0.0
  0
LINE
  5
304
100
AcDbEntity
  8
LY_3
390
0
  6
CONTINUOUS
 62
     3
100
AcDbLine
 10
79.581696
 20
127.0
 30
0.0
 11
79.581696
 21
133.0
 31
0.0
  0
LINE
  5
305
100
AcDbEntity
  8
LY_3
390
0
  6
CONTINUOUS
 62
     3
100
AcDbLine
 10
63.581696
 20
128.0
 30
0.0
 11
63.581696
 21
132.0
 31
0.0
  0
LINE
  5
306
100
AcDbEntity
  8
LY_3
390
0
  6
CENTER
 62
   110
100
AcDbLine
 10
61.831726
 20
130.0
 30
0.0
 11
246.293427
 21
130.0
 31
0.0
  0
LINE
  5
307
100
AcDbEntity
  8
LY_3
390
0
  6
CONTINUOUS
 62
     3
100
AcDbLine
 10
154.781693
 20
-19.0
 30
0.0
 11
254.581696
 21
-19.0
 31
0.0
  0
LINE
  5
308
100
AcDbEntity
  8
LY_3
390
0
  6
CONTINUOUS
 62
     3
100
AcDbLine
 10
117.781708
 20
-7.550003
 30
0.0
 11
123.781693
 21
-7.550003
 31
0.0
  0
LINE
  5
309
100
AcDbEntity
  8
LY_3
390
0
  6
CONTINUOUS
 62
     3
100
AcDbLine
 10
117.781708
 20
7.550003
 30
0.0
 11
123.781693
 21
7.550003
 31
0.0
  0
LINE
  5
30A
100
AcDbEntity
  8
LY_3
390
0
  6
CONTINUOUS
 62
     3
100
AcDbLine
 10
118.281705
 20
7.549979
 30
0.0
 11
118.289122
 21
7.555876
 31
0.0
  0
LINE
  5
30B
100
AcDbEntity
  8
LY_3
390
0
  6
CONTINUOUS
 62
     3
100
AcDbLine
 10
117.781708
 20
-4.0
 30
0.0
 11
117.781708
 21
-7.849998
 31
0.0
  0
LINE
  5
30C
100
AcDbEntity
  8
LY_3
390
0
  6
CONTINUOUS
 62
     3
100
AcDbLine
 10
116.781708
 20
-4.0
 30
0.0
 11
116.781708
 21
-7.849998
 31
0.0
  0
LINE
  5
30D
100
AcDbEntity
  8
LY_3
390
0
  6
CONTINUOUS
 62
     3
100
AcDbLine
 10
117.781708
 20
7.849998
 30
0.0
 11
117.781708
 21
4.0
 31
0.0
  0
LINE
  5
30E
100
AcDbEntity
  8
LY_3
390
0
  6
CONTINUOUS
 62
     3
100
AcDbLine
 10
116.781708
 20
7.849998
 30
0.0
 11
116.781708
 21
4.0
 31
0.0
  0
LINE
  5
30F
100
AcDbEntity
  8
LY_3
390
0
  6
CONTINUOUS
 62
     3
100
AcDbLine
 10
116.781708
 20
-7.849998
 30
0.0
 11
117.781708
 21
-7.849998
 31
0.0
  0
LINE
  5
310
100
AcDbEntity
  8
LY_3
390
0
  6
CONTINUOUS
 62
     3
100
AcDbLine
 10
116.781708
 20
7.849998
 30
0.0
 11
117.781708
 21
7.849998
 31
0.0
  0
LINE
  5
311
100
AcDbEntity
  8
LY_3
390
0
  6
CONTINUOUS
 62
     3
100
AcDbLine
 10
117.931702
 20
-7.550003
 30
0.0
 11
117.931702
 21
-7.849998
 31
0.0
  0
LINE
  5
312
100
AcDbEntity
  8
LY_3
390
0
  6
CONTINUOUS
 62
   110
100
AcDbLine
 10
114.181702
 20
-4.0
 30
0.0
 11
114.181702
 21
-9.150002
 31
0.0
  0
LINE
  5
313
100
AcDbEntity
  8
LY_3
390
0
  6
CONTINUOUS
 62
     3
100
AcDbLine
 10
123.781693
 20
-9.0
 30
0.0
 11
124.781693
 21
-9.0
 31
0.0
  0
LINE
  5
314
100
AcDbEntity
  8
LY_3
390
0
  6
CONTINUOUS
 62
     3
100
AcDbLine
 10
123.781693
 20
9.0
 30
0.0
 11
124.781693
 21
9.0
 31
0.0
  0
LINE
  5
315
100
AcDbEntity
  8
LY_3
390
0
  6
CONTINUOUS
 62
     3
100
AcDbLine
 10
114.781693
 20
-7.599998
 30
0.0
 11
116.781708
 21
-7.599998
 31
0.0
  0
LINE
  5
316
100
AcDbEntity
  8
LY_3
390
0
  6
CONTINUOUS
 62
     3
100
AcDbLine
 10
114.781693
 20
7.599998
 30
0.0
 11
116.781708
 21
7.599998
 31
0.0
  0
LINE
  5
317
100
AcDbEntity
  8
LY_3
390
0
  6
CONTINUOUS
 62
     3
100
AcDbLine
 10
117.781708
 20
7.849998
 30
0.0
 11
117.931702
 21
7.849998
 31
0.0
  0
LINE
  5
318
100
AcDbEntity
  8
LY_3
390
0
  6
CONTINUOUS
 62
     3
100
AcDbLine
 10
117.781708
 20
-7.849998
 30
0.0
 11
117.931702
 21
-7.849998
 31
0.0
  0
LINE
  5
319
100
AcDbEntity
  8
LY_3
390
0
  6
CONTINUOUS
 62
     3
100
AcDbLine
 10
117.931702
 20
7.849998
 30
0.0
 11
117.931702
 21
7.550003
 31
0.0
  0
LINE
  5
31A
100
AcDbEntity
  8
LY_3
390
0
  6
CONTINUOUS
 62
     3
100
AcDbLine
 10
120.781693
 20
-9.0
 30
0.0
 11
120.781693
 21
-16.099998
 31
0.0
  0
LINE
  5
31B
100
AcDbEntity
  8
LY_3
390
0
  6
CONTINUOUS
 62
     3
100
AcDbLine
 10
114.781693
 20
-4.0
 30
0.0
 11
114.781693
 21
-9.097504
 31
0.0
  0
LINE
  5
31C
100
AcDbEntity
  8
LY_3
390
0
  6
CONTINUOUS
 62
     3
100
AcDbLine
 10
113.581696
 20
-4.0
 30
0.0
 11
113.581696
 21
-16.099998
 31
0.0
  0
LINE
  5
31D
100
AcDbEntity
  8
LY_3
390
0
  6
CONTINUOUS
 62
     3
100
AcDbLine
 10
114.181694
 20
-9.149857
 30
0.0
 11
114.781697
 21
-9.097364
 31
0.0
  0
LINE
  5
31E
100
AcDbEntity
  8
LY_3
390
0
  6
CONTINUOUS
 62
     3
100
AcDbLine
 10
114.181718
 20
-9.149973
 30
0.0
 11
114.623759
 21
-10.364472
 31
0.0
  0
LINE
  5
31F
100
AcDbEntity
  8
LY_3
390
0
  6
CONTINUOUS
 62
     3
100
AcDbLine
 10
114.181711
 20
9.150138
 30
0.0
 11
114.781714
 21
9.097645
 31
0.0
  0
LINE
  5
320
100
AcDbEntity
  8
LY_3
390
0
  6
CONTINUOUS
 62
     3
100
AcDbLine
 10
114.181722
 20
9.149977
 30
0.0
 11
114.623766
 21
10.364482
 31
0.0
  0
LINE
  5
321
100
AcDbEntity
  8
LY_3
390
0
  6
CENTER
 62
   110
100
AcDbLine
 10
109.181702
 20
-13.5
 30
0.0
 11
125.181702
 21
-13.5
 31
0.0
  0
LINE
  5
322
100
AcDbEntity
  8
LY_3
390
0
  6
CENTER
 62
   110
100
AcDbLine
 10
109.181702
 20
13.5
 30
0.0
 11
125.181702
 21
13.5
 31
0.0
  0
LINE
  5
323
100
AcDbEntity
  8
LY_3
390
0
  6
CONTINUOUS
 62
     3
100
AcDbLine
 10
120.781693
 20
-9.0
 30
0.0
 11
121.781693
 21
-9.0
 31
0.0
  0
LINE
  5
324
100
AcDbEntity
  8
LY_3
390
0
  6
CONTINUOUS
 62
     3
100
AcDbLine
 10
120.781693
 20
9.0
 30
0.0
 11
121.781693
 21
9.0
 31
0.0
  0
LINE
  5
325
100
AcDbEntity
  8
LY_3
390
0
  6
CONTINUOUS
 62
     3
100
AcDbLine
 10
120.781706
 20
-16.100021
 30
0.0
 11
119.9817
 21
-16.900026
 31
0.0
  0
LINE
  5
326
100
AcDbEntity
  8
LY_3
390
0
  6
CONTINUOUS
 62
     3
100
AcDbLine
 10
113.581704
 20
-16.099947
 30
0.0
 11
114.381698
 21
-16.899941
 31
0.0
  0
LINE
  5
327
100
AcDbEntity
  8
LY_3
390
0
  6
CONTINUOUS
 62
     3
100
AcDbLine
 10
113.581718
 20
16.099983
 30
0.0
 11
114.381701
 21
16.899966
 31
0.0
  0
LINE
  5
328
100
AcDbEntity
  8
LY_3
390
0
  6
CONTINUOUS
 62
     3
100
AcDbLine
 10
119.981746
 20
16.900071
 30
0.0
 11
120.781741
 21
16.100076
 31
0.0
  0
LINE
  5
329
100
AcDbEntity
  8
LY_3
390
0
  6
CONTINUOUS
 62
     3
100
AcDbLine
 10
113.581696
 20
11.300003
 30
0.0
 11
120.781693
 21
11.300003
 31
0.0
  0
LINE
  5
32A
100
AcDbEntity
  8
LY_3
390
0
  6
CONTINUOUS
 62
     3
100
AcDbLine
 10
113.581696
 20
15.699997
 30
0.0
 11
120.781693
 21
15.699997
 31
0.0
  0
LINE
  5
32B
100
AcDbEntity
  8
LY_3
390
0
  6
CONTINUOUS
 62
   110
100
AcDbLine
 10
114.181702
 20
9.150002
 30
0.0
 11
114.181702
 21
4.0
 31
0.0
  0
LINE
  5
32C
100
AcDbEntity
  8
LY_3
390
0
  6
CONTINUOUS
 62
     3
100
AcDbLine
 10
113.581696
 20
-10.699997
 30
0.0
 11
114.388809
 21
-10.699997
 31
0.0
  0
LINE
  5
32D
100
AcDbEntity
  8
LY_3
390
0
  6
CONTINUOUS
 62
     3
100
AcDbLine
 10
113.581696
 20
10.699997
 30
0.0
 11
114.388809
 21
10.699997
 31
0.0
  0
LINE
  5
32E
100
AcDbEntity
  8
LY_3
390
0
  6
CONTINUOUS
 62
     3
100
AcDbLine
 10
114.781693
 20
9.097504
 30
0.0
 11
114.781693
 21
4.0
 31
0.0
  0
LINE
  5
32F
100
AcDbEntity
  8
LY_3
390
0
  6
CONTINUOUS
 62
     3
100
AcDbLine
 10
114.381683
 20
16.900002
 30
0.0
 11
119.981689
 21
16.900002
 31
0.0
  0
LINE
  5
330
100
AcDbEntity
  8
LY_3
390
0
  6
CONTINUOUS
 62
     3
100
AcDbLine
 10
114.381683
 20
-16.900002
 30
0.0
 11
119.981689
 21
-16.900002
 31
0.0
  0
LINE
  5
331
100
AcDbEntity
  8
LY_3
390
0
  6
CONTINUOUS
 62
     3
100
AcDbLine
 10
120.781693
 20
16.099998
 30
0.0
 11
120.781693
 21
9.0
 31
0.0
  0
LINE
  5
332
100
AcDbEntity
  8
LY_3
390
0
  6
CONTINUOUS
 62
     3
100
AcDbLine
 10
113.581696
 20
16.099998
 30
0.0
 11
113.581696
 21
4.0
 31
0.0
  0
LINE
  5
333
100
AcDbEntity
  8
LY_3
390
0
  6
CONTINUOUS
 62
     3
100
AcDbLine
 10
63.581696
 20
2.0
 30
0.0
 11
79.581696
 21
2.0
 31
0.0
  0
LINE
  5
334
100
AcDbEntity
  8
LY_3
390
0
  6
CONTINUOUS
 62
     3
100
AcDbLine
 10
80.58168
 20
-4.0
 30
0.0
 11
170.882536
 21
-4.0
 31
0.0
  0
LINE
  5
335
100
AcDbEntity
  8
LY_3
390
0
  6
CONTINUOUS
 62
     3
100
AcDbLine
 10
64.581696
 20
-3.0
 30
0.0
 11
79.581696
 21
-3.0
 31
0.0
  0
LINE
  5
336
100
AcDbEntity
  8
LY_3
390
0
  6
CONTINUOUS
 62
     3
100
AcDbLine
 10
80.581696
 20
4.0
 30
0.0
 11
172.729469
 21
4.0
 31
0.0
  0
LINE
  5
337
100
AcDbEntity
  8
LY_3
390
0
  6
CONTINUOUS
 62
     3
100
AcDbLine
 10
79.581696
 20
-3.0
 30
0.0
 11
79.581696
 21
3.0
 31
0.0
  0
LINE
  5
338
100
AcDbEntity
  8
LY_3
390
0
  6
CONTINUOUS
 62
     3
100
AcDbLine
 10
63.581696
 20
-2.0
 30
0.0
 11
63.581696
 21
2.0
 31
0.0
  0
LINE
  5
339
100
AcDbEntity
  8
LY_3
390
0
  6
CENTER
 62
   110
100
AcDbLine
 10
57.8992
 20
0.0
 30
0.0
 11
302.419739
 21
0.0
 31
0.0
  0
ENDSEC
  0
SECTION
  2
OBJECTS
  0
DICTIONARY
  5
19
100
AcDbDictionary
280
     0
281
     1
  3
ACAD_GROUP
350
1A
  3
ACAD_MLINESTYLE
350
1B
  3
ACAD_LAYOUT
350
1E
  3
ACAD_PLOTSETTINGS
350
22
  3
ACAD_PLOTSTYLENAME
350
1F
  0
DICTIONARY
  5
1A
102
{ACAD_REACTORS
330
19
102
}
100
AcDbDictionary
280
     0
281
     1
  0
DICTIONARY
  5
1B
102
{ACAD_REACTORS
330
19
102
}
100
AcDbDictionary
280
     0
281
     1
  3
Standard
350
1C
  0
MLINESTYLE
  5
1C
102
{ACAD_REACTORS
330
1B
102
}
100
AcDbMlineStyle
  2
Standard
 70
     0
  3

 62
     0
 51
90.0
 52
90.0
 71
     2
 49
0.5
 62
   256
  6
ByLayer
 49
-0.5
 62
   256
  6
ByLayer
  0
ACDBDICTIONARYWDFLT
  5
1F
102
{ACAD_REACTORS
330
19
102
}
100
AcDbDictionary
281
     1
  3
Normal
350
1D
100
AcDbDictionaryWithDefault
340
1D
  0
ACDBPLACEHOLDER
  5
1D
102
{ACAD_REACTORS
330
1F
102
}
  0
LAYOUT
  5
20
102
{ACAD_REACTORS
330
1E
102
}
100
AcDbPlotSettings
  1

  2

  4

  6

 40
0.0
 41
0.0
 42
0.0
 43
0.0
 44
0.0
 45
0.0
 46
0.0
 47
0.0
 48
0.0
 49
0.0
140
0.0
141
0.0
142
1.0
143
1.0
 70
  1024
 72
     0
 73
     0
 74
     0
  7

 75
     0
147
1.0
148
0.0
149
0.0
100
AcDbLayout
  1
Model
 70
     0
 71
     0
 10
0.0
 20
0.0
 11
0.0
 21
0.0
 12
0.0
 22
0.0
 32
0.0
 14
0.0
 24
0.0
 34
0.0
 15
0.0
 25
0.0
 35
0.0
146
0.0
 13
0.0
 23
0.0
 33
0.0
 16
0.0
 26
0.0
 36
0.0
 17
0.0
 27
0.0
 37
0.0
 76
     0
330
A
331
0
345
0
346
0
  0
LAYOUT
  5
21
102
{ACAD_REACTORS
330
1E
102
}
100
AcDbPlotSettings
  1

  2

  4

  6

 40
0.0
 41
0.0
 42
0.0
 43
0.0
 44
0.0
 45
0.0
 46
0.0
 47
0.0
 48
0.0
 49
0.0
140
0.0
141
0.0
142
1.0
143
1.0
 70
     0
 72
     0
 73
     0
 74
     0
  7

 75
     0
147
1.0
148
0.0
149
0.0
100
AcDbLayout
  1
Layout1
 70
     0
 71
     0
 10
0.0
 20
0.0
 11
0.0
 21
0.0
 12
0.0
 22
0.0
 32
0.0
 14
0.0
 24
0.0
 34
0.0
 15
0.0
 25
0.0
 35
0.0
146
0.0
 13
0.0
 23
0.0
 33
0.0
 16
0.0
 26
0.0
 36
0.0
 17
0.0
 27
0.0
 37
0.0
 76
     0
330
B
331
0
345
0
346
0
  0
DICTIONARY
  5
1E
102
{ACAD_REACTORS
330
19
102
}
100
AcDbDictionary
280
     0
281
     1
  3
Layout1
350
21
  3
Model
350
20
  0
DICTIONARY
  5
22
102
{ACAD_REACTORS
330
19
102
}
100
AcDbDictionary
280
     0
281
     1
  0
ENDSEC
  0
EOF
