  0
SECTION
  2
HEADER
  9
$ACADVER
  1
AC1015
  9
$ACADMAINTVER
 70
     6
  9
$DWGCODEPAGE
  3
ANSI_932
  9
$INSBASE
 10
0.0
 20
0.0
 30
0.0
  9
$EXTMIN
 10
-21.899994
 20
-50.0
 30
0.0
  9
$EXTMAX
 10
316.760468
 20
187.650006
 30
0.0
  9
$LIMMIN
 10
-21.899994
 20
-50.0
  9
$LIMMAX
 10
316.760468
 20
187.650006
  9
$ORTHOMODE
 70
     0
  9
$REGENMODE
 70
     1
  9
$FILLMODE
 70
     1
  9
$QTEXTMODE
 70
     0
  9
$MIRRTEXT
 70
     1
  9
$LTSCALE
 40
1.0
  9
$ATTMODE
 70
     1
  9
$TEXTSIZE
 40
3.2
  9
$TRACEWID
 40
0.05
  9
$TEXTSTYLE
  7
MX_NOTE_STANDARD
  9
$CLAYER
  8
0
  9
$CELTYPE
  6
CONTINUOUS
  9
$CECOLOR
 62
   256
  9
$CELTSCALE
 40
1.0
  9
$DISPSILH
 70
     0
  9
$DIMSCALE
 40
1.0
  9
$DIMASZ
 40
2.5
  9
$DIMEXO
 40
2.0
  9
$DIMDLI
 40
3.75
  9
$DIMRND
 40
0.0
  9
$DIMDLE
 40
0.0
  9
$DIMEXE
 40
1.0
  9
$DIMTP
 40
0.0
  9
$DIMTM
 40
0.0
  9
$DIMTXT
 40
4.1656
  9
$DIMCEN
 40
2.5
  9
$DIMTSZ
 40
0.0
  9
$DIMTOL
 70
     0
  9
$DIMLIM
 70
     0
  9
$DIMTIH
 70
     0
  9
$DIMTOH
 70
     0
  9
$DIMSE1
 70
     0
  9
$DIMSE2
 70
     0
  9
$DIMTAD
 70
     1
  9
$DIMZIN
 70
     8
  9
$DIMBLK
  1

  9
$DIMASO
 70
     1
  9
$DIMSHO
 70
     1
  9
$DIMPOST
  1

  9
$DIMAPOST
  1

  9
$DIMALT
 70
     0
  9
$DIMALTD
 70
     4
  9
$DIMALTF
 40
0.03937
  9
$DIMLFAC
 40
1.0
  9
$DIMTOFL
 70
     1
  9
$DIMTVP
 40
0.0
  9
$DIMTIX
 70
     0
  9
$DIMSOXD
 70
     0
  9
$DIMSAH
 70
     1
  9
$DIMBLK1
  1
_OPEN30
  9
$DIMBLK2
  1
_OPEN30
  9
$DIMSTYLE
  2
MXDIMSTYLE
  9
$DIMCLRD
 70
     0
  9
$DIMCLRE
 70
     0
  9
$DIMCLRT
 70
     0
  9
$DIMTFAC
 40
1.0
  9
$DIMGAP
 40
1.0
  9
$DIMJUST
 70
     0
  9
$DIMSD1
 70
     0
  9
$DIMSD2
 70
     0
  9
$DIMTOLJ
 70
     0
  9
$DIMTZIN
 70
     0
  9
$DIMALTZ
 70
     0
  9
$DIMALTTZ
 70
     0
  9
$DIMUPT
 70
     0
  9
$DIMDEC
 70
     2
  9
$DIMTDEC
 70
     2
  9
$DIMALTU
 70
     2
  9
$DIMALTTD
 70
     4
  9
$DIMTXSTY
  7
MX_NOTE_STANDARD
  9
$DIMAUNIT
 70
     0
  9
$DIMADEC
 70
     0
  9
$DIMALTRND
 40
0.0
  9
$DIMAZIN
 70
     0
  9
$DIMDSEP
 70
    46
  9
$DIMATFIT
 70
     3
  9
$DIMFRAC
 70
     0
  9
$DIMLDRBLK
  1
_OPEN30
  9
$DIMLUNIT
 70
     2
  9
$DIMLWD
 70
    -2
  9
$DIMLWE
 70
    -2
  9
$DIMTMOVE
 70
     0
  9
$LUNITS
 70
     2
  9
$LUPREC
 70
     4
  9
$SKETCHINC
 40
0.1
  9
$FILLETRAD
 40
0.0
  9
$AUNITS
 70
     0
  9
$AUPREC
 70
     0
  9
$MENU
  1
acad
  9
$ELEVATION
 40
0.0
  9
$PELEVATION
 40
0.0
  9
$THICKNESS
 40
0.0
  9
$LIMCHECK
 70
     0
  9
$CHAMFERA
 40
0.0
  9
$CHAMFERB
 40
0.0
  9
$CHAMFERC
 40
0.0
  9
$CHAMFERD
 40
0.0
  9
$SKPOLY
 70
     0
  9
$TDCREATE
 40
2456119.518576389
  9
$TDUCREATE
 40
0.000000000
  9
$TDUPDATE
 40
2456119.518576389
  9
$TDUUPDATE
 40
0.000000000
  9
$TDINDWG
 40
0.0000000000
  9
$TDUSRTIMER
 40
0.0000000000
  9
$USRTIMER
 70
     1
  9
$ANGBASE
 50
0.0
  9
$ANGDIR
 70
     0
  9
$PDMODE
 70
     0
  9
$PDSIZE
 40
0.0
  9
$PLINEWID
 40
0.0
  9
$SPLFRAME
 70
     0
  9
$SPLINETYPE
 70
     6
  9
$SPLINESEGS
 70
     8
  9
$HANDSEED
  5
338
  9
$SURFTAB1
 70
     6
  9
$SURFTAB2
 70
     6
  9
$SURFTYPE
 70
     6
  9
$SURFU
 70
     6
  9
$SURFV
 70
     6
  9
$UCSBASE
  2

  9
$UCSNAME
  2

  9
$UCSORG
 10
0.0
 20
0.0
 30
0.0
  9
$UCSXDIR
 10
1.0
 20
0.0
 30
0.0
  9
$UCSYDIR
 10
0.0
 20
1.0
 30
0.0
  9
$UCSORTHOREF
  2

  9
$UCSORTHOVIEW
 70
     0
  9
$UCSORGTOP
 10
0.0
 20
0.0
 30
0.0
  9
$UCSORGBOTTOM
 10
0.0
 20
0.0
 30
0.0
  9
$UCSORGLEFT
 10
0.0
 20
0.0
 30
0.0
  9
$UCSORGRIGHT
 10
0.0
 20
0.0
 30
0.0
  9
$UCSORGFRONT
 10
0.0
 20
0.0
 30
0.0
  9
$UCSORGBACK
 10
0.0
 20
0.0
 30
0.0
  9
$PUCSBASE
  2

  9
$PUCSNAME
  2

  9
$PUCSORG
 10
0.0
 20
0.0
 30
0.0
  9
$PUCSXDIR
 10
1.0
 20
0.0
 30
0.0
  9
$PUCSYDIR
 10
0.0
 20
1.0
 30
0.0
  9
$PUCSORTHOREF
  2

  9
$PUCSORTHOVIEW
 70
     0
  9
$PUCSORGTOP
 10
0.0
 20
0.0
 30
0.0
  9
$PUCSORGBOTTOM
 10
0.0
 20
0.0
 30
0.0
  9
$PUCSORGLEFT
 10
0.0
 20
0.0
 30
0.0
  9
$PUCSORGRIGHT
 10
0.0
 20
0.0
 30
0.0
  9
$PUCSORGFRONT
 10
0.0
 20
0.0
 30
0.0
  9
$PUCSORGBACK
 10
0.0
 20
0.0
 30
0.0
  9
$USERI1
 70
     0
  9
$USERI2
 70
     0
  9
$USERI3
 70
     0
  9
$USERI4
 70
     0
  9
$USERI5
 70
     0
  9
$USERR1
 40
0.0
  9
$USERR2
 40
0.0
  9
$USERR3
 40
0.0
  9
$USERR4
 40
0.0
  9
$USERR5
 40
0.0
  9
$WORLDVIEW
 70
     1
  9
$SHADEDGE
 70
     3
  9
$SHADEDIF
 70
    70
  9
$TILEMODE
 70
     1
  9
$MAXACTVP
 70
    16
  9
$PINSBASE
 10
0.0
 20
0.0
 30
0.0
  9
$PLIMCHECK
 70
     0
  9
$PEXTMIN
 10
1.000000E+20
 20
1.000000E+20
 30
1.000000E+20
  9
$PEXTMAX
 10
-1.000000E+20
 20
-1.000000E+20
 30
-1.000000E+20
  9
$PLIMMIN
 10
0.0
 20
0.0
  9
$PLIMMAX
 10
12.0
 20
9.0
  9
$UNITMODE
 70
     0
  9
$VISRETAIN
 70
     0
  9
$PLINEGEN
 70
     1
  9
$PSLTSCALE
 70
     0
  9
$TREEDEPTH
 70
  3020
  9
$CMLSTYLE
  2
Standard
  9
$CMLJUST
 70
     0
  9
$CMLSCALE
 40
1.0
  9
$PROXYGRAPHICS
 70
     0
  9
$MEASUREMENT
 70
     1
  9
$CELWEIGHT
370
     0
  9
$ENDCAPS
280
     0
  9
$JOINSTYLE
280
     0
  9
$LWDISPLAY
290
     0
  9
$INSUNITS
 70
     0
  9
$HYPERLINKBASE
  1

  9
$STYLESHEET
  1

  9
$XEDIT
290
     1
  9
$CEPSNTYPE
380
     0
  9
$PSTYLEMODE
290
     1
  9
$FINGERPRINTGUID
  2

  9
$VERSIONGUID
  2

  9
$EXTNAMES
290
     1
  9
$PSVPSCALE
 40
0.0
  0
ENDSEC
  0
SECTION
  2
CLASSES
  0
CLASS
  1
LWPOLYLINE
  2
AcDbPolyline
  3
AutoCAD 2000
 90
        0
280
     0
281
     1
  0
CLASS
  1
IMAGE
  2
AcDbRasterImage
  3
ISM
 90
      127
280
     0
281
     1
  0
CLASS
  1
OLE2FRAME
  2
AcDbOle2Frame
  3
AutoCAD 2000
 90
        0
280
     0
281
     1
  0
CLASS
  1
HATCH
  2
AcDbHatch
  3
AutoCAD 2000
 90
        0
280
     0
281
     1
  0
CLASS
  1
DICTIONARYVAR
  2
AcDbDictionaryVar
  3
AutoCAD 2000
 90
        0
280
     0
281
     0
  0
CLASS
  1
RASTERVARIABLES
  2
AcDbRasterVariables
  3
ISM
 90
        0
280
     0
281
     0
  0
CLASS
  1
IMAGEDEF
  2
AcDbRasterImageDef
  3
ISM
 90
        0
280
     0
281
     0
  0
CLASS
  1
IMAGEDEF_REACTOR
  2
AcDbRasterImageDefReactor
  3
ISM
 90
        1
280
     0
281
     0
  0
CLASS
  1
IDBUFFER
  2
AcDbIdBuffer
  3
AutoCAD 2000
 90
        0
280
     0
281
     0
  0
CLASS
  1
SPATIAL_FILTER
  2
AcDbSpatialFilter
  3
AutoCAD 2000
 90
        0
280
     0
281
     0
  0
CLASS
  1
XRECORD
  2
AcDbXrecord
  3
AutoCAD 2000
 90
        0
280
     0
281
     0
  0
CLASS
  1
SORTENTSTABLE
  2
AcDbSortentsTable
  3
AutoCAD 2000
 90
        0
280
     0
281
     0
  0
CLASS
  1
LAYER_INDEX
  2
AcDbLayerIndex
  3
AutoCAD 2000
 90
        0
280
     0
281
     0
  0
CLASS
  1
SPATIAL_INDEX
  2
AcDbSpatialIndex
  3
AutoCAD 2000
 90
        0
280
     0
281
     0
  0
CLASS
  1
OBJECT_PTR
  2
CAseDLPNTableRecord
  3
"ASE-LPNTableRecord"
 90
        1
280
     0
281
     0
  0
CLASS
  1
LAYOUT
  2
AcDbLayout
  3
AutoCAD 2000
 90
        0
280
     0
281
     0
  0
CLASS
  1
PLOTSETTINGS
  2
AcDbPlotSettings
  3
AutoCAD 2000
 90
        0
280
     0
281
     0
  0
CLASS
  1
ACDBDICTIONARYWDFLT
  2
AcDbDictionaryWithDefault
  3
AutoCAD 2000
 90
        0
280
     0
281
     0
  0
CLASS
  1
ACDBPLACEHOLDER
  2
AcDbPlaceHolder
  3
AutoCAD 2000
 90
        0
280
     0
281
     0
  0
ENDSEC
  0
SECTION
  2
TABLES
  0
TABLE
  2
VPORT
  5
7
100
AcDbSymbolTable
 70
     1
  0
VPORT
  5
15
100
AcDbSymbolTableRecord
100
AcDbViewportTableRecord
  2
*ACTIVE
 70
     0
 10
0.0
 20
0.0
 11
1.0
 21
1.0
 12
147.430237
 22
68.825003
 13
0.0
 23
0.0
 14
1.0
 24
1.0
 15
0.0
 25
0.0
 16
0.0
 26
0.0
 36
1.0
 17
0.0
 27
0.0
 37
0.0
 40
240.026506
 41
1.732051
 42
50.0
 43
0.0
 44
0.0
 50
0.0
 51
0.0
 71
     0
 72
   100
 73
     1
 74
     1
 75
     0
 76
     0
 77
     0
 78
     0
281
     0
 65
     0
110
0.0
120
0.0
130
0.0
111
1.0
121
0.0
131
0.0
112
0.0
122
1.0
132
0.0
345
0
346
0
 79
     0
146
0.0
  0
ENDTAB
  0
TABLE
  2
LTYPE
  5
4
100
AcDbSymbolTable
 70
     6
  0
LTYPE
  5
11
100
AcDbSymbolTableRecord
100
AcDbLinetypeTableRecord
  2
BYBLOCK
 70
    64
  3

 72
    65
 73
     0
 40
0.0
  0
LTYPE
  5
12
100
AcDbSymbolTableRecord
100
AcDbLinetypeTableRecord
  2
BYLAYER
 70
    64
  3

 72
    65
 73
     0
 40
0.0
  0
LTYPE
  5
13
100
AcDbSymbolTableRecord
100
AcDbLinetypeTableRecord
  2
CONTINUOUS
 70
    64
  3
Solid line
 72
    65
 73
     0
 40
0.0
  0
LTYPE
  5
195
100
AcDbSymbolTableRecord
100
AcDbLinetypeTableRecord
  2
CENTER
 70
    64
  3
Center ____ _ ____ _ ____ _ ____ _ ____ _ ____
 72
    65
 73
     4
 40
50.8
 49
31.75
 74
     0
 49
-6.35
 74
     0
 49
6.35
 74
     0
 49
-6.35
 74
     0
  0
LTYPE
  5
25F
100
AcDbSymbolTableRecord
100
AcDbLinetypeTableRecord
  2
PHANTOM
 70
    64
  3
Phantom ______  __  __  ______  __  __  ______
 72
    65
 73
     6
 40
63.5
 49
31.75
 74
     0
 49
-6.35
 74
     0
 49
6.35
 74
     0
 49
-6.35
 74
     0
 49
6.35
 74
     0
 49
-6.35
 74
     0
  0
LTYPE
  5
2A3
100
AcDbSymbolTableRecord
100
AcDbLinetypeTableRecord
  2
DASHED
 70
    64
  3
Dashed __ __ __ __ __ __ __ __ __ __ __ __ __ _
 72
    65
 73
     2
 40
19.05
 49
12.7
 74
     0
 49
-6.35
 74
     0
  0
ENDTAB
  0
TABLE
  2
LAYER
  5
2
100
AcDbSymbolTable
 70
     3
  0
LAYER
  5
14
100
AcDbSymbolTableRecord
100
AcDbLayerTableRecord
  2
0
 70
     0
 62
     7
  6
CONTINUOUS
290
     1
370
    -3
390
1D
  0
LAYER
  5
23
100
AcDbSymbolTableRecord
100
AcDbLayerTableRecord
  2
DEFPOINTS
 70
     0
 62
     7
  6
CONTINUOUS
290
     0
370
    -3
390
1D
  0
LAYER
  5
24
100
AcDbSymbolTableRecord
100
AcDbLayerTableRecord
  2
LY_3
 70
     0
 62
     7
  6
CONTINUOUS
290
     1
370
    -3
390
1D
  0
ENDTAB
  0
TABLE
  2
STYLE
  5
3
100
AcDbSymbolTable
 70
     4
  0
STYLE
  5
17
100
AcDbSymbolTableRecord
100
AcDbTextStyleTableRecord
  2
MX_NOTE_STANDARD
 70
     0
 40
0.0
 41
1.0
 50
0.0
 71
     0
 42
3.2
  3
txt.shx
  4
extfont.shx
  0
STYLE
  5
38
100
AcDbSymbolTableRecord
100
AcDbTextStyleTableRecord
  2
MX_DIMTXSTY_2
 70
     0
 40
0.0
 41
1.1
 50
0.0
 71
     0
 42
3.2
  3
txt.shx
  4
extfont.shx
  0
STYLE
  5
7C
100
AcDbSymbolTableRecord
100
AcDbTextStyleTableRecord
  2
MX_DIMTXSTY_3
 70
     0
 40
0.0
 41
0.85
 50
0.0
 71
     0
 42
3.2
  3
txt.shx
  4
extfont.shx
  0
STYLE
  5
A4
100
AcDbSymbolTableRecord
100
AcDbTextStyleTableRecord
  2
MX_DIMTXSTY_4
 70
     0
 40
0.0
 41
1.05
 50
0.0
 71
     0
 42
3.2
  3
txt.shx
  4
extfont.shx
  0
ENDTAB
  0
TABLE
  2
VIEW
  5
5
100
AcDbSymbolTable
 70
     0
  0
ENDTAB
  0
TABLE
  2
UCS
  5
6
100
AcDbSymbolTable
 70
     0
  0
ENDTAB
  0
TABLE
  2
APPID
  5
8
100
AcDbSymbolTable
 70
     1
  0
APPID
  5
16
100
AcDbSymbolTableRecord
100
AcDbRegAppTableRecord
  2
ACAD
 70
     0
  0
ENDTAB
  0
TABLE
  2
DIMSTYLE
  5
9
100
AcDbSymbolTable
 70
     1
100
AcDbDimStyleTable
 71
     0
  0
DIMSTYLE
105
18
100
AcDbSymbolTableRecord
100
AcDbDimStyleTableRecord
  2
MXDIMSTYLE
 70
     0
  3

  4

 40
1.0
 41
2.5
 42
2.0
 43
3.75
 44
1.0
 45
0.0
 46
0.0
 47
0.0
 48
0.0
 71
     0
 72
     0
 73
     0
 74
     0
 75
     0
 76
     0
 77
     1
 78
     8
 79
     0
140
4.1656
141
2.5
142
0.0
143
0.03937
144
1.0
145
0.0
146
1.0
147
1.0
148
0.0
170
     0
171
     4
172
     1
173
     1
174
     0
175
     0
176
     0
177
     0
178
     0
179
     0
271
     2
272
     2
273
     2
274
     4
275
     0
276
     0
277
     2
278
    46
279
     0
280
     0
281
     0
282
     0
283
     0
284
     0
285
     0
286
     0
288
     0
289
     3
340
17
341
26
342
0
343
26
344
26
371
    -2
372
    -2
  0
ENDTAB
  0
TABLE
  2
BLOCK_RECORD
  5
1
100
AcDbSymbolTable
 70
    11
  0
BLOCK_RECORD
  5
A
100
AcDbSymbolTableRecord
100
AcDbBlockTableRecord
  2
*MODEL_SPACE
340
20
  0
BLOCK_RECORD
  5
B
100
AcDbSymbolTableRecord
100
AcDbBlockTableRecord
  2
*PAPER_SPACE
340
21
  0
BLOCK_RECORD
  5
25
100
AcDbSymbolTableRecord
100
AcDbBlockTableRecord
  2
*U0
340
0
102
{BLKREFS
331
AB
331
AC
331
AD
331
AE
331
AF
331
B0
331
B1
331
B2
331
B3
331
B4
102
}
  0
BLOCK_RECORD
  5
26
100
AcDbSymbolTableRecord
100
AcDbBlockTableRecord
  2
_OPEN30
340
0
102
{BLKREFS
331
36
331
37
331
44
331
45
331
53
331
54
331
60
331
61
331
6D
331
6E
331
7A
331
7B
331
88
331
89
331
95
331
96
331
A2
331
A3
102
}
  0
BLOCK_RECORD
  5
31
100
AcDbSymbolTableRecord
100
AcDbBlockTableRecord
  2
*D2
340
0
  0
BLOCK_RECORD
  5
3F
100
AcDbSymbolTableRecord
100
AcDbBlockTableRecord
  2
*D3
340
0
  0
BLOCK_RECORD
  5
4C
100
AcDbSymbolTableRecord
100
AcDbBlockTableRecord
  2
*D4
340
0
  0
BLOCK_RECORD
  5
5B
100
AcDbSymbolTableRecord
100
AcDbBlockTableRecord
  2
*D5
340
0
  0
BLOCK_RECORD
  5
68
100
AcDbSymbolTableRecord
100
AcDbBlockTableRecord
  2
*D6
340
0
  0
BLOCK_RECORD
  5
75
100
AcDbSymbolTableRecord
100
AcDbBlockTableRecord
  2
*D7
340
0
  0
BLOCK_RECORD
  5
83
100
AcDbSymbolTableRecord
100
AcDbBlockTableRecord
  2
*D8
340
0
  0
BLOCK_RECORD
  5
90
100
AcDbSymbolTableRecord
100
AcDbBlockTableRecord
  2
*D9
340
0
  0
BLOCK_RECORD
  5
9D
100
AcDbSymbolTableRecord
100
AcDbBlockTableRecord
  2
*D10
340
0
  0
ENDTAB
  0
ENDSEC
  0
SECTION
  2
BLOCKS
  0
BLOCK
  5
D
100
AcDbEntity
  8
0
390
0
100
AcDbBlockBegin
  2
*MODEL_SPACE
 70
     0
 10
0.0
 20
0.0
 30
0.0
  3
*MODEL_SPACE
  1

  0
ENDBLK
  5
E
100
AcDbEntity
  8
0
390
0
100
AcDbBlockEnd
  0
BLOCK
  5
F
100
AcDbEntity
 67
     1
  8
0
390
0
100
AcDbBlockBegin
  2
*PAPER_SPACE
 70
     0
 10
0.0
 20
0.0
 30
0.0
  3
*PAPER_SPACE
  1

  0
ENDBLK
  5
10
100
AcDbEntity
 67
     1
  8
0
390
0
100
AcDbBlockEnd
  0
BLOCK
  5
2C
100
AcDbEntity
  8
0
370
    -2
390
0
100
AcDbBlockBegin
  2
*U0
 70
     1
 10
0.0
 20
0.0
 30
0.0
  3
*U0
  1

  0
LINE
  5
2D
100
AcDbEntity
  8
0
390
0
  6
CONTINUOUS
 62
   110
100
AcDbLine
 10
-1.0
 20
0.267949
 30
0.0
 11
0.0
 21
0.0
 31
0.0
  0
LINE
  5
2E
100
AcDbEntity
  8
0
390
0
  6
CONTINUOUS
 62
   110
100
AcDbLine
 10
0.0
 20
0.0
 30
0.0
 11
-1.0
 21
-0.267949
 31
0.0
  0
LINE
  5
2F
100
AcDbEntity
  8
0
390
0
  6
CONTINUOUS
 62
   110
100
AcDbLine
 10
0.0
 20
0.0
 30
0.0
 11
-1.0
 21
0.0
 31
0.0
  0
ENDBLK
  5
30
100
AcDbEntity
  8
0
370
    -2
390
0
100
AcDbBlockEnd
  0
BLOCK
  5
27
100
AcDbEntity
  8
0
370
    -2
390
0
  6
ByBlock
 62
     0
100
AcDbBlockBegin
  2
_OPEN30
 70
     2
 10
0.0
 20
0.0
 30
0.0
  3
_OPEN30
  1

  0
LINE
  5
28
100
AcDbEntity
  8
0
370
    -2
390
0
  6
ByBlock
 62
     0
100
AcDbLine
 10
-1.0
 20
0.267949
 30
0.0
 11
0.0
 21
0.0
 31
0.0
  0
LINE
  5
29
100
AcDbEntity
  8
0
370
    -2
390
0
  6
ByBlock
 62
     0
100
AcDbLine
 10
0.0
 20
0.0
 30
0.0
 11
-1.0
 21
-0.267949
 31
0.0
  0
LINE
  5
2A
100
AcDbEntity
  8
0
370
    -2
390
0
  6
ByBlock
 62
     0
100
AcDbLine
 10
0.0
 20
0.0
 30
0.0
 11
-1.0
 21
0.0
 31
0.0
  0
ENDBLK
  5
2B
100
AcDbEntity
  8
0
370
    -2
390
0
  6
ByBlock
 62
     0
100
AcDbBlockEnd
  0
BLOCK
  5
32
100
AcDbEntity
  8
0
370
    -2
390
0
  6
ByBlock
 62
     0
100
AcDbBlockBegin
  2
*D2
 70
     1
 10
0.0
 20
0.0
 30
0.0
  3
*D2
  1

  0
LINE
  5
33
100
AcDbEntity
  8
0
390
0
  6
CONTINUOUS
 62
   110
100
AcDbLine
 10
290.0
 20
16.999996
 30
0.0
 11
290.0
 21
0.0
 31
0.0
  0
LINE
  5
34
100
AcDbEntity
  8
0
390
0
  6
CONTINUOUS
 62
   110
100
AcDbLine
 10
284.828735
 20
16.999996
 30
0.0
 11
291.0
 21
16.999996
 31
0.0
  0
LINE
  5
35
100
AcDbEntity
  8
0
390
0
  6
CONTINUOUS
 62
   110
100
AcDbLine
 10
268.930939
 20
0.0
 30
0.0
 11
291.0
 21
0.0
 31
0.0
  0
INSERT
  5
36
100
AcDbEntity
  8
0
390
0
  6
CONTINUOUS
 62
   110
100
AcDbBlockReference
  2
_OPEN30
 10
290.0
 20
16.999996
 30
0.0
 41
2.77
 42
2.77
 43
2.77
 50
90.0
  0
INSERT
  5
37
100
AcDbEntity
  8
0
390
0
  6
CONTINUOUS
 62
   110
100
AcDbBlockReference
  2
_OPEN30
 10
290.0
 20
0.0
 30
0.0
 41
2.77
 42
2.77
 43
2.77
 50
270.0
  0
MTEXT
  5
39
100
AcDbEntity
  8
0
390
0
  6
CONTINUOUS
 62
   110
100
AcDbMText
 10
286.5
 20
8.499998
 30
0.0
 40
5.0
 41
0.0
 71
     5
 72
     1
  1
\A1;17
  7
MX_DIMTXSTY_2
 11
0.0
 21
1.0
 31
0.0
 73
     1
 44
0.9
  0
POINT
  5
3A
100
AcDbEntity
  8
DEFPOINTS
390
0
  6
CONTINUOUS
 62
     0
100
AcDbPoint
 10
282.828735
 20
16.999996
 30
0.0
  0
POINT
  5
3B
100
AcDbEntity
  8
DEFPOINTS
390
0
  6
CONTINUOUS
 62
     0
100
AcDbPoint
 10
266.930939
 20
0.0
 30
0.0
  0
POINT
  5
3C
100
AcDbEntity
  8
DEFPOINTS
390
0
  6
CONTINUOUS
 62
     0
100
AcDbPoint
 10
290.0
 20
0.0
 30
0.0
  0
ENDBLK
  5
3D
100
AcDbEntity
  8
0
370
    -2
390
0
  6
ByBlock
 62
     0
100
AcDbBlockEnd
  0
BLOCK
  5
40
100
AcDbEntity
  8
0
370
    -2
390
0
  6
ByBlock
 62
     0
100
AcDbBlockBegin
  2
*D3
 70
     1
 10
0.0
 20
0.0
 30
0.0
  3
*D3
  1

  0
LINE
  5
41
100
AcDbEntity
  8
0
390
0
  6
CONTINUOUS
 62
   110
100
AcDbLine
 10
300.0
 20
25.5
 30
0.0
 11
300.0
 21
-25.5
 31
0.0
  0
LINE
  5
42
100
AcDbEntity
  8
0
390
0
  6
CONTINUOUS
 62
   110
100
AcDbLine
 10
251.697968
 20
25.5
 30
0.0
 11
301.0
 21
25.5
 31
0.0
  0
LINE
  5
43
100
AcDbEntity
  8
0
390
0
  6
CONTINUOUS
 62
   110
100
AcDbLine
 10
251.697968
 20
-25.5
 30
0.0
 11
301.0
 21
-25.5
 31
0.0
  0
INSERT
  5
44
100
AcDbEntity
  8
0
390
0
  6
CONTINUOUS
 62
   110
100
AcDbBlockReference
  2
_OPEN30
 10
300.0
 20
25.5
 30
0.0
 41
2.77
 42
2.77
 43
2.77
 50
90.0
  0
INSERT
  5
45
100
AcDbEntity
  8
0
390
0
  6
CONTINUOUS
 62
   110
100
AcDbBlockReference
  2
_OPEN30
 10
300.0
 20
-25.5
 30
0.0
 41
2.77
 42
2.77
 43
2.77
 50
270.0
  0
MTEXT
  5
46
100
AcDbEntity
  8
0
390
0
  6
CONTINUOUS
 62
   110
100
AcDbMText
 10
296.5
 20
0.0
 30
0.0
 40
5.0
 41
0.0
 71
     5
 72
     1
  1
\A1;\U+220551
 11
0.0
 21
1.0
 31
0.0
 73
     1
 44
0.9
  0
POINT
  5
47
100
AcDbEntity
  8
DEFPOINTS
390
0
  6
CONTINUOUS
 62
     0
100
AcDbPoint
 10
249.697968
 20
25.5
 30
0.0
  0
POINT
  5
48
100
AcDbEntity
  8
DEFPOINTS
390
0
  6
CONTINUOUS
 62
     0
100
AcDbPoint
 10
249.697968
 20
-25.5
 30
0.0
  0
POINT
  5
49
100
AcDbEntity
  8
DEFPOINTS
390
0
  6
CONTINUOUS
 62
     0
100
AcDbPoint
 10
300.0
 20
-25.5
 30
0.0
  0
ENDBLK
  5
4A
100
AcDbEntity
  8
0
370
    -2
390
0
  6
ByBlock
 62
     0
100
AcDbBlockEnd
  0
BLOCK
  5
4D
100
AcDbEntity
  8
0
370
    -2
390
0
  6
ByBlock
 62
     0
100
AcDbBlockBegin
  2
*D4
 70
     1
 10
0.0
 20
0.0
 30
0.0
  3
*D4
  1

  0
LINE
  5
4E
100
AcDbEntity
  8
0
390
0
  6
CONTINUOUS
 62
   110
100
AcDbLine
 10
255.697968
 20
50.0
 30
0.0
 11
262.697968
 21
50.0
 31
0.0
  0
LINE
  5
4F
100
AcDbEntity
  8
0
390
0
  6
CONTINUOUS
 62
   110
100
AcDbLine
 10
262.697968
 20
50.0
 30
0.0
 11
272.34375
 21
50.0
 31
0.0
  0
LINE
  5
50
100
AcDbEntity
  8
0
390
0
  6
CONTINUOUS
 62
   110
100
AcDbLine
 10
255.697968
 20
25.0
 30
0.0
 11
255.697968
 21
51.0
 31
0.0
  0
LINE
  5
51
100
AcDbEntity
  8
0
390
0
  6
CONTINUOUS
 62
   110
100
AcDbLine
 10
255.697968
 20
50.0
 30
0.0
 11
251.697968
 21
50.0
 31
0.0
  0
LINE
  5
52
100
AcDbEntity
  8
0
390
0
  6
CONTINUOUS
 62
   110
100
AcDbLine
 10
262.697968
 20
50.0
 30
0.0
 11
266.697968
 21
50.0
 31
0.0
  0
INSERT
  5
53
100
AcDbEntity
  8
0
390
0
  6
CONTINUOUS
 62
   110
100
AcDbBlockReference
  2
_OPEN30
 10
255.697968
 20
50.0
 30
0.0
 41
2.77
 42
2.77
 43
2.77
  0
INSERT
  5
54
100
AcDbEntity
  8
0
390
0
  6
CONTINUOUS
 62
   110
100
AcDbBlockReference
  2
_OPEN30
 10
262.697968
 20
50.0
 30
0.0
 41
2.77
 42
2.77
 43
2.77
 50
180.0
  0
MTEXT
  5
55
100
AcDbEntity
  8
0
390
0
  6
CONTINUOUS
 62
   110
100
AcDbMText
 10
270.0
 20
53.5
 30
0.0
 40
5.0
 41
0.0
 71
     5
 72
     1
  1
\A1;7
 73
     1
 44
0.9
  0
POINT
  5
56
100
AcDbEntity
  8
DEFPOINTS
390
0
  6
CONTINUOUS
 62
     0
100
AcDbPoint
 10
255.697968
 20
23.0
 30
0.0
  0
POINT
  5
57
100
AcDbEntity
  8
DEFPOINTS
390
0
  6
CONTINUOUS
 62
     0
100
AcDbPoint
 10
262.697968
 20
2.0
 30
0.0
  0
POINT
  5
58
100
AcDbEntity
  8
DEFPOINTS
390
0
  6
CONTINUOUS
 62
     0
100
AcDbPoint
 10
262.697968
 20
50.0
 30
0.0
  0
ENDBLK
  5
59
100
AcDbEntity
  8
0
370
    -2
390
0
  6
ByBlock
 62
     0
100
AcDbBlockEnd
  0
BLOCK
  5
5C
100
AcDbEntity
  8
0
370
    -2
390
0
  6
ByBlock
 62
     0
100
AcDbBlockBegin
  2
*D5
 70
     1
 10
0.0
 20
0.0
 30
0.0
  3
*D5
  1

  0
LINE
  5
5D
100
AcDbEntity
  8
0
390
0
  6
CONTINUOUS
 62
   110
100
AcDbLine
 10
113.897964
 20
50.0
 30
0.0
 11
138.897964
 21
50.0
 31
0.0
  0
LINE
  5
5E
100
AcDbEntity
  8
0
390
0
  6
CONTINUOUS
 62
   110
100
AcDbLine
 10
113.897964
 20
18.099998
 30
0.0
 11
113.897964
 21
51.0
 31
0.0
  0
LINE
  5
5F
100
AcDbEntity
  8
0
390
0
  6
CONTINUOUS
 62
   110
100
AcDbLine
 10
138.897964
 20
22.0
 30
0.0
 11
138.897964
 21
51.0
 31
0.0
  0
INSERT
  5
60
100
AcDbEntity
  8
0
390
0
  6
CONTINUOUS
 62
   110
100
AcDbBlockReference
  2
_OPEN30
 10
113.897964
 20
50.0
 30
0.0
 41
2.77
 42
2.77
 43
2.77
 50
180.0
  0
INSERT
  5
61
100
AcDbEntity
  8
0
390
0
  6
CONTINUOUS
 62
   110
100
AcDbBlockReference
  2
_OPEN30
 10
138.897964
 20
50.0
 30
0.0
 41
2.77
 42
2.77
 43
2.77
  0
MTEXT
  5
62
100
AcDbEntity
  8
0
390
0
  6
CONTINUOUS
 62
   110
100
AcDbMText
 10
126.397964
 20
53.5
 30
0.0
 40
5.0
 41
0.0
 71
     5
 72
     1
  1
\A1;25
 73
     1
 44
0.9
  0
POINT
  5
63
100
AcDbEntity
  8
DEFPOINTS
390
0
  6
CONTINUOUS
 62
     0
100
AcDbPoint
 10
113.897964
 20
16.099998
 30
0.0
  0
POINT
  5
64
100
AcDbEntity
  8
DEFPOINTS
390
0
  6
CONTINUOUS
 62
     0
100
AcDbPoint
 10
138.897964
 20
20.0
 30
0.0
  0
POINT
  5
65
100
AcDbEntity
  8
DEFPOINTS
390
0
  6
CONTINUOUS
 62
     0
100
AcDbPoint
 10
138.897964
 20
50.0
 30
0.0
  0
ENDBLK
  5
66
100
AcDbEntity
  8
0
370
    -2
390
0
  6
ByBlock
 62
     0
100
AcDbBlockEnd
  0
BLOCK
  5
69
100
AcDbEntity
  8
0
370
    -2
390
0
  6
ByBlock
 62
     0
100
AcDbBlockBegin
  2
*D6
 70
     1
 10
0.0
 20
0.0
 30
0.0
  3
*D6
  1

  0
LINE
  5
6A
100
AcDbEntity
  8
0
390
0
  6
CONTINUOUS
 62
   110
100
AcDbLine
 10
56.697968
 20
50.0
 30
0.0
 11
72.697968
 21
50.0
 31
0.0
  0
LINE
  5
6B
100
AcDbEntity
  8
0
390
0
  6
CONTINUOUS
 62
   110
100
AcDbLine
 10
56.697968
 20
4.0
 30
0.0
 11
56.697968
 21
51.0
 31
0.0
  0
LINE
  5
6C
100
AcDbEntity
  8
0
390
0
  6
CONTINUOUS
 62
   110
100
AcDbLine
 10
72.697968
 20
5.0
 30
0.0
 11
72.697968
 21
51.0
 31
0.0
  0
INSERT
  5
6D
100
AcDbEntity
  8
0
390
0
  6
CONTINUOUS
 62
   110
100
AcDbBlockReference
  2
_OPEN30
 10
56.697968
 20
50.0
 30
0.0
 41
2.77
 42
2.77
 43
2.77
 50
180.0
  0
INSERT
  5
6E
100
AcDbEntity
  8
0
390
0
  6
CONTINUOUS
 62
   110
100
AcDbBlockReference
  2
_OPEN30
 10
72.697968
 20
50.0
 30
0.0
 41
2.77
 42
2.77
 43
2.77
  0
MTEXT
  5
6F
100
AcDbEntity
  8
0
390
0
  6
CONTINUOUS
 62
   110
100
AcDbMText
 10
64.697968
 20
53.5
 30
0.0
 40
5.0
 41
0.0
 71
     5
 72
     1
  1
\A1;16
  7
MX_DIMTXSTY_2
 73
     1
 44
0.9
  0
POINT
  5
70
100
AcDbEntity
  8
DEFPOINTS
390
0
  6
CONTINUOUS
 62
     0
100
AcDbPoint
 10
56.697968
 20
2.0
 30
0.0
  0
POINT
  5
71
100
AcDbEntity
  8
DEFPOINTS
390
0
  6
CONTINUOUS
 62
     0
100
AcDbPoint
 10
72.697968
 20
3.0
 30
0.0
  0
POINT
  5
72
100
AcDbEntity
  8
DEFPOINTS
390
0
  6
CONTINUOUS
 62
     0
100
AcDbPoint
 10
72.697968
 20
50.0
 30
0.0
  0
ENDBLK
  5
73
100
AcDbEntity
  8
0
370
    -2
390
0
  6
ByBlock
 62
     0
100
AcDbBlockEnd
  0
BLOCK
  5
76
100
AcDbEntity
  8
0
370
    -2
390
0
  6
ByBlock
 62
     0
100
AcDbBlockBegin
  2
*D7
 70
     1
 10
0.0
 20
0.0
 30
0.0
  3
*D7
  1

  0
LINE
  5
77
100
AcDbEntity
  8
0
390
0
  6
CONTINUOUS
 62
   110
100
AcDbLine
 10
56.697968
 20
60.0
 30
0.0
 11
106.697968
 21
60.0
 31
0.0
  0
LINE
  5
78
100
AcDbEntity
  8
0
390
0
  6
CONTINUOUS
 62
   110
100
AcDbLine
 10
56.697968
 20
4.0
 30
0.0
 11
56.697968
 21
61.0
 31
0.0
  0
LINE
  5
79
100
AcDbEntity
  8
0
390
0
  6
CONTINUOUS
 62
   110
100
AcDbLine
 10
106.697968
 20
18.099998
 30
0.0
 11
106.697968
 21
61.0
 31
0.0
  0
INSERT
  5
7A
100
AcDbEntity
  8
0
390
0
  6
CONTINUOUS
 62
   110
100
AcDbBlockReference
  2
_OPEN30
 10
56.697968
 20
60.0
 30
0.0
 41
2.77
 42
2.77
 43
2.77
 50
180.0
  0
INSERT
  5
7B
100
AcDbEntity
  8
0
390
0
  6
CONTINUOUS
 62
   110
100
AcDbBlockReference
  2
_OPEN30
 10
106.697968
 20
60.0
 30
0.0
 41
2.77
 42
2.77
 43
2.77
  0
MTEXT
  5
7D
100
AcDbEntity
  8
0
390
0
  6
CONTINUOUS
 62
   110
100
AcDbMText
 10
81.697968
 20
63.5
 30
0.0
 40
5.0
 41
0.0
 71
     5
 72
     1
  1
\A1;50+30ストローク
  7
MX_DIMTXSTY_3
 73
     1
 44
0.9
  0
POINT
  5
7E
100
AcDbEntity
  8
DEFPOINTS
390
0
  6
CONTINUOUS
 62
     0
100
AcDbPoint
 10
56.697968
 20
2.0
 30
0.0
  0
POINT
  5
7F
100
AcDbEntity
  8
DEFPOINTS
390
0
  6
CONTINUOUS
 62
     0
100
AcDbPoint
 10
106.697968
 20
16.099998
 30
0.0
  0
POINT
  5
80
100
AcDbEntity
  8
DEFPOINTS
390
0
  6
CONTINUOUS
 62
     0
100
AcDbPoint
 10
106.697968
 20
60.0
 30
0.0
  0
ENDBLK
  5
81
100
AcDbEntity
  8
0
370
    -2
390
0
  6
ByBlock
 62
     0
100
AcDbBlockEnd
  0
BLOCK
  5
84
100
AcDbEntity
  8
0
370
    -2
390
0
  6
ByBlock
 62
     0
100
AcDbBlockBegin
  2
*D8
 70
     1
 10
0.0
 20
0.0
 30
0.0
  3
*D8
  1

  0
LINE
  5
85
100
AcDbEntity
  8
0
390
0
  6
CONTINUOUS
 62
   110
100
AcDbLine
 10
56.697968
 20
70.0
 30
0.0
 11
262.697968
 21
70.0
 31
0.0
  0
LINE
  5
86
100
AcDbEntity
  8
0
390
0
  6
CONTINUOUS
 62
   110
100
AcDbLine
 10
56.697968
 20
4.0
 30
0.0
 11
56.697968
 21
71.0
 31
0.0
  0
LINE
  5
87
100
AcDbEntity
  8
0
390
0
  6
CONTINUOUS
 62
   110
100
AcDbLine
 10
262.697968
 20
2.0
 30
0.0
 11
262.697968
 21
71.0
 31
0.0
  0
INSERT
  5
88
100
AcDbEntity
  8
0
390
0
  6
CONTINUOUS
 62
   110
100
AcDbBlockReference
  2
_OPEN30
 10
56.697968
 20
70.0
 30
0.0
 41
2.77
 42
2.77
 43
2.77
 50
180.0
  0
INSERT
  5
89
100
AcDbEntity
  8
0
390
0
  6
CONTINUOUS
 62
   110
100
AcDbBlockReference
  2
_OPEN30
 10
262.697968
 20
70.0
 30
0.0
 41
2.77
 42
2.77
 43
2.77
  0
MTEXT
  5
8A
100
AcDbEntity
  8
0
390
0
  6
CONTINUOUS
 62
   110
100
AcDbMText
 10
159.697968
 20
73.5
 30
0.0
 40
5.0
 41
0.0
 71
     5
 72
     1
  1
\A1;236～206（30ストローク）
  7
MX_DIMTXSTY_3
 73
     1
 44
0.9
  0
POINT
  5
8B
100
AcDbEntity
  8
DEFPOINTS
390
0
  6
CONTINUOUS
 62
     0
100
AcDbPoint
 10
56.697968
 20
2.0
 30
0.0
  0
POINT
  5
8C
100
AcDbEntity
  8
DEFPOINTS
390
0
  6
CONTINUOUS
 62
     0
100
AcDbPoint
 10
262.697968
 20
0.0
 30
0.0
  0
POINT
  5
8D
100
AcDbEntity
  8
DEFPOINTS
390
0
  6
CONTINUOUS
 62
     0
100
AcDbPoint
 10
262.697968
 20
70.0
 30
0.0
  0
ENDBLK
  5
8E
100
AcDbEntity
  8
0
370
    -2
390
0
  6
ByBlock
 62
     0
100
AcDbBlockEnd
  0
BLOCK
  5
91
100
AcDbEntity
  8
0
370
    -2
390
0
  6
ByBlock
 62
     0
100
AcDbBlockBegin
  2
*D9
 70
     1
 10
0.0
 20
0.0
 30
0.0
  3
*D9
  1

  0
LINE
  5
92
100
AcDbEntity
  8
0
390
0
  6
CONTINUOUS
 62
   110
100
AcDbLine
 10
255.697968
 20
60.086969
 30
0.0
 11
279.697968
 21
60.086969
 31
0.0
  0
LINE
  5
93
100
AcDbEntity
  8
0
390
0
  6
CONTINUOUS
 62
   110
100
AcDbLine
 10
255.697968
 20
25.000002
 30
0.0
 11
255.697968
 21
61.086969
 31
0.0
  0
LINE
  5
94
100
AcDbEntity
  8
0
390
0
  6
CONTINUOUS
 62
   110
100
AcDbLine
 10
279.697968
 20
23.499994
 30
0.0
 11
279.697968
 21
61.086969
 31
0.0
  0
INSERT
  5
95
100
AcDbEntity
  8
0
390
0
  6
CONTINUOUS
 62
   110
100
AcDbBlockReference
  2
_OPEN30
 10
255.697968
 20
60.086969
 30
0.0
 41
2.77
 42
2.77
 43
2.77
 50
180.0
  0
INSERT
  5
96
100
AcDbEntity
  8
0
390
0
  6
CONTINUOUS
 62
   110
100
AcDbBlockReference
  2
_OPEN30
 10
279.697968
 20
60.086969
 30
0.0
 41
2.77
 42
2.77
 43
2.77
  0
MTEXT
  5
97
100
AcDbEntity
  8
0
390
0
  6
CONTINUOUS
 62
   110
100
AcDbMText
 10
271.097919
 20
63.586969
 30
0.0
 40
5.0
 41
0.0
 71
     5
 72
     1
  1
\A1;24
 73
     1
 44
0.9
  0
POINT
  5
98
100
AcDbEntity
  8
DEFPOINTS
390
0
  6
CONTINUOUS
 62
     0
100
AcDbPoint
 10
255.697968
 20
23.000002
 30
0.0
  0
POINT
  5
99
100
AcDbEntity
  8
DEFPOINTS
390
0
  6
CONTINUOUS
 62
     0
100
AcDbPoint
 10
279.697968
 20
21.499994
 30
0.0
  0
POINT
  5
9A
100
AcDbEntity
  8
DEFPOINTS
390
0
  6
CONTINUOUS
 62
     0
100
AcDbPoint
 10
279.697968
 20
60.086969
 30
0.0
  0
ENDBLK
  5
9B
100
AcDbEntity
  8
0
370
    -2
390
0
  6
ByBlock
 62
     0
100
AcDbBlockEnd
  0
BLOCK
  5
9E
100
AcDbEntity
  8
0
370
    -2
390
0
  6
ByBlock
 62
     0
100
AcDbBlockBegin
  2
*D10
 70
     1
 10
0.0
 20
0.0
 30
0.0
  3
*D10
  1

  0
LINE
  5
9F
100
AcDbEntity
  8
0
390
0
  6
CONTINUOUS
 62
   110
100
AcDbLine
 10
106.697968
 20
60.086969
 30
0.0
 11
255.697968
 21
60.086969
 31
0.0
  0
LINE
  5
A0
100
AcDbEntity
  8
0
390
0
  6
CONTINUOUS
 62
   110
100
AcDbLine
 10
106.697968
 20
18.1
 30
0.0
 11
106.697968
 21
61.086969
 31
0.0
  0
LINE
  5
A1
100
AcDbEntity
  8
0
390
0
  6
CONTINUOUS
 62
   110
100
AcDbLine
 10
255.697968
 20
25.000002
 30
0.0
 11
255.697968
 21
61.086969
 31
0.0
  0
INSERT
  5
A2
100
AcDbEntity
  8
0
390
0
  6
CONTINUOUS
 62
   110
100
AcDbBlockReference
  2
_OPEN30
 10
106.697968
 20
60.086969
 30
0.0
 41
2.77
 42
2.77
 43
2.77
 50
180.0
  0
INSERT
  5
A3
100
AcDbEntity
  8
0
390
0
  6
CONTINUOUS
 62
   110
100
AcDbBlockReference
  2
_OPEN30
 10
255.697968
 20
60.086969
 30
0.0
 41
2.77
 42
2.77
 43
2.77
  0
MTEXT
  5
A5
100
AcDbEntity
  8
0
390
0
  6
CONTINUOUS
 62
   110
100
AcDbMText
 10
181.197968
 20
63.586969
 30
0.0
 40
5.0
 41
0.0
 71
     5
 72
     1
  1
\A1;149
  7
MX_DIMTXSTY_4
 73
     1
 44
0.9
  0
POINT
  5
A6
100
AcDbEntity
  8
DEFPOINTS
390
0
  6
CONTINUOUS
 62
     0
100
AcDbPoint
 10
106.697968
 20
16.1
 30
0.0
  0
POINT
  5
A7
100
AcDbEntity
  8
DEFPOINTS
390
0
  6
CONTINUOUS
 62
     0
100
AcDbPoint
 10
255.697968
 20
23.000002
 30
0.0
  0
POINT
  5
A8
100
AcDbEntity
  8
DEFPOINTS
390
0
  6
CONTINUOUS
 62
     0
100
AcDbPoint
 10
255.697968
 20
60.086969
 30
0.0
  0
ENDBLK
  5
A9
100
AcDbEntity
  8
0
370
    -2
390
0
  6
ByBlock
 62
     0
100
AcDbBlockEnd
  0
ENDSEC
  0
SECTION
  2
ENTITIES
  0
DIMENSION
  5
3E
100
AcDbEntity
  8
0
390
0
  6
CONTINUOUS
 62
   110
100
AcDbDimension
  2
*D2
 10
290.0
 20
0.0
 30
0.0
 11
290.0
 21
8.499998
 31
0.0
 70
   128
 71
     5
 72
     1
 41
0.9
 42
16.999996
  1
\A1;<>
  3
MXDIMSTYLE
100
AcDbAlignedDimension
 13
282.828735
 23
16.999996
 33
0.0
 14
266.930939
 24
0.0
 34
0.0
 50
90.0
100
AcDbRotatedDimension
1001
ACAD
1000
DSTYLE
1002
{
1070
    41
1040
2.77
1070
   140
1040
5.0
1070
   284
1070
     8
1070
   340
1005
38
1002
}
  0
DIMENSION
  5
4B
100
AcDbEntity
  8
0
390
0
  6
CONTINUOUS
 62
   110
100
AcDbDimension
  2
*D3
 10
300.0
 20
-25.5
 30
0.0
 11
300.0
 21
0.0
 31
0.0
 70
   128
 71
     5
 72
     1
 41
0.9
 42
51.0
  1
\A1;\U+2205<>
  3
MXDIMSTYLE
100
AcDbAlignedDimension
 13
249.697968
 23
25.5
 33
0.0
 14
249.697968
 24
-25.5
 34
0.0
 50
90.0
100
AcDbRotatedDimension
1001
ACAD
1000
DSTYLE
1002
{
1070
    41
1040
2.77
1070
   140
1040
5.0
1070
   284
1070
     8
1002
}
  0
DIMENSION
  5
5A
100
AcDbEntity
  8
0
390
0
  6
CONTINUOUS
 62
   110
100
AcDbDimension
  2
*D4
 10
262.697968
 20
50.0
 30
0.0
 11
270.0
 21
50.0
 31
0.0
 70
   128
 71
     5
 72
     1
 41
0.9
 42
7.0
  1
\A1;<>
  3
MXDIMSTYLE
100
AcDbAlignedDimension
 13
255.697968
 23
23.0
 33
0.0
 14
262.697968
 24
2.0
 34
0.0
100
AcDbRotatedDimension
1001
ACAD
1000
DSTYLE
1002
{
1070
    41
1040
2.77
1070
    76
1070
     1
1070
   140
1040
5.0
1070
   284
1070
     8
1002
}
  0
DIMENSION
  5
67
100
AcDbEntity
  8
0
390
0
  6
CONTINUOUS
 62
   110
100
AcDbDimension
  2
*D5
 10
138.897964
 20
50.0
 30
0.0
 11
126.397964
 21
50.0
 31
0.0
 70
   128
 71
     5
 72
     1
 41
0.9
 42
25.0
  1
\A1;<>
  3
MXDIMSTYLE
100
AcDbAlignedDimension
 13
113.897964
 23
16.099998
 33
0.0
 14
138.897964
 24
20.0
 34
0.0
100
AcDbRotatedDimension
1001
ACAD
1000
DSTYLE
1002
{
1070
    41
1040
2.77
1070
   140
1040
5.0
1070
   284
1070
     8
1002
}
  0
DIMENSION
  5
74
100
AcDbEntity
  8
0
390
0
  6
CONTINUOUS
 62
   110
100
AcDbDimension
  2
*D6
 10
72.697968
 20
50.0
 30
0.0
 11
64.697968
 21
50.0
 31
0.0
 70
   128
 71
     5
 72
     1
 41
0.9
 42
16.0
  1
\A1;<>
  3
MXDIMSTYLE
100
AcDbAlignedDimension
 13
56.697968
 23
2.0
 33
0.0
 14
72.697968
 24
3.0
 34
0.0
100
AcDbRotatedDimension
1001
ACAD
1000
DSTYLE
1002
{
1070
    41
1040
2.77
1070
   140
1040
5.0
1070
   284
1070
     8
1070
   340
1005
38
1002
}
  0
DIMENSION
  5
82
100
AcDbEntity
  8
0
390
0
  6
CONTINUOUS
 62
   110
100
AcDbDimension
  2
*D7
 10
106.697968
 20
60.0
 30
0.0
 11
81.697968
 21
60.0
 31
0.0
 70
   128
 71
     5
 72
     1
 41
0.9
 42
50.0
  1
\A1;<>+30ストローク
  3
MXDIMSTYLE
100
AcDbAlignedDimension
 13
56.697968
 23
2.0
 33
0.0
 14
106.697968
 24
16.099998
 34
0.0
100
AcDbRotatedDimension
1001
ACAD
1000
DSTYLE
1002
{
1070
    41
1040
2.77
1070
   140
1040
5.0
1070
   284
1070
     8
1070
   340
1005
7C
1002
}
  0
DIMENSION
  5
8F
100
AcDbEntity
  8
0
390
0
  6
CONTINUOUS
 62
   110
100
AcDbDimension
  2
*D8
 10
262.697968
 20
70.0
 30
0.0
 11
159.697968
 21
70.0
 31
0.0
 70
   128
 71
     5
 72
     1
 41
0.9
 42
206.0
  1
\A1;236～<>（30ストローク）
  3
MXDIMSTYLE
100
AcDbAlignedDimension
 13
56.697968
 23
2.0
 33
0.0
 14
262.697968
 24
0.0
 34
0.0
100
AcDbRotatedDimension
1001
ACAD
1000
DSTYLE
1002
{
1070
    41
1040
2.77
1070
   140
1040
5.0
1070
   284
1070
     8
1070
   340
1005
7C
1002
}
  0
DIMENSION
  5
9C
100
AcDbEntity
  8
0
390
0
  6
CONTINUOUS
 62
   110
100
AcDbDimension
  2
*D9
 10
279.697968
 20
60.086969
 30
0.0
 11
271.097919
 21
60.086969
 31
0.0
 70
   128
 71
     5
 72
     1
 41
0.9
 42
24.0
  1
\A1;<>
  3
MXDIMSTYLE
100
AcDbAlignedDimension
 13
255.697968
 23
23.000002
 33
0.0
 14
279.697968
 24
21.499994
 34
0.0
100
AcDbRotatedDimension
1001
ACAD
1000
DSTYLE
1002
{
1070
    41
1040
2.77
1070
   140
1040
5.0
1070
   284
1070
     8
1002
}
  0
DIMENSION
  5
AA
100
AcDbEntity
  8
0
390
0
  6
CONTINUOUS
 62
   110
100
AcDbDimension
  2
*D10
 10
255.697968
 20
60.086969
 30
0.0
 11
181.197968
 21
60.086969
 31
0.0
 70
   128
 71
     5
 72
     1
 41
0.9
 42
149.0
  1
\A1;<>
  3
MXDIMSTYLE
100
AcDbAlignedDimension
 13
106.697968
 23
16.1
 33
0.0
 14
255.697968
 24
23.000002
 34
0.0
100
AcDbRotatedDimension
1001
ACAD
1000
DSTYLE
1002
{
1070
    41
1040
2.77
1070
   140
1040
5.0
1070
   284
1070
     8
1070
   340
1005
A4
1002
}
  0
INSERT
  5
AB
100
AcDbEntity
  8
LY_3
390
0
  6
ByBlock
100
AcDbBlockReference
  2
*U0
 10
274.86464
 20
144.000007
 30
0.0
 41
2.77
 42
2.77
 43
2.77
 50
248.290137
  0
INSERT
  5
AC
100
AcDbEntity
  8
LY_3
390
0
  6
ByBlock
100
AcDbBlockReference
  2
*U0
 10
153.442779
 20
-11.944744
 30
0.0
 41
2.77
 42
2.77
 43
2.77
 50
124.909627
  0
INSERT
  5
AD
100
AcDbEntity
  8
LY_3
390
0
  6
ByBlock
100
AcDbBlockReference
  2
*U0
 10
113.971952
 20
-6.190978
 30
0.0
 41
2.77
 42
2.77
 43
2.77
 50
110.095643
  0
INSERT
  5
AE
100
AcDbEntity
  8
LY_3
390
0
  6
ByBlock
100
AcDbBlockReference
  2
*U0
 10
110.289543
 20
-5.960828
 30
0.0
 41
2.77
 42
2.77
 43
2.77
 50
76.849031
  0
INSERT
  5
AF
100
AcDbEntity
  8
LY_3
390
0
  6
ByBlock
100
AcDbBlockReference
  2
*U0
 10
220.538298
 20
119.369053
 30
0.0
 41
2.77
 42
2.77
 43
2.77
 50
119.94211
  0
INSERT
  5
B0
100
AcDbEntity
  8
LY_3
390
0
  6
ByBlock
100
AcDbBlockReference
  2
*U0
 10
173.540156
 20
132.583892
 30
0.0
 41
2.77
 42
2.77
 43
2.77
 50
115.382599
  0
INSERT
  5
B1
100
AcDbEntity
  8
LY_3
390
0
  6
ByBlock
100
AcDbBlockReference
  2
*U0
 10
109.430623
 20
155.91397
 30
0.0
 41
2.77
 42
2.77
 43
2.77
 50
245.913586
  0
INSERT
  5
B2
100
AcDbEntity
  8
LY_3
390
0
  6
ByBlock
100
AcDbBlockReference
  2
*U0
 10
249.197926
 20
159.999982
 30
0.0
 41
2.77
 42
2.77
 43
2.77
 50
243.43494
  0
INSERT
  5
B3
100
AcDbEntity
  8
LY_3
390
0
  6
ByBlock
100
AcDbBlockReference
  2
*U0
 10
198.864634
 20
140.666667
 30
0.0
 41
2.77
 42
2.77
 43
2.77
 50
242.663335
  0
INSERT
  5
B4
100
AcDbEntity
  8
LY_3
390
0
  6
ByBlock
100
AcDbBlockReference
  2
*U0
 10
177.892965
 20
158.142697
 30
0.0
 41
2.77
 42
2.77
 43
2.77
 50
242.651158
  0
LINE
  5
B5
100
AcDbEntity
  8
LY_3
390
0
  6
CONTINUOUS
 62
     3
100
AcDbLine
 10
143.710464
 20
140.657616
 30
0.0
 11
144.085464
 21
140.657616
 31
0.0
  0
LINE
  5
B6
100
AcDbEntity
  8
LY_3
390
0
  6
CONTINUOUS
 62
     3
100
AcDbLine
 10
143.710464
 20
137.657616
 30
0.0
 11
144.085464
 21
137.657616
 31
0.0
  0
LINE
  5
B7
100
AcDbEntity
  8
LY_3
390
0
  6
CONTINUOUS
 62
     3
100
AcDbLine
 10
145.397964
 20
139.345116
 30
0.0
 11
145.397964
 21
138.970116
 31
0.0
  0
LINE
  5
B8
100
AcDbEntity
  8
LY_3
390
0
  6
CONTINUOUS
 62
     3
100
AcDbLine
 10
142.397964
 20
139.345116
 30
0.0
 11
142.397964
 21
138.970116
 31
0.0
  0
LINE
  5
B9
100
AcDbEntity
  8
LY_3
390
0
  6
CONTINUOUS
 62
     3
100
AcDbLine
 10
144.085464
 20
140.657616
 30
0.0
 11
144.085464
 21
139.967161
 31
0.0
  0
LINE
  5
BA
100
AcDbEntity
  8
LY_3
390
0
  6
CONTINUOUS
 62
     3
100
AcDbLine
 10
143.710464
 20
140.657616
 30
0.0
 11
143.710464
 21
139.967161
 31
0.0
  0
LINE
  5
BB
100
AcDbEntity
  8
LY_3
390
0
  6
CONTINUOUS
 62
     3
100
AcDbLine
 10
142.397964
 20
138.970116
 30
0.0
 11
143.088419
 21
138.970116
 31
0.0
  0
LINE
  5
BC
100
AcDbEntity
  8
LY_3
390
0
  6
CONTINUOUS
 62
     3
100
AcDbLine
 10
142.397964
 20
139.345116
 30
0.0
 11
143.088419
 21
139.345116
 31
0.0
  0
LINE
  5
BD
100
AcDbEntity
  8
LY_3
390
0
  6
CONTINUOUS
 62
     3
100
AcDbLine
 10
143.710464
 20
138.34807
 30
0.0
 11
143.710464
 21
137.657616
 31
0.0
  0
LINE
  5
BE
100
AcDbEntity
  8
LY_3
390
0
  6
CONTINUOUS
 62
     3
100
AcDbLine
 10
144.085464
 20
138.34807
 30
0.0
 11
144.085464
 21
137.657616
 31
0.0
  0
LINE
  5
BF
100
AcDbEntity
  8
LY_3
390
0
  6
CONTINUOUS
 62
     3
100
AcDbLine
 10
144.70751
 20
138.970116
 30
0.0
 11
145.397964
 21
138.970116
 31
0.0
  0
LINE
  5
C0
100
AcDbEntity
  8
LY_3
390
0
  6
CONTINUOUS
 62
     3
100
AcDbLine
 10
144.70751
 20
139.345116
 30
0.0
 11
145.397964
 21
139.345116
 31
0.0
  0
ARC
  5
C1
100
AcDbEntity
  8
LY_3
390
0
  6
CONTINUOUS
 62
     3
100
AcDbCircle
 10
143.088419
 20
139.967161
 30
0.0
 40
0.622046
100
AcDbArc
 50
270.000018
 51
0.0
  0
ARC
  5
C2
100
AcDbEntity
  8
LY_3
390
0
  6
CONTINUOUS
 62
     3
100
AcDbCircle
 10
143.088419
 20
138.34807
 30
0.0
 40
0.622046
100
AcDbArc
 50
0.0
 51
89.999982
  0
ARC
  5
C3
100
AcDbEntity
  8
LY_3
390
0
  6
CONTINUOUS
 62
     3
100
AcDbCircle
 10
144.70751
 20
138.34807
 30
0.0
 40
0.622046
100
AcDbArc
 50
89.999982
 51
179.999964
  0
ARC
  5
C4
100
AcDbEntity
  8
LY_3
390
0
  6
CONTINUOUS
 62
     3
100
AcDbCircle
 10
144.70751
 20
139.967161
 30
0.0
 40
0.622046
100
AcDbArc
 50
179.999981
 51
270.000018
  0
CIRCLE
  5
C5
100
AcDbEntity
  8
LY_3
390
0
  6
CONTINUOUS
 62
     3
100
AcDbCircle
 10
143.897964
 20
139.157616
 30
0.0
 40
2.75
  0
LINE
  5
C6
100
AcDbEntity
  8
LY_3
390
0
  6
CONTINUOUS
 62
     3
100
AcDbLine
 10
250.197968
 20
25.0
 30
0.0
 11
253.697968
 21
25.0
 31
0.0
  0
LINE
  5
C7
100
AcDbEntity
  8
LY_3
390
0
  6
CONTINUOUS
 62
     3
100
AcDbLine
 10
250.197962
 20
24.999996
 30
0.0
 11
249.697962
 21
25.499997
 31
0.0
  0
LINE
  5
C8
100
AcDbEntity
  8
LY_3
390
0
  6
CONTINUOUS
 62
     3
100
AcDbLine
 10
236.697966
 20
25.499999
 30
0.0
 11
236.197966
 21
24.999998
 31
0.0
  0
LINE
  5
C9
100
AcDbEntity
  8
LY_3
390
0
  6
CONTINUOUS
 62
   110
100
AcDbLine
 10
236.697968
 20
20.5
 30
0.0
 11
249.697968
 21
20.5
 31
0.0
  0
LINE
  5
CA
100
AcDbEntity
  8
LY_3
390
0
  6
CONTINUOUS
 62
   110
100
AcDbLine
 10
236.697968
 20
21.0
 30
0.0
 11
249.697968
 21
21.0
 31
0.0
  0
LINE
  5
CB
100
AcDbEntity
  8
LY_3
390
0
  6
CONTINUOUS
 62
   110
100
AcDbLine
 10
236.697968
 20
21.5
 30
0.0
 11
249.697968
 21
21.5
 31
0.0
  0
LINE
  5
CC
100
AcDbEntity
  8
LY_3
390
0
  6
CONTINUOUS
 62
   110
100
AcDbLine
 10
236.697968
 20
22.0
 30
0.0
 11
249.697968
 21
22.0
 31
0.0
  0
LINE
  5
CD
100
AcDbEntity
  8
LY_3
390
0
  6
CONTINUOUS
 62
   110
100
AcDbLine
 10
236.697968
 20
22.5
 30
0.0
 11
249.697968
 21
22.5
 31
0.0
  0
LINE
  5
CE
100
AcDbEntity
  8
LY_3
390
0
  6
CONTINUOUS
 62
   110
100
AcDbLine
 10
236.697968
 20
23.0
 30
0.0
 11
249.697968
 21
23.0
 31
0.0
  0
LINE
  5
CF
100
AcDbEntity
  8
LY_3
390
0
  6
CONTINUOUS
 62
   110
100
AcDbLine
 10
236.697968
 20
23.5
 30
0.0
 11
249.697968
 21
23.5
 31
0.0
  0
LINE
  5
D0
100
AcDbEntity
  8
LY_3
390
0
  6
CONTINUOUS
 62
   110
100
AcDbLine
 10
236.697968
 20
24.0
 30
0.0
 11
249.697968
 21
24.0
 31
0.0
  0
LINE
  5
D1
100
AcDbEntity
  8
LY_3
390
0
  6
CONTINUOUS
 62
   110
100
AcDbLine
 10
236.697968
 20
24.5
 30
0.0
 11
249.697968
 21
24.5
 31
0.0
  0
LINE
  5
D2
100
AcDbEntity
  8
LY_3
390
0
  6
CONTINUOUS
 62
   110
100
AcDbLine
 10
236.697968
 20
25.0
 30
0.0
 11
249.697968
 21
25.0
 31
0.0
  0
LINE
  5
D3
100
AcDbEntity
  8
LY_3
390
0
  6
CONTINUOUS
 62
     3
100
AcDbLine
 10
236.697968
 20
25.5
 30
0.0
 11
249.697968
 21
25.5
 31
0.0
  0
LINE
  5
D4
100
AcDbEntity
  8
LY_3
390
0
  6
CONTINUOUS
 62
     3
100
AcDbLine
 10
250.197964
 20
-25.000002
 30
0.0
 11
249.697974
 21
-25.499991
 31
0.0
  0
LINE
  5
D5
100
AcDbEntity
  8
LY_3
390
0
  6
CONTINUOUS
 62
     3
100
AcDbLine
 10
250.197968
 20
25.0
 30
0.0
 11
250.197968
 21
-25.0
 31
0.0
  0
LINE
  5
D6
100
AcDbEntity
  8
LY_3
390
0
  6
CONTINUOUS
 62
     3
100
AcDbLine
 10
249.697968
 20
25.5
 30
0.0
 11
249.697968
 21
-25.5
 31
0.0
  0
LINE
  5
D7
100
AcDbEntity
  8
LY_3
390
0
  6
CONTINUOUS
 62
     3
100
AcDbLine
 10
250.197968
 20
-25.0
 30
0.0
 11
253.697968
 21
-25.0
 31
0.0
  0
LINE
  5
D8
100
AcDbEntity
  8
LY_3
390
0
  6
CONTINUOUS
 62
     3
100
AcDbLine
 10
236.697966
 20
-25.499996
 30
0.0
 11
236.197968
 21
-24.999998
 31
0.0
  0
LINE
  5
D9
100
AcDbEntity
  8
LY_3
390
0
  6
CONTINUOUS
 62
     3
100
AcDbLine
 10
236.197968
 20
25.0
 30
0.0
 11
236.197968
 21
-25.0
 31
0.0
  0
LINE
  5
DA
100
AcDbEntity
  8
LY_3
390
0
  6
CONTINUOUS
 62
     3
100
AcDbLine
 10
236.697968
 20
25.5
 30
0.0
 11
236.697968
 21
-25.5
 31
0.0
  0
LINE
  5
DB
100
AcDbEntity
  8
LY_3
390
0
  6
CONTINUOUS
 62
     3
100
AcDbLine
 10
236.697968
 20
-25.5
 30
0.0
 11
249.697968
 21
-25.5
 31
0.0
  0
LINE
  5
DC
100
AcDbEntity
  8
LY_3
390
0
  6
CONTINUOUS
 62
     3
100
AcDbLine
 10
229.697942
 20
-24.000037
 30
0.0
 11
230.697943
 21
-25.000039
 31
0.0
  0
LINE
  5
DD
100
AcDbEntity
  8
LY_3
390
0
  6
CONTINUOUS
 62
     3
100
AcDbLine
 10
230.697968
 20
-25.0
 30
0.0
 11
236.197968
 21
-25.0
 31
0.0
  0
LINE
  5
DE
100
AcDbEntity
  8
LY_3
390
0
  6
CONTINUOUS
 62
     3
100
AcDbLine
 10
228.697968
 20
-22.0
 30
0.0
 11
229.697968
 21
-22.0
 31
0.0
  0
LINE
  5
DF
100
AcDbEntity
  8
LY_3
390
0
  6
CONTINUOUS
 62
   110
100
AcDbLine
 10
217.697968
 20
-19.768898
 30
0.0
 11
221.697968
 21
-19.768898
 31
0.0
  0
MTEXT
  5
E0
100
AcDbEntity
  8
LY_3
390
0
  6
CONTINUOUS
 62
   110
100
AcDbMText
 10
222.597968
 20
-19.768898
 30
0.0
 40
3.2
 41
0.0
 71
     2
 72
     1
  1
\W0.952;\A1;4
 11
0.0
 21
1.0
 31
0.0
 73
     1
 44
1.0
  0
LINE
  5
E1
100
AcDbEntity
  8
LY_3
390
0
  6
CONTINUOUS
 62
     3
100
AcDbLine
 10
217.697964
 20
-21.037621
 30
0.0
 11
228.697953
 21
-21.999993
 31
0.0
  0
MTEXT
  5
E2
100
AcDbEntity
  8
LY_3
390
0
  6
CONTINUOUS
 62
   110
100
AcDbMText
 10
222.597968
 20
-12.365608
 30
0.0
 40
3.2
 41
0.0
 71
     2
 72
     1
  1
\W0.952;\A1;3
 11
0.0
 21
1.0
 31
0.0
 73
     1
 44
1.0
  0
LINE
  5
E3
100
AcDbEntity
  8
LY_3
390
0
  6
CONTINUOUS
 62
   110
100
AcDbLine
 10
217.697968
 20
-12.365608
 30
0.0
 11
221.697968
 21
-12.365608
 31
0.0
  0
LINE
  5
E4
100
AcDbEntity
  8
LY_3
390
0
  6
CONTINUOUS
 62
     3
100
AcDbLine
 10
217.697968
 20
-21.037628
 30
0.0
 11
217.697968
 21
21.037628
 31
0.0
  0
MTEXT
  5
E5
100
AcDbEntity
  8
LY_3
390
0
  6
CONTINUOUS
 62
   110
100
AcDbMText
 10
222.597968
 20
0.0
 30
0.0
 40
3.2
 41
0.0
 71
     2
 72
     1
  1
\W0.952;\A1;2
 11
0.0
 21
1.0
 31
0.0
 73
     1
 44
1.0
  0
LINE
  5
E6
100
AcDbEntity
  8
LY_3
390
0
  6
CONTINUOUS
 62
   110
100
AcDbLine
 10
217.397964
 20
0.0
 30
0.0
 11
220.983429
 21
0.0
 31
0.0
  0
LINE
  5
E7
100
AcDbEntity
  8
LY_3
390
0
  6
CONTINUOUS
 62
     3
100
AcDbLine
 10
228.697968
 20
22.0
 30
0.0
 11
229.697968
 21
22.0
 31
0.0
  0
LINE
  5
E8
100
AcDbEntity
  8
LY_3
390
0
  6
CONTINUOUS
 62
     3
100
AcDbLine
 10
229.697977
 20
23.999978
 30
0.0
 11
230.697978
 21
24.999979
 31
0.0
  0
LINE
  5
E9
100
AcDbEntity
  8
LY_3
390
0
  6
CONTINUOUS
 62
     3
100
AcDbLine
 10
230.697968
 20
25.0
 30
0.0
 11
230.697968
 21
-25.0
 31
0.0
  0
LINE
  5
EA
100
AcDbEntity
  8
LY_3
390
0
  6
CONTINUOUS
 62
     3
100
AcDbLine
 10
229.697968
 20
24.0
 30
0.0
 11
229.697968
 21
-24.0
 31
0.0
  0
LINE
  5
EB
100
AcDbEntity
  8
LY_3
390
0
  6
CONTINUOUS
 62
     3
100
AcDbLine
 10
230.697968
 20
25.0
 30
0.0
 11
236.197968
 21
25.0
 31
0.0
  0
MTEXT
  5
EC
100
AcDbEntity
  8
LY_3
390
0
  6
CONTINUOUS
 62
   110
100
AcDbMText
 10
222.597968
 20
19.767982
 30
0.0
 40
3.2
 41
0.0
 71
     2
 72
     1
  1
\W1.143;\A1;0
 11
0.0
 21
1.0
 31
0.0
 73
     1
 44
1.0
  0
MTEXT
  5
ED
100
AcDbEntity
  8
LY_3
390
0
  6
CONTINUOUS
 62
   110
100
AcDbMText
 10
222.597968
 20
12.362762
 30
0.0
 40
3.2
 41
0.0
 71
     2
 72
     1
  1
\W1.500;\A1;1
 11
0.0
 21
1.0
 31
0.0
 73
     1
 44
1.0
  0
LINE
  5
EE
100
AcDbEntity
  8
LY_3
390
0
  6
CONTINUOUS
 62
   110
100
AcDbLine
 10
217.697968
 20
19.767982
 30
0.0
 11
221.697968
 21
19.767982
 31
0.0
  0
LINE
  5
EF
100
AcDbEntity
  8
LY_3
390
0
  6
CONTINUOUS
 62
   110
100
AcDbLine
 10
217.697968
 20
12.362762
 30
0.0
 11
221.697968
 21
12.362762
 31
0.0
  0
LINE
  5
F0
100
AcDbEntity
  8
LY_3
390
0
  6
CONTINUOUS
 62
     3
100
AcDbLine
 10
217.697961
 20
21.037665
 30
0.0
 11
228.697951
 21
22.000039
 31
0.0
  0
LINE
  5
F1
100
AcDbEntity
  8
LY_3
390
0
  6
CONTINUOUS
 62
     3
100
AcDbLine
 10
279.197968
 20
21.999996
 30
0.0
 11
279.697968
 21
21.499996
 31
0.0
  0
LINE
  5
F2
100
AcDbEntity
  8
LY_3
390
0
  6
CONTINUOUS
 62
     3
100
AcDbLine
 10
279.697968
 20
12.499996
 30
0.0
 11
279.197968
 21
11.999996
 31
0.0
  0
LINE
  5
F3
100
AcDbEntity
  8
LY_3
390
0
  6
CONTINUOUS
 62
     3
100
AcDbLine
 10
279.197968
 20
21.999996
 30
0.0
 11
279.197968
 21
11.999996
 31
0.0
  0
LINE
  5
F4
100
AcDbEntity
  8
LY_3
390
0
  6
CONTINUOUS
 62
   110
100
AcDbLine
 10
132.877663
 20
118.157616
 30
0.0
 11
132.877663
 21
160.157616
 31
0.0
  0
LINE
  5
F5
100
AcDbEntity
  8
LY_3
390
0
  6
CONTINUOUS
 62
   110
100
AcDbLine
 10
132.877663
 20
160.157616
 30
0.0
 11
132.877663
 21
177.336494
 31
0.0
  0
LINE
  5
F6
100
AcDbEntity
  8
LY_3
390
0
  6
CONTINUOUS
 62
   110
100
AcDbLine
 10
136.857965
 20
118.157616
 30
0.0
 11
130.591663
 21
118.157616
 31
0.0
  0
LINE
  5
F7
100
AcDbEntity
  8
LY_3
390
0
  6
CONTINUOUS
 62
   110
100
AcDbLine
 10
137.357965
 20
160.157616
 30
0.0
 11
130.591663
 21
160.157616
 31
0.0
  0
MTEXT
  5
F8
100
AcDbEntity
  8
LY_3
390
0
  6
CONTINUOUS
 62
   110
100
AcDbMText
 10
126.877663
 20
163.131949
 30
0.0
 40
5.0
 41
0.0
 71
     1
 72
     1
  1
\W0.955;\A1;\U+220542
 11
0.0
 21
1.0
 31
0.0
 73
     1
 44
1.0
  0
LINE
  5
F9
100
AcDbEntity
  8
LY_3
390
0
  6
CONTINUOUS
 62
   110
100
AcDbLine
 10
133.619881
 20
120.927616
 30
0.0
 11
132.877663
 21
118.157616
 31
0.0
  0
LINE
  5
FA
100
AcDbEntity
  8
LY_3
390
0
  6
CONTINUOUS
 62
   110
100
AcDbLine
 10
132.877663
 20
118.157616
 30
0.0
 11
132.135444
 21
120.927616
 31
0.0
  0
LINE
  5
FB
100
AcDbEntity
  8
LY_3
390
0
  6
CONTINUOUS
 62
   110
100
AcDbLine
 10
132.135444
 20
157.387616
 30
0.0
 11
132.877663
 21
160.157616
 31
0.0
  0
LINE
  5
FC
100
AcDbEntity
  8
LY_3
390
0
  6
CONTINUOUS
 62
   110
100
AcDbLine
 10
132.877663
 20
160.157616
 30
0.0
 11
133.619881
 21
157.387616
 31
0.0
  0
LINE
  5
FD
100
AcDbEntity
  8
LY_3
390
0
  6
CONTINUOUS
 62
   110
100
AcDbLine
 10
258.467968
 20
59.344751
 30
0.0
 11
255.697968
 21
60.086969
 31
0.0
  0
LINE
  5
FE
100
AcDbEntity
  8
LY_3
390
0
  6
CONTINUOUS
 62
   110
100
AcDbLine
 10
255.697968
 20
60.086969
 30
0.0
 11
258.467968
 21
60.829188
 31
0.0
  0
LINE
  5
FF
100
AcDbEntity
  8
LY_3
390
0
  6
CONTINUOUS
 62
   110
100
AcDbLine
 10
255.697968
 20
60.086969
 30
0.0
 11
258.467968
 21
60.086969
 31
0.0
  0
LWPOLYLINE
  5
100
100
AcDbEntity
  8
LY_3
390
0
  6
CONTINUOUS
 62
   110
100
AcDbPolyline
 90
        3
 70
     0
 10
274.86464
 20
144.000007
 10
289.197954
 20
179.999996
 10
316.760468
 20
179.999996
  0
MTEXT
  5
101
100
AcDbEntity
  8
LY_3
390
0
  6
CONTINUOUS
 62
   110
100
AcDbMText
 10
289.744843
 20
186.249996
 30
0.0
 40
4.2
 41
0.0
 71
     1
 72
     1
  1
\W0.781;\A1;グリップカラ－
 73
     1
 44
1.0
  0
LWPOLYLINE
  5
102
100
AcDbEntity
  8
LY_3
390
0
  6
CONTINUOUS
 62
   110
100
AcDbPolyline
 90
        3
 70
     0
 10
153.442779
 20
-11.944744
 10
180.0
 20
-50.0
 10
231.637166
 20
-50.0
  0
MTEXT
  5
103
100
AcDbEntity
  8
LY_3
390
0
  6
CONTINUOUS
 62
   110
100
AcDbMText
 10
180.996541
 20
-43.75
 30
0.0
 40
4.2
 41
0.0
 71
     1
 72
     1
  1
\W0.781;\A1;ベロ－ズ（ＳＵＳ３１６Ｌ）
 73
     1
 44
1.0
  0
LWPOLYLINE
  5
104
100
AcDbEntity
  8
LY_3
390
0
  6
CONTINUOUS
 62
   110
100
AcDbPolyline
 90
        3
 70
     0
 10
113.971952
 20
-6.190978
 10
130.0
 20
-50.0
 10
167.644057
 20
-50.0
  0
MTEXT
  5
105
100
AcDbEntity
  8
LY_3
390
0
  6
CONTINUOUS
 62
   110
100
AcDbMText
 10
132.753432
 20
-43.75
 30
0.0
 40
4.2
 41
0.0
 71
     1
 72
     1
  1
\W0.781;\A1;軸受（ポリイミド）
 73
     1
 44
1.0
  0
LWPOLYLINE
  5
106
100
AcDbEntity
  8
LY_3
390
0
  6
CONTINUOUS
 62
   110
100
AcDbPolyline
 90
        3
 70
     0
 10
110.289543
 20
-5.960828
 10
100.0
 20
-50.0
 10
76.562868
 20
-50.0
  0
MTEXT
  5
107
100
AcDbEntity
  8
LY_3
390
0
  6
CONTINUOUS
 62
   110
100
AcDbMText
 10
77.109743
 20
-43.75
 30
0.0
 40
4.2
 41
0.0
 71
     1
 72
     1
  1
\W0.781;\A1;Ｃ型止め輪
 73
     1
 44
1.0
  0
LWPOLYLINE
  5
108
100
AcDbEntity
  8
LY_3
390
0
  6
CONTINUOUS
 62
   110
100
AcDbPolyline
 90
        3
 70
     0
 10
220.538298
 20
119.369053
 10
232.05776
 20
99.370122
 10
268.037453
 20
99.370122
  0
MTEXT
  5
109
100
AcDbEntity
  8
LY_3
390
0
  6
CONTINUOUS
 62
   110
100
AcDbMText
 10
233.146827
 20
105.620122
 30
0.0
 40
4.2
 41
0.0
 71
     1
 72
     1
  1
\W0.781;\A1;目盛リング１０分割
 73
     1
 44
1.0
  0
LWPOLYLINE
  5
10A
100
AcDbEntity
  8
LY_3
390
0
  6
CONTINUOUS
 62
   110
100
AcDbPolyline
 90
        3
 70
     0
 10
173.540156
 20
132.583892
 10
189.0
 20
100.0
 10
221.454029
 20
100.0
  0
MTEXT
  5
10B
100
AcDbEntity
  8
LY_3
390
0
  6
CONTINUOUS
 62
   110
100
AcDbMText
 10
190.500904
 20
106.25
 30
0.0
 40
4.2
 41
0.0
 71
     1
 72
     1
  1
\W0.781;\A1;目盛１ｍｍピッチ
 73
     1
 44
1.0
  0
LWPOLYLINE
  5
10C
100
AcDbEntity
  8
LY_3
390
0
  6
CONTINUOUS
 62
   110
100
AcDbPolyline
 90
        3
 70
     0
 10
109.430623
 20
155.91397
 10
120.197971
 20
179.999997
 10
139.885473
 20
179.999997
  0
MTEXT
  5
10D
100
AcDbEntity
  8
LY_3
390
0
  6
CONTINUOUS
 62
   110
100
AcDbMText
 10
120.744848
 20
186.249997
 30
0.0
 40
4.2
 41
0.0
 71
     1
 72
     1
  1
\W0.781;\A1;ＣＦ０３４
 73
     1
 44
1.0
  0
LWPOLYLINE
  5
10E
100
AcDbEntity
  8
LY_3
390
0
  6
CONTINUOUS
 62
   110
100
AcDbPolyline
 90
        3
 70
     0
 10
249.197926
 20
159.999982
 10
259.197926
 20
179.999974
 10
274.947954
 20
179.999974
  0
MTEXT
  5
10F
100
AcDbEntity
  8
LY_3
390
0
  6
CONTINUOUS
 62
   110
100
AcDbMText
 10
259.744829
 20
186.249974
 30
0.0
 40
4.2
 41
0.0
 71
     1
 72
     1
  1
\W0.781;\A1;ハンドル
 73
     1
 44
1.0
  0
LWPOLYLINE
  5
110
100
AcDbEntity
  8
LY_3
390
0
  6
CONTINUOUS
 62
   110
100
AcDbPolyline
 90
        3
 70
     0
 10
198.864634
 20
140.666667
 10
219.197971
 20
180.000006
 10
246.760484
 20
180.000006
  0
MTEXT
  5
111
100
AcDbEntity
  8
LY_3
390
0
  6
CONTINUOUS
 62
   110
100
AcDbMText
 10
219.744859
 20
186.250006
 30
0.0
 40
4.2
 41
0.0
 71
     1
 72
     1
  1
\W0.781;\A1;インジケ－タ－
 73
     1
 44
1.0
  0
LWPOLYLINE
  5
112
100
AcDbEntity
  8
LY_3
390
0
  6
CONTINUOUS
 62
   110
100
AcDbPolyline
 90
        3
 70
     0
 10
177.892965
 20
158.142697
 10
189.19796
 20
179.999986
 10
197.072968
 20
179.999986
  0
MTEXT
  5
113
100
AcDbEntity
  8
LY_3
390
0
  6
CONTINUOUS
 62
   110
100
AcDbMText
 10
189.744843
 20
186.249986
 30
0.0
 40
4.2
 41
0.0
 71
     1
 72
     1
  1
\W0.781;\A1;本体
 73
     1
 44
1.0
  0
LINE
  5
114
100
AcDbEntity
  8
LY_3
390
0
  6
CONTINUOUS
 62
   110
100
AcDbLine
 10
80.20594
 20
143.157616
 30
0.0
 11
80.20594
 21
135.157616
 31
0.0
  0
LINE
  5
115
100
AcDbEntity
  8
LY_3
390
0
  6
CONTINUOUS
 62
   110
100
AcDbLine
 10
80.20594
 20
157.659766
 30
0.0
 11
80.20594
 21
143.157616
 31
0.0
  0
LINE
  5
116
100
AcDbEntity
  8
LY_3
390
0
  6
CONTINUOUS
 62
   110
100
AcDbLine
 10
80.20594
 20
135.157616
 30
0.0
 11
80.20594
 21
131.157616
 31
0.0
  0
MTEXT
  5
117
100
AcDbEntity
  8
LY_3
390
0
  6
CONTINUOUS
 62
   110
100
AcDbMText
 10
74.20594
 20
148.437544
 30
0.0
 40
5.0
 41
0.0
 71
     1
 72
     1
  1
\W0.933;\A1;\U+22058
 11
0.0
 21
1.0
 31
0.0
 73
     1
 44
1.0
  0
LINE
  5
118
100
AcDbEntity
  8
LY_3
390
0
  6
CONTINUOUS
 62
   110
100
AcDbLine
 10
80.948159
 20
145.927616
 30
0.0
 11
80.20594
 21
143.157616
 31
0.0
  0
LINE
  5
119
100
AcDbEntity
  8
LY_3
390
0
  6
CONTINUOUS
 62
   110
100
AcDbLine
 10
80.20594
 20
143.157616
 30
0.0
 11
79.463722
 21
145.927616
 31
0.0
  0
LINE
  5
11A
100
AcDbEntity
  8
LY_3
390
0
  6
CONTINUOUS
 62
   110
100
AcDbLine
 10
79.463722
 20
132.387616
 30
0.0
 11
80.20594
 21
135.157616
 31
0.0
  0
LINE
  5
11B
100
AcDbEntity
  8
LY_3
390
0
  6
CONTINUOUS
 62
   110
100
AcDbLine
 10
80.20594
 20
135.157616
 30
0.0
 11
80.948159
 21
132.387616
 31
0.0
  0
LINE
  5
11C
100
AcDbEntity
  8
LY_3
390
0
  6
CONTINUOUS
 62
   110
100
AcDbLine
 10
45.40443
 20
136.157616
 30
0.0
 11
45.40443
 21
142.157616
 31
0.0
  0
LINE
  5
11D
100
AcDbEntity
  8
LY_3
390
0
  6
CONTINUOUS
 62
   110
100
AcDbLine
 10
45.40443
 20
142.157616
 30
0.0
 11
45.40443
 21
162.045359
 31
0.0
  0
LINE
  5
11E
100
AcDbEntity
  8
LY_3
390
0
  6
CONTINUOUS
 62
   110
100
AcDbLine
 10
55.157968
 20
136.157616
 30
0.0
 11
43.118435
 21
136.157616
 31
0.0
  0
LINE
  5
11F
100
AcDbEntity
  8
LY_3
390
0
  6
CONTINUOUS
 62
   110
100
AcDbLine
 10
55.157968
 20
142.157616
 30
0.0
 11
43.118435
 21
142.157616
 31
0.0
  0
LINE
  5
120
100
AcDbEntity
  8
LY_3
390
0
  6
CONTINUOUS
 62
   110
100
AcDbLine
 10
45.40443
 20
136.157616
 30
0.0
 11
45.40443
 21
132.157616
 31
0.0
  0
MTEXT
  5
121
100
AcDbEntity
  8
LY_3
390
0
  6
CONTINUOUS
 62
   110
100
AcDbMText
 10
39.40443
 20
145.474966
 30
0.0
 40
5.0
 41
0.0
 71
     1
 72
     1
  1
\T0.983;\W1.004;\A1;\U+22056h7
 11
0.0
 21
1.0
 31
0.0
 73
     1
 44
1.0
  0
LINE
  5
122
100
AcDbEntity
  8
LY_3
390
0
  6
CONTINUOUS
 62
   110
100
AcDbLine
 10
44.662212
 20
133.387616
 30
0.0
 11
45.40443
 21
136.157616
 31
0.0
  0
LINE
  5
123
100
AcDbEntity
  8
LY_3
390
0
  6
CONTINUOUS
 62
   110
100
AcDbLine
 10
45.40443
 20
136.157616
 30
0.0
 11
46.146649
 21
133.387616
 31
0.0
  0
LINE
  5
124
100
AcDbEntity
  8
LY_3
390
0
  6
CONTINUOUS
 62
   110
100
AcDbLine
 10
46.146649
 20
144.927616
 30
0.0
 11
45.40443
 21
142.157616
 31
0.0
  0
LINE
  5
125
100
AcDbEntity
  8
LY_3
390
0
  6
CONTINUOUS
 62
   110
100
AcDbLine
 10
45.40443
 20
142.157616
 30
0.0
 11
44.662212
 21
144.927616
 31
0.0
  0
LINE
  5
126
100
AcDbEntity
  8
LY_3
390
0
  6
CONTINUOUS
 62
   110
100
AcDbLine
 10
155.722359
 20
158.157616
 30
0.0
 11
155.722359
 21
120.157616
 31
0.0
  0
MTEXT
  5
127
100
AcDbEntity
  8
LY_3
390
0
  6
CONTINUOUS
 62
   110
100
AcDbMText
 10
149.722359
 20
141.733747
 30
0.0
 40
5.0
 41
0.0
 71
     1
 72
     1
  1
\W0.955;\A1;\U+220538
 11
0.0
 21
1.0
 31
0.0
 73
     1
 44
1.0
  0
LINE
  5
128
100
AcDbEntity
  8
LY_3
390
0
  6
CONTINUOUS
 62
   110
100
AcDbLine
 10
154.98014
 20
155.387616
 30
0.0
 11
155.722359
 21
158.157616
 31
0.0
  0
LINE
  5
129
100
AcDbEntity
  8
LY_3
390
0
  6
CONTINUOUS
 62
   110
100
AcDbLine
 10
155.722359
 20
158.157616
 30
0.0
 11
156.464577
 21
155.387616
 31
0.0
  0
LINE
  5
12A
100
AcDbEntity
  8
LY_3
390
0
  6
CONTINUOUS
 62
   110
100
AcDbLine
 10
156.464577
 20
122.927616
 30
0.0
 11
155.722359
 21
120.157616
 31
0.0
  0
LINE
  5
12B
100
AcDbEntity
  8
LY_3
390
0
  6
CONTINUOUS
 62
   110
100
AcDbLine
 10
155.722359
 20
120.157616
 30
0.0
 11
154.98014
 21
122.927616
 31
0.0
  0
LINE
  5
12C
100
AcDbEntity
  8
LY_3
390
0
  6
CONTINUOUS
 62
   110
100
AcDbLine
 10
125.831207
 20
130.157616
 30
0.0
 11
125.831207
 21
148.157616
 31
0.0
  0
LINE
  5
12D
100
AcDbEntity
  8
LY_3
390
0
  6
CONTINUOUS
 62
   110
100
AcDbLine
 10
125.831207
 20
148.157616
 30
0.0
 11
125.831207
 21
167.912231
 31
0.0
  0
LINE
  5
12E
100
AcDbEntity
  8
LY_3
390
0
  6
CONTINUOUS
 62
   110
100
AcDbLine
 10
125.831207
 20
130.157616
 30
0.0
 11
125.831207
 21
126.157616
 31
0.0
  0
MTEXT
  5
12F
100
AcDbEntity
  8
LY_3
390
0
  6
CONTINUOUS
 62
   110
100
AcDbMText
 10
119.831207
 20
153.759689
 30
0.0
 40
5.0
 41
0.0
 71
     1
 72
     1
  1
\W1.017;\A1;\U+220518
 11
0.0
 21
1.0
 31
0.0
 73
     1
 44
1.0
  0
LINE
  5
130
100
AcDbEntity
  8
LY_3
390
0
  6
CONTINUOUS
 62
   110
100
AcDbLine
 10
125.088989
 20
127.387616
 30
0.0
 11
125.831207
 21
130.157616
 31
0.0
  0
LINE
  5
131
100
AcDbEntity
  8
LY_3
390
0
  6
CONTINUOUS
 62
   110
100
AcDbLine
 10
125.831207
 20
130.157616
 30
0.0
 11
126.573426
 21
127.387616
 31
0.0
  0
LINE
  5
132
100
AcDbEntity
  8
LY_3
390
0
  6
CONTINUOUS
 62
   110
100
AcDbLine
 10
126.573426
 20
150.927616
 30
0.0
 11
125.831207
 21
148.157616
 31
0.0
  0
LINE
  5
133
100
AcDbEntity
  8
LY_3
390
0
  6
CONTINUOUS
 62
   110
100
AcDbLine
 10
125.831207
 20
148.157616
 30
0.0
 11
125.088989
 21
150.927616
 31
0.0
  0
LINE
  5
134
100
AcDbEntity
  8
LY_3
390
0
  6
CONTINUOUS
 62
   110
100
AcDbLine
 10
29.965027
 20
2.0
 30
0.0
 11
29.965027
 21
-3.0
 31
0.0
  0
LINE
  5
135
100
AcDbEntity
  8
LY_3
390
0
  6
CONTINUOUS
 62
   110
100
AcDbLine
 10
29.965027
 20
10.558312
 30
0.0
 11
29.965027
 21
2.0
 31
0.0
  0
LINE
  5
136
100
AcDbEntity
  8
LY_3
390
0
  6
CONTINUOUS
 62
   110
100
AcDbLine
 10
4.776053
 20
2.0
 30
0.0
 11
32.251022
 21
2.0
 31
0.0
  0
LINE
  5
137
100
AcDbEntity
  8
LY_3
390
0
  6
CONTINUOUS
 62
   110
100
AcDbLine
 10
2.54
 20
-3.0
 30
0.0
 11
32.251022
 21
-3.0
 31
0.0
  0
LINE
  5
138
100
AcDbEntity
  8
LY_3
390
0
  6
CONTINUOUS
 62
   110
100
AcDbLine
 10
29.965027
 20
-3.0
 30
0.0
 11
29.965027
 21
-7.0
 31
0.0
  0
MTEXT
  5
139
100
AcDbEntity
  8
LY_3
390
0
  6
CONTINUOUS
 62
   110
100
AcDbMText
 10
23.965027
 20
6.552256
 30
0.0
 40
5.0
 41
0.0
 71
     1
 72
     1
  1
\W0.907;\A1;5
 11
0.0
 21
1.0
 31
0.0
 73
     1
 44
1.0
  0
LINE
  5
13A
100
AcDbEntity
  8
LY_3
390
0
  6
CONTINUOUS
 62
   110
100
AcDbLine
 10
30.707246
 20
4.77
 30
0.0
 11
29.965027
 21
2.0
 31
0.0
  0
LINE
  5
13B
100
AcDbEntity
  8
LY_3
390
0
  6
CONTINUOUS
 62
   110
100
AcDbLine
 10
29.965027
 20
2.0
 30
0.0
 11
29.222808
 21
4.77
 31
0.0
  0
LINE
  5
13C
100
AcDbEntity
  8
LY_3
390
0
  6
CONTINUOUS
 62
   110
100
AcDbLine
 10
29.222808
 20
-5.77
 30
0.0
 11
29.965027
 21
-3.0
 31
0.0
  0
LINE
  5
13D
100
AcDbEntity
  8
LY_3
390
0
  6
CONTINUOUS
 62
   110
100
AcDbLine
 10
29.965027
 20
-3.0
 30
0.0
 11
30.707246
 21
-5.77
 31
0.0
  0
MTEXT
  5
13E
100
AcDbEntity
  8
LY_3
390
0
  6
CONTINUOUS
 62
   110
100
AcDbMText
 10
212.947968
 20
139.157616
 30
0.0
 40
3.5
 41
0.0
 71
     2
 72
     1
  1
\W1.143;\A1;0
 11
0.0
 21
-1.0
 31
0.0
 73
     1
 44
1.0
  0
MTEXT
  5
13F
100
AcDbEntity
  8
LY_3
390
0
  6
CONTINUOUS
 62
   110
100
AcDbMText
 10
222.597968
 20
151.520378
 30
0.0
 40
3.2
 41
0.0
 71
     2
 72
     1
  1
\W0.952;\A1;9
 11
0.0
 21
1.0
 31
0.0
 73
     1
 44
1.0
  0
MTEXT
  5
140
100
AcDbEntity
  8
LY_3
390
0
  6
CONTINUOUS
 62
   110
100
AcDbMText
 10
222.597968
 20
139.157616
 30
0.0
 40
3.2
 41
0.0
 71
     2
 72
     1
  1
\W1.143;\A1;0
 11
0.0
 21
1.0
 31
0.0
 73
     1
 44
1.0
  0
MTEXT
  5
141
100
AcDbEntity
  8
LY_3
390
0
  6
CONTINUOUS
 62
   110
100
AcDbMText
 10
222.597968
 20
126.792007
 30
0.0
 40
3.2
 41
0.0
 71
     2
 72
     1
  1
\W1.500;\A1;1
 11
0.0
 21
1.0
 31
0.0
 73
     1
 44
1.0
  0
MTEXT
  5
142
100
AcDbEntity
  8
LY_3
390
0
  6
CONTINUOUS
 62
   110
100
AcDbMText
 10
222.597968
 20
119.388718
 30
0.0
 40
3.2
 41
0.0
 71
     2
 72
     1
  1
\W0.952;\A1;2
 11
0.0
 21
1.0
 31
0.0
 73
     1
 44
1.0
  0
MTEXT
  5
143
100
AcDbEntity
  8
LY_3
390
0
  6
CONTINUOUS
 62
   110
100
AcDbMText
 10
222.597968
 20
158.925598
 30
0.0
 40
3.2
 41
0.0
 71
     2
 72
     1
  1
\W0.952;\A1;8
 11
0.0
 21
1.0
 31
0.0
 73
     1
 44
1.0
  0
MTEXT
  5
144
100
AcDbEntity
  8
LY_3
390
0
  6
CONTINUOUS
 62
   110
100
AcDbMText
 10
168.697968
 20
130.757616
 30
0.0
 40
3.2
 41
0.0
 71
     2
 72
     1
  1
\W1.091;\A1;30
 73
     1
 44
1.0
  0
MTEXT
  5
145
100
AcDbEntity
  8
LY_3
390
0
  6
CONTINUOUS
 62
   110
100
AcDbMText
 10
178.697968
 20
130.757616
 30
0.0
 40
3.2
 41
0.0
 71
     2
 72
     1
  1
\W1.091;\A1;20
 73
     1
 44
1.0
  0
MTEXT
  5
146
100
AcDbEntity
  8
LY_3
390
0
  6
CONTINUOUS
 62
   110
100
AcDbMText
 10
188.697968
 20
130.757616
 30
0.0
 40
3.2
 41
0.0
 71
     2
 72
     1
  1
\W1.333;\A1;10
 73
     1
 44
1.0
  0
MTEXT
  5
147
100
AcDbEntity
  8
LY_3
390
0
  6
CONTINUOUS
 62
   110
100
AcDbMText
 10
198.697968
 20
130.757616
 30
0.0
 40
3.2
 41
0.0
 71
     2
 72
     1
  1
\W1.143;\A1;0
 73
     1
 44
1.0
  0
MTEXT
  5
148
100
AcDbEntity
  8
LY_3
390
0
  6
CONTINUOUS
 62
   110
100
AcDbMText
 10
212.947968
 20
139.157616
 30
0.0
 40
3.5
 41
0.0
 71
     2
 72
     1
  1
\W1.143;\A1;0
 11
0.0
 21
-1.0
 31
0.0
 73
     1
 44
1.0
  0
MTEXT
  5
149
100
AcDbEntity
  8
LY_3
390
0
  6
CONTINUOUS
 62
   110
100
AcDbMText
 10
222.597968
 20
151.520378
 30
0.0
 40
3.2
 41
0.0
 71
     2
 72
     1
  1
\W0.952;\A1;9
 11
0.0
 21
1.0
 31
0.0
 73
     1
 44
1.0
  0
MTEXT
  5
14A
100
AcDbEntity
  8
LY_3
390
0
  6
CONTINUOUS
 62
   110
100
AcDbMText
 10
222.597968
 20
139.157616
 30
0.0
 40
3.2
 41
0.0
 71
     2
 72
     1
  1
\W1.143;\A1;0
 11
0.0
 21
1.0
 31
0.0
 73
     1
 44
1.0
  0
MTEXT
  5
14B
100
AcDbEntity
  8
LY_3
390
0
  6
CONTINUOUS
 62
   110
100
AcDbMText
 10
222.597968
 20
126.792007
 30
0.0
 40
3.2
 41
0.0
 71
     2
 72
     1
  1
\W1.500;\A1;1
 11
0.0
 21
1.0
 31
0.0
 73
     1
 44
1.0
  0
MTEXT
  5
14C
100
AcDbEntity
  8
LY_3
390
0
  6
CONTINUOUS
 62
   110
100
AcDbMText
 10
222.597968
 20
119.388718
 30
0.0
 40
3.2
 41
0.0
 71
     2
 72
     1
  1
\W0.952;\A1;2
 11
0.0
 21
1.0
 31
0.0
 73
     1
 44
1.0
  0
MTEXT
  5
14D
100
AcDbEntity
  8
LY_3
390
0
  6
CONTINUOUS
 62
   110
100
AcDbMText
 10
168.697968
 20
130.757616
 30
0.0
 40
3.2
 41
0.0
 71
     2
 72
     1
  1
\W1.091;\A1;30
 73
     1
 44
1.0
  0
MTEXT
  5
14E
100
AcDbEntity
  8
LY_3
390
0
  6
CONTINUOUS
 62
   110
100
AcDbMText
 10
178.697968
 20
130.757616
 30
0.0
 40
3.2
 41
0.0
 71
     2
 72
     1
  1
\W1.091;\A1;20
 73
     1
 44
1.0
  0
MTEXT
  5
14F
100
AcDbEntity
  8
LY_3
390
0
  6
CONTINUOUS
 62
   110
100
AcDbMText
 10
188.697968
 20
130.757616
 30
0.0
 40
3.2
 41
0.0
 71
     2
 72
     1
  1
\W1.333;\A1;10
 73
     1
 44
1.0
  0
MTEXT
  5
150
100
AcDbEntity
  8
LY_3
390
0
  6
CONTINUOUS
 62
   110
100
AcDbMText
 10
198.697968
 20
130.757616
 30
0.0
 40
3.2
 41
0.0
 71
     2
 72
     1
  1
\W1.143;\A1;0
 73
     1
 44
1.0
  0
LWPOLYLINE
  5
151
100
AcDbEntity
  8
LY_3
390
0
  6
CONTINUOUS
 62
   110
100
AcDbPolyline
 90
       38
 70
     0
 10
159.17351
 20
18.998968
 10
159.519833
 20
18.057653
 10
159.853879
 20
17.10988
 10
160.173739
 20
16.156098
 10
160.47751
 20
15.196754
 10
160.763284
 20
14.232298
 10
161.029155
 20
13.263176
 10
161.273217
 20
12.289838
 10
161.493565
 20
11.312731
 10
161.688291
 20
10.332303
 10
161.85549
 20
9.349003
 10
161.993256
 20
8.363278
 10
162.099682
 20
7.375576
 10
162.172862
 20
6.386346
 10
162.21089
 20
5.396036
 10
162.211861
 20
4.405094
 10
162.166937
 20
3.272672
 10
162.078908
 20
2.140154
 10
161.955527
 20
1.007687
 10
161.804548
 20
-0.124583
 10
161.633723
 20
-1.256513
 10
161.450807
 20
-2.387956
 10
161.263552
 20
-3.518767
 10
161.079712
 20
-4.648801
 10
160.907041
 20
-5.777912
 10
160.753292
 20
-6.905955
 10
160.626218
 20
-8.032784
 10
160.533572
 20
-9.158254
 10
160.483109
 20
-10.282221
 10
160.482581
 20
-11.404537
 10
160.539742
 20
-12.525059
 10
160.636323
 20
-13.461237
 10
160.775855
 20
-14.395164
 10
160.955449
 20
-15.325946
 10
161.172215
 20
-16.25269
 10
161.423266
 20
-17.174504
 10
161.705711
 20
-18.090495
 10
162.016663
 20
-18.999771
  0
ARC
  5
152
100
AcDbEntity
  8
LY_3
390
0
  6
CONTINUOUS
 62
     3
100
AcDbCircle
 10
145.897964
 20
-18.968628
 30
0.0
 40
0.8
100
AcDbArc
 50
179.999978
 51
225.00001
  0
ARC
  5
153
100
AcDbEntity
  8
LY_3
390
0
  6
CONTINUOUS
 62
     3
100
AcDbCircle
 10
141.897964
 20
-18.968628
 30
0.0
 40
0.8
100
AcDbArc
 50
314.999985
 51
0.000018
  0
ARC
  5
154
100
AcDbEntity
  8
LY_3
390
0
  6
CONTINUOUS
 62
     3
100
AcDbCircle
 10
145.897964
 20
18.968628
 30
0.0
 40
0.8
100
AcDbArc
 50
134.999987
 51
180.000019
  0
ARC
  5
155
100
AcDbEntity
  8
LY_3
390
0
  6
CONTINUOUS
 62
     3
100
AcDbCircle
 10
141.897964
 20
18.968628
 30
0.0
 40
0.8
100
AcDbArc
 50
359.999982
 51
45.000015
  0
CIRCLE
  5
156
100
AcDbEntity
  8
LY_3
390
0
  6
CONTINUOUS
 62
     3
100
AcDbCircle
 10
143.897964
 20
139.157616
 30
0.0
 40
3.000001
  0
ARC
  5
157
100
AcDbEntity
  8
LY_3
390
0
  6
CONTINUOUS
 62
     3
100
AcDbCircle
 10
138.397964
 20
148.657616
 30
0.0
 40
0.5
100
AcDbArc
 50
270.000018
 51
0.0
  0
ARC
  5
158
100
AcDbEntity
  8
LY_3
390
0
  6
CONTINUOUS
 62
     3
100
AcDbCircle
 10
138.397964
 20
129.657616
 30
0.0
 40
0.5
100
AcDbArc
 50
0.0
 51
90.000003
  0
ARC
  5
159
100
AcDbEntity
  8
LY_3
390
0
  6
CONTINUOUS
 62
     3
100
AcDbCircle
 10
138.397964
 20
9.5
 30
0.0
 40
0.5
100
AcDbArc
 50
269.999997
 51
0.0
  0
ARC
  5
15A
100
AcDbEntity
  8
LY_3
390
0
  6
CONTINUOUS
 62
     3
100
AcDbCircle
 10
138.397964
 20
-9.5
 30
0.0
 40
0.5
100
AcDbArc
 50
0.0
 51
89.999982
  0
ARC
  5
15B
100
AcDbEntity
  8
LY_3
390
0
  6
CONTINUOUS
 62
     3
100
AcDbCircle
 10
253.697968
 20
-23.0
 30
0.0
 40
2.0
100
AcDbArc
 50
269.999997
 51
0.0
  0
ARC
  5
15C
100
AcDbEntity
  8
LY_3
390
0
  6
CONTINUOUS
 62
     3
100
AcDbCircle
 10
253.697968
 20
23.0
 30
0.0
 40
2.0
100
AcDbArc
 50
0.0
 51
90.000003
  0
ARC
  5
15D
100
AcDbEntity
  8
LY_3
390
0
  6
CONTINUOUS
 62
     3
100
AcDbCircle
 10
253.597961
 20
-5.75
 30
0.0
 40
2.6
100
AcDbArc
 50
323.871304
 51
36.128696
  0
ARC
  5
15E
100
AcDbEntity
  8
LY_3
390
0
  6
CONTINUOUS
 62
     3
100
AcDbCircle
 10
256.436554
 20
-6.995934
 30
0.0
 40
0.5
100
AcDbArc
 50
91.953334
 51
156.302104
  0
ARC
  5
15F
100
AcDbEntity
  8
LY_3
390
0
  6
CONTINUOUS
 62
     3
100
AcDbCircle
 10
256.436554
 20
6.995934
 30
0.0
 40
0.5
100
AcDbArc
 50
203.697842
 51
268.046611
  0
ARC
  5
160
100
AcDbEntity
  8
LY_3
390
0
  6
CONTINUOUS
 62
     3
100
AcDbCircle
 10
256.197968
 20
0.0
 30
0.0
 40
6.5
100
AcDbArc
 50
271.953343
 51
88.046603
  0
ARC
  5
161
100
AcDbEntity
  8
LY_3
390
0
  6
CONTINUOUS
 62
     3
100
AcDbCircle
 10
253.597961
 20
5.75
 30
0.0
 40
2.6
100
AcDbArc
 50
323.871304
 51
36.128696
  0
ARC
  5
162
100
AcDbEntity
  8
LY_3
390
0
  6
CONTINUOUS
 62
     3
100
AcDbCircle
 10
244.197968
 20
0.0
 30
0.0
 40
12.0
100
AcDbArc
 50
343.402158
 51
16.597842
  0
ARC
  5
163
100
AcDbEntity
  8
LY_3
390
0
  6
CONTINUOUS
 62
     3
100
AcDbCircle
 10
119.897964
 20
-9.75
 30
0.0
 40
1.25
100
AcDbArc
 50
36.869853
 51
143.130084
  0
ARC
  5
164
100
AcDbEntity
  8
LY_3
390
0
  6
CONTINUOUS
 62
     3
100
AcDbCircle
 10
119.897964
 20
9.75
 30
0.0
 40
1.25
100
AcDbArc
 50
216.869875
 51
323.130103
  0
ARC
  5
165
100
AcDbEntity
  8
LY_3
390
0
  6
CONTINUOUS
 62
     3
100
AcDbCircle
 10
253.697968
 20
162.157616
 30
0.0
 40
2.0
100
AcDbArc
 50
0.0
 51
90.000003
  0
ARC
  5
166
100
AcDbEntity
  8
LY_3
390
0
  6
CONTINUOUS
 62
     3
100
AcDbCircle
 10
253.697968
 20
116.157616
 30
0.0
 40
2.0
100
AcDbArc
 50
269.999997
 51
0.0
  0
ARC
  5
167
100
AcDbEntity
  8
LY_3
390
0
  6
CONTINUOUS
 62
     3
100
AcDbCircle
 10
256.197968
 20
139.157616
 30
0.0
 40
6.5
100
AcDbArc
 50
50.284864
 51
90.971843
  0
ARC
  5
168
100
AcDbEntity
  8
LY_3
390
0
  6
CONTINUOUS
 62
     3
100
AcDbCircle
 10
253.597961
 20
144.907616
 30
0.0
 40
2.6
100
AcDbArc
 50
343.234126
 51
36.128695
  0
ARC
  5
169
100
AcDbEntity
  8
LY_3
390
0
  6
CONTINUOUS
 62
     3
100
AcDbCircle
 10
256.197968
 20
139.157616
 30
0.0
 40
6.5
100
AcDbArc
 50
269.028157
 51
309.715136
  0
ARC
  5
16A
100
AcDbEntity
  8
LY_3
390
0
  6
CONTINUOUS
 62
     3
100
AcDbCircle
 10
253.597961
 20
133.407616
 30
0.0
 40
2.6
100
AcDbArc
 50
323.871305
 51
16.765874
  0
CIRCLE
  5
16B
100
AcDbEntity
  8
LY_3
390
0
  6
CONTINUOUS
 62
     3
100
AcDbCircle
 10
233.697968
 20
139.157616
 30
0.0
 40
1.2
  0
CIRCLE
  5
16C
100
AcDbEntity
  8
LY_3
390
0
  6
CONTINUOUS
 62
   110
100
AcDbCircle
 10
233.697968
 20
139.157616
 30
0.0
 40
1.5
  0
ARC
  5
16D
100
AcDbEntity
  8
LY_3
390
0
  6
CONTINUOUS
 62
     3
100
AcDbCircle
 10
119.897964
 20
129.407616
 30
0.0
 40
1.25
100
AcDbArc
 50
36.869853
 51
143.130084
  0
ARC
  5
16E
100
AcDbEntity
  8
LY_3
390
0
  6
CONTINUOUS
 62
     3
100
AcDbCircle
 10
119.897964
 20
148.907616
 30
0.0
 40
1.25
100
AcDbArc
 50
216.869875
 51
323.130103
  0
CIRCLE
  5
16F
100
AcDbEntity
  8
LY_3
390
0
  6
CONTINUOUS
 62
     3
100
AcDbCircle
 10
205.697968
 20
139.157616
 30
0.0
 40
2.8
  0
ARC
  5
170
100
AcDbEntity
  8
LY_3
390
0
  6
CONTINUOUS
 62
     3
100
AcDbCircle
 10
206.507515
 20
139.967163
 30
0.0
 40
0.622046
100
AcDbArc
 50
179.999981
 51
270.000018
  0
ARC
  5
171
100
AcDbEntity
  8
LY_3
390
0
  6
CONTINUOUS
 62
     3
100
AcDbCircle
 10
206.507515
 20
138.348068
 30
0.0
 40
0.622046
100
AcDbArc
 50
89.999982
 51
179.999964
  0
ARC
  5
172
100
AcDbEntity
  8
LY_3
390
0
  6
CONTINUOUS
 62
     3
100
AcDbCircle
 10
204.88842
 20
138.348068
 30
0.0
 40
0.622046
100
AcDbArc
 50
0.0
 51
89.999982
  0
ARC
  5
173
100
AcDbEntity
  8
LY_3
390
0
  6
CONTINUOUS
 62
     3
100
AcDbCircle
 10
204.88842
 20
139.967163
 30
0.0
 40
0.622046
100
AcDbArc
 50
270.000018
 51
0.0
  0
ARC
  5
174
100
AcDbEntity
  8
LY_3
390
0
  6
CONTINUOUS
 62
     3
100
AcDbCircle
 10
162.697968
 20
139.157616
 30
0.0
 40
4.0
100
AcDbArc
 50
89.999982
 51
270.000001
  0
ARC
  5
175
100
AcDbEntity
  8
LY_3
390
0
  6
CONTINUOUS
 62
     3
100
AcDbCircle
 10
204.697968
 20
139.157616
 30
0.0
 40
4.0
100
AcDbArc
 50
270.000018
 51
0.0
  0
ARC
  5
176
100
AcDbEntity
  8
LY_3
390
0
  6
CONTINUOUS
 62
     3
100
AcDbCircle
 10
204.697968
 20
139.157616
 30
0.0
 40
4.0
100
AcDbArc
 50
0.0
 51
89.999982
  0
ARC
  5
177
100
AcDbEntity
  8
LY_3
390
0
  6
CONTINUOUS
 62
     3
100
AcDbCircle
 10
0.0
 20
0.0
 30
0.0
 40
3.0
100
AcDbArc
 50
138.189712
 51
41.810303
  0
CIRCLE
  5
178
100
AcDbEntity
  8
LY_3
390
0
  6
CONTINUOUS
 62
     3
100
AcDbCircle
 10
0.0
 20
0.0
 30
0.0
 40
2.0
  0
ARC
  5
179
100
AcDbEntity
  8
LY_3
390
0
  6
CONTINUOUS
 62
     3
100
AcDbCircle
 10
0.0
 20
0.0
 30
0.0
 40
3.0
100
AcDbArc
 50
41.810306
 51
138.189712
  0
ARC
  5
17A
100
AcDbEntity
  8
LY_3
390
0
  6
CONTINUOUS
 62
     3
100
AcDbCircle
 10
116.39798
 20
-4.5
 30
0.0
 40
0.5
100
AcDbArc
 50
0.0
 51
89.999982
  0
ARC
  5
17B
100
AcDbEntity
  8
LY_3
390
0
  6
CONTINUOUS
 62
     3
100
AcDbCircle
 10
111.39798
 20
-4.5
 30
0.0
 40
0.5
100
AcDbArc
 50
89.999982
 51
179.999964
  0
ARC
  5
17C
100
AcDbEntity
  8
LY_3
390
0
  6
CONTINUOUS
 62
     3
100
AcDbCircle
 10
116.39798
 20
4.5
 30
0.0
 40
0.5
100
AcDbArc
 50
270.000018
 51
0.0
  0
ARC
  5
17D
100
AcDbEntity
  8
LY_3
390
0
  6
CONTINUOUS
 62
     3
100
AcDbCircle
 10
111.39798
 20
4.5
 30
0.0
 40
0.5
100
AcDbArc
 50
179.999978
 51
270.000028
  0
ARC
  5
17E
100
AcDbEntity
  8
LY_3
390
0
  6
CONTINUOUS
 62
     3
100
AcDbCircle
 10
4.753723
 20
-3.165443
 30
0.0
 40
0.9
100
AcDbArc
 50
230.188157
 51
330.720362
  0
ARC
  5
17F
100
AcDbEntity
  8
LY_3
390
0
  6
CONTINUOUS
 62
     3
100
AcDbCircle
 10
-4.753723
 20
-3.165443
 30
0.0
 40
0.9
100
AcDbArc
 50
209.279623
 51
309.811818
  0
ARC
  5
180
100
AcDbEntity
  8
LY_3
390
0
  6
CONTINUOUS
 62
     3
100
AcDbCircle
 10
3.024994
 20
-5.239456
 30
0.0
 40
1.8
100
AcDbArc
 50
50.188172
 51
171.05758
  0
ARC
  5
181
100
AcDbEntity
  8
LY_3
390
0
  6
CONTINUOUS
 62
     3
100
AcDbCircle
 10
-3.024994
 20
-5.239456
 30
0.0
 40
1.8
100
AcDbArc
 50
8.942434
 51
129.811843
  0
CIRCLE
  5
182
100
AcDbEntity
  8
LY_3
390
0
  6
CONTINUOUS
 62
     3
100
AcDbCircle
 10
3.024994
 20
-5.239456
 30
0.0
 40
0.85
  0
CIRCLE
  5
183
100
AcDbEntity
  8
LY_3
390
0
  6
CONTINUOUS
 62
     3
100
AcDbCircle
 10
-3.024994
 20
-5.239456
 30
0.0
 40
0.85
  0
ARC
  5
184
100
AcDbEntity
  8
LY_3
390
0
  6
CONTINUOUS
 62
     3
100
AcDbCircle
 10
0.0
 20
-0.5
 30
0.0
 40
6.35
100
AcDbArc
 50
330.720359
 51
209.279605
  0
ARC
  5
185
100
AcDbEntity
  8
LY_3
390
0
  6
CONTINUOUS
 62
     3
100
AcDbCircle
 10
0.0
 20
0.0
 30
0.0
 40
4.0
100
AcDbArc
 50
121.044995
 51
241.044944
  0
ARC
  5
186
100
AcDbEntity
  8
LY_3
390
0
  6
CONTINUOUS
 62
     3
100
AcDbCircle
 10
0.0
 20
0.0
 30
0.0
 40
4.0
100
AcDbArc
 50
1.04497
 51
121.044968
  0
ARC
  5
187
100
AcDbEntity
  8
LY_3
390
0
  6
CONTINUOUS
 62
     3
100
AcDbCircle
 10
-2.598083
 20
1.5
 30
0.0
 40
2.0
100
AcDbArc
 50
74.477503
 51
225.522492
  0
ARC
  5
188
100
AcDbEntity
  8
LY_3
390
0
  6
CONTINUOUS
 62
     3
100
AcDbCircle
 10
2.598083
 20
1.5
 30
0.0
 40
2.0
100
AcDbArc
 50
314.4775
 51
105.522488
  0
ARC
  5
189
100
AcDbEntity
  8
LY_3
390
0
  6
CONTINUOUS
 62
     3
100
AcDbCircle
 10
0.0
 20
0.0
 30
0.0
 40
4.0
100
AcDbArc
 50
241.044934
 51
0.0
  0
ARC
  5
18A
100
AcDbEntity
  8
LY_3
390
0
  6
CONTINUOUS
 62
     3
100
AcDbCircle
 10
0.0
 20
-3.0
 30
0.0
 40
2.0
100
AcDbArc
 50
194.477483
 51
345.522512
  0
ARC
  5
18B
100
AcDbEntity
  8
LY_3
390
0
  6
CONTINUOUS
 62
     3
100
AcDbCircle
 10
0.0
 20
0.0
 30
0.0
 40
4.0
100
AcDbArc
 50
0.0
 51
1.044964
  0
CIRCLE
  5
18C
100
AcDbEntity
  8
LY_3
390
0
  6
CONTINUOUS
 62
     3
100
AcDbCircle
 10
-0.102936
 20
0.0
 30
0.0
 40
7.6
  0
CIRCLE
  5
18D
100
AcDbEntity
  8
LY_3
390
0
  6
CONTINUOUS
 62
     3
100
AcDbCircle
 10
0.019409
 20
0.0
 30
0.0
 40
9.150011
  0
CIRCLE
  5
18E
100
AcDbEntity
  8
LY_3
390
0
  6
CONTINUOUS
 62
     3
100
AcDbCircle
 10
0.019409
 20
0.0
 30
0.0
 40
10.7
  0
CIRCLE
  5
18F
100
AcDbEntity
  8
LY_3
390
0
  6
CONTINUOUS
 62
     3
100
AcDbCircle
 10
6.75
 20
-11.691345
 30
0.0
 40
2.2
  0
CIRCLE
  5
190
100
AcDbEntity
  8
LY_3
390
0
  6
CONTINUOUS
 62
     3
100
AcDbCircle
 10
-6.75
 20
-11.691345
 30
0.0
 40
2.2
  0
CIRCLE
  5
191
100
AcDbEntity
  8
LY_3
390
0
  6
CONTINUOUS
 62
     3
100
AcDbCircle
 10
6.75
 20
11.691345
 30
0.0
 40
2.2
  0
CIRCLE
  5
192
100
AcDbEntity
  8
LY_3
390
0
  6
CONTINUOUS
 62
     3
100
AcDbCircle
 10
13.5
 20
0.0
 30
0.0
 40
2.2
  0
CIRCLE
  5
193
100
AcDbEntity
  8
LY_3
390
0
  6
CONTINUOUS
 62
     3
100
AcDbCircle
 10
-13.5
 20
0.0
 30
0.0
 40
2.2
  0
CIRCLE
  5
194
100
AcDbEntity
  8
LY_3
390
0
  6
CONTINUOUS
 62
     3
100
AcDbCircle
 10
-6.75
 20
11.691345
 30
0.0
 40
2.2
  0
CIRCLE
  5
196
100
AcDbEntity
  8
LY_3
390
0
  6
CENTER
 62
   110
100
AcDbCircle
 10
0.0
 20
0.0
 30
0.0
 40
13.5
  0
CIRCLE
  5
197
100
AcDbEntity
  8
LY_3
390
0
  6
CONTINUOUS
 62
     3
100
AcDbCircle
 10
0.0
 20
0.0
 30
0.0
 40
16.9
  0
ARC
  5
198
100
AcDbEntity
  8
LY_3
390
0
  6
CONTINUOUS
 62
     3
100
AcDbCircle
 10
115.897964
 20
-9.75
 30
0.0
 40
1.25
100
AcDbArc
 50
36.869853
 51
143.130084
  0
ARC
  5
199
100
AcDbEntity
  8
LY_3
390
0
  6
CONTINUOUS
 62
     3
100
AcDbCircle
 10
115.897964
 20
9.75
 30
0.0
 40
1.25
100
AcDbArc
 50
216.869875
 51
323.130103
  0
ARC
  5
19A
100
AcDbEntity
  8
LY_3
390
0
  6
CONTINUOUS
 62
     3
100
AcDbCircle
 10
115.897964
 20
129.407616
 30
0.0
 40
1.25
100
AcDbArc
 50
36.869853
 51
143.130084
  0
ARC
  5
19B
100
AcDbEntity
  8
LY_3
390
0
  6
CONTINUOUS
 62
     3
100
AcDbCircle
 10
115.897964
 20
148.907616
 30
0.0
 40
1.25
100
AcDbArc
 50
216.869875
 51
323.130103
  0
ARC
  5
19C
100
AcDbEntity
  8
LY_3
390
0
  6
CONTINUOUS
 62
     3
100
AcDbCircle
 10
107.505096
 20
-10.449997
 30
0.0
 40
0.25
100
AcDbArc
 50
270.000018
 51
20.000078
  0
ARC
  5
19D
100
AcDbEntity
  8
LY_3
390
0
  6
CONTINUOUS
 62
     3
100
AcDbCircle
 10
107.505096
 20
10.450001
 30
0.0
 40
0.25
100
AcDbArc
 50
339.999922
 51
89.999982
  0
LINE
  5
19E
100
AcDbEntity
  8
LY_3
390
0
  6
CONTINUOUS
 62
     3
100
AcDbLine
 10
148.297965
 20
-13.5
 30
0.0
 11
149.297966
 21
-14.500001
 31
0.0
  0
LINE
  5
19F
100
AcDbEntity
  8
LY_3
390
0
  6
CONTINUOUS
 62
     3
100
AcDbLine
 10
147.297965
 20
-14.5
 30
0.0
 11
148.297965
 21
-13.5
 31
0.0
  0
LINE
  5
1A0
100
AcDbEntity
  8
LY_3
390
0
  6
CONTINUOUS
 62
     3
100
AcDbLine
 10
148.297964
 20
13.5
 30
0.0
 11
149.297964
 21
14.5
 31
0.0
  0
LINE
  5
1A1
100
AcDbEntity
  8
LY_3
390
0
  6
CONTINUOUS
 62
     3
100
AcDbLine
 10
147.297963
 20
14.500001
 30
0.0
 11
148.297964
 21
13.5
 31
0.0
  0
LINE
  5
1A2
100
AcDbEntity
  8
LY_3
390
0
  6
CENTER
 62
   110
100
AcDbLine
 10
226.758003
 20
139.157616
 30
0.0
 11
284.550552
 21
139.157616
 31
0.0
  0
LINE
  5
1A3
100
AcDbEntity
  8
LY_3
390
0
  6
CONTINUOUS
 62
     3
100
AcDbLine
 10
139.897964
 20
160.157615
 30
0.0
 11
138.897965
 21
159.157612
 31
0.0
  0
LINE
  5
1A4
100
AcDbEntity
  8
LY_3
390
0
  6
CONTINUOUS
 62
     3
100
AcDbLine
 10
147.397964
 20
160.157617
 30
0.0
 11
147.897969
 21
159.657615
 31
0.0
  0
LINE
  5
1A5
100
AcDbEntity
  8
LY_3
390
0
  6
CONTINUOUS
 62
     3
100
AcDbLine
 10
147.397959
 20
118.157616
 30
0.0
 11
147.897961
 21
118.657615
 31
0.0
  0
LINE
  5
1A6
100
AcDbEntity
  8
LY_3
390
0
  6
CONTINUOUS
 62
     3
100
AcDbLine
 10
138.897961
 20
119.157612
 30
0.0
 11
139.897957
 21
118.157612
 31
0.0
  0
LINE
  5
1A7
100
AcDbEntity
  8
LY_3
390
0
  6
CONTINUOUS
 62
     3
100
AcDbLine
 10
138.897964
 20
159.157616
 30
0.0
 11
138.897964
 21
119.157616
 31
0.0
  0
LINE
  5
1A8
100
AcDbEntity
  8
LY_3
390
0
  6
CONTINUOUS
 62
     3
100
AcDbLine
 10
147.397961
 20
160.157616
 30
0.0
 11
147.397961
 21
118.157616
 31
0.0
  0
LINE
  5
1A9
100
AcDbEntity
  8
LY_3
390
0
  6
CONTINUOUS
 62
     3
100
AcDbLine
 10
139.897961
 20
160.157616
 30
0.0
 11
139.897961
 21
118.157616
 31
0.0
  0
LINE
  5
1AA
100
AcDbEntity
  8
LY_3
390
0
  6
CONTINUOUS
 62
     3
100
AcDbLine
 10
147.897964
 20
-17.0
 30
0.0
 11
161.373325
 21
-17.0
 31
0.0
  0
LINE
  5
1AB
100
AcDbEntity
  8
LY_3
390
0
  6
CONTINUOUS
 62
     3
100
AcDbLine
 10
147.897964
 20
-17.099998
 30
0.0
 11
147.897964
 21
-14.582184
 31
0.0
  0
LINE
  5
1AC
100
AcDbEntity
  8
LY_3
390
0
  6
CONTINUOUS
 62
     3
100
AcDbLine
 10
145.098579
 20
-19.0
 30
0.0
 11
147.397964
 21
-19.0
 31
0.0
  0
LINE
  5
1AD
100
AcDbEntity
  8
LY_3
390
0
  6
CONTINUOUS
 62
     3
100
AcDbLine
 10
145.097961
 20
-18.949997
 30
0.0
 11
147.897964
 21
-18.949997
 31
0.0
  0
LINE
  5
1AE
100
AcDbEntity
  8
LY_3
390
0
  6
CONTINUOUS
 62
   110
100
AcDbLine
 10
145.397964
 20
-18.949997
 30
0.0
 11
145.397964
 21
-18.349998
 31
0.0
  0
LINE
  5
1AF
100
AcDbEntity
  8
LY_3
390
0
  6
CONTINUOUS
 62
     3
100
AcDbLine
 10
145.397965
 20
-18.349999
 30
0.0
 11
145.097966
 21
-18.778442
 31
0.0
  0
LINE
  5
1B0
100
AcDbEntity
  8
LY_3
390
0
  6
CONTINUOUS
 62
     3
100
AcDbLine
 10
145.097961
 20
-18.968628
 30
0.0
 11
145.097961
 21
-18.778442
 31
0.0
  0
LINE
  5
1B1
100
AcDbEntity
  8
LY_3
390
0
  6
CONTINUOUS
 62
     3
100
AcDbLine
 10
145.194717
 20
-19.349998
 30
0.0
 11
142.601212
 21
-19.349998
 31
0.0
  0
LINE
  5
1B2
100
AcDbEntity
  8
LY_3
390
0
  6
CONTINUOUS
 62
     3
100
AcDbLine
 10
142.697968
 20
-18.968628
 30
0.0
 11
142.697968
 21
-18.778442
 31
0.0
  0
LINE
  5
1B3
100
AcDbEntity
  8
LY_3
390
0
  6
CONTINUOUS
 62
     3
100
AcDbLine
 10
145.397964
 20
-18.349998
 30
0.0
 11
142.397964
 21
-18.349998
 31
0.0
  0
LINE
  5
1B4
100
AcDbEntity
  8
LY_3
390
0
  6
CONTINUOUS
 62
     3
100
AcDbLine
 10
142.397964
 20
-18.350006
 30
0.0
 11
142.697964
 21
-18.77845
 31
0.0
  0
LINE
  5
1B5
100
AcDbEntity
  8
LY_3
390
0
  6
CONTINUOUS
 62
   110
100
AcDbLine
 10
142.397964
 20
-18.949997
 30
0.0
 11
142.397964
 21
-18.349998
 31
0.0
  0
LINE
  5
1B6
100
AcDbEntity
  8
LY_3
390
0
  6
CONTINUOUS
 62
     3
100
AcDbLine
 10
141.197968
 20
-18.949997
 30
0.0
 11
142.697968
 21
-18.949997
 31
0.0
  0
LINE
  5
1B7
100
AcDbEntity
  8
LY_3
390
0
  6
CONTINUOUS
 62
     3
100
AcDbLine
 10
141.197963
 20
-18.950007
 30
0.0
 11
140.897963
 21
-18.650008
 31
0.0
  0
LINE
  5
1B8
100
AcDbEntity
  8
LY_3
390
0
  6
CONTINUOUS
 62
     3
100
AcDbLine
 10
140.897964
 20
-19.0
 30
0.0
 11
142.69735
 21
-19.0
 31
0.0
  0
LINE
  5
1B9
100
AcDbEntity
  8
LY_3
390
0
  6
CONTINUOUS
 62
     3
100
AcDbLine
 10
140.897964
 20
-19.0
 30
0.0
 11
140.897964
 21
-17.050003
 31
0.0
  0
LINE
  5
1BA
100
AcDbEntity
  8
LY_3
390
0
  6
CONTINUOUS
 62
     3
100
AcDbLine
 10
140.897964
 20
-17.050003
 30
0.0
 11
142.397964
 21
-17.050003
 31
0.0
  0
LINE
  5
1BB
100
AcDbEntity
  8
LY_3
390
0
  6
CONTINUOUS
 62
     3
100
AcDbLine
 10
140.897969
 20
-17.400007
 30
0.0
 11
141.197968
 21
-17.100008
 31
0.0
  0
LINE
  5
1BC
100
AcDbEntity
  8
LY_3
390
0
  6
CONTINUOUS
 62
     3
100
AcDbLine
 10
141.197968
 20
-17.099998
 30
0.0
 11
142.697968
 21
-17.099998
 31
0.0
  0
LINE
  5
1BD
100
AcDbEntity
  8
LY_3
390
0
  6
CONTINUOUS
 62
     3
100
AcDbLine
 10
146.397964
 20
-17.050005
 30
0.0
 11
146.897965
 21
-16.550004
 31
0.0
  0
LINE
  5
1BE
100
AcDbEntity
  8
LY_3
390
0
  6
CONTINUOUS
 62
     3
100
AcDbLine
 10
145.397964
 20
-17.050003
 30
0.0
 11
146.397964
 21
-17.050003
 31
0.0
  0
LINE
  5
1BF
100
AcDbEntity
  8
LY_3
390
0
  6
CONTINUOUS
 62
     3
100
AcDbLine
 10
145.097961
 20
-17.099998
 30
0.0
 11
147.897964
 21
-17.099998
 31
0.0
  0
LINE
  5
1C0
100
AcDbEntity
  8
LY_3
390
0
  6
CONTINUOUS
 62
     3
100
AcDbLine
 10
142.397964
 20
-18.349998
 30
0.0
 11
142.397964
 21
-15.0
 31
0.0
  0
LINE
  5
1C1
100
AcDbEntity
  8
LY_3
390
0
  6
CONTINUOUS
 62
   110
100
AcDbLine
 10
142.697968
 20
-18.778442
 30
0.0
 11
142.697968
 21
-15.0
 31
0.0
  0
LINE
  5
1C2
100
AcDbEntity
  8
LY_3
390
0
  6
CONTINUOUS
 62
     3
100
AcDbLine
 10
145.397964
 20
-15.0
 30
0.0
 11
142.397964
 21
-15.0
 31
0.0
  0
LINE
  5
1C3
100
AcDbEntity
  8
LY_3
390
0
  6
CONTINUOUS
 62
     3
100
AcDbLine
 10
145.397964
 20
-18.349998
 30
0.0
 11
145.397964
 21
-15.0
 31
0.0
  0
LINE
  5
1C4
100
AcDbEntity
  8
LY_3
390
0
  6
CONTINUOUS
 62
   110
100
AcDbLine
 10
145.097961
 20
-18.778442
 30
0.0
 11
145.097961
 21
-15.0
 31
0.0
  0
LINE
  5
1C5
100
AcDbEntity
  8
LY_3
390
0
  6
CONTINUOUS
 62
     3
100
AcDbLine
 10
145.497963
 20
-17.050003
 30
0.0
 11
145.497963
 21
-13.549999
 31
0.0
  0
LINE
  5
1C6
100
AcDbEntity
  8
LY_3
390
0
  6
CONTINUOUS
 62
     3
100
AcDbLine
 10
143.89796
 20
-12.626239
 30
0.0
 11
145.497965
 21
-13.550002
 31
0.0
  0
LINE
  5
1C7
100
AcDbEntity
  8
LY_3
390
0
  6
CENTER
 62
   110
100
AcDbLine
 10
143.897964
 20
-22.207977
 30
0.0
 11
143.897964
 21
-11.371395
 31
0.0
  0
LINE
  5
1C8
100
AcDbEntity
  8
LY_3
390
0
  6
CONTINUOUS
 62
     3
100
AcDbLine
 10
142.297964
 20
-13.550001
 30
0.0
 11
143.897963
 21
-12.626241
 31
0.0
  0
LINE
  5
1C9
100
AcDbEntity
  8
LY_3
390
0
  6
CONTINUOUS
 62
     3
100
AcDbLine
 10
142.297966
 20
-13.549999
 30
0.0
 11
145.497963
 21
-13.549999
 31
0.0
  0
LINE
  5
1CA
100
AcDbEntity
  8
LY_3
390
0
  6
CONTINUOUS
 62
     3
100
AcDbLine
 10
142.297966
 20
-17.050003
 30
0.0
 11
142.297966
 21
-13.549999
 31
0.0
  0
LINE
  5
1CB
100
AcDbEntity
  8
LY_3
390
0
  6
CONTINUOUS
 62
     3
100
AcDbLine
 10
147.897964
 20
17.0
 30
0.0
 11
159.891411
 21
17.0
 31
0.0
  0
LINE
  5
1CC
100
AcDbEntity
  8
LY_3
390
0
  6
CONTINUOUS
 62
     3
100
AcDbLine
 10
143.897967
 20
12.626237
 30
0.0
 11
145.497966
 21
13.549996
 31
0.0
  0
LINE
  5
1CD
100
AcDbEntity
  8
LY_3
390
0
  6
CONTINUOUS
 62
     3
100
AcDbLine
 10
142.297965
 20
13.550004
 30
0.0
 11
143.897963
 21
12.626245
 31
0.0
  0
LINE
  5
1CE
100
AcDbEntity
  8
LY_3
390
0
  6
CONTINUOUS
 62
     3
100
AcDbLine
 10
142.297966
 20
17.049999
 30
0.0
 11
142.297966
 21
13.549999
 31
0.0
  0
LINE
  5
1CF
100
AcDbEntity
  8
LY_3
390
0
  6
CONTINUOUS
 62
     3
100
AcDbLine
 10
145.497963
 20
17.049999
 30
0.0
 11
145.497963
 21
13.549999
 31
0.0
  0
LINE
  5
1D0
100
AcDbEntity
  8
LY_3
390
0
  6
CONTINUOUS
 62
     3
100
AcDbLine
 10
145.397964
 20
18.35
 30
0.0
 11
145.397964
 21
15.0
 31
0.0
  0
LINE
  5
1D1
100
AcDbEntity
  8
LY_3
390
0
  6
CONTINUOUS
 62
     3
100
AcDbLine
 10
142.397964
 20
18.35
 30
0.0
 11
142.397964
 21
15.0
 31
0.0
  0
LINE
  5
1D2
100
AcDbEntity
  8
LY_3
390
0
  6
CONTINUOUS
 62
     3
100
AcDbLine
 10
148.897942
 20
12.500056
 30
0.0
 11
149.89795
 21
13.500062
 31
0.0
  0
LINE
  5
1D3
100
AcDbEntity
  8
LY_3
390
0
  6
CONTINUOUS
 62
     3
100
AcDbLine
 10
148.897942
 20
4.0
 30
0.0
 11
148.897942
 21
12.500053
 31
0.0
  0
LINE
  5
1D4
100
AcDbEntity
  8
LY_3
390
0
  6
CONTINUOUS
 62
     3
100
AcDbLine
 10
148.897942
 20
-4.0
 30
0.0
 11
148.897942
 21
-12.500053
 31
0.0
  0
LINE
  5
1D5
100
AcDbEntity
  8
LY_3
390
0
  6
CONTINUOUS
 62
     3
100
AcDbLine
 10
147.897964
 20
-19.0
 30
0.0
 11
147.897964
 21
-18.949997
 31
0.0
  0
LINE
  5
1D6
100
AcDbEntity
  8
LY_3
390
0
  6
CONTINUOUS
 62
     3
100
AcDbLine
 10
147.897964
 20
17.099998
 30
0.0
 11
147.897964
 21
15.175629
 31
0.0
  0
LINE
  5
1D7
100
AcDbEntity
  8
LY_3
390
0
  6
CONTINUOUS
 62
     3
100
AcDbLine
 10
146.39796
 20
17.050005
 30
0.0
 11
146.897961
 21
16.550005
 31
0.0
  0
LINE
  5
1D8
100
AcDbEntity
  8
LY_3
390
0
  6
CONTINUOUS
 62
     3
100
AcDbLine
 10
147.897966
 20
-19.499998
 30
0.0
 11
147.397966
 21
-18.999997
 31
0.0
  0
LINE
  5
1D9
100
AcDbEntity
  8
LY_3
390
0
  6
CONTINUOUS
 62
     3
100
AcDbLine
 10
145.397964
 20
-19.599998
 30
0.0
 11
145.497963
 21
-19.599998
 31
0.0
  0
LINE
  5
1DA
100
AcDbEntity
  8
LY_3
390
0
  6
CONTINUOUS
 62
     3
100
AcDbLine
 10
145.497965
 20
-19.599998
 30
0.0
 11
146.897963
 21
-20.999996
 31
0.0
  0
LINE
  5
1DB
100
AcDbEntity
  8
LY_3
390
0
  6
CONTINUOUS
 62
     3
100
AcDbLine
 10
142.297966
 20
-19.599998
 30
0.0
 11
140.897957
 21
-21.000007
 31
0.0
  0
LINE
  5
1DC
100
AcDbEntity
  8
LY_3
390
0
  6
CONTINUOUS
 62
     3
100
AcDbLine
 10
142.397964
 20
-19.599998
 30
0.0
 11
142.297966
 21
-19.599998
 31
0.0
  0
LINE
  5
1DD
100
AcDbEntity
  8
LY_3
390
0
  6
CONTINUOUS
 62
     3
100
AcDbLine
 10
142.297966
 20
-19.599998
 30
0.0
 11
142.297966
 21
-19.0
 31
0.0
  0
LINE
  5
1DE
100
AcDbEntity
  8
LY_3
390
0
  6
CONTINUOUS
 62
     3
100
AcDbLine
 10
141.159303
 20
-20.838661
 30
0.0
 11
142.463651
 21
-19.534312
 31
0.0
  0
LINE
  5
1DF
100
AcDbEntity
  8
LY_3
390
0
  6
CONTINUOUS
 62
     3
100
AcDbLine
 10
146.647969
 20
-20.849996
 30
0.0
 11
145.332281
 21
-19.534308
 31
0.0
  0
LINE
  5
1E0
100
AcDbEntity
  8
LY_3
390
0
  6
CONTINUOUS
 62
     3
100
AcDbLine
 10
141.147964
 20
-21.0
 30
0.0
 11
141.147964
 21
-20.849998
 31
0.0
  0
LINE
  5
1E1
100
AcDbEntity
  8
LY_3
390
0
  6
CONTINUOUS
 62
     3
100
AcDbLine
 10
146.647964
 20
-21.0
 30
0.0
 11
146.647964
 21
-20.849998
 31
0.0
  0
LINE
  5
1E2
100
AcDbEntity
  8
LY_3
390
0
  6
CONTINUOUS
 62
     3
100
AcDbLine
 10
146.647964
 20
-20.849998
 30
0.0
 11
141.147964
 21
-20.849998
 31
0.0
  0
LINE
  5
1E3
100
AcDbEntity
  8
LY_3
390
0
  6
CONTINUOUS
 62
     3
100
AcDbLine
 10
147.397964
 20
-21.0
 30
0.0
 11
139.897957
 21
-21.0
 31
0.0
  0
LINE
  5
1E4
100
AcDbEntity
  8
LY_3
390
0
  6
CONTINUOUS
 62
     3
100
AcDbLine
 10
145.497963
 20
-19.599998
 30
0.0
 11
145.497963
 21
-19.0
 31
0.0
  0
LINE
  5
1E5
100
AcDbEntity
  8
LY_3
390
0
  6
CONTINUOUS
 62
     3
100
AcDbLine
 10
147.897964
 20
-20.5
 30
0.0
 11
147.897964
 21
-19.5
 31
0.0
  0
LINE
  5
1E6
100
AcDbEntity
  8
LY_3
390
0
  6
CONTINUOUS
 62
     3
100
AcDbLine
 10
147.397966
 20
-21.0
 30
0.0
 11
147.897966
 21
-20.499999
 31
0.0
  0
LINE
  5
1E7
100
AcDbEntity
  8
LY_3
390
0
  6
CONTINUOUS
 62
     3
100
AcDbLine
 10
140.89797
 20
17.399999
 30
0.0
 11
141.197969
 21
17.099999
 31
0.0
  0
LINE
  5
1E8
100
AcDbEntity
  8
LY_3
390
0
  6
CONTINUOUS
 62
     3
100
AcDbLine
 10
141.197964
 20
18.949999
 30
0.0
 11
140.897965
 21
18.65
 31
0.0
  0
LINE
  5
1E9
100
AcDbEntity
  8
LY_3
390
0
  6
CONTINUOUS
 62
     3
100
AcDbLine
 10
145.397964
 20
17.049999
 30
0.0
 11
146.397964
 21
17.049999
 31
0.0
  0
LINE
  5
1EA
100
AcDbEntity
  8
LY_3
390
0
  6
CONTINUOUS
 62
     3
100
AcDbLine
 10
140.897964
 20
17.049999
 30
0.0
 11
142.397964
 21
17.049999
 31
0.0
  0
LINE
  5
1EB
100
AcDbEntity
  8
LY_3
390
0
  6
CONTINUOUS
 62
     3
100
AcDbLine
 10
145.097961
 20
17.099998
 30
0.0
 11
147.897964
 21
17.099998
 31
0.0
  0
LINE
  5
1EC
100
AcDbEntity
  8
LY_3
390
0
  6
CONTINUOUS
 62
     3
100
AcDbLine
 10
141.197968
 20
17.099998
 30
0.0
 11
142.697968
 21
17.099998
 31
0.0
  0
LINE
  5
1ED
100
AcDbEntity
  8
LY_3
390
0
  6
CONTINUOUS
 62
     3
100
AcDbLine
 10
147.897964
 20
19.0
 30
0.0
 11
147.897964
 21
18.950001
 31
0.0
  0
LINE
  5
1EE
100
AcDbEntity
  8
LY_3
390
0
  6
CONTINUOUS
 62
     3
100
AcDbLine
 10
147.897962
 20
19.499998
 30
0.0
 11
147.397961
 21
18.999998
 31
0.0
  0
LINE
  5
1EF
100
AcDbEntity
  8
LY_3
390
0
  6
CONTINUOUS
 62
     3
100
AcDbLine
 10
145.097961
 20
18.950001
 30
0.0
 11
147.897964
 21
18.950001
 31
0.0
  0
LINE
  5
1F0
100
AcDbEntity
  8
LY_3
390
0
  6
CONTINUOUS
 62
     3
100
AcDbLine
 10
147.397961
 20
21.0
 30
0.0
 11
147.897962
 21
20.499999
 31
0.0
  0
LINE
  5
1F1
100
AcDbEntity
  8
LY_3
390
0
  6
CONTINUOUS
 62
     3
100
AcDbLine
 10
147.897964
 20
20.5
 30
0.0
 11
147.897964
 21
19.5
 31
0.0
  0
LINE
  5
1F2
100
AcDbEntity
  8
LY_3
390
0
  6
CONTINUOUS
 62
     3
100
AcDbLine
 10
141.197968
 20
18.950001
 30
0.0
 11
142.697968
 21
18.950001
 31
0.0
  0
LINE
  5
1F3
100
AcDbEntity
  8
LY_3
390
0
  6
CONTINUOUS
 62
     3
100
AcDbLine
 10
142.297966
 20
13.549999
 30
0.0
 11
145.497963
 21
13.549999
 31
0.0
  0
LINE
  5
1F4
100
AcDbEntity
  8
LY_3
390
0
  6
CONTINUOUS
 62
     3
100
AcDbLine
 10
145.397964
 20
19.6
 30
0.0
 11
145.497963
 21
19.6
 31
0.0
  0
LINE
  5
1F5
100
AcDbEntity
  8
LY_3
390
0
  6
CONTINUOUS
 62
     3
100
AcDbLine
 10
145.497965
 20
19.599997
 30
0.0
 11
146.897968
 21
21.0
 31
0.0
  0
LINE
  5
1F6
100
AcDbEntity
  8
LY_3
390
0
  6
CONTINUOUS
 62
     3
100
AcDbLine
 10
142.297966
 20
19.599997
 30
0.0
 11
140.897962
 21
21.0
 31
0.0
  0
LINE
  5
1F7
100
AcDbEntity
  8
LY_3
390
0
  6
CONTINUOUS
 62
     3
100
AcDbLine
 10
142.397964
 20
19.6
 30
0.0
 11
142.297966
 21
19.6
 31
0.0
  0
LINE
  5
1F8
100
AcDbEntity
  8
LY_3
390
0
  6
CONTINUOUS
 62
     3
100
AcDbLine
 10
142.297966
 20
19.6
 30
0.0
 11
142.297966
 21
19.0
 31
0.0
  0
LINE
  5
1F9
100
AcDbEntity
  8
LY_3
390
0
  6
CONTINUOUS
 62
   110
100
AcDbLine
 10
142.697968
 20
18.778444
 30
0.0
 11
142.697968
 21
15.0
 31
0.0
  0
LINE
  5
1FA
100
AcDbEntity
  8
LY_3
390
0
  6
CONTINUOUS
 62
   110
100
AcDbLine
 10
145.097961
 20
18.778444
 30
0.0
 11
145.097961
 21
15.0
 31
0.0
  0
LINE
  5
1FB
100
AcDbEntity
  8
LY_3
390
0
  6
CONTINUOUS
 62
     3
100
AcDbLine
 10
142.397968
 20
18.350002
 30
0.0
 11
142.697967
 21
18.778445
 31
0.0
  0
LINE
  5
1FC
100
AcDbEntity
  8
LY_3
390
0
  6
CONTINUOUS
 62
     3
100
AcDbLine
 10
145.397967
 20
18.349999
 30
0.0
 11
145.097967
 21
18.778443
 31
0.0
  0
LINE
  5
1FD
100
AcDbEntity
  8
LY_3
390
0
  6
CONTINUOUS
 62
     3
100
AcDbLine
 10
141.159302
 20
20.838667
 30
0.0
 11
142.46365
 21
19.534319
 31
0.0
  0
LINE
  5
1FE
100
AcDbEntity
  8
LY_3
390
0
  6
CONTINUOUS
 62
     3
100
AcDbLine
 10
146.647967
 20
20.850004
 30
0.0
 11
145.332279
 21
19.534315
 31
0.0
  0
LINE
  5
1FF
100
AcDbEntity
  8
LY_3
390
0
  6
CONTINUOUS
 62
     3
100
AcDbLine
 10
141.147964
 20
21.0
 30
0.0
 11
141.147964
 21
20.85
 31
0.0
  0
LINE
  5
200
100
AcDbEntity
  8
LY_3
390
0
  6
CONTINUOUS
 62
     3
100
AcDbLine
 10
146.647964
 20
21.0
 30
0.0
 11
146.647964
 21
20.85
 31
0.0
  0
LINE
  5
201
100
AcDbEntity
  8
LY_3
390
0
  6
CONTINUOUS
 62
     3
100
AcDbLine
 10
145.397964
 20
18.35
 30
0.0
 11
142.397964
 21
18.35
 31
0.0
  0
LINE
  5
202
100
AcDbEntity
  8
LY_3
390
0
  6
CONTINUOUS
 62
     3
100
AcDbLine
 10
145.397964
 20
15.0
 30
0.0
 11
142.397964
 21
15.0
 31
0.0
  0
LINE
  5
203
100
AcDbEntity
  8
LY_3
390
0
  6
CONTINUOUS
 62
     3
100
AcDbLine
 10
145.194717
 20
19.35
 30
0.0
 11
142.601212
 21
19.35
 31
0.0
  0
LINE
  5
204
100
AcDbEntity
  8
LY_3
390
0
  6
CONTINUOUS
 62
     3
100
AcDbLine
 10
142.697968
 20
18.968628
 30
0.0
 11
142.697968
 21
18.778444
 31
0.0
  0
LINE
  5
205
100
AcDbEntity
  8
LY_3
390
0
  6
CONTINUOUS
 62
     3
100
AcDbLine
 10
145.097961
 20
18.968628
 30
0.0
 11
145.097961
 21
18.778444
 31
0.0
  0
LINE
  5
206
100
AcDbEntity
  8
LY_3
390
0
  6
CONTINUOUS
 62
     3
100
AcDbLine
 10
146.647964
 20
20.85
 30
0.0
 11
141.147964
 21
20.85
 31
0.0
  0
LINE
  5
207
100
AcDbEntity
  8
LY_3
390
0
  6
CONTINUOUS
 62
   110
100
AcDbLine
 10
142.397964
 20
18.950001
 30
0.0
 11
142.397964
 21
18.35
 31
0.0
  0
LINE
  5
208
100
AcDbEntity
  8
LY_3
390
0
  6
CONTINUOUS
 62
   110
100
AcDbLine
 10
145.397964
 20
18.950001
 30
0.0
 11
145.397964
 21
18.35
 31
0.0
  0
LINE
  5
209
100
AcDbEntity
  8
LY_3
390
0
  6
CONTINUOUS
 62
     3
100
AcDbLine
 10
147.397964
 20
21.0
 30
0.0
 11
139.897957
 21
21.0
 31
0.0
  0
LINE
  5
20A
100
AcDbEntity
  8
LY_3
390
0
  6
CONTINUOUS
 62
     3
100
AcDbLine
 10
145.497963
 20
19.6
 30
0.0
 11
145.497963
 21
19.0
 31
0.0
  0
LINE
  5
20B
100
AcDbEntity
  8
LY_3
390
0
  6
CONTINUOUS
 62
     3
100
AcDbLine
 10
149.897964
 20
-14.5
 30
0.0
 11
149.897964
 21
-4.0
 31
0.0
  0
LINE
  5
20C
100
AcDbEntity
  8
LY_3
390
0
  6
CENTER
 62
   110
100
AcDbLine
 10
143.897964
 20
22.207977
 30
0.0
 11
143.897964
 21
11.371395
 31
0.0
  0
LINE
  5
20D
100
AcDbEntity
  8
LY_3
390
0
  6
CONTINUOUS
 62
     3
100
AcDbLine
 10
146.897964
 20
16.550003
 30
0.0
 11
146.897964
 21
14.5
 31
0.0
  0
LINE
  5
20E
100
AcDbEntity
  8
LY_3
390
0
  6
CONTINUOUS
 62
     3
100
AcDbLine
 10
140.897964
 20
19.0
 30
0.0
 11
140.897964
 21
17.049999
 31
0.0
  0
LINE
  5
20F
100
AcDbEntity
  8
LY_3
390
0
  6
CONTINUOUS
 62
     3
100
AcDbLine
 10
140.897964
 20
19.0
 30
0.0
 11
142.69735
 21
19.0
 31
0.0
  0
LINE
  5
210
100
AcDbEntity
  8
LY_3
390
0
  6
CONTINUOUS
 62
     3
100
AcDbLine
 10
148.897944
 20
-12.500052
 30
0.0
 11
149.897951
 21
-13.500058
 31
0.0
  0
LINE
  5
211
100
AcDbEntity
  8
LY_3
390
0
  6
CONTINUOUS
 62
     3
100
AcDbLine
 10
149.297966
 20
-14.5
 30
0.0
 11
149.897964
 21
-14.5
 31
0.0
  0
LINE
  5
212
100
AcDbEntity
  8
LY_3
390
0
  6
CONTINUOUS
 62
     3
100
AcDbLine
 10
146.897964
 20
-14.5
 30
0.0
 11
147.297966
 21
-14.5
 31
0.0
  0
LINE
  5
213
100
AcDbEntity
  8
LY_3
390
0
  6
CONTINUOUS
 62
     3
100
AcDbLine
 10
146.897964
 20
-16.550003
 30
0.0
 11
146.897964
 21
-14.5
 31
0.0
  0
LINE
  5
214
100
AcDbEntity
  8
LY_3
390
0
  6
CONTINUOUS
 62
     3
100
AcDbLine
 10
149.297966
 20
14.5
 30
0.0
 11
149.897964
 21
14.5
 31
0.0
  0
LINE
  5
215
100
AcDbEntity
  8
LY_3
390
0
  6
CONTINUOUS
 62
     3
100
AcDbLine
 10
146.897964
 20
14.5
 30
0.0
 11
147.297966
 21
14.5
 31
0.0
  0
LINE
  5
216
100
AcDbEntity
  8
LY_3
390
0
  6
CONTINUOUS
 62
     3
100
AcDbLine
 10
149.897964
 20
14.5
 30
0.0
 11
149.897964
 21
4.0
 31
0.0
  0
LINE
  5
217
100
AcDbEntity
  8
LY_3
390
0
  6
CONTINUOUS
 62
     3
100
AcDbLine
 10
145.098579
 20
19.0
 30
0.0
 11
147.397964
 21
19.0
 31
0.0
  0
LINE
  5
218
100
AcDbEntity
  8
LY_3
390
0
  6
CONTINUOUS
 62
     3
100
AcDbLine
 10
139.897968
 20
-20.999998
 30
0.0
 11
138.897967
 21
-19.999997
 31
0.0
  0
LINE
  5
219
100
AcDbEntity
  8
LY_3
390
0
  6
CONTINUOUS
 62
     3
100
AcDbLine
 10
138.897964
 20
-20.0
 30
0.0
 11
138.897964
 21
-9.5
 31
0.0
  0
LINE
  5
21A
100
AcDbEntity
  8
LY_3
390
0
  6
CONTINUOUS
 62
     3
100
AcDbLine
 10
139.897966
 20
21.000003
 30
0.0
 11
138.897965
 21
20.000002
 31
0.0
  0
LINE
  5
21B
100
AcDbEntity
  8
LY_3
390
0
  6
CONTINUOUS
 62
     3
100
AcDbLine
 10
138.897964
 20
20.0
 30
0.0
 11
138.897964
 21
9.5
 31
0.0
  0
LINE
  5
21C
100
AcDbEntity
  8
LY_3
390
0
  6
CENTER
 62
   110
100
AcDbLine
 10
143.897964
 20
142.576637
 30
0.0
 11
143.897964
 21
135.712273
 31
0.0
  0
LINE
  5
21D
100
AcDbEntity
  8
LY_3
390
0
  6
CONTINUOUS
 62
     3
100
AcDbLine
 10
147.897964
 20
159.657616
 30
0.0
 11
147.897964
 21
118.657616
 31
0.0
  0
LINE
  5
21E
100
AcDbEntity
  8
LY_3
390
0
  6
CONTINUOUS
 62
     3
100
AcDbLine
 10
139.897961
 20
160.157616
 30
0.0
 11
147.397961
 21
160.157616
 31
0.0
  0
LINE
  5
21F
100
AcDbEntity
  8
LY_3
390
0
  6
CONTINUOUS
 62
     3
100
AcDbLine
 10
255.697968
 20
-23.0
 30
0.0
 11
255.697968
 21
23.0
 31
0.0
  0
LINE
  5
220
100
AcDbEntity
  8
LY_3
390
0
  6
CONTINUOUS
 62
     3
100
AcDbLine
 10
255.697968
 20
11.999996
 30
0.0
 11
279.197968
 21
11.999996
 31
0.0
  0
LINE
  5
221
100
AcDbEntity
  8
LY_3
390
0
  6
CONTINUOUS
 62
     3
100
AcDbLine
 10
255.697968
 20
21.999996
 30
0.0
 11
279.197968
 21
21.999996
 31
0.0
  0
LINE
  5
222
100
AcDbEntity
  8
LY_3
390
0
  6
CONTINUOUS
 62
     3
100
AcDbLine
 10
279.697968
 20
12.499996
 30
0.0
 11
279.697968
 21
21.499996
 31
0.0
  0
LINE
  5
223
100
AcDbEntity
  8
LY_3
390
0
  6
CENTER
 62
   110
100
AcDbLine
 10
243.180832
 20
16.999996
 30
0.0
 11
282.828735
 21
16.999996
 31
0.0
  0
LINE
  5
224
100
AcDbEntity
  8
LY_3
390
0
  6
CONTINUOUS
 62
     3
100
AcDbLine
 10
256.197968
 20
-5.75
 30
0.0
 11
256.197968
 21
5.75
 31
0.0
  0
LINE
  5
225
100
AcDbEntity
  8
LY_3
390
0
  6
CENTER
 62
   110
100
AcDbLine
 10
51.161732
 20
0.0
 30
0.0
 11
266.930939
 21
0.0
 31
0.0
  0
LINE
  5
226
100
AcDbEntity
  8
LY_3
390
0
  6
CONTINUOUS
 62
     3
100
AcDbLine
 10
116.897964
 20
-6.5
 30
0.0
 11
148.897964
 21
-6.5
 31
0.0
  0
LINE
  5
227
100
AcDbEntity
  8
LY_3
390
0
  6
CONTINUOUS
 62
     3
100
AcDbLine
 10
120.897964
 20
-9.0
 30
0.0
 11
138.397964
 21
-9.0
 31
0.0
  0
LINE
  5
228
100
AcDbEntity
  8
LY_3
390
0
  6
CONTINUOUS
 62
     3
100
AcDbLine
 10
117.897964
 20
-9.0
 30
0.0
 11
118.897964
 21
-9.0
 31
0.0
  0
LINE
  5
229
100
AcDbEntity
  8
LY_3
390
0
  6
CONTINUOUS
 62
     3
100
AcDbLine
 10
117.897964
 20
-9.0
 30
0.0
 11
117.897964
 21
-7.5
 31
0.0
  0
LINE
  5
22A
100
AcDbEntity
  8
LY_3
390
0
  6
CONTINUOUS
 62
     3
100
AcDbLine
 10
116.897964
 20
-7.5
 30
0.0
 11
117.897964
 21
-7.5
 31
0.0
  0
LINE
  5
22B
100
AcDbEntity
  8
LY_3
390
0
  6
CONTINUOUS
 62
     3
100
AcDbLine
 10
120.897964
 20
9.0
 30
0.0
 11
138.397964
 21
9.0
 31
0.0
  0
LINE
  5
22C
100
AcDbEntity
  8
LY_3
390
0
  6
CONTINUOUS
 62
     3
100
AcDbLine
 10
116.897964
 20
7.5
 30
0.0
 11
117.897964
 21
7.5
 31
0.0
  0
LINE
  5
22D
100
AcDbEntity
  8
LY_3
390
0
  6
CONTINUOUS
 62
     3
100
AcDbLine
 10
117.897964
 20
9.0
 30
0.0
 11
117.897964
 21
7.5
 31
0.0
  0
LINE
  5
22E
100
AcDbEntity
  8
LY_3
390
0
  6
CONTINUOUS
 62
     3
100
AcDbLine
 10
117.897964
 20
9.0
 30
0.0
 11
118.897964
 21
9.0
 31
0.0
  0
LINE
  5
22F
100
AcDbEntity
  8
LY_3
390
0
  6
CONTINUOUS
 62
     3
100
AcDbLine
 10
116.897964
 20
6.5
 30
0.0
 11
148.897964
 21
6.5
 31
0.0
  0
LINE
  5
230
100
AcDbEntity
  8
LY_3
390
0
  6
CONTINUOUS
 62
     3
100
AcDbLine
 10
116.89798
 20
-4.0
 30
0.0
 11
116.89798
 21
-7.550003
 31
0.0
  0
LINE
  5
231
100
AcDbEntity
  8
LY_3
390
0
  6
CONTINUOUS
 62
     3
100
AcDbLine
 10
116.89798
 20
7.549999
 30
0.0
 11
116.89798
 21
4.0
 31
0.0
  0
LINE
  5
232
100
AcDbEntity
  8
LY_3
390
0
  6
CONTINUOUS
 62
     3
100
AcDbLine
 10
116.89798
 20
-7.550003
 30
0.0
 11
117.897964
 21
-7.550003
 31
0.0
  0
LINE
  5
233
100
AcDbEntity
  8
LY_3
390
0
  6
CONTINUOUS
 62
     3
100
AcDbLine
 10
279.197968
 20
144.157616
 30
0.0
 11
279.197968
 21
134.157616
 31
0.0
  0
LINE
  5
234
100
AcDbEntity
  8
LY_3
390
0
  6
CONTINUOUS
 62
     3
100
AcDbLine
 10
279.697971
 20
134.657619
 30
0.0
 11
279.19797
 21
134.157619
 31
0.0
  0
LINE
  5
235
100
AcDbEntity
  8
LY_3
390
0
  6
CONTINUOUS
 62
     3
100
AcDbLine
 10
279.197965
 20
144.157613
 30
0.0
 11
279.697966
 21
143.657613
 31
0.0
  0
LINE
  5
236
100
AcDbEntity
  8
LY_3
390
0
  6
CONTINUOUS
 62
     3
100
AcDbLine
 10
279.697968
 20
143.657616
 30
0.0
 11
279.697968
 21
134.657616
 31
0.0
  0
LINE
  5
237
100
AcDbEntity
  8
LY_3
390
0
  6
CONTINUOUS
 62
   110
100
AcDbLine
 10
236.697968
 20
159.657616
 30
0.0
 11
249.697968
 21
159.657616
 31
0.0
  0
LINE
  5
238
100
AcDbEntity
  8
LY_3
390
0
  6
CONTINUOUS
 62
   110
100
AcDbLine
 10
236.697968
 20
160.157616
 30
0.0
 11
249.697968
 21
160.157616
 31
0.0
  0
LINE
  5
239
100
AcDbEntity
  8
LY_3
390
0
  6
CONTINUOUS
 62
   110
100
AcDbLine
 10
236.697968
 20
160.657616
 30
0.0
 11
249.697968
 21
160.657616
 31
0.0
  0
LINE
  5
23A
100
AcDbEntity
  8
LY_3
390
0
  6
CONTINUOUS
 62
   110
100
AcDbLine
 10
236.697968
 20
161.157616
 30
0.0
 11
249.697968
 21
161.157616
 31
0.0
  0
LINE
  5
23B
100
AcDbEntity
  8
LY_3
390
0
  6
CONTINUOUS
 62
   110
100
AcDbLine
 10
236.697968
 20
161.657616
 30
0.0
 11
249.697968
 21
161.657616
 31
0.0
  0
LINE
  5
23C
100
AcDbEntity
  8
LY_3
390
0
  6
CONTINUOUS
 62
   110
100
AcDbLine
 10
236.697968
 20
162.157616
 30
0.0
 11
249.697968
 21
162.157616
 31
0.0
  0
LINE
  5
23D
100
AcDbEntity
  8
LY_3
390
0
  6
CONTINUOUS
 62
   110
100
AcDbLine
 10
236.697968
 20
162.657616
 30
0.0
 11
249.697968
 21
162.657616
 31
0.0
  0
LINE
  5
23E
100
AcDbEntity
  8
LY_3
390
0
  6
CONTINUOUS
 62
   110
100
AcDbLine
 10
236.697968
 20
163.157616
 30
0.0
 11
249.697968
 21
163.157616
 31
0.0
  0
LINE
  5
23F
100
AcDbEntity
  8
LY_3
390
0
  6
CONTINUOUS
 62
   110
100
AcDbLine
 10
236.697968
 20
163.657616
 30
0.0
 11
249.697968
 21
163.657616
 31
0.0
  0
LINE
  5
240
100
AcDbEntity
  8
LY_3
390
0
  6
CONTINUOUS
 62
   110
100
AcDbLine
 10
236.697968
 20
164.157616
 30
0.0
 11
249.697968
 21
164.157616
 31
0.0
  0
LINE
  5
241
100
AcDbEntity
  8
LY_3
390
0
  6
CONTINUOUS
 62
     3
100
AcDbLine
 10
236.697968
 20
164.657616
 30
0.0
 11
249.697968
 21
164.657616
 31
0.0
  0
LINE
  5
242
100
AcDbEntity
  8
LY_3
390
0
  6
CONTINUOUS
 62
     3
100
AcDbLine
 10
250.197968
 20
164.157616
 30
0.0
 11
250.197968
 21
114.157616
 31
0.0
  0
LINE
  5
243
100
AcDbEntity
  8
LY_3
390
0
  6
CONTINUOUS
 62
     3
100
AcDbLine
 10
249.697968
 20
164.657616
 30
0.0
 11
249.697968
 21
113.657616
 31
0.0
  0
LINE
  5
244
100
AcDbEntity
  8
LY_3
390
0
  6
CONTINUOUS
 62
     3
100
AcDbLine
 10
236.197968
 20
164.157616
 30
0.0
 11
236.197968
 21
114.157616
 31
0.0
  0
LINE
  5
245
100
AcDbEntity
  8
LY_3
390
0
  6
CONTINUOUS
 62
     3
100
AcDbLine
 10
236.697968
 20
164.657616
 30
0.0
 11
236.697968
 21
113.657616
 31
0.0
  0
LINE
  5
246
100
AcDbEntity
  8
LY_3
390
0
  6
CONTINUOUS
 62
     3
100
AcDbLine
 10
236.697966
 20
164.657614
 30
0.0
 11
236.197966
 21
164.157614
 31
0.0
  0
LINE
  5
247
100
AcDbEntity
  8
LY_3
390
0
  6
CONTINUOUS
 62
     3
100
AcDbLine
 10
256.197968
 20
134.157616
 30
0.0
 11
256.197968
 21
133.407616
 31
0.0
  0
LINE
  5
248
100
AcDbEntity
  8
LY_3
390
0
  6
CONTINUOUS
 62
     3
100
AcDbLine
 10
250.197968
 20
114.157616
 30
0.0
 11
253.697968
 21
114.157616
 31
0.0
  0
LINE
  5
249
100
AcDbEntity
  8
LY_3
390
0
  6
CONTINUOUS
 62
     3
100
AcDbLine
 10
250.197968
 20
164.157616
 30
0.0
 11
253.697968
 21
164.157616
 31
0.0
  0
LINE
  5
24A
100
AcDbEntity
  8
LY_3
390
0
  6
CONTINUOUS
 62
     3
100
AcDbLine
 10
255.697968
 20
162.157616
 30
0.0
 11
255.697968
 21
116.157616
 31
0.0
  0
LINE
  5
24B
100
AcDbEntity
  8
LY_3
390
0
  6
CONTINUOUS
 62
     3
100
AcDbLine
 10
250.197962
 20
164.157612
 30
0.0
 11
249.697962
 21
164.657612
 31
0.0
  0
LINE
  5
24C
100
AcDbEntity
  8
LY_3
390
0
  6
CONTINUOUS
 62
     3
100
AcDbLine
 10
236.697966
 20
113.657619
 30
0.0
 11
236.197968
 21
114.157617
 31
0.0
  0
LINE
  5
24D
100
AcDbEntity
  8
LY_3
390
0
  6
CONTINUOUS
 62
     3
100
AcDbLine
 10
230.697968
 20
114.157616
 30
0.0
 11
236.197968
 21
114.157616
 31
0.0
  0
LINE
  5
24E
100
AcDbEntity
  8
LY_3
390
0
  6
CONTINUOUS
 62
     3
100
AcDbLine
 10
250.197964
 20
114.157614
 30
0.0
 11
249.697974
 21
113.657624
 31
0.0
  0
LINE
  5
24F
100
AcDbEntity
  8
LY_3
390
0
  6
CONTINUOUS
 62
     3
100
AcDbLine
 10
236.697968
 20
113.657616
 30
0.0
 11
249.697968
 21
113.657616
 31
0.0
  0
LINE
  5
250
100
AcDbEntity
  8
LY_3
390
0
  6
CONTINUOUS
 62
     3
100
AcDbLine
 10
255.697968
 20
144.157616
 30
0.0
 11
279.197968
 21
144.157616
 31
0.0
  0
LINE
  5
251
100
AcDbEntity
  8
LY_3
390
0
  6
CONTINUOUS
 62
     3
100
AcDbLine
 10
255.697968
 20
134.157616
 30
0.0
 11
279.197968
 21
134.157616
 31
0.0
  0
LINE
  5
252
100
AcDbEntity
  8
LY_3
390
0
  6
CONTINUOUS
 62
     3
100
AcDbLine
 10
256.197968
 20
144.907616
 30
0.0
 11
256.197968
 21
144.157616
 31
0.0
  0
LINE
  5
253
100
AcDbEntity
  8
LY_3
390
0
  6
CENTER
 62
   110
100
AcDbLine
 10
233.697968
 20
143.657616
 30
0.0
 11
233.697968
 21
134.657616
 31
0.0
  0
LINE
  5
254
100
AcDbEntity
  8
LY_3
390
0
  6
CONTINUOUS
 62
     3
100
AcDbLine
 10
230.697968
 20
164.157616
 30
0.0
 11
230.697968
 21
114.157616
 31
0.0
  0
LINE
  5
255
100
AcDbEntity
  8
LY_3
390
0
  6
CONTINUOUS
 62
     3
100
AcDbLine
 10
120.897964
 20
148.157616
 30
0.0
 11
120.897964
 21
130.157616
 31
0.0
  0
LINE
  5
256
100
AcDbEntity
  8
LY_3
390
0
  6
CONTINUOUS
 62
     3
100
AcDbLine
 10
118.897964
 20
148.157616
 30
0.0
 11
118.897964
 21
130.157616
 31
0.0
  0
LINE
  5
257
100
AcDbEntity
  8
LY_3
390
0
  6
CONTINUOUS
 62
     3
100
AcDbLine
 10
229.697942
 20
115.157578
 30
0.0
 11
230.697943
 21
114.157577
 31
0.0
  0
LINE
  5
258
100
AcDbEntity
  8
LY_3
390
0
  6
CONTINUOUS
 62
     3
100
AcDbLine
 10
229.697977
 20
163.157594
 30
0.0
 11
230.697978
 21
164.157595
 31
0.0
  0
LINE
  5
259
100
AcDbEntity
  8
LY_3
390
0
  6
CONTINUOUS
 62
     3
100
AcDbLine
 10
229.697968
 20
163.157616
 30
0.0
 11
229.697968
 21
115.157616
 31
0.0
  0
LINE
  5
25A
100
AcDbEntity
  8
LY_3
390
0
  6
CONTINUOUS
 62
     3
100
AcDbLine
 10
230.697968
 20
164.157616
 30
0.0
 11
236.197968
 21
164.157616
 31
0.0
  0
LINE
  5
25B
100
AcDbEntity
  8
LY_3
390
0
  6
CONTINUOUS
 62
     3
100
AcDbLine
 10
120.897964
 20
130.157616
 30
0.0
 11
138.397964
 21
130.157616
 31
0.0
  0
LINE
  5
25C
100
AcDbEntity
  8
LY_3
390
0
  6
CONTINUOUS
 62
     3
100
AcDbLine
 10
117.897964
 20
130.157616
 30
0.0
 11
118.897964
 21
130.157616
 31
0.0
  0
LINE
  5
25D
100
AcDbEntity
  8
LY_3
390
0
  6
CONTINUOUS
 62
     3
100
AcDbLine
 10
120.897964
 20
148.157616
 30
0.0
 11
138.397964
 21
148.157616
 31
0.0
  0
LINE
  5
25E
100
AcDbEntity
  8
LY_3
390
0
  6
CONTINUOUS
 62
     3
100
AcDbLine
 10
117.897964
 20
148.157616
 30
0.0
 11
118.897964
 21
148.157616
 31
0.0
  0
LINE
  5
260
100
AcDbEntity
  8
LY_3
390
0
  6
PHANTOM
 62
   110
100
AcDbLine
 10
167.69796
 20
143.157616
 30
0.0
 11
167.69796
 21
135.157616
 31
0.0
  0
LINE
  5
261
100
AcDbEntity
  8
LY_3
390
0
  6
PHANTOM
 62
   110
100
AcDbLine
 10
168.69796
 20
143.157616
 30
0.0
 11
168.69796
 21
135.157616
 31
0.0
  0
LINE
  5
262
100
AcDbEntity
  8
LY_3
390
0
  6
PHANTOM
 62
   110
100
AcDbLine
 10
169.69796
 20
143.157616
 30
0.0
 11
169.69796
 21
135.157616
 31
0.0
  0
LINE
  5
263
100
AcDbEntity
  8
LY_3
390
0
  6
CONTINUOUS
 62
     3
100
AcDbLine
 10
206.507515
 20
139.345116
 30
0.0
 11
207.197968
 21
139.345116
 31
0.0
  0
LINE
  5
264
100
AcDbEntity
  8
LY_3
390
0
  6
CONTINUOUS
 62
     3
100
AcDbLine
 10
206.507515
 20
138.970116
 30
0.0
 11
207.197968
 21
138.970116
 31
0.0
  0
LINE
  5
265
100
AcDbEntity
  8
LY_3
390
0
  6
CONTINUOUS
 62
     3
100
AcDbLine
 10
205.885468
 20
138.348068
 30
0.0
 11
205.885468
 21
137.657616
 31
0.0
  0
LINE
  5
266
100
AcDbEntity
  8
LY_3
390
0
  6
CONTINUOUS
 62
     3
100
AcDbLine
 10
205.510468
 20
138.348068
 30
0.0
 11
205.510468
 21
137.657616
 31
0.0
  0
LINE
  5
267
100
AcDbEntity
  8
LY_3
390
0
  6
CONTINUOUS
 62
     3
100
AcDbLine
 10
204.197968
 20
139.345116
 30
0.0
 11
204.88842
 21
139.345116
 31
0.0
  0
LINE
  5
268
100
AcDbEntity
  8
LY_3
390
0
  6
CONTINUOUS
 62
     3
100
AcDbLine
 10
204.197968
 20
138.970116
 30
0.0
 11
204.88842
 21
138.970116
 31
0.0
  0
LINE
  5
269
100
AcDbEntity
  8
LY_3
390
0
  6
CONTINUOUS
 62
     3
100
AcDbLine
 10
205.510468
 20
140.657616
 30
0.0
 11
205.510468
 21
139.967163
 31
0.0
  0
LINE
  5
26A
100
AcDbEntity
  8
LY_3
390
0
  6
CONTINUOUS
 62
     3
100
AcDbLine
 10
205.885468
 20
140.657616
 30
0.0
 11
205.885468
 21
139.967163
 31
0.0
  0
LINE
  5
26B
100
AcDbEntity
  8
LY_3
390
0
  6
CONTINUOUS
 62
     3
100
AcDbLine
 10
204.197968
 20
139.345116
 30
0.0
 11
204.197968
 21
138.970116
 31
0.0
  0
LINE
  5
26C
100
AcDbEntity
  8
LY_3
390
0
  6
CONTINUOUS
 62
     3
100
AcDbLine
 10
207.197968
 20
139.345116
 30
0.0
 11
207.197968
 21
138.970116
 31
0.0
  0
LINE
  5
26D
100
AcDbEntity
  8
LY_3
390
0
  6
CONTINUOUS
 62
     3
100
AcDbLine
 10
205.510468
 20
137.657616
 30
0.0
 11
205.885468
 21
137.657616
 31
0.0
  0
LINE
  5
26E
100
AcDbEntity
  8
LY_3
390
0
  6
CONTINUOUS
 62
     3
100
AcDbLine
 10
205.510468
 20
140.657616
 30
0.0
 11
205.885468
 21
140.657616
 31
0.0
  0
LINE
  5
26F
100
AcDbEntity
  8
LY_3
390
0
  6
CONTINUOUS
 62
     3
100
AcDbLine
 10
147.897964
 20
158.157616
 30
0.0
 11
217.697968
 21
158.157616
 31
0.0
  0
LINE
  5
270
100
AcDbEntity
  8
LY_3
390
0
  6
CONTINUOUS
 62
     3
100
AcDbLine
 10
147.897964
 20
120.157616
 30
0.0
 11
217.697968
 21
120.157616
 31
0.0
  0
LINE
  5
271
100
AcDbEntity
  8
LY_3
390
0
  6
CONTINUOUS
 62
     3
100
AcDbLine
 10
162.697968
 20
135.157616
 30
0.0
 11
204.697968
 21
135.157616
 31
0.0
  0
LINE
  5
272
100
AcDbEntity
  8
LY_3
390
0
  6
CONTINUOUS
 62
     3
100
AcDbLine
 10
162.697968
 20
143.157616
 30
0.0
 11
204.697968
 21
143.157616
 31
0.0
  0
LINE
  5
273
100
AcDbEntity
  8
LY_3
390
0
  6
CONTINUOUS
 62
     3
100
AcDbLine
 10
213.697968
 20
139.157616
 30
0.0
 11
216.697968
 21
139.157616
 31
0.0
  0
LINE
  5
274
100
AcDbEntity
  8
LY_3
390
0
  6
CONTINUOUS
 62
   110
100
AcDbLine
 10
217.397964
 20
139.157616
 30
0.0
 11
220.983429
 21
139.157616
 31
0.0
  0
LINE
  5
275
100
AcDbEntity
  8
LY_3
390
0
  6
CONTINUOUS
 62
   110
100
AcDbLine
 10
217.697968
 20
158.925598
 30
0.0
 11
221.697968
 21
158.925598
 31
0.0
  0
LINE
  5
276
100
AcDbEntity
  8
LY_3
390
0
  6
CONTINUOUS
 62
   110
100
AcDbLine
 10
217.697968
 20
151.520378
 30
0.0
 11
221.697968
 21
151.520378
 31
0.0
  0
LINE
  5
277
100
AcDbEntity
  8
LY_3
390
0
  6
CONTINUOUS
 62
   110
100
AcDbLine
 10
217.697968
 20
126.792007
 30
0.0
 11
221.697968
 21
126.792007
 31
0.0
  0
LINE
  5
278
100
AcDbEntity
  8
LY_3
390
0
  6
CONTINUOUS
 62
   110
100
AcDbLine
 10
217.697968
 20
119.388718
 30
0.0
 11
221.697968
 21
119.388718
 31
0.0
  0
LINE
  5
279
100
AcDbEntity
  8
LY_3
390
0
  6
CONTINUOUS
 62
     3
100
AcDbLine
 10
228.697968
 20
117.157616
 30
0.0
 11
229.697968
 21
117.157616
 31
0.0
  0
LINE
  5
27A
100
AcDbEntity
  8
LY_3
390
0
  6
CONTINUOUS
 62
     3
100
AcDbLine
 10
217.697964
 20
118.119994
 30
0.0
 11
228.697953
 21
117.157622
 31
0.0
  0
LINE
  5
27B
100
AcDbEntity
  8
LY_3
390
0
  6
CONTINUOUS
 62
     3
100
AcDbLine
 10
217.697961
 20
160.19528
 30
0.0
 11
228.697951
 21
161.157655
 31
0.0
  0
LINE
  5
27C
100
AcDbEntity
  8
LY_3
390
0
  6
CONTINUOUS
 62
     3
100
AcDbLine
 10
228.697968
 20
161.157616
 30
0.0
 11
229.697968
 21
161.157616
 31
0.0
  0
LINE
  5
27D
100
AcDbEntity
  8
LY_3
390
0
  6
CONTINUOUS
 62
     3
100
AcDbLine
 10
217.697968
 20
118.119987
 30
0.0
 11
217.697968
 21
160.195244
 31
0.0
  0
LINE
  5
27E
100
AcDbEntity
  8
LY_3
390
0
  6
CONTINUOUS
 62
   110
100
AcDbLine
 10
198.697968
 20
143.157616
 30
0.0
 11
198.697968
 21
135.157616
 31
0.0
  0
LINE
  5
27F
100
AcDbEntity
  8
LY_3
390
0
  6
CONTINUOUS
 62
     3
100
AcDbLine
 10
199.697968
 20
143.157616
 30
0.0
 11
199.697968
 21
135.157616
 31
0.0
  0
LINE
  5
280
100
AcDbEntity
  8
LY_3
390
0
  6
CONTINUOUS
 62
     3
100
AcDbLine
 10
197.697968
 20
143.157616
 30
0.0
 11
197.697968
 21
135.157616
 31
0.0
  0
LINE
  5
281
100
AcDbEntity
  8
LY_3
390
0
  6
CONTINUOUS
 62
   110
100
AcDbLine
 10
168.697968
 20
135.157616
 30
0.0
 11
168.697968
 21
131.157616
 31
0.0
  0
LINE
  5
282
100
AcDbEntity
  8
LY_3
390
0
  6
CONTINUOUS
 62
   110
100
AcDbLine
 10
169.697968
 20
135.157616
 30
0.0
 11
169.697968
 21
133.157616
 31
0.0
  0
LINE
  5
283
100
AcDbEntity
  8
LY_3
390
0
  6
CONTINUOUS
 62
   110
100
AcDbLine
 10
170.697968
 20
135.157616
 30
0.0
 11
170.697968
 21
133.157616
 31
0.0
  0
LINE
  5
284
100
AcDbEntity
  8
LY_3
390
0
  6
CONTINUOUS
 62
   110
100
AcDbLine
 10
171.697968
 20
135.157616
 30
0.0
 11
171.697968
 21
133.157616
 31
0.0
  0
LINE
  5
285
100
AcDbEntity
  8
LY_3
390
0
  6
CONTINUOUS
 62
   110
100
AcDbLine
 10
172.697968
 20
135.157616
 30
0.0
 11
172.697968
 21
133.157616
 31
0.0
  0
LINE
  5
286
100
AcDbEntity
  8
LY_3
390
0
  6
CONTINUOUS
 62
   110
100
AcDbLine
 10
173.697968
 20
135.157616
 30
0.0
 11
173.697968
 21
132.157616
 31
0.0
  0
LINE
  5
287
100
AcDbEntity
  8
LY_3
390
0
  6
CONTINUOUS
 62
   110
100
AcDbLine
 10
174.697968
 20
135.157616
 30
0.0
 11
174.697968
 21
133.157616
 31
0.0
  0
LINE
  5
288
100
AcDbEntity
  8
LY_3
390
0
  6
CONTINUOUS
 62
   110
100
AcDbLine
 10
175.697968
 20
135.157616
 30
0.0
 11
175.697968
 21
133.157616
 31
0.0
  0
LINE
  5
289
100
AcDbEntity
  8
LY_3
390
0
  6
CONTINUOUS
 62
   110
100
AcDbLine
 10
176.697968
 20
135.157616
 30
0.0
 11
176.697968
 21
133.157616
 31
0.0
  0
LINE
  5
28A
100
AcDbEntity
  8
LY_3
390
0
  6
CONTINUOUS
 62
   110
100
AcDbLine
 10
177.697968
 20
135.157616
 30
0.0
 11
177.697968
 21
133.157616
 31
0.0
  0
LINE
  5
28B
100
AcDbEntity
  8
LY_3
390
0
  6
CONTINUOUS
 62
   110
100
AcDbLine
 10
178.697968
 20
135.157616
 30
0.0
 11
178.697968
 21
131.157616
 31
0.0
  0
LINE
  5
28C
100
AcDbEntity
  8
LY_3
390
0
  6
CONTINUOUS
 62
   110
100
AcDbLine
 10
179.697968
 20
135.157616
 30
0.0
 11
179.697968
 21
133.157616
 31
0.0
  0
LINE
  5
28D
100
AcDbEntity
  8
LY_3
390
0
  6
CONTINUOUS
 62
   110
100
AcDbLine
 10
180.697968
 20
135.157616
 30
0.0
 11
180.697968
 21
133.157616
 31
0.0
  0
LINE
  5
28E
100
AcDbEntity
  8
LY_3
390
0
  6
CONTINUOUS
 62
   110
100
AcDbLine
 10
181.697968
 20
135.157616
 30
0.0
 11
181.697968
 21
133.157616
 31
0.0
  0
LINE
  5
28F
100
AcDbEntity
  8
LY_3
390
0
  6
CONTINUOUS
 62
   110
100
AcDbLine
 10
182.697968
 20
135.157616
 30
0.0
 11
182.697968
 21
133.157616
 31
0.0
  0
LINE
  5
290
100
AcDbEntity
  8
LY_3
390
0
  6
CONTINUOUS
 62
   110
100
AcDbLine
 10
183.697968
 20
135.157616
 30
0.0
 11
183.697968
 21
132.157616
 31
0.0
  0
LINE
  5
291
100
AcDbEntity
  8
LY_3
390
0
  6
CONTINUOUS
 62
   110
100
AcDbLine
 10
184.697968
 20
135.157616
 30
0.0
 11
184.697968
 21
133.157616
 31
0.0
  0
LINE
  5
292
100
AcDbEntity
  8
LY_3
390
0
  6
CONTINUOUS
 62
   110
100
AcDbLine
 10
185.697968
 20
135.157616
 30
0.0
 11
185.697968
 21
133.157616
 31
0.0
  0
LINE
  5
293
100
AcDbEntity
  8
LY_3
390
0
  6
CONTINUOUS
 62
   110
100
AcDbLine
 10
186.697968
 20
135.157616
 30
0.0
 11
186.697968
 21
133.157616
 31
0.0
  0
LINE
  5
294
100
AcDbEntity
  8
LY_3
390
0
  6
CONTINUOUS
 62
   110
100
AcDbLine
 10
187.697968
 20
135.157616
 30
0.0
 11
187.697968
 21
133.157616
 31
0.0
  0
LINE
  5
295
100
AcDbEntity
  8
LY_3
390
0
  6
CONTINUOUS
 62
   110
100
AcDbLine
 10
188.697968
 20
135.157616
 30
0.0
 11
188.697968
 21
131.157616
 31
0.0
  0
LINE
  5
296
100
AcDbEntity
  8
LY_3
390
0
  6
CONTINUOUS
 62
   110
100
AcDbLine
 10
189.697968
 20
135.157616
 30
0.0
 11
189.697968
 21
133.157616
 31
0.0
  0
LINE
  5
297
100
AcDbEntity
  8
LY_3
390
0
  6
CONTINUOUS
 62
   110
100
AcDbLine
 10
190.697968
 20
135.157616
 30
0.0
 11
190.697968
 21
133.157616
 31
0.0
  0
LINE
  5
298
100
AcDbEntity
  8
LY_3
390
0
  6
CONTINUOUS
 62
   110
100
AcDbLine
 10
191.697968
 20
135.157616
 30
0.0
 11
191.697968
 21
133.157616
 31
0.0
  0
LINE
  5
299
100
AcDbEntity
  8
LY_3
390
0
  6
CONTINUOUS
 62
   110
100
AcDbLine
 10
192.697968
 20
135.157616
 30
0.0
 11
192.697968
 21
133.157616
 31
0.0
  0
LINE
  5
29A
100
AcDbEntity
  8
LY_3
390
0
  6
CONTINUOUS
 62
   110
100
AcDbLine
 10
193.697968
 20
135.157616
 30
0.0
 11
193.697968
 21
132.157616
 31
0.0
  0
LINE
  5
29B
100
AcDbEntity
  8
LY_3
390
0
  6
CONTINUOUS
 62
   110
100
AcDbLine
 10
194.697968
 20
135.157616
 30
0.0
 11
194.697968
 21
133.157616
 31
0.0
  0
LINE
  5
29C
100
AcDbEntity
  8
LY_3
390
0
  6
CONTINUOUS
 62
   110
100
AcDbLine
 10
195.697968
 20
135.157616
 30
0.0
 11
195.697968
 21
133.157616
 31
0.0
  0
LINE
  5
29D
100
AcDbEntity
  8
LY_3
390
0
  6
CONTINUOUS
 62
   110
100
AcDbLine
 10
196.697968
 20
135.157616
 30
0.0
 11
196.697968
 21
133.157616
 31
0.0
  0
LINE
  5
29E
100
AcDbEntity
  8
LY_3
390
0
  6
CONTINUOUS
 62
   110
100
AcDbLine
 10
197.697968
 20
135.157616
 30
0.0
 11
197.697968
 21
133.157616
 31
0.0
  0
LINE
  5
29F
100
AcDbEntity
  8
LY_3
390
0
  6
CONTINUOUS
 62
   110
100
AcDbLine
 10
198.697968
 20
135.157616
 30
0.0
 11
198.697968
 21
131.157616
 31
0.0
  0
LINE
  5
2A0
100
AcDbEntity
  8
LY_3
390
0
  6
CENTER
 62
   110
100
AcDbLine
 10
143.897964
 20
161.99234
 30
0.0
 11
143.897964
 21
158.31926
 31
0.0
  0
LINE
  5
2A1
100
AcDbEntity
  8
LY_3
390
0
  6
CENTER
 62
   110
100
AcDbLine
 10
143.897964
 20
116.322891
 30
0.0
 11
143.897964
 21
120.086182
 31
0.0
  0
LINE
  5
2A2
100
AcDbEntity
  8
LY_3
390
0
  6
CONTINUOUS
 62
     3
100
AcDbLine
 10
139.897961
 20
118.157616
 30
0.0
 11
147.397961
 21
118.157616
 31
0.0
  0
LINE
  5
2A4
100
AcDbEntity
  8
LY_3
390
0
  6
DASHED
 62
   110
100
AcDbLine
 10
167.69796
 20
143.157616
 30
0.0
 11
167.69796
 21
135.157616
 31
0.0
  0
LINE
  5
2A5
100
AcDbEntity
  8
LY_3
390
0
  6
DASHED
 62
   110
100
AcDbLine
 10
168.69796
 20
143.157616
 30
0.0
 11
168.69796
 21
135.157616
 31
0.0
  0
LINE
  5
2A6
100
AcDbEntity
  8
LY_3
390
0
  6
DASHED
 62
   110
100
AcDbLine
 10
169.69796
 20
143.157616
 30
0.0
 11
169.69796
 21
135.157616
 31
0.0
  0
LINE
  5
2A7
100
AcDbEntity
  8
LY_3
390
0
  6
CONTINUOUS
 62
     3
100
AcDbLine
 10
159.697964
 20
5.999992
 30
0.0
 11
159.697964
 21
-5.999985
 31
0.0
  0
LINE
  5
2A8
100
AcDbEntity
  8
LY_3
390
0
  6
CONTINUOUS
 62
     3
100
AcDbLine
 10
157.697968
 20
3.999996
 30
0.0
 11
157.697968
 21
-3.999981
 31
0.0
  0
LINE
  5
2A9
100
AcDbEntity
  8
LY_3
390
0
  6
CONTINUOUS
 62
     3
100
AcDbLine
 10
159.697968
 20
-6.0
 30
0.0
 11
160.875046
 21
-6.0
 31
0.0
  0
LINE
  5
2AA
100
AcDbEntity
  8
LY_3
390
0
  6
CONTINUOUS
 62
     3
100
AcDbLine
 10
159.697968
 20
6.0
 30
0.0
 11
162.19199
 21
6.0
 31
0.0
  0
LINE
  5
2AB
100
AcDbEntity
  8
LY_3
390
0
  6
CONTINUOUS
 62
   110
100
AcDbLine
 10
57.697971
 20
137.157585
 30
0.0
 11
72.697967
 21
141.157584
 31
0.0
  0
LINE
  5
2AC
100
AcDbEntity
  8
LY_3
390
0
  6
CONTINUOUS
 62
   110
100
AcDbLine
 10
57.697961
 20
141.157603
 30
0.0
 11
72.697953
 21
137.157605
 31
0.0
  0
LINE
  5
2AD
100
AcDbEntity
  8
LY_3
390
0
  6
CONTINUOUS
 62
     3
100
AcDbLine
 10
57.697968
 20
141.157616
 30
0.0
 11
72.697968
 21
141.157616
 31
0.0
  0
LINE
  5
2AE
100
AcDbEntity
  8
LY_3
390
0
  6
CONTINUOUS
 62
     3
100
AcDbLine
 10
57.697968
 20
137.157616
 30
0.0
 11
72.697968
 21
137.157616
 31
0.0
  0
LINE
  5
2AF
100
AcDbEntity
  8
LY_3
390
0
  6
CONTINUOUS
 62
     3
100
AcDbLine
 10
56.697983
 20
137.157618
 30
0.0
 11
57.697984
 21
136.157617
 31
0.0
  0
LINE
  5
2B0
100
AcDbEntity
  8
LY_3
390
0
  6
CONTINUOUS
 62
     3
100
AcDbLine
 10
56.697997
 20
141.157603
 30
0.0
 11
57.697998
 21
142.157604
 31
0.0
  0
LINE
  5
2B1
100
AcDbEntity
  8
LY_3
390
0
  6
CONTINUOUS
 62
     3
100
AcDbLine
 10
57.697968
 20
136.157616
 30
0.0
 11
72.697968
 21
136.157616
 31
0.0
  0
LINE
  5
2B2
100
AcDbEntity
  8
LY_3
390
0
  6
CONTINUOUS
 62
     3
100
AcDbLine
 10
57.697968
 20
142.157616
 30
0.0
 11
72.697968
 21
142.157616
 31
0.0
  0
LINE
  5
2B3
100
AcDbEntity
  8
LY_3
390
0
  6
CONTINUOUS
 62
     3
100
AcDbLine
 10
113.097931
 20
156.057617
 30
0.0
 11
113.097931
 21
122.257614
 31
0.0
  0
LINE
  5
2B4
100
AcDbEntity
  8
LY_3
390
0
  6
CONTINUOUS
 62
     3
100
AcDbLine
 10
107.497955
 20
156.057617
 30
0.0
 11
107.497955
 21
122.257614
 31
0.0
  0
LINE
  5
2B5
100
AcDbEntity
  8
LY_3
390
0
  6
CONTINUOUS
 62
     3
100
AcDbLine
 10
73.697968
 20
143.157616
 30
0.0
 11
73.697968
 21
135.157616
 31
0.0
  0
LINE
  5
2B6
100
AcDbEntity
  8
LY_3
390
0
  6
CONTINUOUS
 62
     3
100
AcDbLine
 10
72.697976
 20
136.157614
 30
0.0
 11
73.697977
 21
135.157613
 31
0.0
  0
LINE
  5
2B7
100
AcDbEntity
  8
LY_3
390
0
  6
CONTINUOUS
 62
     3
100
AcDbLine
 10
72.697932
 20
142.157668
 30
0.0
 11
73.697937
 21
143.157665
 31
0.0
  0
LINE
  5
2B8
100
AcDbEntity
  8
LY_3
390
0
  6
CONTINUOUS
 62
     3
100
AcDbLine
 10
57.697968
 20
142.157616
 30
0.0
 11
57.697968
 21
136.157616
 31
0.0
  0
LINE
  5
2B9
100
AcDbEntity
  8
LY_3
390
0
  6
CONTINUOUS
 62
     3
100
AcDbLine
 10
116.89798
 20
7.549999
 30
0.0
 11
117.897964
 21
7.549999
 31
0.0
  0
LINE
  5
2BA
100
AcDbEntity
  8
LY_3
390
0
  6
CONTINUOUS
 62
   110
100
AcDbLine
 10
110.897987
 20
7.550019
 30
0.0
 11
116.711385
 21
4.110426
 31
0.0
  0
LINE
  5
2BB
100
AcDbEntity
  8
LY_3
390
0
  6
CONTINUOUS
 62
   110
100
AcDbLine
 10
111.084563
 20
4.110414
 30
0.0
 11
116.89796
 21
7.550006
 31
0.0
  0
LINE
  5
2BC
100
AcDbEntity
  8
LY_3
390
0
  6
CONTINUOUS
 62
   110
100
AcDbLine
 10
111.084581
 20
-4.110388
 30
0.0
 11
116.897976
 21
-7.549983
 31
0.0
  0
LINE
  5
2BD
100
AcDbEntity
  8
LY_3
390
0
  6
CONTINUOUS
 62
   110
100
AcDbLine
 10
110.897959
 20
-7.550001
 30
0.0
 11
116.711354
 21
-4.110406
 31
0.0
  0
LINE
  5
2BE
100
AcDbEntity
  8
LY_3
390
0
  6
CONTINUOUS
 62
     3
100
AcDbLine
 10
147.897964
 20
-19.0
 30
0.0
 11
217.697968
 21
-19.0
 31
0.0
  0
LINE
  5
2BF
100
AcDbEntity
  8
LY_3
390
0
  6
CONTINUOUS
 62
     3
100
AcDbLine
 10
147.897964
 20
19.0
 30
0.0
 11
217.697968
 21
19.0
 31
0.0
  0
LINE
  5
2C0
100
AcDbEntity
  8
LY_3
390
0
  6
CONTINUOUS
 62
     3
100
AcDbLine
 10
155.397969
 20
7.000004
 30
0.0
 11
155.897968
 21
14.49999
 31
0.0
  0
LINE
  5
2C1
100
AcDbEntity
  8
LY_3
390
0
  6
CONTINUOUS
 62
     3
100
AcDbLine
 10
154.897957
 20
14.499998
 30
0.0
 11
155.397961
 21
7.000002
 31
0.0
  0
LINE
  5
2C2
100
AcDbEntity
  8
LY_3
390
0
  6
CONTINUOUS
 62
     3
100
AcDbLine
 10
154.397954
 20
6.999991
 30
0.0
 11
154.89795
 21
14.499993
 31
0.0
  0
LINE
  5
2C3
100
AcDbEntity
  8
LY_3
390
0
  6
CONTINUOUS
 62
     3
100
AcDbLine
 10
153.897964
 20
14.500005
 30
0.0
 11
154.397964
 21
7.000002
 31
0.0
  0
LINE
  5
2C4
100
AcDbEntity
  8
LY_3
390
0
  6
CONTINUOUS
 62
     3
100
AcDbLine
 10
155.397973
 20
-7.000001
 30
0.0
 11
155.897973
 21
-14.499996
 31
0.0
  0
LINE
  5
2C5
100
AcDbEntity
  8
LY_3
390
0
  6
CONTINUOUS
 62
     3
100
AcDbLine
 10
154.897959
 20
-14.500001
 30
0.0
 11
155.397959
 21
-7.000002
 31
0.0
  0
LINE
  5
2C6
100
AcDbEntity
  8
LY_3
390
0
  6
CONTINUOUS
 62
     3
100
AcDbLine
 10
154.397964
 20
-7.0
 30
0.0
 11
154.897964
 21
-14.499992
 31
0.0
  0
LINE
  5
2C7
100
AcDbEntity
  8
LY_3
390
0
  6
CONTINUOUS
 62
     3
100
AcDbLine
 10
153.897958
 20
-14.499999
 30
0.0
 11
154.397955
 21
-6.999999
 31
0.0
  0
LINE
  5
2C8
100
AcDbEntity
  8
LY_3
390
0
  6
CONTINUOUS
 62
     3
100
AcDbLine
 10
152.397964
 20
-6.999992
 30
0.0
 11
151.897964
 21
-14.499992
 31
0.0
  0
LINE
  5
2C9
100
AcDbEntity
  8
LY_3
390
0
  6
CONTINUOUS
 62
     3
100
AcDbLine
 10
152.897978
 20
-14.500006
 30
0.0
 11
152.397978
 21
-7.000011
 31
0.0
  0
LINE
  5
2CA
100
AcDbEntity
  8
LY_3
390
0
  6
CONTINUOUS
 62
     3
100
AcDbLine
 10
153.397963
 20
-6.999999
 30
0.0
 11
152.897963
 21
-14.49999
 31
0.0
  0
LINE
  5
2CB
100
AcDbEntity
  8
LY_3
390
0
  6
CONTINUOUS
 62
     3
100
AcDbLine
 10
153.897969
 20
-14.500001
 30
0.0
 11
153.397969
 21
-7.000005
 31
0.0
  0
LINE
  5
2CC
100
AcDbEntity
  8
LY_3
390
0
  6
CONTINUOUS
 62
     3
100
AcDbLine
 10
153.897969
 20
14.5
 30
0.0
 11
153.397969
 21
7.000003
 31
0.0
  0
LINE
  5
2CD
100
AcDbEntity
  8
LY_3
390
0
  6
CONTINUOUS
 62
     3
100
AcDbLine
 10
153.397971
 20
6.999993
 30
0.0
 11
152.897974
 21
14.499997
 31
0.0
  0
LINE
  5
2CE
100
AcDbEntity
  8
LY_3
390
0
  6
CONTINUOUS
 62
     3
100
AcDbLine
 10
152.897957
 20
14.500001
 30
0.0
 11
152.397954
 21
7.000002
 31
0.0
  0
LINE
  5
2CF
100
AcDbEntity
  8
LY_3
390
0
  6
CONTINUOUS
 62
     3
100
AcDbLine
 10
152.397967
 20
6.999998
 30
0.0
 11
151.897967
 21
14.499997
 31
0.0
  0
LINE
  5
2D0
100
AcDbEntity
  8
LY_3
390
0
  6
CONTINUOUS
 62
     3
100
AcDbLine
 10
157.697965
 20
-3.999978
 30
0.0
 11
159.697962
 21
-5.999986
 31
0.0
  0
LINE
  5
2D1
100
AcDbEntity
  8
LY_3
390
0
  6
CONTINUOUS
 62
     3
100
AcDbLine
 10
157.697972
 20
3.999998
 30
0.0
 11
159.697969
 21
5.999995
 31
0.0
  0
LINE
  5
2D2
100
AcDbEntity
  8
LY_3
390
0
  6
CONTINUOUS
 62
     3
100
AcDbLine
 10
149.897958
 20
-14.499995
 30
0.0
 11
150.397958
 21
-6.999996
 31
0.0
  0
LINE
  5
2D3
100
AcDbEntity
  8
LY_3
390
0
  6
CONTINUOUS
 62
     3
100
AcDbLine
 10
150.397964
 20
-6.999996
 30
0.0
 11
150.897962
 21
-14.499991
 31
0.0
  0
LINE
  5
2D4
100
AcDbEntity
  8
LY_3
390
0
  6
CONTINUOUS
 62
     3
100
AcDbLine
 10
150.897969
 20
-14.500001
 30
0.0
 11
151.397969
 21
-7.000002
 31
0.0
  0
LINE
  5
2D5
100
AcDbEntity
  8
LY_3
390
0
  6
CONTINUOUS
 62
     3
100
AcDbLine
 10
151.397972
 20
-7.000001
 30
0.0
 11
151.897972
 21
-14.499997
 31
0.0
  0
LINE
  5
2D6
100
AcDbEntity
  8
LY_3
390
0
  6
CONTINUOUS
 62
     3
100
AcDbLine
 10
151.397968
 20
7.0
 30
0.0
 11
151.897968
 21
14.499997
 31
0.0
  0
LINE
  5
2D7
100
AcDbEntity
  8
LY_3
390
0
  6
CONTINUOUS
 62
     3
100
AcDbLine
 10
150.897964
 20
14.500003
 30
0.0
 11
151.397965
 21
7.0
 31
0.0
  0
LINE
  5
2D8
100
AcDbEntity
  8
LY_3
390
0
  6
CONTINUOUS
 62
     3
100
AcDbLine
 10
150.397959
 20
7.000006
 30
0.0
 11
150.897958
 21
14.500002
 31
0.0
  0
LINE
  5
2D9
100
AcDbEntity
  8
LY_3
390
0
  6
CONTINUOUS
 62
     3
100
AcDbLine
 10
149.897973
 20
14.500005
 30
0.0
 11
150.397974
 21
7.000002
 31
0.0
  0
LINE
  5
2DA
100
AcDbEntity
  8
LY_3
390
0
  6
PHANTOM
 62
   110
100
AcDbLine
 10
155.397964
 20
-7.0
 30
0.0
 11
160.741558
 21
-7.0
 31
0.0
  0
LINE
  5
2DB
100
AcDbEntity
  8
LY_3
390
0
  6
PHANTOM
 62
   110
100
AcDbLine
 10
155.397964
 20
7.0
 30
0.0
 11
162.131496
 21
7.0
 31
0.0
  0
LINE
  5
2DC
100
AcDbEntity
  8
LY_3
390
0
  6
PHANTOM
 62
   110
100
AcDbLine
 10
155.897964
 20
-14.5
 30
0.0
 11
160.794106
 21
-14.5
 31
0.0
  0
LINE
  5
2DD
100
AcDbEntity
  8
LY_3
390
0
  6
PHANTOM
 62
   110
100
AcDbLine
 10
155.897964
 20
14.5
 30
0.0
 11
160.686024
 21
14.5
 31
0.0
  0
LINE
  5
2DE
100
AcDbEntity
  8
LY_3
390
0
  6
CONTINUOUS
 62
     3
100
AcDbLine
 10
73.697968
 20
4.0
 30
0.0
 11
73.697968
 21
-4.0
 31
0.0
  0
LINE
  5
2DF
100
AcDbEntity
  8
LY_3
390
0
  6
CONTINUOUS
 62
     3
100
AcDbLine
 10
72.698003
 20
-2.999959
 30
0.0
 11
73.698004
 21
-3.99996
 31
0.0
  0
LINE
  5
2E0
100
AcDbEntity
  8
LY_3
390
0
  6
CONTINUOUS
 62
     3
100
AcDbLine
 10
72.697972
 20
3.000003
 30
0.0
 11
73.697973
 21
4.000004
 31
0.0
  0
LINE
  5
2E1
100
AcDbEntity
  8
LY_3
390
0
  6
CONTINUOUS
 62
     3
100
AcDbLine
 10
57.697998
 20
2.0
 30
0.0
 11
57.697998
 21
-3.0
 31
0.0
  0
LINE
  5
2E2
100
AcDbEntity
  8
LY_3
390
0
  6
CONTINUOUS
 62
     3
100
AcDbLine
 10
56.698049
 20
-1.999917
 30
0.0
 11
57.698063
 21
-2.999916
 31
0.0
  0
LINE
  5
2E3
100
AcDbEntity
  8
LY_3
390
0
  6
CONTINUOUS
 62
     3
100
AcDbLine
 10
116.897964
 20
148.157616
 30
0.0
 11
116.897964
 21
130.157616
 31
0.0
  0
LINE
  5
2E4
100
AcDbEntity
  8
LY_3
390
0
  6
CONTINUOUS
 62
     3
100
AcDbLine
 10
114.897964
 20
148.157616
 30
0.0
 11
114.897964
 21
130.157616
 31
0.0
  0
LINE
  5
2E5
100
AcDbEntity
  8
LY_3
390
0
  6
CONTINUOUS
 62
     3
100
AcDbLine
 10
1.246757
 20
-4.959723
 30
0.0
 11
2.50476
 21
-7.138648
 31
0.0
  0
LINE
  5
2E6
100
AcDbEntity
  8
LY_3
390
0
  6
CONTINUOUS
 62
     3
100
AcDbLine
 10
-2.539719
 20
-7.198779
 30
0.0
 11
-1.246949
 21
-4.959635
 31
0.0
  0
LINE
  5
2E7
100
AcDbEntity
  8
LY_3
390
0
  6
CENTER
 62
   110
100
AcDbLine
 10
111.449997
 20
70.0
 30
0.0
 11
128.550003
 21
70.0
 31
0.0
  0
LINE
  5
2E8
100
AcDbEntity
  8
LY_3
390
0
  6
CONTINUOUS
 62
     3
100
AcDbLine
 10
-2.236053
 20
2.0
 30
0.0
 11
2.236053
 21
2.0
 31
0.0
  0
LINE
  5
2E9
100
AcDbEntity
  8
LY_3
390
0
  6
CONTINUOUS
 62
     3
100
AcDbLine
 10
0.5
 20
-10.689201
 30
0.0
 11
0.5
 21
-16.892601
 31
0.0
  0
LINE
  5
2EA
100
AcDbEntity
  8
LY_3
390
0
  6
CONTINUOUS
 62
     3
100
AcDbLine
 10
-0.5
 20
-10.687386
 30
0.0
 11
-0.5
 21
-16.892601
 31
0.0
  0
LINE
  5
2EB
100
AcDbEntity
  8
LY_3
390
0
  6
CONTINUOUS
 62
     3
100
AcDbLine
 10
-0.5
 20
16.892601
 30
0.0
 11
-0.5
 21
10.687386
 31
0.0
  0
LINE
  5
2EC
100
AcDbEntity
  8
LY_3
390
0
  6
CONTINUOUS
 62
     3
100
AcDbLine
 10
0.5
 20
16.892601
 30
0.0
 11
0.5
 21
10.689201
 31
0.0
  0
LINE
  5
2ED
100
AcDbEntity
  8
LY_3
390
0
  6
CENTER
 62
   110
100
AcDbLine
 10
8.350209
 20
-14.462469
 30
0.0
 11
5.150212
 21
-8.919911
 31
0.0
  0
LINE
  5
2EE
100
AcDbEntity
  8
LY_3
390
0
  6
CENTER
 62
   110
100
AcDbLine
 10
-8.35005
 20
-14.462623
 30
0.0
 11
-5.150048
 21
-8.92006
 31
0.0
  0
LINE
  5
2EF
100
AcDbEntity
  8
LY_3
390
0
  6
CENTER
 62
   110
100
AcDbLine
 10
8.349953
 20
14.462626
 30
0.0
 11
5.149956
 21
8.920069
 31
0.0
  0
LINE
  5
2F0
100
AcDbEntity
  8
LY_3
390
0
  6
CENTER
 62
   110
100
AcDbLine
 10
-8.350082
 20
14.462566
 30
0.0
 11
-5.150085
 21
8.92001
 31
0.0
  0
LINE
  5
2F1
100
AcDbEntity
  8
LY_3
390
0
  6
CENTER
 62
   110
100
AcDbLine
 10
0.0
 20
21.900002
 30
0.0
 11
0.0
 21
-21.900002
 31
0.0
  0
LINE
  5
2F2
100
AcDbEntity
  8
LY_3
390
0
  6
CONTINUOUS
 62
     3
100
AcDbLine
 10
117.897964
 20
148.157616
 30
0.0
 11
117.897964
 21
130.157616
 31
0.0
  0
LINE
  5
2F3
100
AcDbEntity
  8
LY_3
390
0
  6
CONTINUOUS
 62
     3
100
AcDbLine
 10
106.697972
 20
-16.099995
 30
0.0
 11
107.497969
 21
-16.899992
 31
0.0
  0
LINE
  5
2F4
100
AcDbEntity
  8
LY_3
390
0
  6
CONTINUOUS
 62
     3
100
AcDbLine
 10
107.497955
 20
-16.900002
 30
0.0
 11
113.097961
 21
-16.900002
 31
0.0
  0
LINE
  5
2F5
100
AcDbEntity
  8
LY_3
390
0
  6
CONTINUOUS
 62
     3
100
AcDbLine
 10
113.897946
 20
-16.100015
 30
0.0
 11
113.097939
 21
-16.900018
 31
0.0
  0
LINE
  5
2F6
100
AcDbEntity
  8
LY_3
390
0
  6
CENTER
 62
   110
100
AcDbLine
 10
102.297974
 20
-13.5
 30
0.0
 11
118.297974
 21
-13.5
 31
0.0
  0
LINE
  5
2F7
100
AcDbEntity
  8
LY_3
390
0
  6
CONTINUOUS
 62
     3
100
AcDbLine
 10
113.897964
 20
-9.0
 30
0.0
 11
114.897964
 21
-9.0
 31
0.0
  0
LINE
  5
2F8
100
AcDbEntity
  8
LY_3
390
0
  6
CONTINUOUS
 62
     3
100
AcDbLine
 10
116.897964
 20
-9.0
 30
0.0
 11
117.897964
 21
-9.0
 31
0.0
  0
LINE
  5
2F9
100
AcDbEntity
  8
LY_3
390
0
  6
CONTINUOUS
 62
     3
100
AcDbLine
 10
116.897964
 20
9.0
 30
0.0
 11
117.897964
 21
9.0
 31
0.0
  0
LINE
  5
2FA
100
AcDbEntity
  8
LY_3
390
0
  6
CONTINUOUS
 62
     3
100
AcDbLine
 10
113.897964
 20
9.0
 30
0.0
 11
114.897964
 21
9.0
 31
0.0
  0
LINE
  5
2FB
100
AcDbEntity
  8
LY_3
390
0
  6
CENTER
 62
   110
100
AcDbLine
 10
102.297974
 20
13.5
 30
0.0
 11
118.297974
 21
13.5
 31
0.0
  0
LINE
  5
2FC
100
AcDbEntity
  8
LY_3
390
0
  6
CONTINUOUS
 62
     3
100
AcDbLine
 10
113.097955
 20
16.900001
 30
0.0
 11
113.897953
 21
16.1
 31
0.0
  0
LINE
  5
2FD
100
AcDbEntity
  8
LY_3
390
0
  6
CONTINUOUS
 62
     3
100
AcDbLine
 10
107.497955
 20
16.900002
 30
0.0
 11
113.097961
 21
16.900002
 31
0.0
  0
LINE
  5
2FE
100
AcDbEntity
  8
LY_3
390
0
  6
CONTINUOUS
 62
     3
100
AcDbLine
 10
106.697962
 20
16.100017
 30
0.0
 11
107.497957
 21
16.900012
 31
0.0
  0
LINE
  5
2FF
100
AcDbEntity
  8
LY_3
390
0
  6
CONTINUOUS
 62
     3
100
AcDbLine
 10
73.697968
 20
-4.0
 30
0.0
 11
157.697975
 21
-4.0
 31
0.0
  0
LINE
  5
300
100
AcDbEntity
  8
LY_3
390
0
  6
CONTINUOUS
 62
     3
100
AcDbLine
 10
73.697968
 20
4.0
 30
0.0
 11
157.697968
 21
4.0
 31
0.0
  0
LINE
  5
301
100
AcDbEntity
  8
LY_3
390
0
  6
CONTINUOUS
 62
     3
100
AcDbLine
 10
57.697983
 20
-3.0
 30
0.0
 11
72.697968
 21
-3.0
 31
0.0
  0
LINE
  5
302
100
AcDbEntity
  8
LY_3
390
0
  6
CONTINUOUS
 62
     3
100
AcDbLine
 10
56.697968
 20
2.0
 30
0.0
 11
72.697968
 21
2.0
 31
0.0
  0
LINE
  5
303
100
AcDbEntity
  8
LY_3
390
0
  6
CENTER
 62
   110
100
AcDbLine
 10
-21.899994
 20
0.0
 30
0.0
 11
21.899994
 21
0.0
 31
0.0
  0
LINE
  5
304
100
AcDbEntity
  8
LY_3
390
0
  6
CONTINUOUS
 62
     3
100
AcDbLine
 10
110.89798
 20
7.549999
 30
0.0
 11
116.89798
 21
7.549999
 31
0.0
  0
LINE
  5
305
100
AcDbEntity
  8
LY_3
390
0
  6
CONTINUOUS
 62
     3
100
AcDbLine
 10
111.047974
 20
-7.550003
 30
0.0
 11
111.047974
 21
-7.849998
 31
0.0
  0
LINE
  5
306
100
AcDbEntity
  8
LY_3
390
0
  6
CONTINUOUS
 62
     3
100
AcDbLine
 10
111.397972
 20
7.549994
 30
0.0
 11
111.40539
 21
7.555891
 31
0.0
  0
LINE
  5
307
100
AcDbEntity
  8
LY_3
390
0
  6
CONTINUOUS
 62
     3
100
AcDbLine
 10
110.89798
 20
-7.550003
 30
0.0
 11
116.89798
 21
-7.550003
 31
0.0
  0
LINE
  5
308
100
AcDbEntity
  8
LY_3
390
0
  6
CONTINUOUS
 62
     3
100
AcDbLine
 10
110.89798
 20
-7.849998
 30
0.0
 11
111.047974
 21
-7.849998
 31
0.0
  0
LINE
  5
309
100
AcDbEntity
  8
LY_3
390
0
  6
CONTINUOUS
 62
     3
100
AcDbLine
 10
110.89798
 20
7.849998
 30
0.0
 11
111.047974
 21
7.849998
 31
0.0
  0
LINE
  5
30A
100
AcDbEntity
  8
LY_3
390
0
  6
CONTINUOUS
 62
     3
100
AcDbLine
 10
110.89798
 20
-4.0
 30
0.0
 11
110.89798
 21
-7.849998
 31
0.0
  0
LINE
  5
30B
100
AcDbEntity
  8
LY_3
390
0
  6
CONTINUOUS
 62
     3
100
AcDbLine
 10
110.89798
 20
7.849998
 30
0.0
 11
110.89798
 21
4.0
 31
0.0
  0
LINE
  5
30C
100
AcDbEntity
  8
LY_3
390
0
  6
CONTINUOUS
 62
     3
100
AcDbLine
 10
109.89798
 20
-4.0
 30
0.0
 11
109.89798
 21
-7.849998
 31
0.0
  0
LINE
  5
30D
100
AcDbEntity
  8
LY_3
390
0
  6
CONTINUOUS
 62
     3
100
AcDbLine
 10
107.297974
 20
-4.0
 30
0.0
 11
107.297974
 21
-9.150002
 31
0.0
  0
LINE
  5
30E
100
AcDbEntity
  8
LY_3
390
0
  6
CONTINUOUS
 62
     3
100
AcDbLine
 10
116.897964
 20
130.157616
 30
0.0
 11
117.897964
 21
130.157616
 31
0.0
  0
LINE
  5
30F
100
AcDbEntity
  8
LY_3
390
0
  6
CONTINUOUS
 62
     3
100
AcDbLine
 10
116.897964
 20
148.157616
 30
0.0
 11
117.897964
 21
148.157616
 31
0.0
  0
LINE
  5
310
100
AcDbEntity
  8
LY_3
390
0
  6
CONTINUOUS
 62
     3
100
AcDbLine
 10
107.897964
 20
7.599998
 30
0.0
 11
109.89798
 21
7.599998
 31
0.0
  0
LINE
  5
311
100
AcDbEntity
  8
LY_3
390
0
  6
CONTINUOUS
 62
     3
100
AcDbLine
 10
107.897964
 20
-7.599998
 30
0.0
 11
109.89798
 21
-7.599998
 31
0.0
  0
LINE
  5
312
100
AcDbEntity
  8
LY_3
390
0
  6
CONTINUOUS
 62
     3
100
AcDbLine
 10
109.89798
 20
-7.849998
 30
0.0
 11
110.89798
 21
-7.849998
 31
0.0
  0
LINE
  5
313
100
AcDbEntity
  8
LY_3
390
0
  6
CONTINUOUS
 62
     3
100
AcDbLine
 10
109.89798
 20
7.849998
 30
0.0
 11
110.89798
 21
7.849998
 31
0.0
  0
LINE
  5
314
100
AcDbEntity
  8
LY_3
390
0
  6
CONTINUOUS
 62
     3
100
AcDbLine
 10
109.89798
 20
7.849998
 30
0.0
 11
109.89798
 21
4.0
 31
0.0
  0
LINE
  5
315
100
AcDbEntity
  8
LY_3
390
0
  6
CONTINUOUS
 62
     3
100
AcDbLine
 10
111.047974
 20
7.849998
 30
0.0
 11
111.047974
 21
7.549999
 31
0.0
  0
LINE
  5
316
100
AcDbEntity
  8
LY_3
390
0
  6
CONTINUOUS
 62
     3
100
AcDbLine
 10
113.897964
 20
-9.0
 30
0.0
 11
113.897964
 21
-16.099991
 31
0.0
  0
LINE
  5
317
100
AcDbEntity
  8
LY_3
390
0
  6
CONTINUOUS
 62
     3
100
AcDbLine
 10
113.897964
 20
155.257645
 30
0.0
 11
113.897964
 21
123.057625
 31
0.0
  0
LINE
  5
318
100
AcDbEntity
  8
LY_3
390
0
  6
CONTINUOUS
 62
     3
100
AcDbLine
 10
107.897964
 20
-4.0
 30
0.0
 11
107.897964
 21
-9.097504
 31
0.0
  0
LINE
  5
319
100
AcDbEntity
  8
LY_3
390
0
  6
CONTINUOUS
 62
     3
100
AcDbLine
 10
106.697968
 20
-4.0
 30
0.0
 11
106.697968
 21
-16.099998
 31
0.0
  0
LINE
  5
31A
100
AcDbEntity
  8
LY_3
390
0
  6
CONTINUOUS
 62
     3
100
AcDbLine
 10
106.697968
 20
155.257652
 30
0.0
 11
106.697968
 21
123.057579
 31
0.0
  0
LINE
  5
31B
100
AcDbEntity
  8
LY_3
390
0
  6
CONTINUOUS
 62
     3
100
AcDbLine
 10
107.29796
 20
-9.150052
 30
0.0
 11
107.897963
 21
-9.097559
 31
0.0
  0
LINE
  5
31C
100
AcDbEntity
  8
LY_3
390
0
  6
CONTINUOUS
 62
     3
100
AcDbLine
 10
107.297981
 20
-9.149991
 30
0.0
 11
107.740022
 21
-10.364489
 31
0.0
  0
LINE
  5
31D
100
AcDbEntity
  8
LY_3
390
0
  6
CONTINUOUS
 62
     3
100
AcDbLine
 10
107.297976
 20
9.149974
 30
0.0
 11
107.897964
 21
9.097482
 31
0.0
  0
LINE
  5
31E
100
AcDbEntity
  8
LY_3
390
0
  6
CONTINUOUS
 62
     3
100
AcDbLine
 10
107.297965
 20
9.149989
 30
0.0
 11
107.740003
 21
10.364481
 31
0.0
  0
LINE
  5
31F
100
AcDbEntity
  8
LY_3
390
0
  6
CENTER
 62
   110
100
AcDbLine
 10
102.297974
 20
125.657616
 30
0.0
 11
118.297974
 21
125.657616
 31
0.0
  0
LINE
  5
320
100
AcDbEntity
  8
LY_3
390
0
  6
CENTER
 62
   110
100
AcDbLine
 10
102.297974
 20
152.657616
 30
0.0
 11
118.297974
 21
152.657616
 31
0.0
  0
LINE
  5
321
100
AcDbEntity
  8
LY_3
390
0
  6
CONTINUOUS
 62
     3
100
AcDbLine
 10
113.897964
 20
130.157616
 30
0.0
 11
114.897964
 21
130.157616
 31
0.0
  0
LINE
  5
322
100
AcDbEntity
  8
LY_3
390
0
  6
CONTINUOUS
 62
     3
100
AcDbLine
 10
113.897964
 20
148.157616
 30
0.0
 11
114.897964
 21
148.157616
 31
0.0
  0
LINE
  5
323
100
AcDbEntity
  8
LY_3
390
0
  6
CONTINUOUS
 62
     3
100
AcDbLine
 10
113.897914
 20
123.057678
 30
0.0
 11
113.097912
 21
122.25768
 31
0.0
  0
LINE
  5
324
100
AcDbEntity
  8
LY_3
390
0
  6
CONTINUOUS
 62
     3
100
AcDbLine
 10
106.69795
 20
123.057594
 30
0.0
 11
107.497945
 21
122.2576
 31
0.0
  0
LINE
  5
325
100
AcDbEntity
  8
LY_3
390
0
  6
CONTINUOUS
 62
     3
100
AcDbLine
 10
106.697969
 20
155.2576
 30
0.0
 11
107.497963
 21
156.057594
 31
0.0
  0
LINE
  5
326
100
AcDbEntity
  8
LY_3
390
0
  6
CONTINUOUS
 62
     3
100
AcDbLine
 10
113.097985
 20
156.057643
 30
0.0
 11
113.897988
 21
155.257636
 31
0.0
  0
LINE
  5
327
100
AcDbEntity
  8
LY_3
390
0
  6
CONTINUOUS
 62
     3
100
AcDbLine
 10
106.697968
 20
11.299999
 30
0.0
 11
113.897964
 21
11.299999
 31
0.0
  0
LINE
  5
328
100
AcDbEntity
  8
LY_3
390
0
  6
CONTINUOUS
 62
     3
100
AcDbLine
 10
106.697968
 20
15.700001
 30
0.0
 11
113.897964
 21
15.700001
 31
0.0
  0
LINE
  5
329
100
AcDbEntity
  8
LY_3
390
0
  6
CONTINUOUS
 62
     3
100
AcDbLine
 10
107.297974
 20
9.150002
 30
0.0
 11
107.297974
 21
4.0
 31
0.0
  0
LINE
  5
32A
100
AcDbEntity
  8
LY_3
390
0
  6
CONTINUOUS
 62
     3
100
AcDbLine
 10
106.697968
 20
-10.699997
 30
0.0
 11
107.505096
 21
-10.699997
 31
0.0
  0
LINE
  5
32B
100
AcDbEntity
  8
LY_3
390
0
  6
CONTINUOUS
 62
     3
100
AcDbLine
 10
106.697968
 20
10.700001
 30
0.0
 11
107.505096
 21
10.700001
 31
0.0
  0
LINE
  5
32C
100
AcDbEntity
  8
LY_3
390
0
  6
CONTINUOUS
 62
     3
100
AcDbLine
 10
107.897964
 20
9.097507
 30
0.0
 11
107.897964
 21
4.0
 31
0.0
  0
LINE
  5
32D
100
AcDbEntity
  8
LY_3
390
0
  6
CONTINUOUS
 62
     3
100
AcDbLine
 10
107.497955
 20
156.057617
 30
0.0
 11
113.097961
 21
156.057617
 31
0.0
  0
LINE
  5
32E
100
AcDbEntity
  8
LY_3
390
0
  6
CONTINUOUS
 62
     3
100
AcDbLine
 10
107.497955
 20
122.257614
 30
0.0
 11
113.097961
 21
122.257614
 31
0.0
  0
LINE
  5
32F
100
AcDbEntity
  8
LY_3
390
0
  6
CONTINUOUS
 62
     3
100
AcDbLine
 10
113.897964
 20
16.099998
 30
0.0
 11
113.897964
 21
9.0
 31
0.0
  0
LINE
  5
330
100
AcDbEntity
  8
LY_3
390
0
  6
CONTINUOUS
 62
     3
100
AcDbLine
 10
106.697968
 20
16.099998
 30
0.0
 11
106.697968
 21
4.0
 31
0.0
  0
LINE
  5
331
100
AcDbEntity
  8
LY_3
390
0
  6
CONTINUOUS
 62
     3
100
AcDbLine
 10
73.697968
 20
135.157616
 30
0.0
 11
106.697968
 21
135.157616
 31
0.0
  0
LINE
  5
332
100
AcDbEntity
  8
LY_3
390
0
  6
CONTINUOUS
 62
     3
100
AcDbLine
 10
72.697968
 20
136.157616
 30
0.0
 11
72.697968
 21
142.157616
 31
0.0
  0
LINE
  5
333
100
AcDbEntity
  8
LY_3
390
0
  6
CONTINUOUS
 62
     3
100
AcDbLine
 10
56.697968
 20
137.157616
 30
0.0
 11
56.697968
 21
141.157616
 31
0.0
  0
LINE
  5
334
100
AcDbEntity
  8
LY_3
390
0
  6
CONTINUOUS
 62
     3
100
AcDbLine
 10
73.697968
 20
143.157616
 30
0.0
 11
106.697968
 21
143.157616
 31
0.0
  0
LINE
  5
335
100
AcDbEntity
  8
LY_3
390
0
  6
CONTINUOUS
 62
     3
100
AcDbLine
 10
72.697968
 20
-3.0
 30
0.0
 11
72.697968
 21
3.0
 31
0.0
  0
LINE
  5
336
100
AcDbEntity
  8
LY_3
390
0
  6
CONTINUOUS
 62
     3
100
AcDbLine
 10
56.697968
 20
-2.0
 30
0.0
 11
56.697968
 21
2.0
 31
0.0
  0
LINE
  5
337
100
AcDbEntity
  8
LY_3
390
0
  6
CENTER
 62
   110
100
AcDbLine
 10
54.168427
 20
139.157616
 30
0.0
 11
208.870842
 21
139.157616
 31
0.0
  0
ENDSEC
  0
SECTION
  2
OBJECTS
  0
DICTIONARY
  5
19
100
AcDbDictionary
280
     0
281
     1
  3
ACAD_GROUP
350
1A
  3
ACAD_MLINESTYLE
350
1B
  3
ACAD_LAYOUT
350
1E
  3
ACAD_PLOTSETTINGS
350
22
  3
ACAD_PLOTSTYLENAME
350
1F
  0
DICTIONARY
  5
1A
102
{ACAD_REACTORS
330
19
102
}
100
AcDbDictionary
280
     0
281
     1
  0
DICTIONARY
  5
1B
102
{ACAD_REACTORS
330
19
102
}
100
AcDbDictionary
280
     0
281
     1
  3
Standard
350
1C
  0
MLINESTYLE
  5
1C
102
{ACAD_REACTORS
330
1B
102
}
100
AcDbMlineStyle
  2
Standard
 70
     0
  3

 62
     0
 51
90.0
 52
90.0
 71
     2
 49
0.5
 62
   256
  6
ByLayer
 49
-0.5
 62
   256
  6
ByLayer
  0
ACDBDICTIONARYWDFLT
  5
1F
102
{ACAD_REACTORS
330
19
102
}
100
AcDbDictionary
281
     1
  3
Normal
350
1D
100
AcDbDictionaryWithDefault
340
1D
  0
ACDBPLACEHOLDER
  5
1D
102
{ACAD_REACTORS
330
1F
102
}
  0
LAYOUT
  5
20
102
{ACAD_REACTORS
330
1E
102
}
100
AcDbPlotSettings
  1

  2

  4

  6

 40
0.0
 41
0.0
 42
0.0
 43
0.0
 44
0.0
 45
0.0
 46
0.0
 47
0.0
 48
0.0
 49
0.0
140
0.0
141
0.0
142
1.0
143
1.0
 70
  1024
 72
     0
 73
     0
 74
     0
  7

 75
     0
147
1.0
148
0.0
149
0.0
100
AcDbLayout
  1
Model
 70
     0
 71
     0
 10
0.0
 20
0.0
 11
0.0
 21
0.0
 12
0.0
 22
0.0
 32
0.0
 14
0.0
 24
0.0
 34
0.0
 15
0.0
 25
0.0
 35
0.0
146
0.0
 13
0.0
 23
0.0
 33
0.0
 16
0.0
 26
0.0
 36
0.0
 17
0.0
 27
0.0
 37
0.0
 76
     0
330
A
331
0
345
0
346
0
  0
LAYOUT
  5
21
102
{ACAD_REACTORS
330
1E
102
}
100
AcDbPlotSettings
  1

  2

  4

  6

 40
0.0
 41
0.0
 42
0.0
 43
0.0
 44
0.0
 45
0.0
 46
0.0
 47
0.0
 48
0.0
 49
0.0
140
0.0
141
0.0
142
1.0
143
1.0
 70
     0
 72
     0
 73
     0
 74
     0
  7

 75
     0
147
1.0
148
0.0
149
0.0
100
AcDbLayout
  1
Layout1
 70
     0
 71
     0
 10
0.0
 20
0.0
 11
0.0
 21
0.0
 12
0.0
 22
0.0
 32
0.0
 14
0.0
 24
0.0
 34
0.0
 15
0.0
 25
0.0
 35
0.0
146
0.0
 13
0.0
 23
0.0
 33
0.0
 16
0.0
 26
0.0
 36
0.0
 17
0.0
 27
0.0
 37
0.0
 76
     0
330
B
331
0
345
0
346
0
  0
DICTIONARY
  5
1E
102
{ACAD_REACTORS
330
19
102
}
100
AcDbDictionary
280
     0
281
     1
  3
Layout1
350
21
  3
Model
350
20
  0
DICTIONARY
  5
22
102
{ACAD_REACTORS
330
19
102
}
100
AcDbDictionary
280
     0
281
     1
  0
ENDSEC
  0
EOF
