  0
SECTION
  2
HEADER
  9
$ACADVER
  1
AC1009
  9
$DWGCODEPAGE
  3
dos932
  9
$INSBASE
 10
0.0
 20
0.0
 30
0.0
  9
$EXTMIN
 10
-19.90765380859375
 20
-30.0
 30
0.0
  9
$EXTMAX
 10
293.56957912445068
 20
127.64999985694885
 30
0.0
  9
$LIMMIN
 10
-19.90765380859375
 20
-30.0
  9
$LIMMAX
 10
293.56957912445068
 20
127.64999985694885
  9
$ORTHOMODE
 70
               0
  9
$REGENMODE
 70
               1
  9
$FILLMODE
 70
               1
  9
$QTEXTMODE
 70
               0
  9
$MIRRTEXT
 70
               1
  9
$DRAGMODE
 70
               2
  9
$LTSCALE
 40
1.0
  9
$OSMODE
 70
               0
  9
$ATTMODE
 70
               1
  9
$TEXTSIZE
 40
3.2000000476837158
  9
$TRACEWID
 40
0.05
  9
$TEXTSTYLE
  7
MX_NOTE_STANDARD
  9
$CLAYER
  8
0
  9
$CELTYPE
  6
CONTINUOUS
  9
$CECOLOR
 62
             256
  9
$DIMSCALE
 40
1.0
  9
$DIMASZ
 40
2.5
  9
$DIMEXO
 40
2.0
  9
$DIMDLI
 40
3.75
  9
$DIMRND
 40
0.0
  9
$DIMDLE
 40
0.0
  9
$DIMEXE
 40
1.0
  9
$DIMTP
 40
0.0
  9
$DIMTM
 40
0.0
  9
$DIMTXT
 40
4.1655998229980469
  9
$DIMCEN
 40
2.5
  9
$DIMTSZ
 40
0.0
  9
$DIMTOL
 70
               0
  9
$DIMLIM
 70
               0
  9
$DIMTIH
 70
               0
  9
$DIMTOH
 70
               0
  9
$DIMSE1
 70
               0
  9
$DIMSE2
 70
               0
  9
$DIMTAD
 70
               1
  9
$DIMZIN
 70
               8
  9
$DIMBLK
  1

  9
$DIMASO
 70
               1
  9
$DIMSHO
 70
               1
  9
$DIMPOST
  1

  9
$DIMAPOST
  1

  9
$DIMALT
 70
               0
  9
$DIMALTD
 70
               4
  9
$DIMALTF
 40
0.03937007874016
  9
$DIMLFAC
 40
1.0
  9
$DIMTOFL
 70
               1
  9
$DIMTVP
 40
0.0
  9
$DIMTIX
 70
               0
  9
$DIMSOXD
 70
               0
  9
$DIMSAH
 70
               1
  9
$DIMBLK1
  1
_OPEN30
  9
$DIMBLK2
  1
_OPEN30
  9
$DIMSTYLE
  2
MXDIMSTYLE
  9
$DIMCLRD
 70
               0
  9
$DIMCLRE
 70
               0
  9
$DIMCLRT
 70
               0
  9
$DIMTFAC
 40
1.0
  9
$DIMGAP
 40
1.0
  9
$LUNITS
 70
               2
  9
$LUPREC
 70
               4
  9
$AXISMODE
 70
               0
  9
$AXISUNIT
 10
0.0
 20
0.0
  9
$SKETCHINC
 40
0.1
  9
$FILLETRAD
 40
0.0
  9
$AUNITS
 70
               0
  9
$AUPREC
 70
               0
  9
$MENU
  1
acad
  9
$ELEVATION
 40
0.0
  9
$PELEVATION
 40
0.0
  9
$THICKNESS
 40
0.0
  9
$LIMCHECK
 70
               0
  9
$BLIPMODE
 70
               1
  9
$CHAMFERA
 40
0.0
  9
$CHAMFERB
 40
0.0
  9
$SKPOLY
 70
               0
  9
$TDCREATE
 40
2455216.648854167
  9
$TDUPDATE
 40
2455216.648854167
  9
$TDINDWG
 40
0.0000000000
  9
$TDUSRTIMER
 40
0.0000000000
  9
$USRTIMER
 70
               1
  9
$ANGBASE
 50
0.0
  9
$ANGDIR
 70
               0
  9
$PDMODE
 70
               0
  9
$PDSIZE
 40
0.0
  9
$PLINEWID
 40
0.0
  9
$COORDS
 70
               1
  9
$SPLFRAME
 70
               0
  9
$SPLINETYPE
 70
               6
  9
$SPLINESEGS
 70
               8
  9
$ATTDIA
 70
               0
  9
$ATTREQ
 70
               1
  9
$HANDLING
 70
               1
  9
$HANDSEED
  5
2FE
  9
$SURFTAB1
 70
               6
  9
$SURFTAB2
 70
               6
  9
$SURFTYPE
 70
               6
  9
$SURFU
 70
               6
  9
$SURFV
 70
               6
  9
$UCSNAME
  2

  9
$UCSORG
 10
0.0
 20
0.0
 30
0.0
  9
$UCSXDIR
 10
1.0
 20
0.0
 30
0.0
  9
$UCSYDIR
 10
0.0
 20
1.0
 30
0.0
  9
$PUCSNAME
  2

  9
$PUCSORG
 10
0.0
 20
0.0
 30
0.0
  9
$PUCSXDIR
 10
1.0
 20
0.0
 30
0.0
  9
$PUCSYDIR
 10
0.0
 20
1.0
 30
0.0
  9
$USERI1
 70
               0
  9
$USERI2
 70
               0
  9
$USERI3
 70
               0
  9
$USERI4
 70
               0
  9
$USERI5
 70
               0
  9
$USERR1
 40
0.0
  9
$USERR2
 40
0.0
  9
$USERR3
 40
0.0
  9
$USERR4
 40
0.0
  9
$USERR5
 40
0.0
  9
$WORLDVIEW
 70
               1
  9
$SHADEDGE
 70
               3
  9
$SHADEDIF
 70
              70
  9
$TILEMODE
 70
               1
  9
$MAXACTVP
 70
              16
  9
$PINSBASE
 10
0.0
 20
0.0
 30
0.0
  9
$PLIMCHECK
 70
               0
  9
$PEXTMIN
 10
1.0000000000000000E+20
 20
1.0000000000000000E+20
 30
1.0000000000000000E+20
  9
$PEXTMAX
 10
-1.0000000000000000E+20
 20
-1.0000000000000000E+20
 30
-1.0000000000000000E+20
  9
$PLIMMIN
 10
0.0
 20
0.0
  9
$PLIMMAX
 10
12.0
 20
9.0
  9
$UNITMODE
 70
               0
  9
$VISRETAIN
 70
               0
  9
$PLINEGEN
 70
               1
  9
$PSLTSCALE
 70
               0
  9
$TREEDEPTH
 70
            3020
  0
ENDSEC
  0
SECTION
  2
TABLES
  0
TABLE
  2
VPORT
 70
               1
  0
VPORT
  2
*ACTIVE
 70
               0
 10
0.0
 20
0.0
 11
1.0
 21
1.0
 12
136.83096265792847
 22
48.824999928474426
 13
0.0
 23
0.0
 14
1.0
 24
1.0
 15
0.0
 25
0.0
 16
0.0
 26
0.0
 36
1.0
 17
0.0
 27
0.0
 37
0.0
 40
159.22649985551834
 41
1.7320508075688772
 42
50.0
 43
0.0
 44
0.0
 50
0.0
 51
0.0
 71
               0
 72
             100
 73
               1
 74
               1
 75
               0
 76
               0
 77
               0
 78
               0
  0
ENDTAB
  0
TABLE
  2
LTYPE
 70
               4
  0
LTYPE
  2
CONTINUOUS
 70
              64
  3
Solid line
 72
              65
 73
               0
 40
0.0
  0
LTYPE
  2
CENTER
 70
              64
  3
Center ____ _ ____ _ ____ _ ____ _ ____ _ ____
 72
              65
 73
               4
 40
50.800000000000004
 49
31.75
 49
-6.3499999999999996
 49
6.3499999999999996
 49
-6.3499999999999996
  0
LTYPE
  2
DASHED
 70
              64
  3
Dashed __ __ __ __ __ __ __ __ __ __ __ __ __ _
 72
              65
 73
               2
 40
19.049999999999997
 49
12.699999999999999
 49
-6.3499999999999996
  0
LTYPE
  2
PHANTOM
 70
              64
  3
Phantom ______  __  __  ______  __  __  ______
 72
              65
 73
               6
 40
63.500000000000007
 49
31.75
 49
-6.3499999999999996
 49
6.3499999999999996
 49
-6.3499999999999996
 49
6.3499999999999996
 49
-6.3499999999999996
  0
ENDTAB
  0
TABLE
  2
LAYER
 70
               3
  0
LAYER
  2
0
 70
               0
 62
               7
  6
CONTINUOUS
  0
LAYER
  2
DEFPOINTS
 70
               0
 62
               7
  6
CONTINUOUS
  0
LAYER
  2
LY_3
 70
               0
 62
               7
  6
CONTINUOUS
  0
ENDTAB
  0
TABLE
  2
STYLE
 70
               5
  0
STYLE
  2
MX_NOTE_STANDARD
 70
               0
 40
0.0
 41
1.0
 50
0.0
 71
               0
 42
3.2000000476837158
  3
txt.shx
  4
extfont.shx
  0
STYLE
  2
MX_DIMTXSTY_2
 70
               0
 40
0.0
 41
0.9
 50
0.0
 71
               0
 42
3.2000000476837158
  3
txt.shx
  4
extfont.shx
  0
STYLE
  2
MX_DIMTXSTY_3
 70
               0
 40
0.0
 41
1.4500000000000002
 50
0.0
 71
               0
 42
3.2000000476837158
  3
txt.shx
  4
extfont.shx
  0
STYLE
  2
MX_DIMTXSTY_4
 70
               0
 40
0.0
 41
1.05
 50
0.0
 71
               0
 42
3.2000000476837158
  3
txt.shx
  4
extfont.shx
  0
STYLE
  2
MX_DIMTXSTY_5
 70
               0
 40
0.0
 41
1.3500000000000001
 50
0.0
 71
               0
 42
3.2000000476837158
  3
txt.shx
  4
extfont.shx
  0
ENDTAB
  0
TABLE
  2
VIEW
 70
               0
  0
ENDTAB
  0
TABLE
  2
UCS
 70
               0
  0
ENDTAB
  0
TABLE
  2
APPID
 70
               1
  0
APPID
  2
ACAD
 70
               0
  0
ENDTAB
  0
TABLE
  2
DIMSTYLE
 70
               1
  0
DIMSTYLE
  2
MXDIMSTYLE
 70
               0
  3

  4

  5

  6
_OPEN30
  7
_OPEN30
 40
1.0
 41
2.5
 42
2.0
 43
3.75
 44
1.0
 45
0.0
 46
0.0
 47
0.0
 48
0.0
 71
               0
 72
               0
 73
               0
 74
               0
 75
               0
 76
               0
 77
               1
 78
               8
140
4.1655998229980469
141
2.5
142
0.0
143
0.03937007874016
144
1.0
145
0.0
146
1.0
147
1.0
170
               0
171
               4
172
               1
173
               1
174
               0
175
               0
176
               0
177
               0
178
               0
  0
ENDTAB
  0
ENDSEC
  0
SECTION
  2
BLOCKS
  0
BLOCK
  8
0
  5
26
  2
*U0
 70
               1
 10
0.0
 20
0.0
 30
0.0
  3
*U0
  0
LINE
  8
0
  6
CONTINUOUS
 62
             110
  5
27
 10
-1.0
 20
0.267949
 30
0.0
 11
0.0
 21
0.0
 31
0.0
  0
LINE
  8
0
  6
CONTINUOUS
 62
             110
  5
28
 10
0.0
 20
0.0
 30
0.0
 11
-1.0
 21
-0.267949
 31
0.0
  0
LINE
  8
0
  6
CONTINUOUS
 62
             110
  5
29
 10
0.0
 20
0.0
 30
0.0
 11
-1.0
 21
0.0
 31
0.0
  0
ENDBLK
  8
0
  5
2A
  0
BLOCK
  8
0
  6
BYBLOCK
 62
               0
  5
21
  2
_OPEN30
 70
               2
 10
0.0
 20
0.0
 30
0.0
  3
_OPEN30
  0
LINE
  8
0
  6
BYBLOCK
 62
               0
  5
22
 10
-1.0
 20
0.267949
 30
0.0
 11
0.0
 21
0.0
 31
0.0
  0
LINE
  8
0
  6
BYBLOCK
 62
               0
  5
23
 10
0.0
 20
0.0
 30
0.0
 11
-1.0
 21
-0.267949
 31
0.0
  0
LINE
  8
0
  6
BYBLOCK
 62
               0
  5
24
 10
0.0
 20
0.0
 30
0.0
 11
-1.0
 21
0.0
 31
0.0
  0
ENDBLK
  8
0
  6
BYBLOCK
 62
               0
  5
25
  0
BLOCK
  8
0
  6
BYBLOCK
 62
               0
  5
2C
  2
*D2
 70
               1
 10
0.0
 20
0.0
 30
0.0
  3
*D2
  0
LINE
  8
0
  6
CONTINUOUS
 62
             110
  5
2D
 10
30.0
 20
-3.0
 30
0.0
 11
30.0
 21
3.0
 31
0.0
  0
LINE
  8
0
  6
CONTINUOUS
 62
             110
  5
2E
 10
30.0
 20
3.0
 30
0.0
 11
30.0
 21
20.578384399414063
 31
0.0
  0
LINE
  8
0
  6
CONTINUOUS
 62
             110
  5
2F
 10
48.5
 20
-2.9999999999999996
 30
0.0
 11
29.0
 21
-3.0
 31
0.0
  0
LINE
  8
0
  6
CONTINUOUS
 62
             110
  5
30
 10
58.0
 20
3.0000000000000004
 30
0.0
 11
29.0
 21
3.0
 31
0.0
  0
LINE
  8
0
  6
CONTINUOUS
 62
             110
  5
31
 10
30.0
 20
-3.0
 30
0.0
 11
30.0
 21
-7.0
 31
0.0
  0
LINE
  8
0
  6
CONTINUOUS
 62
             110
  5
32
 10
30.0
 20
3.0
 30
0.0
 11
30.0
 21
7.0
 31
0.0
  0
INSERT
  8
0
  6
CONTINUOUS
 62
             110
  5
33
  2
_OPEN30
 10
30.0
 20
-3.0
 30
0.0
 41
2.77
 42
2.77
 50
90.0
 43
2.77
  0
INSERT
  8
0
  6
CONTINUOUS
 62
             110
  5
34
  2
_OPEN30
 10
30.0
 20
3.0
 30
0.0
 41
2.77
 42
2.77
 50
270.0
 43
2.77
  0
TEXT
  8
0
  6
CONTINUOUS
 62
             110
  5
36
 10
29.0
 20
5.5324073792378012
 30
0.0
 40
4.1999998092651367
  1
%%c6h7
 50
90.0
 41
1.0057471597079717
  7
MX_DIMTXSTY_2
 11
26.900000095367432
 21
5.5324073792378012
 31
0.0
 73
               2
  0
POINT
  8
DEFPOINTS
  6
CONTINUOUS
 62
               0
  5
37
 10
50.5
 20
-3.0
 30
0.0
  0
POINT
  8
DEFPOINTS
  6
CONTINUOUS
 62
               0
  5
38
 10
60.0
 20
3.0
 30
0.0
  0
POINT
  8
DEFPOINTS
  6
CONTINUOUS
 62
               0
  5
39
 10
30.0
 20
3.0
 30
0.0
  0
ENDBLK
  8
0
  6
BYBLOCK
 62
               0
  5
3A
  0
BLOCK
  8
0
  6
BYBLOCK
 62
               0
  5
52
  2
*D3
 70
               1
 10
0.0
 20
0.0
 30
0.0
  3
*D3
  0
LINE
  8
0
  6
CONTINUOUS
 62
             110
  5
53
 10
252.0
 20
50.0
 30
0.0
 11
262.69999694824219
 21
50.0
 31
0.0
  0
LINE
  8
0
  6
CONTINUOUS
 62
             110
  5
54
 10
262.69999694824219
 20
50.0
 30
0.0
 11
293.56957912445068
 21
50.0
 31
0.0
  0
LINE
  8
0
  6
CONTINUOUS
 62
             110
  5
55
 10
252.0
 20
17.039999961853027
 30
0.0
 11
252.0
 21
52.285995483398437
 31
0.0
  0
LINE
  8
0
  6
CONTINUOUS
 62
             110
  5
56
 10
262.69999694824219
 20
1.040003776550293
 30
0.0
 11
262.69999694824219
 21
52.285995483398437
 31
0.0
  0
INSERT
  8
0
  6
CONTINUOUS
 62
             110
  5
57
  2
_OPEN30
 10
252.0
 20
50.0
 30
0.0
 41
2.77
 42
2.77
 50
180.0
 43
2.77
  0
INSERT
  8
0
  6
CONTINUOUS
 62
             110
  5
58
  2
_OPEN30
 10
262.69999694824219
 20
50.0
 30
0.0
 41
2.77
 42
2.77
 43
2.77
  0
TEXT
  8
0
  6
CONTINUOUS
 62
             110
  5
5A
 10
270.73316634024258
 20
51.0
 30
0.0
 40
4.1999998092651367
  1
(10.7)
 41
0.9931034364371466
  7
MX_DIMTXSTY_3
 11
270.73316634024258
 21
53.099999904632568
 31
0.0
 73
               2
  0
POINT
  8
DEFPOINTS
  6
CONTINUOUS
 62
               0
  5
5B
 10
252.0
 20
14.5
 30
0.0
  0
POINT
  8
DEFPOINTS
  6
CONTINUOUS
 62
               0
  5
5C
 10
262.69999694824219
 20
-1.4999961853027344
 30
0.0
  0
POINT
  8
DEFPOINTS
  6
CONTINUOUS
 62
               0
  5
5D
 10
262.69999694824219
 20
50.0
 30
0.0
  0
ENDBLK
  8
0
  6
BYBLOCK
 62
               0
  5
5E
  0
BLOCK
  8
0
  6
BYBLOCK
 62
               0
  5
61
  2
*D4
 70
               1
 10
0.0
 20
0.0
 30
0.0
  3
*D4
  0
LINE
  8
0
  6
CONTINUOUS
 62
             110
  5
62
 10
280.0
 20
17.0
 30
0.0
 11
280.0
 21
-17.0
 31
0.0
  0
LINE
  8
0
  6
CONTINUOUS
 62
             110
  5
63
 10
245.03999996185303
 20
17.0
 30
0.0
 11
282.2859992980957
 21
17.0
 31
0.0
  0
LINE
  8
0
  6
CONTINUOUS
 62
             110
  5
64
 10
245.03999996185303
 20
-17.0
 30
0.0
 11
282.2859992980957
 21
-17.0
 31
0.0
  0
INSERT
  8
0
  6
CONTINUOUS
 62
             110
  5
65
  2
_OPEN30
 10
280.0
 20
17.0
 30
0.0
 41
2.77
 42
2.77
 50
90.0
 43
2.77
  0
INSERT
  8
0
  6
CONTINUOUS
 62
             110
  5
66
  2
_OPEN30
 10
280.0
 20
-17.0
 30
0.0
 41
2.77
 42
2.77
 50
270.0
 43
2.77
  0
TEXT
  8
0
  6
CONTINUOUS
 62
             110
  5
67
 10
279.0
 20
-1.7499991655596023
 30
0.0
 40
4.1999998092651367
  1
%%c34
 50
90.000000000000014
 41
0.9545454390285431
  7
MX_NOTE_STANDARD
 11
276.90000009536743
 21
-1.7499991655596028
 31
0.0
 73
               2
  0
POINT
  8
DEFPOINTS
  6
CONTINUOUS
 62
               0
  5
68
 10
242.5
 20
17.0
 30
0.0
  0
POINT
  8
DEFPOINTS
  6
CONTINUOUS
 62
               0
  5
69
 10
242.5
 20
-17.0
 30
0.0
  0
POINT
  8
DEFPOINTS
  6
CONTINUOUS
 62
               0
  5
6A
 10
280.0
 20
-17.0
 30
0.0
  0
ENDBLK
  8
0
  6
BYBLOCK
 62
               0
  5
6B
  0
BLOCK
  8
0
  6
BYBLOCK
 62
               0
  5
6E
  2
*D5
 70
               1
 10
0.0
 20
0.0
 30
0.0
  3
*D5
  0
LINE
  8
0
  6
CONTINUOUS
 62
             110
  5
6F
 10
170.0
 20
-13.5
 30
0.0
 11
170.0
 21
13.5
 31
0.0
  0
INSERT
  8
0
  6
CONTINUOUS
 62
             110
  5
70
  2
_OPEN30
 10
170.0
 20
-13.5
 30
0.0
 41
2.77
 42
2.77
 50
270.0
 43
2.77
  0
INSERT
  8
0
  6
CONTINUOUS
 62
             110
  5
71
  2
_OPEN30
 10
170.0
 20
13.5
 30
0.0
 41
2.77
 42
2.77
 50
90.0
 43
2.77
  0
TEXT
  8
0
  6
CONTINUOUS
 62
             110
  5
72
 10
169.0
 20
2.9540375470868816
 30
0.0
 40
4.1999998092651367
  1
%%c27
 50
90.0
 41
0.9545454390285431
  7
MX_NOTE_STANDARD
 11
166.90000009536743
 21
2.9540375470868816
 31
0.0
 73
               2
  0
POINT
  8
DEFPOINTS
  6
CONTINUOUS
 62
               0
  5
73
 10
192.0
 20
-13.5
 30
0.0
  0
POINT
  8
DEFPOINTS
  6
CONTINUOUS
 62
               0
  5
74
 10
192.0
 20
13.5
 30
0.0
  0
POINT
  8
DEFPOINTS
  6
CONTINUOUS
 62
               0
  5
75
 10
170.0
 20
13.5
 30
0.0
  0
ENDBLK
  8
0
  6
BYBLOCK
 62
               0
  5
76
  0
BLOCK
  8
0
  6
BYBLOCK
 62
               0
  5
79
  2
*D6
 70
               1
 10
0.0
 20
0.0
 30
0.0
  3
*D6
  0
LINE
  8
0
  6
CONTINUOUS
 62
             110
  5
7A
 10
120.16913986206055
 20
9.0
 30
0.0
 11
120.16913986206055
 21
-9.0
 31
0.0
  0
LINE
  8
0
  6
CONTINUOUS
 62
             110
  5
7B
 10
120.16913986206055
 20
27.05692720413208
 30
0.0
 11
120.16913986206055
 21
9.0
 31
0.0
  0
INSERT
  8
0
  6
CONTINUOUS
 62
             110
  5
7C
  2
_OPEN30
 10
120.16913986206055
 20
9.0
 30
0.0
 41
2.77
 42
2.77
 50
90.0
 43
2.77
  0
INSERT
  8
0
  6
CONTINUOUS
 62
             110
  5
7D
  2
_OPEN30
 10
120.16913986206055
 20
-9.0
 30
0.0
 41
2.77
 42
2.77
 50
270.0
 43
2.77
  0
TEXT
  8
0
  6
CONTINUOUS
 62
             110
  5
7F
 10
119.16913986206055
 20
15.168792132809395
 30
0.0
 40
4.1999998092651367
  1
%%c18
 50
90.000000000000014
 41
1.0169491268580966
  7
MX_DIMTXSTY_4
 11
117.06913995742798
 21
15.168792132809395
 31
0.0
 73
               2
  0
POINT
  8
DEFPOINTS
  6
CONTINUOUS
 62
               0
  5
80
 10
114.19999694824219
 20
9.0
 30
0.0
  0
POINT
  8
DEFPOINTS
  6
CONTINUOUS
 62
               0
  5
81
 10
114.19999694824219
 20
-9.0
 30
0.0
  0
POINT
  8
DEFPOINTS
  6
CONTINUOUS
 62
               0
  5
82
 10
120.16913986206055
 20
-9.0
 30
0.0
  0
ENDBLK
  8
0
  6
BYBLOCK
 62
               0
  5
83
  0
BLOCK
  8
0
  6
BYBLOCK
 62
               0
  5
86
  2
*D7
 70
               1
 10
0.0
 20
0.0
 30
0.0
  3
*D7
  0
LINE
  8
0
  6
CONTINUOUS
 62
             110
  5
87
 10
50.0
 20
50.0
 30
0.0
 11
252.0
 21
50.0
 31
0.0
  0
LINE
  8
0
  6
CONTINUOUS
 62
             110
  5
88
 10
50.0
 20
4.5399999618530273
 30
0.0
 11
50.0
 21
52.285999298095703
 31
0.0
  0
LINE
  8
0
  6
CONTINUOUS
 62
             110
  5
89
 10
252.0
 20
17.039999961853027
 30
0.0
 11
252.0
 21
52.285999298095703
 31
0.0
  0
INSERT
  8
0
  6
CONTINUOUS
 62
             110
  5
8A
  2
_OPEN30
 10
50.0
 20
50.0
 30
0.0
 41
2.77
 42
2.77
 50
180.0
 43
2.77
  0
INSERT
  8
0
  6
CONTINUOUS
 62
             110
  5
8B
  2
_OPEN30
 10
252.0
 20
50.0
 30
0.0
 41
2.77
 42
2.77
 43
2.77
  0
TEXT
  8
0
  6
CONTINUOUS
 62
             110
  5
8C
 10
138.38955393259113
 20
51.0
 30
0.0
 40
4.1999998092651367
  1
182～202
 41
0.9950248685403257
  7
MX_DIMTXSTY_4
 11
138.38955393259113
 21
53.099999904632568
 31
0.0
 73
               2
  0
POINT
  8
DEFPOINTS
  6
CONTINUOUS
 62
               0
  5
8D
 10
50.0
 20
2.0
 30
0.0
  0
POINT
  8
DEFPOINTS
  6
CONTINUOUS
 62
               0
  5
8E
 10
252.0
 20
14.5
 30
0.0
  0
POINT
  8
DEFPOINTS
  6
CONTINUOUS
 62
               0
  5
8F
 10
252.0
 20
50.0
 30
0.0
  0
ENDBLK
  8
0
  6
BYBLOCK
 62
               0
  5
90
  0
BLOCK
  8
0
  6
BYBLOCK
 62
               0
  5
93
  2
*D8
 70
               1
 10
0.0
 20
0.0
 30
0.0
  3
*D8
  0
LINE
  8
0
  6
CONTINUOUS
 62
             110
  5
94
 10
100.0
 20
40.152786254882813
 30
0.0
 11
252.0
 21
40.152786254882813
 31
0.0
  0
LINE
  8
0
  6
CONTINUOUS
 62
             110
  5
95
 10
100.0
 20
18.640002250671387
 30
0.0
 11
100.0
 21
42.438785552978516
 31
0.0
  0
INSERT
  8
0
  6
CONTINUOUS
 62
             110
  5
96
  2
_OPEN30
 10
100.0
 20
40.152786254882813
 30
0.0
 41
2.77
 42
2.77
 50
180.0
 43
2.77
  0
INSERT
  8
0
  6
CONTINUOUS
 62
             110
  5
97
  2
_OPEN30
 10
252.0
 20
40.152786254882813
 30
0.0
 41
2.77
 42
2.77
 43
2.77
  0
TEXT
  8
0
  6
CONTINUOUS
 62
             110
  5
98
 10
163.44285994826066
 20
41.152786254882813
 30
0.0
 40
4.1999998092651367
  1
132～152
 41
1.0204081496115975
  7
MX_DIMTXSTY_4
 11
163.44285994826066
 21
43.252786159515381
 31
0.0
 73
               2
  0
POINT
  8
DEFPOINTS
  6
CONTINUOUS
 62
               0
  5
99
 10
100.0
 20
16.100002288818359
 30
0.0
  0
POINT
  8
DEFPOINTS
  6
CONTINUOUS
 62
               0
  5
9A
 10
252.0
 20
14.5
 30
0.0
  0
POINT
  8
DEFPOINTS
  6
CONTINUOUS
 62
               0
  5
9B
 10
252.0
 20
40.152786254882813
 30
0.0
  0
ENDBLK
  8
0
  6
BYBLOCK
 62
               0
  5
9C
  0
BLOCK
  8
0
  6
BYBLOCK
 62
               0
  5
9F
  2
*D9
 70
               1
 10
0.0
 20
0.0
 30
0.0
  3
*D9
  0
LINE
  8
0
  6
CONTINUOUS
 62
             110
  5
A0
 10
50.0
 20
40.152786254882813
 30
0.0
 11
100.0
 21
40.152786254882813
 31
0.0
  0
INSERT
  8
0
  6
CONTINUOUS
 62
             110
  5
A1
  2
_OPEN30
 10
50.0
 20
40.152786254882813
 30
0.0
 41
2.77
 42
2.77
 50
180.0
 43
2.77
  0
INSERT
  8
0
  6
CONTINUOUS
 62
             110
  5
A2
  2
_OPEN30
 10
100.0
 20
40.152786254882813
 30
0.0
 41
2.77
 42
2.77
 43
2.77
  0
TEXT
  8
0
  6
CONTINUOUS
 62
             110
  5
A3
 10
66.657533017381937
 20
41.152786254882813
 30
0.0
 40
4.1999998092651367
  1
50～70
 41
1.0273972585962288
  7
MX_NOTE_STANDARD
 11
66.657533017381937
 21
43.252786159515381
 31
0.0
 73
               2
  0
POINT
  8
DEFPOINTS
  6
CONTINUOUS
 62
               0
  5
A4
 10
50.0
 20
2.0
 30
0.0
  0
POINT
  8
DEFPOINTS
  6
CONTINUOUS
 62
               0
  5
A5
 10
100.0
 20
16.100002288818359
 30
0.0
  0
POINT
  8
DEFPOINTS
  6
CONTINUOUS
 62
               0
  5
A6
 10
100.0
 20
40.152786254882813
 30
0.0
  0
ENDBLK
  8
0
  6
BYBLOCK
 62
               0
  5
A7
  0
BLOCK
  8
0
  6
BYBLOCK
 62
               0
  5
AA
  2
*D10
 70
               1
 10
0.0
 20
0.0
 30
0.0
  3
*D10
  0
LINE
  8
0
  6
CONTINUOUS
 62
             110
  5
AB
 10
50.0
 20
19.385502099990845
 30
0.0
 11
60.0
 21
19.385502099990845
 31
0.0
  0
LINE
  8
0
  6
CONTINUOUS
 62
             110
  5
AC
 10
60.0
 20
5.5400002002716064
 30
0.0
 11
60.0
 21
21.671501398086548
 31
0.0
  0
INSERT
  8
0
  6
CONTINUOUS
 62
             110
  5
AD
  2
_OPEN30
 10
50.0
 20
19.385502099990845
 30
0.0
 41
2.77
 42
2.77
 50
180.0
 43
2.77
  0
INSERT
  8
0
  6
CONTINUOUS
 62
             110
  5
AE
  2
_OPEN30
 10
60.0
 20
19.385502099990845
 30
0.0
 41
2.77
 42
2.77
 43
2.77
  0
TEXT
  8
0
  6
CONTINUOUS
 62
             110
  5
B0
 10
52.874074362923579
 20
20.385502099990845
 30
0.0
 40
4.1999998092651367
  1
10
 41
0.9876543209876543
  7
MX_DIMTXSTY_5
 11
52.874074362923579
 21
22.485502004623413
 31
0.0
 73
               2
  0
POINT
  8
DEFPOINTS
  6
CONTINUOUS
 62
               0
  5
B1
 10
50.0
 20
2.0000002384185791
 30
0.0
  0
POINT
  8
DEFPOINTS
  6
CONTINUOUS
 62
               0
  5
B2
 10
60.0
 20
3.0000002384185791
 30
0.0
  0
POINT
  8
DEFPOINTS
  6
CONTINUOUS
 62
               0
  5
B3
 10
60.0
 20
19.385502099990845
 30
0.0
  0
ENDBLK
  8
0
  6
BYBLOCK
 62
               0
  5
B4
  0
BLOCK
  8
0
  6
BYBLOCK
 62
               0
  5
245
  2
*D11
 70
               1
 10
0.0
 20
0.0
 30
0.0
  3
*D11
  0
LINE
  8
0
  6
CONTINUOUS
 62
             110
  5
246
 10
40.0
 20
-3.0
 30
0.0
 11
40.0
 21
2.0
 31
0.0
  0
LINE
  8
0
  6
CONTINUOUS
 62
             110
  5
247
 10
40.0
 20
2.0
 30
0.0
 11
40.0
 21
12.931250095367432
 31
0.0
  0
LINE
  8
0
  6
CONTINUOUS
 62
             110
  5
248
 10
48.5
 20
-2.9999999999999996
 30
0.0
 11
39.0
 21
-3.0
 31
0.0
  0
LINE
  8
0
  6
CONTINUOUS
 62
             110
  5
249
 10
48.0
 20
2.0000000000000004
 30
0.0
 11
39.0
 21
2.0
 31
0.0
  0
LINE
  8
0
  6
CONTINUOUS
 62
             110
  5
24A
 10
40.0
 20
-3.0
 30
0.0
 11
40.0
 21
-7.0
 31
0.0
  0
LINE
  8
0
  6
CONTINUOUS
 62
             110
  5
24B
 10
40.0
 20
2.0
 30
0.0
 11
40.0
 21
6.0
 31
0.0
  0
INSERT
  8
0
  6
CONTINUOUS
 62
             110
  5
24C
  2
_OPEN30
 10
40.0
 20
-3.0
 30
0.0
 41
2.77
 42
2.77
 50
90.0
 43
2.77
  0
INSERT
  8
0
  6
CONTINUOUS
 62
             110
  5
24D
  2
_OPEN30
 10
40.0
 20
2.0
 30
0.0
 41
2.77
 42
2.77
 50
270.0
 43
2.77
  0
TEXT
  8
0
  6
CONTINUOUS
 62
             110
  5
24E
 10
39.0
 20
9.3979105254015938
 30
0.0
 40
4.1999998092651367
  1
5
 50
90.0
 41
0.9523718136776898
  7
MX_NOTE_STANDARD
 11
36.900000095367432
 21
9.3979105254015938
 31
0.0
 73
               2
  0
POINT
  8
DEFPOINTS
  6
CONTINUOUS
 62
               0
  5
24F
 10
50.5
 20
-3.0
 30
0.0
  0
POINT
  8
DEFPOINTS
  6
CONTINUOUS
 62
               0
  5
250
 10
50.0
 20
2.0
 30
0.0
  0
POINT
  8
DEFPOINTS
  6
CONTINUOUS
 62
               0
  5
251
 10
40.0
 20
2.0
 30
0.0
  0
ENDBLK
  8
0
  6
BYBLOCK
 62
               0
  5
252
  0
BLOCK
  8
0
  6
BYBLOCK
 62
               0
  5
255
  2
*D12
 70
               1
 10
0.0
 20
0.0
 30
0.0
  3
*D12
  0
LINE
  8
0
  6
CONTINUOUS
 62
             110
  5
256
 10
270.0
 20
-0.0000000000000009
 30
0.0
 11
270.0
 21
-8.0
 31
0.0
  0
LINE
  8
0
  6
CONTINUOUS
 62
             110
  5
257
 10
268.23340606689453
 20
-0.0000000000000009
 30
0.0
 11
271.0
 21
-0.0000000000000009
 31
0.0
  0
LINE
  8
0
  6
CONTINUOUS
 62
             110
  5
258
 10
266.86941528320312
 20
-8.0
 30
0.0
 11
271.0
 21
-8.0
 31
0.0
  0
INSERT
  8
0
  6
CONTINUOUS
 62
             110
  5
259
  2
_OPEN30
 10
270.0
 20
-0.0000000000000009
 30
0.0
 41
2.77
 42
2.77
 50
90.0
 43
2.77
  0
INSERT
  8
0
  6
CONTINUOUS
 62
             110
  5
25A
  2
_OPEN30
 10
270.0
 20
-8.0
 30
0.0
 41
2.77
 42
2.77
 50
270.0
 43
2.77
  0
TEXT
  8
0
  6
CONTINUOUS
 62
             110
  5
25B
 10
269.0
 20
-4.6020897130169871
 30
0.0
 40
4.1999998092651367
  1
8
 50
90.000000000000014
 41
0.9523718136776898
  7
MX_NOTE_STANDARD
 11
266.90000009536743
 21
-4.6020897130169871
 31
0.0
 73
               2
  0
POINT
  8
DEFPOINTS
  6
CONTINUOUS
 62
               0
  5
25C
 10
266.23340606689453
 20
-0.0000000000000009
 30
0.0
  0
POINT
  8
DEFPOINTS
  6
CONTINUOUS
 62
               0
  5
25D
 10
264.86941528320312
 20
-8.0
 30
0.0
  0
POINT
  8
DEFPOINTS
  6
CONTINUOUS
 62
               0
  5
25E
 10
270.0
 20
-8.0
 30
0.0
  0
ENDBLK
  8
0
  6
BYBLOCK
 62
               0
  5
25F
  0
ENDSEC
  0
SECTION
  2
ENTITIES
  0
DIMENSION
  8
0
  6
CONTINUOUS
 62
             110
  5
3B
  2
*D2
 10
30.0
 20
3.0
 30
0.0
 11
30.0
 21
12.703384399414063
 31
0.0
 70
             128
  1
%%c<>
 13
50.5
 23
-3.0
 33
0.0
 14
60.0
 24
3.0
 34
0.0
 50
90.0
  3
MXDIMSTYLE
1001
ACAD
1000
DSTYLE
1002
{
1070
              41
1040
2.77
1070
             140
1040
4.1999998092651367
1070
             284
1070
               8
1070
             340
1005
35
1002
}
  0
INSERT
  8
LY_3
  6
BYBLOCK
  5
3C
  2
*U0
 10
259.44999694824219
 20
-1.0
 30
0.0
 41
2.77
 42
2.77
 50
251.20539602510991
 43
2.77
  0
INSERT
  8
LY_3
  6
BYBLOCK
  5
3D
  2
*U0
 10
103.59999465942383
 20
106.90000152587891
 30
0.0
 41
2.77
 42
2.77
 50
243.96217422505546
 43
2.77
  0
INSERT
  8
LY_3
  6
BYBLOCK
  5
3E
  2
*U0
 10
141.00565338134766
 20
10.975292205810547
 30
0.0
 41
2.77
 42
2.77
 50
300.04906536098781
 43
2.77
  0
INSERT
  8
LY_3
  6
BYBLOCK
  5
3F
  2
*U0
 10
251.0842537396442
 20
-16.180593296448482
 30
0.0
 41
2.77
 42
2.77
 50
122.82854179141249
 43
2.77
  0
INSERT
  8
LY_3
  6
BYBLOCK
  5
40
  2
*U0
 10
193.3809332071063
 20
-14.190846020538061
 30
0.0
 41
2.77
 42
2.77
 50
112.71836388468455
 43
2.77
  0
INSERT
  8
LY_3
  6
BYBLOCK
  5
41
  2
*U0
 10
105.5
 20
-8.0
 30
0.0
 41
2.77
 42
2.77
 50
123.38851357611151
 43
2.77
  0
INSERT
  8
LY_3
  6
BYBLOCK
  5
42
  2
*U0
 10
103.59999847412109
 20
-8.4000015258789063
 30
0.0
 41
2.77
 42
2.77
 50
57.804267138793982
 43
2.77
  0
POLYLINE
  8
LY_3
  6
CONTINUOUS
 62
             110
  5
43
 66
               1
 10
0.0
 20
0.0
 30
0.0
  0
VERTEX
  8
LY_3
  6
CONTINUOUS
 62
             110
  5
262
 10
259.44999694824219
 20
-1.0
 30
0.0
  0
VERTEX
  8
LY_3
  6
CONTINUOUS
 62
             110
  5
263
 10
270.0
 20
30.0
 30
0.0
  0
VERTEX
  8
LY_3
  6
CONTINUOUS
 62
             110
  5
264
 10
290.76849019527435
 20
30.0
 30
0.0
  0
SEQEND
  8
LY_3
  6
CONTINUOUS
 62
             110
  5
265
  0
TEXT
  8
LY_3
  6
CONTINUOUS
 62
             110
  5
44
 10
271.62786507420242
 20
32.050000190734863
 30
0.0
 40
4.1999998092651367
  1
ストッパ－
 41
0.781249862519049
  7
MX_NOTE_STANDARD
 11
271.62786507420242
 21
34.150000095367432
 31
0.0
 73
               2
  0
POLYLINE
  8
LY_3
  6
CONTINUOUS
 62
             110
  5
45
 66
               1
 10
0.0
 20
0.0
 30
0.0
  0
VERTEX
  8
LY_3
  6
CONTINUOUS
 62
             110
  5
266
 10
103.59999465942383
 20
106.90000152587891
 30
0.0
  0
VERTEX
  8
LY_3
  6
CONTINUOUS
 62
             110
  5
267
 10
110.0
 20
120.0
 30
0.0
  0
VERTEX
  8
LY_3
  6
CONTINUOUS
 62
             110
  5
268
 10
127.68494427204132
 20
120.0
 30
0.0
  0
SEQEND
  8
LY_3
  6
CONTINUOUS
 62
             110
  5
269
  0
TEXT
  8
LY_3
  6
CONTINUOUS
 62
             110
  5
46
 10
112.59119423230489
 20
122.05000019073486
 30
0.0
 40
4.1999998092651367
  1
CF34
 41
0.9374999858084173
  7
MX_NOTE_STANDARD
 11
112.59119423230489
 21
124.15000009536743
 31
0.0
 73
               2
  0
POLYLINE
  8
LY_3
  6
CONTINUOUS
 62
             110
  5
47
 66
               1
 10
0.0
 20
0.0
 30
0.0
  0
VERTEX
  8
LY_3
  6
CONTINUOUS
 62
             110
  5
26A
 10
141.00565338134766
 20
10.975292205810547
 30
0.0
  0
VERTEX
  8
LY_3
  6
CONTINUOUS
 62
             110
  5
26B
 10
130.0
 20
30.0
 30
0.0
  0
VERTEX
  8
LY_3
  6
CONTINUOUS
 62
             110
  5
26C
 10
154.62551832199097
 20
30.0
 30
0.0
  0
SEQEND
  8
LY_3
  6
CONTINUOUS
 62
             110
  5
26D
  0
TEXT
  8
LY_3
  6
CONTINUOUS
 62
             110
  5
48
 10
131.54739320091903
 20
32.050000190734863
 30
0.0
 40
4.1999998092651367
  1
溶接ベロ－ズ
 41
0.781249862519049
  7
MX_NOTE_STANDARD
 11
131.54739320091903
 21
34.150000095367432
 31
0.0
 73
               2
  0
POLYLINE
  8
LY_3
  6
CONTINUOUS
 62
             110
  5
49
 66
               1
 10
0.0
 20
0.0
 30
0.0
  0
VERTEX
  8
LY_3
  6
CONTINUOUS
 62
             110
  5
26E
 10
251.0842537396442
 20
-16.180593296448482
 30
0.0
  0
VERTEX
  8
LY_3
  6
CONTINUOUS
 62
             110
  5
26F
 10
260.0
 20
-30.0
 30
0.0
  0
VERTEX
  8
LY_3
  6
CONTINUOUS
 62
             110
  5
270
 10
277.3001207113266
 20
-30.0
 30
0.0
  0
SEQEND
  8
LY_3
  6
CONTINUOUS
 62
             110
  5
271
  0
TEXT
  8
LY_3
  6
CONTINUOUS
 62
             110
  5
4A
 10
262.09699559025466
 20
-27.949999809265137
 30
0.0
 40
4.1999998092651367
  1
ハンドル
 41
0.781249862519049
  7
MX_NOTE_STANDARD
 11
262.09699559025466
 21
-25.849999904632568
 31
0.0
 73
               2
  0
POLYLINE
  8
LY_3
  6
CONTINUOUS
 62
             110
  5
4B
 66
               1
 10
0.0
 20
0.0
 30
0.0
  0
VERTEX
  8
LY_3
  6
CONTINUOUS
 62
             110
  5
272
 10
193.3809332071063
 20
-14.190846020538061
 30
0.0
  0
VERTEX
  8
LY_3
  6
CONTINUOUS
 62
             110
  5
273
 10
200.0
 20
-30.0
 30
0.0
  0
VERTEX
  8
LY_3
  6
CONTINUOUS
 62
             110
  5
274
 10
237.28406178951263
 20
-30.0
 30
0.0
  0
SEQEND
  8
LY_3
  6
CONTINUOUS
 62
             110
  5
275
  0
TEXT
  8
LY_3
  6
CONTINUOUS
 62
             110
  5
4C
 10
202.44315264236499
 20
-27.949999809265137
 30
0.0
 40
4.1999998092651367
  1
目盛リング10分割
 41
0.8522726856362681
  7
MX_NOTE_STANDARD
 11
202.44315264236499
 21
-25.849999904632568
 31
0.0
 73
               2
  0
POLYLINE
  8
LY_3
  6
CONTINUOUS
 62
             110
  5
4D
 66
               1
 10
0.0
 20
0.0
 30
0.0
  0
VERTEX
  8
LY_3
  6
CONTINUOUS
 62
             110
  5
276
 10
105.5
 20
-8.0
 30
0.0
  0
VERTEX
  8
LY_3
  6
CONTINUOUS
 62
             110
  5
277
 10
120.0
 20
-30.0
 30
0.0
  0
VERTEX
  8
LY_3
  6
CONTINUOUS
 62
             110
  5
278
 10
156.91926562786102
 20
-30.0
 30
0.0
  0
SEQEND
  8
LY_3
  6
CONTINUOUS
 62
             110
  5
279
  0
TEXT
  8
LY_3
  6
CONTINUOUS
 62
             110
  5
4E
 10
122.02864050678909
 20
-27.949999809265137
 30
0.0
 40
4.1999998092651367
  1
軸受（ポリイミド）
 41
0.781249862519049
  7
MX_NOTE_STANDARD
 11
122.02864050678909
 21
-25.849999904632568
 31
0.0
 73
               2
  0
POLYLINE
  8
LY_3
  6
CONTINUOUS
 62
             110
  5
4F
 66
               1
 10
0.0
 20
0.0
 30
0.0
  0
VERTEX
  8
LY_3
  6
CONTINUOUS
 62
             110
  5
27A
 10
103.59999847412109
 20
-8.4000015258789063
 30
0.0
  0
VERTEX
  8
LY_3
  6
CONTINUOUS
 62
             110
  5
27B
 10
90.0
 20
-30.0
 30
0.0
  0
VERTEX
  8
LY_3
  6
CONTINUOUS
 62
             110
  5
27C
 10
69.761223554611206
 20
-30.0
 30
0.0
  0
SEQEND
  8
LY_3
  6
CONTINUOUS
 62
             110
  5
27D
  0
TEXT
  8
LY_3
  6
CONTINUOUS
 62
             110
  5
50
 10
70.326956272125244
 20
-27.949999809265137
 30
0.0
 40
4.1999998092651367
  1
C型   止め輪
 41
0.8081896331509924
  7
MX_NOTE_STANDARD
 11
70.326956272125244
 21
-25.849999904632568
 31
0.0
 73
               2
  0
DIMENSION
  8
LY_3
  6
CONTINUOUS
 62
             110
  5
5F
  2
*D3
 10
262.69999694824219
 20
50.0
 30
0.0
 11
280.96957969665527
 21
50.0
 31
0.0
 70
             128
  1
(<>
 13
252.0
 23
14.5
 33
0.0
 14
262.69999694824219
 24
-1.4999961853027344
 34
0.0
  3
MXDIMSTYLE
1001
ACAD
1000
DSTYLE
1002
{
1070
              41
1040
2.77
1070
              42
1040
2.5399999618530273
1070
              44
1040
2.2859954833984375
1070
             140
1040
4.1999998092651367
1070
             271
1070
               1
1070
             284
1070
               8
1070
             340
1005
59
1002
}
  0
DIMENSION
  8
LY_3
  6
CONTINUOUS
 62
             110
  5
6C
  2
*D4
 10
280.0
 20
-17.0
 30
0.0
 11
280.0
 21
3.8818187713623047
 31
0.0
 70
             128
  1
%%c<>
 13
242.5
 23
17.0
 33
0.0
 14
242.5
 24
-17.0
 34
0.0
 50
90.0
  3
MXDIMSTYLE
1001
ACAD
1000
DSTYLE
1002
{
1070
              41
1040
2.77
1070
              42
1040
2.5399999618530273
1070
              44
1040
2.2859992980957031
1070
             140
1040
4.1999998092651367
1070
             271
1070
               0
1070
             284
1070
               8
1002
}
  0
DIMENSION
  8
LY_3
  6
CONTINUOUS
 62
             110
  5
77
  2
*D5
 10
170.0
 20
13.5
 30
0.0
 11
170.0
 21
8.5858554840087891
 31
0.0
 70
             128
  1
%%c<>
 13
192.0
 23
-13.5
 33
0.0
 14
192.0
 24
13.5
 34
0.0
 50
90.0
  3
MXDIMSTYLE
1001
ACAD
1000
DSTYLE
1002
{
1070
              41
1040
2.77
1070
              75
1070
               1
1070
              76
1070
               1
1070
             140
1040
4.1999998092651367
1070
             271
1070
               0
1070
             284
1070
               8
1002
}
  0
DIMENSION
  8
LY_3
  6
CONTINUOUS
 62
             110
  5
84
  2
*D6
 10
120.16913986206055
 20
-9.0
 30
0.0
 11
120.16913986206055
 21
20.756927490234375
 31
0.0
 70
             128
  1
%%c<>
 13
114.19999694824219
 23
9.0
 33
0.0
 14
114.19999694824219
 24
-9.0
 34
0.0
 50
90.0
  3
MXDIMSTYLE
1001
ACAD
1000
DSTYLE
1002
{
1070
              41
1040
2.77
1070
              75
1070
               1
1070
              76
1070
               1
1070
             140
1040
4.1999998092651367
1070
             271
1070
               0
1070
             284
1070
               8
1070
             340
1005
7E
1002
}
  0
DIMENSION
  8
LY_3
  6
CONTINUOUS
 62
             110
  5
91
  2
*D7
 10
252.0
 20
50.0
 30
0.0
 11
152.39303588867187
 21
50.0
 31
0.0
 70
             128
  1
182～<>
 13
50.0
 23
2.0
 33
0.0
 14
252.0
 24
14.5
 34
0.0
  3
MXDIMSTYLE
1001
ACAD
1000
DSTYLE
1002
{
1070
              41
1040
2.77
1070
              42
1040
2.5399999618530273
1070
              44
1040
2.2859992980957031
1070
             140
1040
4.1999998092651367
1070
             271
1070
               0
1070
             284
1070
               8
1070
             340
1005
7E
1002
}
  0
DIMENSION
  8
LY_3
  6
CONTINUOUS
 62
             110
  5
9D
  2
*D8
 10
252.0
 20
40.152786254882813
 30
0.0
 11
177.42857360839844
 21
40.152786254882813
 31
0.0
 70
             128
  1
132～<>
 13
100.0
 23
16.100002288818359
 33
0.0
 14
252.0
 24
14.5
 34
0.0
  3
MXDIMSTYLE
1001
ACAD
1000
DSTYLE
1002
{
1070
              41
1040
2.77
1070
              42
1040
2.5399999618530273
1070
              44
1040
2.2859992980957031
1070
              76
1070
               1
1070
             140
1040
4.1999998092651367
1070
             271
1070
               0
1070
             284
1070
               8
1070
             340
1005
7E
1002
}
  0
DIMENSION
  8
LY_3
  6
CONTINUOUS
 62
             110
  5
A8
  2
*D9
 10
100.0
 20
40.152786254882813
 30
0.0
 11
76.4383544921875
 21
40.152786254882813
 31
0.0
 70
             128
  1
<>
 13
50.0
 23
2.0
 33
0.0
 14
100.0
 24
16.100002288818359
 34
0.0
  3
MXDIMSTYLE
1001
ACAD
1000
DSTYLE
1002
{
1070
              41
1040
2.77
1070
              75
1070
               1
1070
              76
1070
               1
1070
             140
1040
4.1999998092651367
1070
             271
1070
               0
1070
             284
1070
               8
1002
}
  0
DIMENSION
  8
LY_3
  6
CONTINUOUS
 62
             110
  5
B5
  2
*D10
 10
60.0
 20
19.385502099990845
 30
0.0
 11
56.382716178894043
 21
19.385502099990845
 31
0.0
 70
             128
  1
<>
 13
50.0
 23
2.0000002384185791
 33
0.0
 14
60.0
 24
3.0000002384185791
 34
0.0
  3
MXDIMSTYLE
1001
ACAD
1000
DSTYLE
1002
{
1070
              41
1040
2.77
1070
              42
1040
2.5399999618530273
1070
              44
1040
2.2859992980957031
1070
              75
1070
               1
1070
             140
1040
4.1999998092651367
1070
             271
1070
               0
1070
             284
1070
               8
1070
             340
1005
AF
1002
}
  0
TEXT
  8
LY_3
  6
CONTINUOUS
 62
             110
  5
B6
 10
198.47622299194336
 20
17.313751935958862
 30
0.0
 40
3.0
  1
1
 50
-90.0
 41
2.2161821108162232
  7
MX_NOTE_STANDARD
 72
               1
 11
199.97622299194336
 21
15.203102111816406
 31
0.0
 73
               2
  0
TEXT
  8
LY_3
  6
CONTINUOUS
 62
             110
  5
B7
 10
198.6124382019043
 20
8.8697824478149414
 30
0.0
 40
3.0
  1
2
 50
-90.0
 41
0.9525000017757219
  7
MX_NOTE_STANDARD
 72
               1
 11
200.1124382019043
 21
7.4410324096679687
 31
0.0
 73
               2
  0
TEXT
  8
LY_3
  6
CONTINUOUS
 62
             110
  5
B8
 10
198.67819595336914
 20
-6.0041799545288086
 30
0.0
 40
3.0
  1
3
 50
-90.0
 41
0.9525000017757219
  7
MX_NOTE_STANDARD
 72
               1
 11
200.17819595336914
 21
-7.4329299926757812
 31
0.0
 73
               2
  0
TEXT
  8
LY_3
  6
CONTINUOUS
 62
             110
  5
B9
 10
198.47622299194336
 20
-13.158354759216309
 30
0.0
 40
3.0
  1
4
 50
-90.0
 41
0.9525000017757219
  7
MX_NOTE_STANDARD
 72
               1
 11
199.97622299194336
 21
-14.587104797363281
 31
0.0
 73
               2
  0
TEXT
  8
LY_3
  6
CONTINUOUS
 62
             110
  5
BA
 10
198.47622299194336
 20
106.01585483551025
 30
0.0
 40
3.0
  1
8
 50
-90.0
 41
0.9525000017757219
  7
MX_NOTE_STANDARD
 72
               1
 11
199.97622299194336
 21
104.58710479736328
 31
0.0
 73
               2
  0
TEXT
  8
LY_3
  6
CONTINUOUS
 62
             110
  5
BB
 10
198.47622299194336
 20
76.225647926330566
 30
0.0
 40
3.0
  1
2
 50
-90.0
 41
0.9525000017757219
  7
MX_NOTE_STANDARD
 72
               1
 11
199.97622299194336
 21
74.796897888183594
 31
0.0
 73
               2
  0
TEXT
  8
LY_3
  6
CONTINUOUS
 62
             110
  5
BC
 10
198.65324783325195
 20
91.426346778869629
 30
0.0
 40
3.0
  1
0
 50
-90.0
 41
1.1430000293821105
  7
MX_NOTE_STANDARD
 72
               1
 11
200.15324783325195
 21
89.997596740722656
 31
0.0
 73
               2
  0
TEXT
  8
LY_3
  6
CONTINUOUS
 62
             110
  5
BD
 10
198.67819595336914
 20
100.86168003082275
 30
0.0
 40
3.0
  1
9
 50
-90.0
 41
0.9525000017757219
  7
MX_NOTE_STANDARD
 72
               1
 11
200.17819595336914
 21
99.432929992675781
 31
0.0
 73
               2
  0
TEXT
  8
LY_3
  6
CONTINUOUS
 62
             110
  5
BE
 10
198.6124382019043
 20
82.669617414474487
 30
0.0
 40
3.0
  1
1
 50
-90.0
 41
2.2161821108162232
  7
MX_NOTE_STANDARD
 72
               1
 11
200.1124382019043
 21
80.558967590332031
 31
0.0
 73
               2
  0
TEXT
  8
LY_3
  6
CONTINUOUS
 62
             110
  5
BF
 10
169.98845863342285
 20
95.405860900878906
 30
0.0
 40
2.0
  1
20
 41
1.0909091027315001
  7
MX_NOTE_STANDARD
 72
               1
 11
171.98845863342285
 21
96.405860900878906
 31
0.0
 73
               2
  0
TEXT
  8
LY_3
  6
CONTINUOUS
 62
             110
  5
C0
 10
174.90503120422363
 20
95.178947448730469
 30
0.0
 40
2.0
  1
15
 41
1.1999999856948855
  7
MX_NOTE_STANDARD
 72
               1
 11
176.90503120422363
 21
96.178947448730469
 31
0.0
 73
               2
  0
TEXT
  8
LY_3
  6
CONTINUOUS
 62
             110
  5
C1
 10
179.97288131713867
 20
95.216766357421875
 30
0.0
 40
2.0
  1
10
 41
1.3333333333333337
  7
MX_NOTE_STANDARD
 72
               1
 11
181.97288131713867
 21
96.216766357421875
 31
0.0
 73
               2
  0
TEXT
  8
LY_3
  6
CONTINUOUS
 62
             110
  5
C2
 10
191.04262483119965
 20
95.103302001953125
 30
0.0
 40
2.0
  1
0
 41
1.1430000293821105
  7
MX_NOTE_STANDARD
 72
               1
 11
191.99512481689453
 21
96.103302001953125
 31
0.0
 73
               2
  0
TEXT
  8
LY_3
  6
CONTINUOUS
 62
             110
  5
C3
 10
185.93197190761566
 20
95.238121032714844
 30
0.0
 40
2.0
  1
5
 41
0.9525000017757219
  7
MX_NOTE_STANDARD
 72
               1
 11
186.88447189331055
 21
96.238121032714844
 31
0.0
 73
               2
  0
POLYLINE
  8
LY_3
  6
CONTINUOUS
 62
             110
  5
C4
 66
               1
 10
0.0
 20
0.0
 30
0.0
  0
VERTEX
  8
LY_3
  6
CONTINUOUS
 62
             110
  5
27E
 10
143.62969118781456
 20
13.499845485428851
 30
0.0
  0
VERTEX
  8
LY_3
  6
CONTINUOUS
 62
             110
  5
27F
 10
144.1049628635306
 20
12.666270030758362
 30
0.0
  0
VERTEX
  8
LY_3
  6
CONTINUOUS
 62
             110
  5
280
 10
144.54100605733839
 20
11.816065322071537
 30
0.0
  0
VERTEX
  8
LY_3
  6
CONTINUOUS
 62
             110
  5
281
 10
144.93052661718883
 20
10.952104533531871
 30
0.0
  0
VERTEX
  8
LY_3
  6
CONTINUOUS
 62
             110
  5
282
 10
145.26623039103282
 20
10.077260839302863
 30
0.0
  0
VERTEX
  8
LY_3
  6
CONTINUOUS
 62
             110
  5
283
 10
145.54082322682126
 20
9.1944074135480065
 30
0.0
  0
VERTEX
  8
LY_3
  6
CONTINUOUS
 62
             110
  5
284
 10
145.74701097250505
 20
8.3064174304308018
 30
0.0
  0
VERTEX
  8
LY_3
  6
CONTINUOUS
 62
             110
  5
285
 10
145.8774994760351
 20
7.4161640641147404
 30
0.0
  0
VERTEX
  8
LY_3
  6
CONTINUOUS
 62
             110
  5
286
 10
145.92499458536227
 20
6.5265204887633228
 30
0.0
  0
VERTEX
  8
LY_3
  6
CONTINUOUS
 62
             110
  5
287
 10
145.8822021484375
 20
5.6403598785400391
 30
0.0
  0
VERTEX
  8
LY_3
  6
CONTINUOUS
 62
             110
  5
288
 10
145.72799972456323
 20
4.6773041078221507
 30
0.0
  0
VERTEX
  8
LY_3
  6
CONTINUOUS
 62
             110
  5
289
 10
145.47559774103928
 20
3.7211736739125798
 30
0.0
  0
VERTEX
  8
LY_3
  6
CONTINUOUS
 62
             110
  5
28A
 10
145.14364397266345
 20
2.7712829226855806
 30
0.0
  0
VERTEX
  8
LY_3
  6
CONTINUOUS
 62
             110
  5
28B
 10
144.7507861942336
 20
1.8269462000154073
 30
0.0
  0
VERTEX
  8
LY_3
  6
CONTINUOUS
 62
             110
  5
28C
 10
144.31567218054752
 20
0.887477851776314
 30
0.0
  0
VERTEX
  8
LY_3
  6
CONTINUOUS
 62
             110
  5
28D
 10
143.8569497064031
 20
-0.0478077761574438
 30
0.0
  0
VERTEX
  8
LY_3
  6
CONTINUOUS
 62
             110
  5
28E
 10
143.39326654659814
 20
-0.9795963379116142
 30
0.0
  0
VERTEX
  8
LY_3
  6
CONTINUOUS
 62
             110
  5
28F
 10
142.94327047593046
 20
-1.9085734876119407
 30
0.0
  0
VERTEX
  8
LY_3
  6
CONTINUOUS
 62
             110
  5
290
 10
142.52560926919793
 20
-2.8354248793841688
 30
0.0
  0
VERTEX
  8
LY_3
  6
CONTINUOUS
 62
             110
  5
291
 10
142.15893070119833
 20
-3.7608361673540482
 30
0.0
  0
VERTEX
  8
LY_3
  6
CONTINUOUS
 62
             110
  5
292
 10
141.86188254672953
 20
-4.6854930056473219
 30
0.0
  0
VERTEX
  8
LY_3
  6
CONTINUOUS
 62
             110
  5
293
 10
141.65311258058938
 20
-5.6100810483897341
 30
0.0
  0
VERTEX
  8
LY_3
  6
CONTINUOUS
 62
             110
  5
294
 10
141.55126857757568
 20
-6.5352859497070313
 30
0.0
  0
VERTEX
  8
LY_3
  6
CONTINUOUS
 62
             110
  5
295
 10
141.56785006032564
 20
-7.4305009471798433
 30
0.0
  0
VERTEX
  8
LY_3
  6
CONTINUOUS
 62
             110
  5
296
 10
141.69374922831926
 20
-8.3241845352528951
 30
0.0
  0
VERTEX
  8
LY_3
  6
CONTINUOUS
 62
             110
  5
297
 10
141.92089471195382
 20
-9.2135876841973321
 30
0.0
  0
VERTEX
  8
LY_3
  6
CONTINUOUS
 62
             110
  5
298
 10
142.2412151416267
 20
-10.095961364284301
 30
0.0
  0
VERTEX
  8
LY_3
  6
CONTINUOUS
 62
             110
  5
299
 10
142.64663914773519
 20
-10.968556545784949
 30
0.0
  0
VERTEX
  8
LY_3
  6
CONTINUOUS
 62
             110
  5
29A
 10
143.12909536067667
 20
-11.828624198970422
 30
0.0
  0
VERTEX
  8
LY_3
  6
CONTINUOUS
 62
             110
  5
29B
 10
143.68051241084845
 20
-12.673415294111862
 30
0.0
  0
VERTEX
  8
LY_3
  6
CONTINUOUS
 62
             110
  5
29C
 10
144.29281892864788
 20
-13.500180801480422
 30
0.0
  0
SEQEND
  8
LY_3
  6
CONTINUOUS
 62
             110
  5
29D
  0
POLYLINE
  8
LY_3
  6
CONTINUOUS
 62
               3
  5
C5
 66
               1
 10
0.0
 20
0.0
 30
0.0
  0
VERTEX
  8
LY_3
  6
CONTINUOUS
 62
               3
  5
29E
 10
141.00565338134766
 20
-10.975292205810547
 30
0.0
  0
VERTEX
  8
LY_3
  6
CONTINUOUS
 62
               3
  5
29F
 10
140.98116749967929
 20
-10.133008936744988
 30
0.0
  0
VERTEX
  8
LY_3
  6
CONTINUOUS
 62
               3
  5
2A0
 10
141.07550048828125
 20
-9.2990570068359375
 30
0.0
  0
VERTEX
  8
LY_3
  6
CONTINUOUS
 62
               3
  5
2A1
 10
141.31448373809562
 20
-8.4720247334899277
 30
0.0
  0
VERTEX
  8
LY_3
  6
CONTINUOUS
 62
               3
  5
2A2
 10
141.578369140625
 20
-7.6507606506347656
 30
0.0
  0
VERTEX
  8
LY_3
  6
CONTINUOUS
 62
               3
  5
2A3
 10
141.58584718860519
 20
-7.6228899802964172
 30
0.0
  0
SEQEND
  8
LY_3
  6
CONTINUOUS
 62
               3
  5
2A4
  0
POLYLINE
  8
LY_3
  6
CONTINUOUS
 62
               3
  5
C6
 66
               1
 10
0.0
 20
0.0
 30
0.0
  0
VERTEX
  8
LY_3
  6
CONTINUOUS
 62
               3
  5
2A5
 10
140.99433898925781
 20
-10.975292205810547
 30
0.0
  0
VERTEX
  8
LY_3
  6
CONTINUOUS
 62
               3
  5
2A6
 10
141.01882867754861
 20
-10.133008897958513
 30
0.0
  0
VERTEX
  8
LY_3
  6
CONTINUOUS
 62
               3
  5
2A7
 10
140.92449951171875
 20
-9.2990570068359375
 30
0.0
  0
VERTEX
  8
LY_3
  6
CONTINUOUS
 62
               3
  5
2A8
 10
140.68551626190438
 20
-8.4720247334899277
 30
0.0
  0
VERTEX
  8
LY_3
  6
CONTINUOUS
 62
               3
  5
2A9
 10
140.421630859375
 20
-7.6507606506347656
 30
0.0
  0
VERTEX
  8
LY_3
  6
CONTINUOUS
 62
               3
  5
2AA
 10
140.26574253366138
 20
-6.8980784742409877
 30
0.0
  0
VERTEX
  8
LY_3
  6
CONTINUOUS
 62
               3
  5
2AB
 10
140.17571822787147
 20
-6.1312340753028574
 30
0.0
  0
VERTEX
  8
LY_3
  6
CONTINUOUS
 62
               3
  5
2AC
 10
140.11431884765625
 20
-5.3599052429199219
 30
0.0
  0
VERTEX
  8
LY_3
  6
CONTINUOUS
 62
               3
  5
2AD
 10
140.0602053347975
 20
-4.6682925075292587
 30
0.0
  0
VERTEX
  8
LY_3
  6
CONTINUOUS
 62
               3
  5
2AE
 10
140.01654052734375
 20
-3.9770126342773438
 30
0.0
  0
SEQEND
  8
LY_3
  6
CONTINUOUS
 62
               3
  5
2AF
  0
POLYLINE
  8
LY_3
  6
CONTINUOUS
 62
               3
  5
C7
 66
               1
 10
0.0
 20
0.0
 30
0.0
  0
VERTEX
  8
LY_3
  6
CONTINUOUS
 62
               3
  5
2B0
 10
139.00565338134766
 20
-10.975292205810547
 30
0.0
  0
VERTEX
  8
LY_3
  6
CONTINUOUS
 62
               3
  5
2B1
 10
138.98116749967929
 20
-10.133008936744988
 30
0.0
  0
VERTEX
  8
LY_3
  6
CONTINUOUS
 62
               3
  5
2B2
 10
139.07550048828125
 20
-9.2990570068359375
 30
0.0
  0
VERTEX
  8
LY_3
  6
CONTINUOUS
 62
               3
  5
2B3
 10
139.31448373809562
 20
-8.4720247334899277
 30
0.0
  0
VERTEX
  8
LY_3
  6
CONTINUOUS
 62
               3
  5
2B4
 10
139.578369140625
 20
-7.6507606506347656
 30
0.0
  0
VERTEX
  8
LY_3
  6
CONTINUOUS
 62
               3
  5
2B5
 10
139.73425746633862
 20
-6.8980784742409877
 30
0.0
  0
VERTEX
  8
LY_3
  6
CONTINUOUS
 62
               3
  5
2B6
 10
139.82428177212853
 20
-6.1312340753028574
 30
0.0
  0
VERTEX
  8
LY_3
  6
CONTINUOUS
 62
               3
  5
2B7
 10
139.88568115234375
 20
-5.3599052429199219
 30
0.0
  0
VERTEX
  8
LY_3
  6
CONTINUOUS
 62
               3
  5
2B8
 10
139.9397946652025
 20
-4.6682925075292587
 30
0.0
  0
VERTEX
  8
LY_3
  6
CONTINUOUS
 62
               3
  5
2B9
 10
139.98345947265625
 20
-3.9770126342773438
 30
0.0
  0
SEQEND
  8
LY_3
  6
CONTINUOUS
 62
               3
  5
2BA
  0
POLYLINE
  8
LY_3
  6
CONTINUOUS
 62
               3
  5
C8
 66
               1
 10
0.0
 20
0.0
 30
0.0
  0
VERTEX
  8
LY_3
  6
CONTINUOUS
 62
               3
  5
2BB
 10
145.00910066893798
 20
10.760954054022969
 30
0.0
  0
VERTEX
  8
LY_3
  6
CONTINUOUS
 62
               3
  5
2BC
 10
145.01445681817503
 20
10.025336157696735
 30
0.0
  0
VERTEX
  8
LY_3
  6
CONTINUOUS
 62
               3
  5
2BD
 10
144.92449951171875
 20
9.2990570068359375
 30
0.0
  0
VERTEX
  8
LY_3
  6
CONTINUOUS
 62
               3
  5
2BE
 10
144.68551254458396
 20
8.4720250927253904
 30
0.0
  0
VERTEX
  8
LY_3
  6
CONTINUOUS
 62
               3
  5
2BF
 10
144.42162322998047
 20
7.6507606506347656
 30
0.0
  0
VERTEX
  8
LY_3
  6
CONTINUOUS
 62
               3
  5
2C0
 10
144.26573687132307
 20
6.898078332666409
 30
0.0
  0
VERTEX
  8
LY_3
  6
CONTINUOUS
 62
               3
  5
2C1
 10
144.17571622801043
 20
6.1312337921536999
 30
0.0
  0
VERTEX
  8
LY_3
  6
CONTINUOUS
 62
               3
  5
2C2
 10
144.11431884765625
 20
5.3599052429199219
 30
0.0
  0
VERTEX
  8
LY_3
  6
CONTINUOUS
 62
               3
  5
2C3
 10
144.06020152010024
 20
4.6682925075292587
 30
0.0
  0
VERTEX
  8
LY_3
  6
CONTINUOUS
 62
               3
  5
2C4
 10
144.01653289794922
 20
3.9770126342773438
 30
0.0
  0
SEQEND
  8
LY_3
  6
CONTINUOUS
 62
               3
  5
2C5
  0
POLYLINE
  8
LY_3
  6
CONTINUOUS
 62
               3
  5
C9
 66
               1
 10
0.0
 20
0.0
 30
0.0
  0
VERTEX
  8
LY_3
  6
CONTINUOUS
 62
               3
  5
2C6
 10
143.00565338134766
 20
10.975292205810547
 30
0.0
  0
VERTEX
  8
LY_3
  6
CONTINUOUS
 62
               3
  5
2C7
 10
142.98116749967929
 20
10.133008936744988
 30
0.0
  0
VERTEX
  8
LY_3
  6
CONTINUOUS
 62
               3
  5
2C8
 10
143.07550048828125
 20
9.2990570068359375
 30
0.0
  0
VERTEX
  8
LY_3
  6
CONTINUOUS
 62
               3
  5
2C9
 10
143.31448373809562
 20
8.4720247334899277
 30
0.0
  0
VERTEX
  8
LY_3
  6
CONTINUOUS
 62
               3
  5
2CA
 10
143.578369140625
 20
7.6507606506347656
 30
0.0
  0
VERTEX
  8
LY_3
  6
CONTINUOUS
 62
               3
  5
2CB
 10
143.73425746633862
 20
6.8980784742409877
 30
0.0
  0
VERTEX
  8
LY_3
  6
CONTINUOUS
 62
               3
  5
2CC
 10
143.82428177212853
 20
6.1312340753028574
 30
0.0
  0
VERTEX
  8
LY_3
  6
CONTINUOUS
 62
               3
  5
2CD
 10
143.88568115234375
 20
5.3599052429199219
 30
0.0
  0
VERTEX
  8
LY_3
  6
CONTINUOUS
 62
               3
  5
2CE
 10
143.9397946652025
 20
4.6682925075292587
 30
0.0
  0
VERTEX
  8
LY_3
  6
CONTINUOUS
 62
               3
  5
2CF
 10
143.98345947265625
 20
3.9770126342773438
 30
0.0
  0
SEQEND
  8
LY_3
  6
CONTINUOUS
 62
               3
  5
2D0
  0
POLYLINE
  8
LY_3
  6
CONTINUOUS
 62
               3
  5
CA
 66
               1
 10
0.0
 20
0.0
 30
0.0
  0
VERTEX
  8
LY_3
  6
CONTINUOUS
 62
               3
  5
2D1
 10
142.99433898925781
 20
10.975292205810547
 30
0.0
  0
VERTEX
  8
LY_3
  6
CONTINUOUS
 62
               3
  5
2D2
 10
143.01882867754861
 20
10.133008897958513
 30
0.0
  0
VERTEX
  8
LY_3
  6
CONTINUOUS
 62
               3
  5
2D3
 10
142.92449951171875
 20
9.2990570068359375
 30
0.0
  0
VERTEX
  8
LY_3
  6
CONTINUOUS
 62
               3
  5
2D4
 10
142.68551626190438
 20
8.4720247334899277
 30
0.0
  0
VERTEX
  8
LY_3
  6
CONTINUOUS
 62
               3
  5
2D5
 10
142.421630859375
 20
7.6507606506347656
 30
0.0
  0
VERTEX
  8
LY_3
  6
CONTINUOUS
 62
               3
  5
2D6
 10
142.26574253366138
 20
6.8980784742409877
 30
0.0
  0
VERTEX
  8
LY_3
  6
CONTINUOUS
 62
               3
  5
2D7
 10
142.17571822787147
 20
6.1312340753028574
 30
0.0
  0
VERTEX
  8
LY_3
  6
CONTINUOUS
 62
               3
  5
2D8
 10
142.11431884765625
 20
5.3599052429199219
 30
0.0
  0
VERTEX
  8
LY_3
  6
CONTINUOUS
 62
               3
  5
2D9
 10
142.0602053347975
 20
4.6682925075292587
 30
0.0
  0
VERTEX
  8
LY_3
  6
CONTINUOUS
 62
               3
  5
2DA
 10
142.01654052734375
 20
3.9770126342773438
 30
0.0
  0
SEQEND
  8
LY_3
  6
CONTINUOUS
 62
               3
  5
2DB
  0
POLYLINE
  8
LY_3
  6
CONTINUOUS
 62
               3
  5
CB
 66
               1
 10
0.0
 20
0.0
 30
0.0
  0
VERTEX
  8
LY_3
  6
CONTINUOUS
 62
               3
  5
2DC
 10
141.00565338134766
 20
10.975292205810547
 30
0.0
  0
VERTEX
  8
LY_3
  6
CONTINUOUS
 62
               3
  5
2DD
 10
140.98116749967929
 20
10.133008936744988
 30
0.0
  0
VERTEX
  8
LY_3
  6
CONTINUOUS
 62
               3
  5
2DE
 10
141.07550048828125
 20
9.2990570068359375
 30
0.0
  0
VERTEX
  8
LY_3
  6
CONTINUOUS
 62
               3
  5
2DF
 10
141.31448373809562
 20
8.4720247334899277
 30
0.0
  0
VERTEX
  8
LY_3
  6
CONTINUOUS
 62
               3
  5
2E0
 10
141.578369140625
 20
7.6507606506347656
 30
0.0
  0
VERTEX
  8
LY_3
  6
CONTINUOUS
 62
               3
  5
2E1
 10
141.73425746633862
 20
6.8980784742409877
 30
0.0
  0
VERTEX
  8
LY_3
  6
CONTINUOUS
 62
               3
  5
2E2
 10
141.82428177212853
 20
6.1312340753028574
 30
0.0
  0
VERTEX
  8
LY_3
  6
CONTINUOUS
 62
               3
  5
2E3
 10
141.88568115234375
 20
5.3599052429199219
 30
0.0
  0
VERTEX
  8
LY_3
  6
CONTINUOUS
 62
               3
  5
2E4
 10
141.9397946652025
 20
4.6682925075292587
 30
0.0
  0
VERTEX
  8
LY_3
  6
CONTINUOUS
 62
               3
  5
2E5
 10
141.98345947265625
 20
3.9770126342773438
 30
0.0
  0
SEQEND
  8
LY_3
  6
CONTINUOUS
 62
               3
  5
2E6
  0
POLYLINE
  8
LY_3
  6
CONTINUOUS
 62
               3
  5
CC
 66
               1
 10
0.0
 20
0.0
 30
0.0
  0
VERTEX
  8
LY_3
  6
CONTINUOUS
 62
               3
  5
2E7
 10
140.99433898925781
 20
10.975292205810547
 30
0.0
  0
VERTEX
  8
LY_3
  6
CONTINUOUS
 62
               3
  5
2E8
 10
141.01882867754861
 20
10.133008897958513
 30
0.0
  0
VERTEX
  8
LY_3
  6
CONTINUOUS
 62
               3
  5
2E9
 10
140.92449951171875
 20
9.2990570068359375
 30
0.0
  0
VERTEX
  8
LY_3
  6
CONTINUOUS
 62
               3
  5
2EA
 10
140.68551626190438
 20
8.4720247334899277
 30
0.0
  0
VERTEX
  8
LY_3
  6
CONTINUOUS
 62
               3
  5
2EB
 10
140.421630859375
 20
7.6507606506347656
 30
0.0
  0
VERTEX
  8
LY_3
  6
CONTINUOUS
 62
               3
  5
2EC
 10
140.26574253366138
 20
6.8980784742409877
 30
0.0
  0
VERTEX
  8
LY_3
  6
CONTINUOUS
 62
               3
  5
2ED
 10
140.17571822787147
 20
6.1312340753028574
 30
0.0
  0
VERTEX
  8
LY_3
  6
CONTINUOUS
 62
               3
  5
2EE
 10
140.11431884765625
 20
5.3599052429199219
 30
0.0
  0
VERTEX
  8
LY_3
  6
CONTINUOUS
 62
               3
  5
2EF
 10
140.0602053347975
 20
4.6682925075292587
 30
0.0
  0
VERTEX
  8
LY_3
  6
CONTINUOUS
 62
               3
  5
2F0
 10
140.01654052734375
 20
3.9770126342773438
 30
0.0
  0
SEQEND
  8
LY_3
  6
CONTINUOUS
 62
               3
  5
2F1
  0
POLYLINE
  8
LY_3
  6
CONTINUOUS
 62
               3
  5
CD
 66
               1
 10
0.0
 20
0.0
 30
0.0
  0
VERTEX
  8
LY_3
  6
CONTINUOUS
 62
               3
  5
2F2
 10
139.00565338134766
 20
10.975292205810547
 30
0.0
  0
VERTEX
  8
LY_3
  6
CONTINUOUS
 62
               3
  5
2F3
 10
138.98116749967929
 20
10.133008936744988
 30
0.0
  0
VERTEX
  8
LY_3
  6
CONTINUOUS
 62
               3
  5
2F4
 10
139.07550048828125
 20
9.2990570068359375
 30
0.0
  0
VERTEX
  8
LY_3
  6
CONTINUOUS
 62
               3
  5
2F5
 10
139.31448373809562
 20
8.4720247334899277
 30
0.0
  0
VERTEX
  8
LY_3
  6
CONTINUOUS
 62
               3
  5
2F6
 10
139.578369140625
 20
7.6507606506347656
 30
0.0
  0
VERTEX
  8
LY_3
  6
CONTINUOUS
 62
               3
  5
2F7
 10
139.73425746633862
 20
6.8980784742409877
 30
0.0
  0
VERTEX
  8
LY_3
  6
CONTINUOUS
 62
               3
  5
2F8
 10
139.82428177212853
 20
6.1312340753028574
 30
0.0
  0
VERTEX
  8
LY_3
  6
CONTINUOUS
 62
               3
  5
2F9
 10
139.88568115234375
 20
5.3599052429199219
 30
0.0
  0
VERTEX
  8
LY_3
  6
CONTINUOUS
 62
               3
  5
2FA
 10
139.9397946652025
 20
4.6682925075292587
 30
0.0
  0
VERTEX
  8
LY_3
  6
CONTINUOUS
 62
               3
  5
2FB
 10
139.98345947265625
 20
3.9770126342773438
 30
0.0
  0
SEQEND
  8
LY_3
  6
CONTINUOUS
 62
               3
  5
2FC
  0
CIRCLE
  8
LY_3
  6
CONTINUOUS
 62
               3
  5
CE
 10
246.19999694824219
 20
0.0
 30
0.0
 40
1.2000000476837158
  0
CIRCLE
  8
LY_3
  6
CONTINUOUS
 62
             110
  5
CF
 10
246.19999694824219
 20
0.0
 30
0.0
 40
1.5
  0
ARC
  8
LY_3
  6
CONTINUOUS
 62
               3
  5
D0
 10
247.29999542236328
 20
90.0
 30
0.0
 40
5.0
 50
340.05171023647301
 51
19.948289763526969
  0
CIRCLE
  8
LY_3
  6
CONTINUOUS
 62
               3
  5
D1
 10
246.19999694824219
 20
90.0
 30
0.0
 40
1.0
  0
CIRCLE
  8
LY_3
  6
CONTINUOUS
 62
             110
  5
D2
 10
246.19999694824219
 20
90.0
 30
0.0
 40
1.5
  0
ARC
  8
LY_3
  6
CONTINUOUS
 62
               3
  5
D3
 10
250.0
 20
104.50000762939453
 30
0.0
 40
2.0
 50
359.99999134857779
 51
90.000002504478161
  0
ARC
  8
LY_3
  6
CONTINUOUS
 62
               3
  5
D4
 10
250.0
 20
75.5
 30
0.0
 40
2.0
 50
269.99999749552182
 51
0.000005008956131
  0
ARC
  8
LY_3
  6
CONTINUOUS
 62
               3
  5
D5
 10
250.0
 20
-14.5
 30
0.0
 40
2.0
 50
269.99999749552182
 51
0.0000050089569452
  0
ARC
  8
LY_3
  6
CONTINUOUS
 62
               3
  5
D6
 10
250.0
 20
14.5
 30
0.0
 40
2.0
 50
359.99999134857859
 51
90.000002504478161
  0
ARC
  8
LY_3
  6
CONTINUOUS
 62
               3
  5
D7
 10
113.19999694824219
 20
-9.75
 30
0.0
 40
1.25
 50
36.869897309578676
 51
143.13009745409394
  0
ARC
  8
LY_3
  6
CONTINUOUS
 62
               3
  5
D8
 10
109.19999694824219
 20
-9.75
 30
0.0
 40
1.25
 50
36.869897309578676
 51
143.13009745409394
  0
ARC
  8
LY_3
  6
CONTINUOUS
 62
               3
  5
D9
 10
113.19999694824219
 20
9.75
 30
0.0
 40
1.25
 50
216.86990254590609
 51
323.13010269042132
  0
ARC
  8
LY_3
  6
CONTINUOUS
 62
               3
  5
DA
 10
109.19999694824219
 20
9.75
 30
0.0
 40
1.25
 50
216.86990254590609
 51
323.13010269042132
  0
ARC
  8
LY_3
  6
CONTINUOUS
 62
               3
  5
DB
 10
0.0
 20
-2.5
 30
0.0
 40
1.5
 50
183.82255134117631
 51
356.17744621118828
  0
ARC
  8
LY_3
  6
CONTINUOUS
 62
               3
  5
DC
 10
-2.5
 20
0.0
 30
0.0
 40
1.5
 50
93.822552024421654
 51
266.17744433311265
  0
ARC
  8
LY_3
  6
CONTINUOUS
 62
               3
  5
DD
 10
0.0
 20
2.5
 30
0.0
 40
1.5
 50
3.8225537888117174
 51
176.17744865882366
  0
ARC
  8
LY_3
  6
CONTINUOUS
 62
               3
  5
DE
 10
2.5
 20
0.0
 30
0.0
 40
1.5
 50
273.82255384565451
 51
86.177446154345517
  0
ARC
  8
LY_3
  6
CONTINUOUS
 62
               3
  5
DF
 10
0.0
 20
0.0
 30
0.0
 40
8.0
 50
250.07865795091243
 51
289.9213165495637
  0
ARC
  8
LY_3
  6
CONTINUOUS
 62
               3
  5
E0
 10
5.112274169921875
 20
-3.5927867889404297
 30
0.0
 40
0.925000011920929
 50
228.54137078075891
 51
328.8271942129802
  0
ARC
  8
LY_3
  6
CONTINUOUS
 62
               3
  5
E1
 10
-5.112274169921875
 20
-3.5927867889404297
 30
0.0
 40
0.925000011920929
 50
211.17278711768509
 51
311.45860371971725
  0
CIRCLE
  8
LY_3
  6
CONTINUOUS
 62
               3
  5
E2
 10
3.274993896484375
 20
-5.6724662780761719
 30
0.0
 40
0.8500000238418579
  0
CIRCLE
  8
LY_3
  6
CONTINUOUS
 62
               3
  5
E3
 10
-3.274993896484375
 20
-5.6724662780761719
 30
0.0
 40
0.8500000238418579
  0
ARC
  8
LY_3
  6
CONTINUOUS
 62
               3
  5
E4
 10
3.274993896484375
 20
-5.6724662780761719
 30
0.0
 40
1.8500000238418579
 50
48.541392865188165
 51
169.17912755220189
  0
ARC
  8
LY_3
  6
CONTINUOUS
 62
               3
  5
E5
 10
-3.274993896484375
 20
-5.6724662780761719
 30
0.0
 40
1.8500000238418579
 50
10.820896239774658
 51
131.45862921924109
  0
ARC
  8
LY_3
  6
CONTINUOUS
 62
               3
  5
E6
 10
0.0
 20
-0.5
 30
0.0
 40
6.9000000953674316
 50
328.82718396769644
 51
211.17278347521943
  0
ARC
  8
LY_3
  6
CONTINUOUS
 62
               3
  5
E7
 10
0.0
 20
0.0
 30
0.0
 40
2.5
 50
126.86990322915143
 51
0.0000100179126691
  0
ARC
  8
LY_3
  6
CONTINUOUS
 62
               3
  5
E8
 10
0.0
 20
0.0
 30
0.0
 40
2.5
 50
0.0
 51
53.130101779804903
  0
CIRCLE
  8
LY_3
  6
CONTINUOUS
 62
               3
  5
E9
 10
0.0
 20
0.0
 30
0.0
 40
3.0
  0
ARC
  8
LY_3
  6
CONTINUOUS
 62
               3
  5
EA
 10
0.0
 20
0.0
 30
0.0
 40
16.100000381469727
 50
270.0
 51
90.0
  0
CIRCLE
  8
LY_3
  6
CONTINUOUS
 62
               3
  5
EB
 10
0.0
 20
0.0
 30
0.0
 40
10.699999809265137
  0
CIRCLE
  8
LY_3
  6
CONTINUOUS
 62
               3
  5
EC
 10
13.5
 20
-0.0000038146972656
 30
0.0
 40
2.2000000476837158
  0
CIRCLE
  8
LY_3
  6
CONTINUOUS
 62
               3
  5
ED
 10
6.75
 20
-11.69134521484375
 30
0.0
 40
2.2000000476837158
  0
CIRCLE
  8
LY_3
  6
CONTINUOUS
 62
               3
  5
EE
 10
-6.75
 20
-11.691341400146484
 30
0.0
 40
2.2000000476837158
  0
CIRCLE
  8
LY_3
  6
CONTINUOUS
 62
               3
  5
EF
 10
-13.5
 20
0.0000019073486328
 30
0.0
 40
2.2000000476837158
  0
CIRCLE
  8
LY_3
  6
CONTINUOUS
 62
               3
  5
F0
 10
-6.75
 20
11.691343307495117
 30
0.0
 40
2.2000000476837158
  0
CIRCLE
  8
LY_3
  6
CONTINUOUS
 62
               3
  5
F1
 10
6.75
 20
11.691341400146484
 30
0.0
 40
2.2000000476837158
  0
CIRCLE
  8
LY_3
  6
CONTINUOUS
 62
               3
  5
F2
 10
0.0
 20
0.0
 30
0.0
 40
16.899999618530273
  0
ARC
  8
LY_3
  6
CONTINUOUS
 62
               3
  5
F3
 10
0.0
 20
0.0
 30
0.0
 40
16.100000381469727
 50
90.0
 51
270.0
  0
CIRCLE
  8
LY_3
  6
CENTER
 62
             110
  5
F5
 10
0.0
 20
0.0
 30
0.0
 40
13.5
  0
CIRCLE
  8
LY_3
  6
CONTINUOUS
 62
               3
  5
F6
 10
0.0
 20
0.0
 30
0.0
 40
9.1499996185302734
  0
CIRCLE
  8
LY_3
  6
CONTINUOUS
 62
               3
  5
F7
 10
0.0
 20
0.0
 30
0.0
 40
8.25
  0
ARC
  8
LY_3
  6
CONTINUOUS
 62
               3
  5
F8
 10
247.29999542236328
 20
0.0
 30
0.0
 40
5.0
 50
340.05171023647301
 51
19.948289763526969
  0
ARC
  8
LY_3
  6
CONTINUOUS
 62
               3
  5
F9
 10
100.80711364746094
 20
10.450000762939453
 30
0.0
 40
0.25
 50
339.99995789313192
 51
90.000016164856504
  0
ARC
  8
LY_3
  6
CONTINUOUS
 62
               3
  5
FA
 10
100.80711364746094
 20
-10.450000762939453
 30
0.0
 40
0.25
 50
269.9999838351435
 51
20.000042106868154
  0
LINE
  8
LY_3
  6
CONTINUOUS
 62
               3
  5
FB
 10
50.0
 20
91.599998474121094
 30
0.0
 11
60.0
 21
91.599998474121094
 31
0.0
  0
LINE
  8
LY_3
  6
CONTINUOUS
 62
               3
  5
FC
 10
250.0
 20
77.161518096923828
 30
0.0
 11
250.0
 21
104.30443572998047
 31
0.0
  0
LINE
  8
LY_3
  6
CENTER
 62
             110
  5
FD
 10
246.19999694824219
 20
86.313430786132813
 30
0.0
 11
246.19999694824219
 21
93.400077819824219
 31
0.0
  0
LINE
  8
LY_3
  6
CONTINUOUS
 62
               3
  5
FE
 10
228.5
 20
-13.200004577636719
 30
0.0
 11
242.5
 21
-13.200004577636719
 31
0.0
  0
LINE
  8
LY_3
  6
CONTINUOUS
 62
               3
  5
FF
 10
228.5
 20
-14.500007629394531
 30
0.0
 11
242.5
 21
-14.500007629394531
 31
0.0
  0
LINE
  8
LY_3
  6
CONTINUOUS
 62
               3
  5
100
 10
228.5
 20
-15.500007629394531
 30
0.0
 11
242.5
 21
-15.500007629394531
 31
0.0
  0
LINE
  8
LY_3
  6
CONTINUOUS
 62
               3
  5
101
 10
228.5
 20
-16.200004577636719
 30
0.0
 11
242.5
 21
-16.200004577636719
 31
0.0
  0
LINE
  8
LY_3
  6
CONTINUOUS
 62
               3
  5
102
 10
228.5
 20
-16.700004577636719
 30
0.0
 11
242.5
 21
-16.700004577636719
 31
0.0
  0
LINE
  8
LY_3
  6
CONTINUOUS
 62
               3
  5
103
 10
243.0
 20
16.5
 30
0.0
 11
243.0
 21
-16.500007629394531
 31
0.0
  0
LINE
  8
LY_3
  6
CONTINUOUS
 62
               3
  5
104
 10
242.5
 20
17.0
 30
0.0
 11
242.5
 21
-17.0
 31
0.0
  0
LINE
  8
LY_3
  6
CONTINUOUS
 62
               3
  5
105
 10
228.5
 20
16.699996948242188
 30
0.0
 11
242.5
 21
16.699996948242188
 31
0.0
  0
LINE
  8
LY_3
  6
CONTINUOUS
 62
               3
  5
106
 10
228.5
 20
16.199996948242187
 30
0.0
 11
242.5
 21
16.199996948242187
 31
0.0
  0
LINE
  8
LY_3
  6
CONTINUOUS
 62
               3
  5
107
 10
228.5
 20
15.5
 30
0.0
 11
242.5
 21
15.5
 31
0.0
  0
LINE
  8
LY_3
  6
CONTINUOUS
 62
               3
  5
108
 10
228.5
 20
14.5
 30
0.0
 11
242.5
 21
14.5
 31
0.0
  0
LINE
  8
LY_3
  6
CONTINUOUS
 62
               3
  5
109
 10
228.5
 20
13.199996948242188
 30
0.0
 11
242.5
 21
13.199996948242188
 31
0.0
  0
LINE
  8
LY_3
  6
CONTINUOUS
 62
               3
  5
10A
 10
228.5
 20
17.0
 30
0.0
 11
228.5
 21
-17.0
 31
0.0
  0
LINE
  8
LY_3
  6
CONTINUOUS
 62
               3
  5
10B
 10
228.0
 20
16.5
 30
0.0
 11
228.0
 21
-16.5
 31
0.0
  0
LINE
  8
LY_3
  6
CONTINUOUS
 62
               3
  5
10C
 10
204.67132568359375
 20
-16.500007629394531
 30
0.0
 11
204.67132568359375
 21
16.5
 31
0.0
  0
LINE
  8
LY_3
  6
CONTINUOUS
 62
               3
  5
10D
 10
197.67132568359375
 20
-16.500007629394531
 30
0.0
 11
197.67132568359375
 21
16.5
 31
0.0
  0
LINE
  8
LY_3
  6
CONTINUOUS
 62
               3
  5
10E
 10
191.99999666329916
 20
-13.790320513810002
 30
0.0
 11
194.99999666282986
 21
-14.319301471136896
 31
0.0
  0
LINE
  8
LY_3
  6
CONTINUOUS
 62
               3
  5
10F
 10
191.99999539207045
 20
-6.5902173877032055
 30
0.0
 11
194.99999539160115
 21
-7.1191983450300995
 31
0.0
  0
LINE
  8
LY_3
  6
CONTINUOUS
 62
               3
  5
110
 10
191.99999505348501
 20
6.5902172421733667
 30
0.0
 11
194.99999505301571
 21
7.1191981995002607
 31
0.0
  0
LINE
  8
LY_3
  6
CONTINUOUS
 62
               3
  5
111
 10
191.99999764954418
 20
13.790312854793456
 30
0.0
 11
194.99999764907488
 21
14.31929381212035
 31
0.0
  0
LINE
  8
LY_3
  6
CONTINUOUS
 62
               3
  5
112
 10
129.5
 20
-9.1000003814697266
 30
0.0
 11
129.5
 21
-9.0
 31
0.0
  0
LINE
  8
LY_3
  6
CONTINUOUS
 62
               3
  5
113
 10
129.50000050794446
 20
-9.0999969750267979
 30
0.0
 11
130.00000238743834
 21
-9.5999988966676852
 31
0.0
  0
LINE
  8
LY_3
  6
CONTINUOUS
 62
               3
  5
114
 10
127.0
 20
-9.1000003814697266
 30
0.0
 11
129.5
 21
-9.1000003814697266
 31
0.0
  0
LINE
  8
LY_3
  6
CONTINUOUS
 62
               3
  5
115
 10
129.5
 20
9.1000003814697266
 30
0.0
 11
129.5
 21
9.0
 31
0.0
  0
LINE
  8
LY_3
  6
CONTINUOUS
 62
               3
  5
116
 10
129.49999987574154
 20
9.0999997299038569
 30
0.0
 11
129.99999905783716
 21
9.5999989541462583
 31
0.0
  0
LINE
  8
LY_3
  6
CONTINUOUS
 62
               3
  5
117
 10
127.0
 20
9.1000003814697266
 30
0.0
 11
129.5
 21
9.1000003814697266
 31
0.0
  0
LINE
  8
LY_3
  6
CONTINUOUS
 62
               3
  5
118
 10
204.67132568359375
 20
106.50000762939453
 30
0.0
 11
204.67132568359375
 21
73.5
 31
0.0
  0
LINE
  8
LY_3
  6
DASHED
 62
             110
  5
11A
 10
201.6712646484375
 20
73.900001525878906
 30
0.0
 11
204.6712646484375
 21
73.900001525878906
 31
0.0
  0
LINE
  8
LY_3
  6
DASHED
 62
             110
  5
11B
 10
192.0
 20
75.25
 30
0.0
 11
201.6712646484375
 21
75.25
 31
0.0
  0
LINE
  8
LY_3
  6
DASHED
 62
             110
  5
11C
 10
192.0
 20
104.75
 30
0.0
 11
201.6712646484375
 21
104.75
 31
0.0
  0
LINE
  8
LY_3
  6
DASHED
 62
             110
  5
11D
 10
201.6712646484375
 20
106.09999847412109
 30
0.0
 11
204.6712646484375
 21
106.09999847412109
 31
0.0
  0
LINE
  8
LY_3
  6
DASHED
 62
             110
  5
11E
 10
201.67132568359375
 20
106.09999847412109
 30
0.0
 11
201.67132568359375
 21
73.900001525878906
 31
0.0
  0
LINE
  8
LY_3
  6
CONTINUOUS
 62
               3
  5
11F
 10
197.67132568359375
 20
106.50000762939453
 30
0.0
 11
197.67132568359375
 21
73.5
 31
0.0
  0
LINE
  8
LY_3
  6
CONTINUOUS
 62
               3
  5
120
 10
191.99999844414697
 20
105.49999338186763
 30
0.0
 11
197.67129842673012
 21
106.49999661338234
 31
0.0
  0
LINE
  8
LY_3
  6
CENTER
 62
             110
  5
121
 10
246.19999694824219
 20
-3.2471122741699219
 30
0.0
 11
246.19999694824219
 21
3.3491449356079102
 31
0.0
  0
LINE
  8
LY_3
  6
CONTINUOUS
 62
               3
  5
122
 10
191.99999767167765
 20
103.790318926498
 30
0.0
 11
194.99999767120835
 21
104.3192998838249
 31
0.0
  0
LINE
  8
LY_3
  6
CONTINUOUS
 62
               3
  5
123
 10
191.99999630995808
 20
76.209683679522868
 30
0.0
 11
194.9999944311171
 21
75.68070305340359
 31
0.0
  0
LINE
  8
LY_3
  6
CONTINUOUS
 62
               3
  5
124
 10
192.0
 20
90.0
 30
0.0
 11
195.42246246337891
 21
90.0
 31
0.0
  0
LINE
  8
LY_3
  6
CONTINUOUS
 62
               3
  5
125
 10
191.99999760902756
 20
98.590216406572608
 30
0.0
 11
194.99999760855826
 21
99.119197363899502
 31
0.0
  0
LINE
  8
LY_3
  6
CONTINUOUS
 62
               3
  5
126
 10
191.99999492247753
 20
81.409778685961555
 30
0.0
 11
194.99999492200823
 21
80.880797728634661
 31
0.0
  0
LINE
  8
LY_3
  6
CONTINUOUS
 62
               3
  5
127
 10
228.5
 20
106.70000457763672
 30
0.0
 11
242.5
 21
106.70000457763672
 31
0.0
  0
LINE
  8
LY_3
  6
CONTINUOUS
 62
               3
  5
128
 10
228.5
 20
106.20000457763672
 30
0.0
 11
242.5
 21
106.20000457763672
 31
0.0
  0
LINE
  8
LY_3
  6
CONTINUOUS
 62
               3
  5
129
 10
228.5
 20
105.50000762939453
 30
0.0
 11
242.5
 21
105.50000762939453
 31
0.0
  0
LINE
  8
LY_3
  6
CONTINUOUS
 62
               3
  5
12A
 10
228.5
 20
104.50000762939453
 30
0.0
 11
242.5
 21
104.50000762939453
 31
0.0
  0
LINE
  8
LY_3
  6
CONTINUOUS
 62
               3
  5
12B
 10
228.5
 20
103.20000457763672
 30
0.0
 11
242.5
 21
103.20000457763672
 31
0.0
  0
LINE
  8
LY_3
  6
CONTINUOUS
 62
               3
  5
12C
 10
228.5
 20
76.800003051757813
 30
0.0
 11
242.5
 21
76.800003051757813
 31
0.0
  0
LINE
  8
LY_3
  6
CONTINUOUS
 62
               3
  5
12D
 10
228.5
 20
75.5
 30
0.0
 11
242.5
 21
75.5
 31
0.0
  0
LINE
  8
LY_3
  6
CONTINUOUS
 62
               3
  5
12E
 10
228.5
 20
74.5
 30
0.0
 11
242.5
 21
74.5
 31
0.0
  0
LINE
  8
LY_3
  6
CONTINUOUS
 62
               3
  5
12F
 10
228.5
 20
73.800003051757812
 30
0.0
 11
242.5
 21
73.800003051757812
 31
0.0
  0
LINE
  8
LY_3
  6
CONTINUOUS
 62
               3
  5
130
 10
228.5
 20
73.300003051757812
 30
0.0
 11
242.5
 21
73.300003051757812
 31
0.0
  0
LINE
  8
LY_3
  6
CONTINUOUS
 62
               3
  5
131
 10
250.0
 20
-13.390380859375
 30
0.0
 11
250.0
 21
13.738528609275818
 31
0.0
  0
LINE
  8
LY_3
  6
CONTINUOUS
 62
               3
  5
132
 10
243.0
 20
73.5
 30
0.0
 11
243.0
 21
106.50000762939453
 31
0.0
  0
LINE
  8
LY_3
  6
CONTINUOUS
 62
               3
  5
133
 10
242.5
 20
73.0
 30
0.0
 11
242.5
 21
107.0
 31
0.0
  0
LINE
  8
LY_3
  6
CONTINUOUS
 62
               3
  5
134
 10
228.5
 20
73.0
 30
0.0
 11
228.5
 21
107.0
 31
0.0
  0
LINE
  8
LY_3
  6
CONTINUOUS
 62
               3
  5
135
 10
228.0
 20
73.5
 30
0.0
 11
228.0
 21
106.5
 31
0.0
  0
LINE
  8
LY_3
  6
CONTINUOUS
 62
               3
  5
136
 10
197.67131423950195
 20
106.50000762939453
 30
0.0
 11
228.0
 21
106.50000762939453
 31
0.0
  0
LINE
  8
LY_3
  6
CONTINUOUS
 62
               3
  5
137
 10
243.0
 20
106.50000762939453
 30
0.0
 11
250.0
 21
106.50000762939453
 31
0.0
  0
LINE
  8
LY_3
  6
CONTINUOUS
 62
               3
  5
138
 10
242.50000296636114
 20
107.00000324465117
 30
0.0
 11
243.00000341286218
 21
106.50000275600323
 31
0.0
  0
LINE
  8
LY_3
  6
CONTINUOUS
 62
               3
  5
139
 10
228.00000160821389
 20
106.50001021599564
 30
0.0
 11
228.49999678635857
 21
107.00000535199388
 31
0.0
  0
LINE
  8
LY_3
  6
CONTINUOUS
 62
               3
  5
13A
 10
228.5
 20
107.0
 30
0.0
 11
242.5
 21
107.0
 31
0.0
  0
LINE
  8
LY_3
  6
CONTINUOUS
 62
               3
  5
13B
 10
242.5000018705432
 20
73.000000303318529
 30
0.0
 11
243.00000240133795
 21
73.500000876260174
 31
0.0
  0
LINE
  8
LY_3
  6
CONTINUOUS
 62
               3
  5
13C
 10
227.99999528618628
 20
73.500001592756348
 30
0.0
 11
228.49999855652641
 21
72.999998364563339
 31
0.0
  0
LINE
  8
LY_3
  6
CONTINUOUS
 62
               3
  5
13D
 10
243.0
 20
73.5
 30
0.0
 11
250.0
 21
73.5
 31
0.0
  0
LINE
  8
LY_3
  6
CONTINUOUS
 62
               3
  5
13E
 10
228.5
 20
73.0
 30
0.0
 11
242.5
 21
73.0
 31
0.0
  0
LINE
  8
LY_3
  6
CONTINUOUS
 62
               3
  5
13F
 10
252.0
 20
104.50000762939453
 30
0.0
 11
252.0
 21
90.0
 31
0.0
  0
LINE
  8
LY_3
  6
CONTINUOUS
 62
               3
  5
140
 10
252.0
 20
75.5
 30
0.0
 11
252.0
 21
90.0
 31
0.0
  0
LINE
  8
LY_3
  6
CONTINUOUS
 62
               3
  5
141
 10
191.99999763596861
 20
74.500001379458922
 30
0.0
 11
197.67129949692344
 21
73.499997816736595
 31
0.0
  0
LINE
  8
LY_3
  6
CONTINUOUS
 62
               3
  5
142
 10
192.0
 20
74.500007629394531
 30
0.0
 11
192.0
 21
105.49999237060547
 31
0.0
  0
LINE
  8
LY_3
  6
CONTINUOUS
 62
               3
  5
143
 10
197.67129898071289
 20
73.5
 30
0.0
 11
228.0
 21
73.5
 31
0.0
  0
LINE
  8
LY_3
  6
CONTINUOUS
 62
               3
  5
144
 10
252.0
 20
-14.5
 30
0.0
 11
252.0
 21
14.5
 31
0.0
  0
LINE
  8
LY_3
  6
CONTINUOUS
 62
               3
  5
145
 10
192.0
 20
0.0
 30
0.0
 11
192.0
 21
15.5
 31
0.0
  0
LINE
  8
LY_3
  6
CONTINUOUS
 62
               3
  5
146
 10
197.67127990722656
 20
16.5
 30
0.0
 11
228.0
 21
16.5
 31
0.0
  0
LINE
  8
LY_3
  6
CONTINUOUS
 62
               3
  5
147
 10
243.0
 20
-16.5
 30
0.0
 11
250.0
 21
-16.5
 31
0.0
  0
LINE
  8
LY_3
  6
CONTINUOUS
 62
               3
  5
148
 10
243.0
 20
16.5
 30
0.0
 11
250.0
 21
16.5
 31
0.0
  0
LINE
  8
LY_3
  6
CONTINUOUS
 62
               3
  5
149
 10
242.50000439935434
 20
17.000006578100965
 30
0.0
 11
243.00000493014909
 21
16.500006005159321
 31
0.0
  0
LINE
  8
LY_3
  6
CONTINUOUS
 62
               3
  5
14A
 10
228.49999237060547
 20
17.0
 30
0.0
 11
242.5
 21
17.0
 31
0.0
  0
LINE
  8
LY_3
  6
CONTINUOUS
 62
               3
  5
14B
 10
227.99999376889946
 20
16.499995847769014
 30
0.0
 11
228.4999943418411
 21
16.999996378563765
 31
0.0
  0
LINE
  8
LY_3
  6
CONTINUOUS
 62
               3
  5
14C
 10
197.67127990722656
 20
-16.5
 30
0.0
 11
228.0
 21
-16.5
 31
0.0
  0
LINE
  8
LY_3
  6
CONTINUOUS
 62
               3
  5
14D
 10
242.50000296636108
 20
-16.999999229217337
 30
0.0
 11
243.00000349715583
 21
-16.499998656275693
 31
0.0
  0
LINE
  8
LY_3
  6
CONTINUOUS
 62
               3
  5
14E
 10
228.5
 20
-17.0
 30
0.0
 11
242.5
 21
-17.0
 31
0.0
  0
LINE
  8
LY_3
  6
CONTINUOUS
 62
               3
  5
14F
 10
228.00000042810166
 20
-16.499996591080162
 30
0.0
 11
228.5000010010433
 21
-16.999997121874912
 31
0.0
  0
LINE
  8
LY_3
  6
CONTINUOUS
 62
               3
  5
150
 10
191.99999677335325
 20
-15.499998725922978
 30
0.0
 11
197.67126294524621
 21
-16.499995995700601
 31
0.0
  0
LINE
  8
LY_3
  6
CONTINUOUS
 62
               3
  5
151
 10
192.0
 20
-15.5
 30
0.0
 11
192.0
 21
0.0
 31
0.0
  0
LINE
  8
LY_3
  6
CONTINUOUS
 62
               3
  5
152
 10
192.00000002590735
 20
15.50000018199421
 30
0.0
 11
197.67128873826044
 21
16.500001426263225
 31
0.0
  0
LINE
  8
LY_3
  6
CONTINUOUS
 62
               3
  5
153
 10
114.19999694824219
 20
99.0
 30
0.0
 11
114.19999694824219
 21
81.0
 31
0.0
  0
LINE
  8
LY_3
  6
CONTINUOUS
 62
               3
  5
154
 10
112.19999694824219
 20
99.0
 30
0.0
 11
112.19999694824219
 21
81.0
 31
0.0
  0
LINE
  8
LY_3
  6
CONTINUOUS
 62
               3
  5
155
 10
111.19999694824219
 20
99.0
 30
0.0
 11
111.19999694824219
 21
81.0
 31
0.0
  0
LINE
  8
LY_3
  6
CONTINUOUS
 62
               3
  5
156
 10
110.44999694824219
 20
99.0
 30
0.0
 11
110.44999694824219
 21
81.0
 31
0.0
  0
LINE
  8
LY_3
  6
CONTINUOUS
 62
               3
  5
157
 10
108.19999694824219
 20
99.0
 30
0.0
 11
108.19999694824219
 21
81.0
 31
0.0
  0
LINE
  8
LY_3
  6
CONTINUOUS
 62
               3
  5
158
 10
114.19999694824219
 20
-9.0
 30
0.0
 11
130.0
 21
-9.0
 31
0.0
  0
LINE
  8
LY_3
  6
CONTINUOUS
 62
               3
  5
159
 10
110.19999694824219
 20
-9.0
 30
0.0
 11
111.19999694824219
 21
-9.0
 31
0.0
  0
LINE
  8
LY_3
  6
CONTINUOUS
 62
               3
  5
15A
 10
114.19999694824219
 20
9.0
 30
0.0
 11
130.0
 21
9.0
 31
0.0
  0
LINE
  8
LY_3
  6
CONTINUOUS
 62
               3
  5
15B
 10
110.19999694824219
 20
9.0
 30
0.0
 11
111.19999694824219
 21
9.0
 31
0.0
  0
LINE
  8
LY_3
  6
CONTINUOUS
 62
               3
  5
15C
 10
133.39999961853027
 20
-11.0
 30
0.0
 11
133.39999961853027
 21
-12.0
 31
0.0
  0
LINE
  8
LY_3
  6
CONTINUOUS
 62
               3
  5
15D
 10
133.39999961853027
 20
12.0
 30
0.0
 11
133.39999961853027
 21
11.0
 31
0.0
  0
LINE
  8
LY_3
  6
CONTINUOUS
 62
               3
  5
15E
 10
135.39999964850495
 20
-11.000000627344434
 30
0.0
 11
134.39999993561457
 21
-10.000000914454063
 31
0.0
  0
LINE
  8
LY_3
  6
CONTINUOUS
 62
               3
  5
15F
 10
134.39999993561457
 20
-10.000000914454063
 30
0.0
 11
133.39999887402507
 21
-11.000001976043563
 31
0.0
  0
LINE
  8
LY_3
  6
CONTINUOUS
 62
               3
  5
160
 10
134.39999858691544
 20
10.000000086849013
 30
0.0
 11
133.4000002227242
 21
10.999998451040256
 31
0.0
  0
LINE
  8
LY_3
  6
CONTINUOUS
 62
               3
  5
161
 10
135.39999964850495
 20
11.000001148438514
 30
0.0
 11
134.39999858691544
 21
10.000000086849013
 31
0.0
  0
LINE
  8
LY_3
  6
CONTINUOUS
 62
               3
  5
162
 10
139.0
 20
-11.0
 30
0.0
 11
139.0
 21
-9.0
 31
0.0
  0
LINE
  8
LY_3
  6
CONTINUOUS
 62
               3
  5
163
 10
138.99999943993276
 20
-8.9999993140272068
 30
0.0
 11
137.50000065137348
 21
-7.4761529377600766
 31
0.0
  0
LINE
  8
LY_3
  6
CONTINUOUS
 62
               3
  5
164
 10
137.5
 20
-7.4761524200439453
 30
0.0
 11
137.5
 21
-3.9770126342773438
 31
0.0
  0
LINE
  8
LY_3
  6
CONTINUOUS
 62
               3
  5
165
 10
136.00000043131652
 20
-8.9999985885386593
 30
0.0
 11
137.49999955438105
 21
-7.4761518724481846
 31
0.0
  0
LINE
  8
LY_3
  6
CONTINUOUS
 62
               3
  5
166
 10
139.0000002881616
 20
9.0000001111335735
 30
0.0
 11
137.4999998270761
 21
7.4761520357497204
 31
0.0
  0
LINE
  8
LY_3
  6
CONTINUOUS
 62
               3
  5
167
 10
136.00000027337057
 20
9.0000014033126945
 30
0.0
 11
137.50000173797181
 21
7.4761523084588077
 31
0.0
  0
LINE
  8
LY_3
  6
CONTINUOUS
 62
               3
  5
168
 10
137.5
 20
7.4761524200439453
 30
0.0
 11
137.5
 21
3.9770126342773438
 31
0.0
  0
LINE
  8
LY_3
  6
CONTINUOUS
 62
               3
  5
169
 10
136.0
 20
11.0
 30
0.0
 11
136.0
 21
3.0
 31
0.0
  0
LINE
  8
LY_3
  6
CONTINUOUS
 62
               3
  5
16A
 10
139.0
 20
11.0
 30
0.0
 11
139.0
 21
9.0
 31
0.0
  0
LINE
  8
LY_3
  6
CONTINUOUS
 62
               3
  5
16B
 10
1.4578817978363077
 20
-5.3251519992427347
 30
0.0
 11
2.8527260192904578
 21
-7.74109272808073
 31
0.0
  0
LINE
  8
LY_3
  6
CONTINUOUS
 62
               3
  5
16C
 10
-2.8527428767233687
 20
-7.7410862073488715
 30
0.0
 11
-1.457902469966939
 21
-5.3251520857602372
 31
0.0
  0
LINE
  8
LY_3
  6
CONTINUOUS
 62
               3
  5
16D
 10
125.69999694824219
 20
-12.0
 30
0.0
 11
143.2348165512085
 21
-12.0
 31
0.0
  0
LINE
  8
LY_3
  6
CONTINUOUS
 62
             110
  5
16E
 10
127.0
 20
11.5
 30
0.0
 11
130.0
 21
11.5
 31
0.0
  0
LINE
  8
LY_3
  6
CONTINUOUS
 62
             110
  5
16F
 10
127.0
 20
-11.5
 30
0.0
 11
130.0
 21
-11.5
 31
0.0
  0
LINE
  8
LY_3
  6
CONTINUOUS
 62
               3
  5
170
 10
127.0
 20
12.0
 30
0.0
 11
127.0
 21
9.0
 31
0.0
  0
LINE
  8
LY_3
  6
CONTINUOUS
 62
               3
  5
171
 10
130.0
 20
12.0
 30
0.0
 11
130.0
 21
9.0
 31
0.0
  0
LINE
  8
LY_3
  6
CONTINUOUS
 62
               3
  5
172
 10
127.0
 20
11.099998474121094
 30
0.0
 11
130.0
 21
11.099998474121094
 31
0.0
  0
LINE
  8
LY_3
  6
CENTER
 62
             110
  5
173
 10
125.21114349365234
 20
10.5
 30
0.0
 11
130.75840759277344
 21
10.5
 31
0.0
  0
LINE
  8
LY_3
  6
CONTINUOUS
 62
               3
  5
174
 10
127.0
 20
9.9000015258789062
 30
0.0
 11
130.0
 21
9.9000015258789062
 31
0.0
  0
LINE
  8
LY_3
  6
CONTINUOUS
 62
               3
  5
175
 10
130.0
 20
-9.0
 30
0.0
 11
130.0
 21
-12.0
 31
0.0
  0
LINE
  8
LY_3
  6
CONTINUOUS
 62
               3
  5
176
 10
127.0
 20
-9.0
 30
0.0
 11
127.0
 21
-12.052001953125
 31
0.0
  0
LINE
  8
LY_3
  6
CONTINUOUS
 62
               3
  5
177
 10
127.0
 20
-9.8999996185302734
 30
0.0
 11
130.0
 21
-9.8999996185302734
 31
0.0
  0
LINE
  8
LY_3
  6
CENTER
 62
             110
  5
178
 10
125.21114349365234
 20
-10.5
 30
0.0
 11
130.75840759277344
 21
-10.5
 31
0.0
  0
LINE
  8
LY_3
  6
CONTINUOUS
 62
               3
  5
179
 10
127.0
 20
-11.100000381469727
 30
0.0
 11
130.0
 21
-11.100000381469727
 31
0.0
  0
LINE
  8
LY_3
  6
CONTINUOUS
 62
             110
  5
17A
 10
130.0
 20
-11.5
 30
0.0
 11
133.69999694824219
 21
-11.5
 31
0.0
  0
LINE
  8
LY_3
  6
CONTINUOUS
 62
             110
  5
17B
 10
130.0
 20
11.5
 30
0.0
 11
133.69999694824219
 21
11.5
 31
0.0
  0
LINE
  8
LY_3
  6
CONTINUOUS
 62
               3
  5
17C
 10
-2.2360687255859375
 20
2.0
 30
0.0
 11
2.2360687255859375
 21
2.0
 31
0.0
  0
LINE
  8
LY_3
  6
CENTER
 62
             110
  5
17D
 10
5.2500020787774702
 20
9.0932653621266581
 30
0.0
 11
8.2500024364053388
 21
14.289417691571543
 31
0.0
  0
LINE
  8
LY_3
  6
CENTER
 62
             110
  5
17E
 10
-8.2500165597443811
 20
-14.289419098229246
 30
0.0
 11
-5.2500162021165124
 21
-9.0932667687843605
 31
0.0
  0
LINE
  8
LY_3
  6
CENTER
 62
             110
  5
17F
 10
5.2499993446836015
 20
-9.0932732895162189
 30
0.0
 11
8.2499997023114702
 21
-14.289425618961104
 31
0.0
  0
LINE
  8
LY_3
  6
CENTER
 62
             110
  5
180
 10
-8.2500060793395278
 20
14.289418800235126
 30
0.0
 11
-5.2500057217116591
 21
9.0932664707902404
 31
0.0
  0
LINE
  8
LY_3
  6
CENTER
 62
             110
  5
181
 10
46.208389282226562
 20
0.0
 30
0.0
 11
266.23340606689453
 21
0.0
 31
0.0
  0
LINE
  8
LY_3
  6
CENTER
 62
             110
  5
182
 10
0.0
 20
21.863227844238281
 30
0.0
 11
0.0
 21
-22.059089660644531
 31
0.0
  0
LINE
  8
LY_3
  6
CONTINUOUS
 62
               3
  5
183
 10
262.19999694824219
 20
96.0
 30
0.0
 11
256.69999694824219
 21
96.0
 31
0.0
  0
LINE
  8
LY_3
  6
CONTINUOUS
 62
               3
  5
184
 10
262.19999694824219
 20
96.5
 30
0.0
 11
256.69999694824219
 21
96.5
 31
0.0
  0
LINE
  8
LY_3
  6
CONTINUOUS
 62
               3
  5
185
 10
262.19999694824219
 20
96.800003051757813
 30
0.0
 11
256.69999694824219
 21
96.800003051757813
 31
0.0
  0
LINE
  8
LY_3
  6
CONTINUOUS
 62
               3
  5
186
 10
262.19999694824219
 20
84.699996948242188
 30
0.0
 11
256.69999694824219
 21
84.699996948242188
 31
0.0
  0
LINE
  8
LY_3
  6
CONTINUOUS
 62
               3
  5
187
 10
262.19999694824219
 20
84.0
 30
0.0
 11
256.69999694824219
 21
84.0
 31
0.0
  0
LINE
  8
LY_3
  6
CONTINUOUS
 62
               3
  5
188
 10
262.19999694824219
 20
83.5
 30
0.0
 11
256.69999694824219
 21
83.5
 31
0.0
  0
LINE
  8
LY_3
  6
CONTINUOUS
 62
               3
  5
189
 10
262.19999694824219
 20
83.199996948242187
 30
0.0
 11
256.69999694824219
 21
83.199996948242187
 31
0.0
  0
LINE
  8
LY_3
  6
CONTINUOUS
 62
               3
  5
18A
 10
256.19999694824219
 20
86.0
 30
0.0
 11
255.69999694824219
 21
86.0
 31
0.0
  0
LINE
  8
LY_3
  6
CONTINUOUS
 62
               3
  5
18B
 10
256.19999694824219
 20
94.0
 30
0.0
 11
255.69999694824219
 21
94.0
 31
0.0
  0
LINE
  8
LY_3
  6
CONTINUOUS
 62
               3
  5
18C
 10
262.20000496838395
 20
97.000006381272669
 30
0.0
 11
262.7000054991787
 21
96.500005808331025
 31
0.0
  0
LINE
  8
LY_3
  6
CONTINUOUS
 62
               3
  5
18D
 10
256.19999427879429
 20
96.499999338790076
 30
0.0
 11
256.69999485173594
 21
96.999999869584826
 31
0.0
  0
LINE
  8
LY_3
  6
CONTINUOUS
 62
               3
  5
18E
 10
262.1999999950558
 20
82.999998683983449
 30
0.0
 11
262.70000052585056
 21
83.499999256925094
 31
0.0
  0
LINE
  8
LY_3
  6
CONTINUOUS
 62
               3
  5
18F
 10
256.20000144375899
 20
83.500001680368996
 30
0.0
 11
256.70000201670064
 21
83.000001149574246
 31
0.0
  0
LINE
  8
LY_3
  6
CONTINUOUS
 62
               3
  5
190
 10
262.19999694824219
 20
97.0
 30
0.0
 11
256.69999694824219
 21
97.0
 31
0.0
  0
LINE
  8
LY_3
  6
CONTINUOUS
 62
               3
  5
191
 10
262.19999694824219
 20
83.0
 30
0.0
 11
256.69999694824219
 21
83.0
 31
0.0
  0
LINE
  8
LY_3
  6
CONTINUOUS
 62
               3
  5
192
 10
256.69999694824219
 20
83.0
 30
0.0
 11
256.69999694824219
 21
97.0
 31
0.0
  0
LINE
  8
LY_3
  6
CONTINUOUS
 62
               3
  5
193
 10
262.19999694824219
 20
83.0
 30
0.0
 11
262.19999694824219
 21
97.0
 31
0.0
  0
LINE
  8
LY_3
  6
CONTINUOUS
 62
               3
  5
194
 10
256.19999694824219
 20
83.5
 30
0.0
 11
256.19999694824219
 21
96.5
 31
0.0
  0
LINE
  8
LY_3
  6
CONTINUOUS
 62
               3
  5
195
 10
262.69999694824219
 20
83.5
 30
0.0
 11
262.69999694824219
 21
96.5
 31
0.0
  0
LINE
  8
LY_3
  6
CONTINUOUS
 62
               3
  5
196
 10
262.19999694824219
 20
95.300003051757813
 30
0.0
 11
256.69999694824219
 21
95.300003051757813
 31
0.0
  0
LINE
  8
LY_3
  6
CONTINUOUS
 62
               3
  5
197
 10
126.19999694824219
 20
103.5
 30
0.0
 11
126.19999694824219
 21
76.5
 31
0.0
  0
LINE
  8
LY_3
  6
CONTINUOUS
 62
               3
  5
198
 10
172.0
 20
95.0
 30
0.0
 11
172.0
 21
90.0
 31
0.0
  0
LINE
  8
LY_3
  6
CONTINUOUS
 62
               3
  5
199
 10
173.0
 20
93.0
 30
0.0
 11
173.0
 21
90.0
 31
0.0
  0
LINE
  8
LY_3
  6
CONTINUOUS
 62
               3
  5
19A
 10
174.0
 20
93.0
 30
0.0
 11
174.0
 21
90.0
 31
0.0
  0
LINE
  8
LY_3
  6
CONTINUOUS
 62
               3
  5
19B
 10
175.0
 20
93.0
 30
0.0
 11
175.0
 21
90.0
 31
0.0
  0
LINE
  8
LY_3
  6
CONTINUOUS
 62
               3
  5
19C
 10
176.0
 20
93.0
 30
0.0
 11
176.0
 21
90.0
 31
0.0
  0
LINE
  8
LY_3
  6
CONTINUOUS
 62
               3
  5
19D
 10
177.0
 20
95.0
 30
0.0
 11
177.0
 21
90.0
 31
0.0
  0
LINE
  8
LY_3
  6
CONTINUOUS
 62
               3
  5
19E
 10
178.0
 20
93.0
 30
0.0
 11
178.0
 21
90.0
 31
0.0
  0
LINE
  8
LY_3
  6
CONTINUOUS
 62
               3
  5
19F
 10
179.0
 20
93.0
 30
0.0
 11
179.0
 21
90.0
 31
0.0
  0
LINE
  8
LY_3
  6
CONTINUOUS
 62
               3
  5
1A0
 10
180.0
 20
93.0
 30
0.0
 11
180.0
 21
90.0
 31
0.0
  0
LINE
  8
LY_3
  6
CONTINUOUS
 62
               3
  5
1A1
 10
181.0
 20
93.0
 30
0.0
 11
181.0
 21
90.0
 31
0.0
  0
LINE
  8
LY_3
  6
CONTINUOUS
 62
               3
  5
1A2
 10
182.0
 20
95.0
 30
0.0
 11
182.0
 21
90.0
 31
0.0
  0
LINE
  8
LY_3
  6
CONTINUOUS
 62
               3
  5
1A3
 10
171.0
 20
93.0
 30
0.0
 11
171.0
 21
90.0
 31
0.0
  0
LINE
  8
LY_3
  6
CONTINUOUS
 62
               3
  5
1A4
 10
183.0
 20
93.0
 30
0.0
 11
183.0
 21
90.0
 31
0.0
  0
LINE
  8
LY_3
  6
CONTINUOUS
 62
               3
  5
1A5
 10
184.0
 20
93.0
 30
0.0
 11
184.0
 21
90.0
 31
0.0
  0
LINE
  8
LY_3
  6
CONTINUOUS
 62
               3
  5
1A6
 10
185.0
 20
93.0
 30
0.0
 11
185.0
 21
90.0
 31
0.0
  0
LINE
  8
LY_3
  6
CONTINUOUS
 62
               3
  5
1A7
 10
186.0
 20
93.0
 30
0.0
 11
186.0
 21
90.0
 31
0.0
  0
LINE
  8
LY_3
  6
CONTINUOUS
 62
               3
  5
1A8
 10
135.39999961853027
 20
-11.0
 30
0.0
 11
136.0
 21
-11.0
 31
0.0
  0
LINE
  8
LY_3
  6
CONTINUOUS
 62
               3
  5
1A9
 10
135.39999961853027
 20
11.0
 30
0.0
 11
136.0
 21
11.0
 31
0.0
  0
LINE
  8
LY_3
  6
CONTINUOUS
 62
               3
  5
1AA
 10
133.69999694824219
 20
-12.0
 30
0.0
 11
133.69999694824219
 21
-10.700002670288086
 31
0.0
  0
LINE
  8
LY_3
  6
CONTINUOUS
 62
               3
  5
1AB
 10
125.69999579533975
 20
-13.000001886513164
 30
0.0
 11
126.19999636828139
 21
-13.500002417307915
 31
0.0
  0
LINE
  8
LY_3
  6
CONTINUOUS
 62
               3
  5
1AC
 10
125.69999694824219
 20
-13.0
 30
0.0
 11
125.69999694824219
 21
-9.0
 31
0.0
  0
LINE
  8
LY_3
  6
CONTINUOUS
 62
               3
  5
1AD
 10
125.69999373014434
 20
13.000005737208426
 30
0.0
 11
126.19999295438674
 21
13.500004919304047
 31
0.0
  0
LINE
  8
LY_3
  6
CONTINUOUS
 62
               3
  5
1AE
 10
133.69999694824219
 20
12.0
 30
0.0
 11
133.69999694824219
 21
10.700002670288086
 31
0.0
  0
LINE
  8
LY_3
  6
CONTINUOUS
 62
               3
  5
1AF
 10
125.69999694824219
 20
13.0
 30
0.0
 11
125.69999694824219
 21
9.0
 31
0.0
  0
LINE
  8
LY_3
  6
CONTINUOUS
 62
             110
  5
1B0
 10
106.99999919874745
 20
-3.0000036706026094
 30
0.0
 11
103.9999994497266
 21
-8.0000034840052194
 31
0.0
  0
LINE
  8
LY_3
  6
CONTINUOUS
 62
             110
  5
1B1
 10
104.0000023732506
 20
-2.9999985718131938
 30
0.0
 11
107.00000015962598
 21
-7.9999951141398924
 31
0.0
  0
LINE
  8
LY_3
  6
CONTINUOUS
 62
             110
  5
1B2
 10
107.0000030013731
 20
3.0000023777683964
 30
0.0
 11
104.00000178036817
 21
8.00000464447794
 31
0.0
  0
LINE
  8
LY_3
  6
CONTINUOUS
 62
             110
  5
1B3
 10
104.00000020616289
 20
2.9999962976562529
 30
0.0
 11
107.00000093650647
 21
7.9999977465968186
 31
0.0
  0
LINE
  8
LY_3
  6
CONTINUOUS
 62
               3
  5
1B4
 10
104.0
 20
8.0
 30
0.0
 11
107.0
 21
8.0
 31
0.0
  0
LINE
  8
LY_3
  6
CONTINUOUS
 62
               3
  5
1B5
 10
104.0
 20
-8.0
 30
0.0
 11
107.0
 21
-8.0
 31
0.0
  0
LINE
  8
LY_3
  6
CONTINUOUS
 62
               3
  5
1B6
 10
101.19999694824219
 20
-8.0
 30
0.0
 11
103.19999694824219
 21
-8.0
 31
0.0
  0
LINE
  8
LY_3
  6
CONTINUOUS
 62
               3
  5
1B7
 10
101.19999694824219
 20
8.0
 30
0.0
 11
103.19999694824219
 21
8.0
 31
0.0
  0
LINE
  8
LY_3
  6
CONTINUOUS
 62
               3
  5
1B8
 10
130.0
 20
-5.0
 30
0.0
 11
136.0
 21
-5.0
 31
0.0
  0
LINE
  8
LY_3
  6
CONTINUOUS
 62
               3
  5
1B9
 10
130.0
 20
5.0
 30
0.0
 11
136.0
 21
5.0
 31
0.0
  0
LINE
  8
LY_3
  6
CONTINUOUS
 62
             110
  5
1BA
 10
59.999996918258148
 20
88.399998770870297
 30
0.0
 11
50.000000932541298
 21
91.599997286037251
 31
0.0
  0
LINE
  8
LY_3
  6
CONTINUOUS
 62
             110
  5
1BB
 10
49.999998425626472
 20
88.400006153552567
 30
0.0
 11
59.999994411343323
 21
91.600004668719521
 31
0.0
  0
LINE
  8
LY_3
  6
CONTINUOUS
 62
               3
  5
1BC
 10
50.5
 20
88.400001525878906
 30
0.0
 11
50.5
 21
87.0
 31
0.0
  0
LINE
  8
LY_3
  6
CONTINUOUS
 62
               3
  5
1BD
 10
50.0
 20
88.400001525878906
 30
0.0
 11
60.0
 21
88.400001525878906
 31
0.0
  0
LINE
  8
LY_3
  6
CONTINUOUS
 62
               3
  5
1BE
 10
49.999990673567027
 20
92.500007660622146
 30
0.0
 11
50.499991246508671
 21
93.000008191416896
 31
0.0
  0
LINE
  8
LY_3
  6
CONTINUOUS
 62
               3
  5
1BF
 10
60.0
 20
91.599998474121094
 30
0.0
 11
60.0
 21
88.400001525878906
 31
0.0
  0
LINE
  8
LY_3
  6
CENTER
 62
             110
  5
1C0
 10
193.90583038330078
 20
90.0
 30
0.0
 11
266.04067993164062
 21
90.0
 31
0.0
  0
LINE
  8
LY_3
  6
CONTINUOUS
 62
               3
  5
1C1
 10
171.0
 20
90.0
 30
0.0
 11
192.0
 21
90.0
 31
0.0
  0
LINE
  8
LY_3
  6
CONTINUOUS
 62
               3
  5
1C2
 10
187.0
 20
95.0
 30
0.0
 11
187.0
 21
90.0
 31
0.0
  0
LINE
  8
LY_3
  6
CONTINUOUS
 62
               3
  5
1C3
 10
188.0
 20
93.0
 30
0.0
 11
188.0
 21
90.0
 31
0.0
  0
LINE
  8
LY_3
  6
CONTINUOUS
 62
               3
  5
1C4
 10
189.0
 20
93.0
 30
0.0
 11
189.0
 21
90.0
 31
0.0
  0
LINE
  8
LY_3
  6
CONTINUOUS
 62
               3
  5
1C5
 10
190.0
 20
93.0
 30
0.0
 11
190.0
 21
90.0
 31
0.0
  0
LINE
  8
LY_3
  6
CONTINUOUS
 62
               3
  5
1C6
 10
191.0
 20
93.0
 30
0.0
 11
191.0
 21
90.0
 31
0.0
  0
LINE
  8
LY_3
  6
CONTINUOUS
 62
               3
  5
1C7
 10
106.39999389648437
 20
106.90000152587891
 30
0.0
 11
106.39999389648437
 21
73.099967956542969
 31
0.0
  0
LINE
  8
LY_3
  6
CONTINUOUS
 62
               3
  5
1C8
 10
100.80000305175781
 20
106.90000152587891
 30
0.0
 11
100.80000305175781
 21
73.099998474121094
 31
0.0
  0
LINE
  8
LY_3
  6
CENTER
 62
             110
  5
1C9
 10
-19.90765380859375
 20
0.0
 30
0.0
 11
21.774993896484375
 21
0.0
 31
0.0
  0
LINE
  8
LY_3
  6
CONTINUOUS
 62
               3
  5
1CA
 10
262.19999694824219
 20
-13.299999237060547
 30
0.0
 11
256.69999694824219
 21
-13.299999237060547
 31
0.0
  0
LINE
  8
LY_3
  6
CONTINUOUS
 62
               3
  5
1CB
 10
262.19999694824219
 20
-14.0
 30
0.0
 11
256.69999694824219
 21
-14.0
 31
0.0
  0
LINE
  8
LY_3
  6
CONTINUOUS
 62
               3
  5
1CC
 10
262.19999694824219
 20
-14.5
 30
0.0
 11
256.69999694824219
 21
-14.5
 31
0.0
  0
LINE
  8
LY_3
  6
CONTINUOUS
 62
               3
  5
1CD
 10
262.19999694824219
 20
-14.799999237060547
 30
0.0
 11
256.69999694824219
 21
-14.799999237060547
 31
0.0
  0
LINE
  8
LY_3
  6
CONTINUOUS
 62
               3
  5
1CE
 10
262.19999694824219
 20
-2.7000007629394531
 30
0.0
 11
256.69999694824219
 21
-2.7000007629394531
 31
0.0
  0
LINE
  8
LY_3
  6
CONTINUOUS
 62
               3
  5
1CF
 10
262.19999694824219
 20
-2.0
 30
0.0
 11
256.69999694824219
 21
-2.0
 31
0.0
  0
LINE
  8
LY_3
  6
CONTINUOUS
 62
               3
  5
1D0
 10
262.19999694824219
 20
-1.5
 30
0.0
 11
256.69999694824219
 21
-1.5
 31
0.0
  0
LINE
  8
LY_3
  6
CONTINUOUS
 62
               3
  5
1D1
 10
262.19999694824219
 20
-1.2000007629394531
 30
0.0
 11
256.69999694824219
 21
-1.2000007629394531
 31
0.0
  0
LINE
  8
LY_3
  6
CONTINUOUS
 62
               3
  5
1D2
 10
256.19999694824219
 20
-4.0
 30
0.0
 11
255.69999694824219
 21
-4.0
 31
0.0
  0
LINE
  8
LY_3
  6
CONTINUOUS
 62
               3
  5
1D3
 10
256.19999694824219
 20
-12.0
 30
0.0
 11
255.69999694824219
 21
-12.0
 31
0.0
  0
LINE
  8
LY_3
  6
CONTINUOUS
 62
               3
  5
1D4
 10
255.69999694824219
 20
-12.5
 30
0.0
 11
254.69999694824219
 21
-12.5
 31
0.0
  0
LINE
  8
LY_3
  6
CONTINUOUS
 62
               3
  5
1D5
 10
255.69999694824219
 20
-3.5
 30
0.0
 11
254.69999694824219
 21
-3.5
 31
0.0
  0
LINE
  8
LY_3
  6
CONTINUOUS
 62
               3
  5
1D6
 10
255.69999694824219
 20
-3.5
 30
0.0
 11
255.69999694824219
 21
-12.5
 31
0.0
  0
LINE
  8
LY_3
  6
CONTINUOUS
 62
               3
  5
1D7
 10
262.19999603325164
 20
-14.999998888850314
 30
0.0
 11
262.69999656404639
 21
-14.49999831590867
 31
0.0
  0
LINE
  8
LY_3
  6
CONTINUOUS
 62
               3
  5
1D8
 10
256.19999478455679
 20
-14.500003984659998
 30
0.0
 11
256.69999535749844
 21
-15.000004515454748
 31
0.0
  0
LINE
  8
LY_3
  6
CONTINUOUS
 62
               3
  5
1D9
 10
262.20000218669156
 20
-1.0000060272518567
 30
0.0
 11
262.70000271748631
 21
-1.5000066001935011
 31
0.0
  0
LINE
  8
LY_3
  6
CONTINUOUS
 62
               3
  5
1DA
 10
256.20000093799672
 20
-1.5000009314421732
 30
0.0
 11
256.70000151093836
 21
-1.0000004006474228
 31
0.0
  0
LINE
  8
LY_3
  6
CONTINUOUS
 62
               3
  5
1DB
 10
262.19999694824219
 20
-15.0
 30
0.0
 11
256.69999694824219
 21
-15.0
 31
0.0
  0
LINE
  8
LY_3
  6
CONTINUOUS
 62
               3
  5
1DC
 10
262.19999694824219
 20
-1.0
 30
0.0
 11
256.69999694824219
 21
-1.0
 31
0.0
  0
LINE
  8
LY_3
  6
CONTINUOUS
 62
               3
  5
1DD
 10
256.69999694824219
 20
-1.0
 30
0.0
 11
256.69999694824219
 21
-15.0
 31
0.0
  0
LINE
  8
LY_3
  6
CONTINUOUS
 62
               3
  5
1DE
 10
262.19999694824219
 20
-1.0
 30
0.0
 11
262.19999694824219
 21
-15.0
 31
0.0
  0
LINE
  8
LY_3
  6
CONTINUOUS
 62
               3
  5
1DF
 10
256.19999694824219
 20
-1.5000019073486328
 30
0.0
 11
256.19999694824219
 21
-14.5
 31
0.0
  0
LINE
  8
LY_3
  6
CONTINUOUS
 62
               3
  5
1E0
 10
262.69999694824219
 20
-1.4999961853027344
 30
0.0
 11
262.69999694824219
 21
-14.500001907348633
 31
0.0
  0
LINE
  8
LY_3
  6
CONTINUOUS
 62
               3
  5
1E1
 10
254.69999694824219
 20
-3.5
 30
0.0
 11
254.69999694824219
 21
-12.5
 31
0.0
  0
LINE
  8
LY_3
  6
CONTINUOUS
 62
               3
  5
1E2
 10
254.69999694824219
 20
-9.0
 30
0.0
 11
252.0
 21
-9.0
 31
0.0
  0
LINE
  8
LY_3
  6
CONTINUOUS
 62
               3
  5
1E3
 10
254.69999694824219
 20
-7.0
 30
0.0
 11
252.0
 21
-7.0
 31
0.0
  0
LINE
  8
LY_3
  6
CONTINUOUS
 62
               3
  5
1E4
 10
254.69999694824219
 20
-6.5
 30
0.0
 11
252.0
 21
-6.5
 31
0.0
  0
LINE
  8
LY_3
  6
CONTINUOUS
 62
               3
  5
1E5
 10
254.69999694824219
 20
-9.5
 30
0.0
 11
252.0
 21
-9.5
 31
0.0
  0
LINE
  8
LY_3
  6
CENTER
 62
             110
  5
1E6
 10
264.86941528320312
 20
-8.0
 30
0.0
 11
250.75412750244141
 21
-8.0
 31
0.0
  0
LINE
  8
LY_3
  6
CONTINUOUS
 62
               3
  5
1E7
 10
126.19999694824219
 20
-13.5
 30
0.0
 11
192.0
 21
-13.5
 31
0.0
  0
LINE
  8
LY_3
  6
CONTINUOUS
 62
               3
  5
1E8
 10
126.19999694824219
 20
13.5
 30
0.0
 11
192.0
 21
13.5
 31
0.0
  0
LINE
  8
LY_3
  6
CONTINUOUS
 62
               3
  5
1E9
 10
49.999989493454905
 20
-2.4999967331050357
 30
0.0
 11
50.499990066396549
 21
-2.999997263899786
 31
0.0
  0
LINE
  8
LY_3
  6
CONTINUOUS
 62
               3
  5
1EA
 10
50.0
 20
2.0
 30
0.0
 11
50.0
 21
-2.5
 31
0.0
  0
LINE
  8
LY_3
  6
CONTINUOUS
 62
               3
  5
1EB
 10
50.5
 20
2.0
 30
0.0
 11
50.5
 21
-3.0
 31
0.0
  0
LINE
  8
LY_3
  6
CONTINUOUS
 62
               3
  5
1EC
 10
50.5
 20
-3.0
 30
0.0
 11
142.45614147186279
 21
-3.0
 31
0.0
  0
LINE
  8
LY_3
  6
CONTINUOUS
 62
               3
  5
1ED
 10
60.0
 20
3.0
 30
0.0
 11
145.23001098632812
 21
3.0
 31
0.0
  0
LINE
  8
LY_3
  6
CONTINUOUS
 62
               3
  5
1EE
 10
100.0
 20
-16.100000381469727
 30
0.0
 11
100.0
 21
-3.0
 31
0.0
  0
LINE
  8
LY_3
  6
CONTINUOUS
 62
               3
  5
1EF
 10
99.999968002512787
 20
-16.100017370523574
 30
0.0
 11
100.79996777282508
 21
-16.900017140835871
 31
0.0
  0
LINE
  8
LY_3
  6
CONTINUOUS
 62
               3
  5
1F0
 10
100.79999542236328
 20
-16.899999618530273
 30
0.0
 11
106.39999389648437
 21
-16.899999618530273
 31
0.0
  0
LINE
  8
LY_3
  6
CONTINUOUS
 62
               3
  5
1F1
 10
106.40001257707542
 20
-16.900017579191001
 30
0.0
 11
107.20001140329856
 21
-16.100016864789552
 31
0.0
  0
LINE
  8
LY_3
  6
CENTER
 62
             110
  5
1F2
 10
98.0
 20
-13.5
 30
0.0
 11
109.19999694824219
 21
-13.5
 31
0.0
  0
LINE
  8
LY_3
  6
CONTINUOUS
 62
               3
  5
1F3
 10
107.19999694824219
 20
-16.099998474121094
 30
0.0
 11
107.19999694824219
 21
-9.0
 31
0.0
  0
LINE
  8
LY_3
  6
CONTINUOUS
 62
               3
  5
1F4
 10
107.19999694824219
 20
-9.0
 30
0.0
 11
108.19999694824219
 21
-9.0
 31
0.0
  0
LINE
  8
LY_3
  6
CONTINUOUS
 62
               3
  5
1F5
 10
111.19999694824219
 20
-9.0
 30
0.0
 11
112.19999694824219
 21
-9.0
 31
0.0
  0
LINE
  8
LY_3
  6
CONTINUOUS
 62
               3
  5
1F6
 10
111.19999694824219
 20
9.0
 30
0.0
 11
112.19999694824219
 21
9.0
 31
0.0
  0
LINE
  8
LY_3
  6
CONTINUOUS
 62
               3
  5
1F7
 10
107.19999694824219
 20
9.0
 30
0.0
 11
108.19999694824219
 21
9.0
 31
0.0
  0
LINE
  8
LY_3
  6
CENTER
 62
             110
  5
1F8
 10
98.0
 20
13.5
 30
0.0
 11
109.19999694824219
 21
13.5
 31
0.0
  0
LINE
  8
LY_3
  6
CONTINUOUS
 62
               3
  5
1F9
 10
107.19999694824219
 20
16.099998474121094
 30
0.0
 11
107.19999694824219
 21
9.0
 31
0.0
  0
LINE
  8
LY_3
  6
CONTINUOUS
 62
               3
  5
1FA
 10
106.40001156555286
 20
16.900020123293189
 30
0.0
 11
107.200010391776
 21
16.10001940889174
 31
0.0
  0
LINE
  8
LY_3
  6
CONTINUOUS
 62
               3
  5
1FB
 10
100.79999542236328
 20
16.900001525878906
 30
0.0
 11
106.39999389648437
 21
16.900001525878906
 31
0.0
  0
LINE
  8
LY_3
  6
CONTINUOUS
 62
               3
  5
1FC
 10
99.999973397309304
 20
16.100023286414171
 30
0.0
 11
100.7999731676216
 21
16.900023056726468
 31
0.0
  0
LINE
  8
LY_3
  6
CONTINUOUS
 62
               3
  5
1FD
 10
100.0
 20
16.100002288818359
 30
0.0
 11
100.0
 21
3.0
 31
0.0
  0
LINE
  8
LY_3
  6
CONTINUOUS
 62
               3
  5
1FE
 10
255.69999694824219
 20
85.5
 30
0.0
 11
254.69999694824219
 21
85.5
 31
0.0
  0
LINE
  8
LY_3
  6
CONTINUOUS
 62
               3
  5
1FF
 10
255.69999694824219
 20
94.5
 30
0.0
 11
254.69999694824219
 21
94.5
 31
0.0
  0
LINE
  8
LY_3
  6
CONTINUOUS
 62
               3
  5
200
 10
255.69999694824219
 20
94.5
 30
0.0
 11
255.69999694824219
 21
85.5
 31
0.0
  0
LINE
  8
LY_3
  6
CONTINUOUS
 62
               3
  5
201
 10
254.69999694824219
 20
94.5
 30
0.0
 11
254.69999694824219
 21
85.5
 31
0.0
  0
LINE
  8
LY_3
  6
CONTINUOUS
 62
               3
  5
202
 10
60.0
 20
3.0
 30
0.0
 11
60.0
 21
2.0
 31
0.0
  0
LINE
  8
LY_3
  6
CONTINUOUS
 62
               3
  5
203
 10
50.0
 20
2.0
 30
0.0
 11
60.0
 21
2.0
 31
0.0
  0
LINE
  8
LY_3
  6
CONTINUOUS
 62
               3
  5
204
 10
49.999989746335928
 20
87.500009542926819
 30
0.0
 11
50.499990319277572
 21
87.000009012132068
 31
0.0
  0
LINE
  8
LY_3
  6
CONTINUOUS
 62
               3
  5
205
 10
50.5
 20
93.0
 30
0.0
 11
50.5
 21
91.599998474121094
 31
0.0
  0
LINE
  8
LY_3
  6
CONTINUOUS
 62
               3
  5
206
 10
107.0
 20
-7.4000015258789062
 30
0.0
 11
130.0
 21
-7.4000015258789062
 31
0.0
  0
LINE
  8
LY_3
  6
CONTINUOUS
 62
               3
  5
207
 10
107.0
 20
-8.0
 30
0.0
 11
107.0
 21
-3.0
 31
0.0
  0
LINE
  8
LY_3
  6
CONTINUOUS
 62
               3
  5
208
 10
103.19999694824219
 20
-8.4000015258789063
 30
0.0
 11
104.0
 21
-8.4000015258789063
 31
0.0
  0
LINE
  8
LY_3
  6
CONTINUOUS
 62
               3
  5
209
 10
103.19999694824219
 20
-6.9000015258789062
 30
0.0
 11
104.0
 21
-6.9000015258789062
 31
0.0
  0
LINE
  8
LY_3
  6
CONTINUOUS
 62
               3
  5
20A
 10
104.0
 20
-8.4000015258789063
 30
0.0
 11
104.0
 21
-3.0
 31
0.0
  0
LINE
  8
LY_3
  6
CONTINUOUS
 62
               3
  5
20B
 10
103.19999694824219
 20
-8.4000015258789063
 30
0.0
 11
103.19999694824219
 21
-3.0
 31
0.0
  0
LINE
  8
LY_3
  6
CONTINUOUS
 62
               3
  5
20C
 10
103.19999694824219
 20
6.9000015258789062
 30
0.0
 11
104.0
 21
6.9000015258789062
 31
0.0
  0
LINE
  8
LY_3
  6
CONTINUOUS
 62
               3
  5
20D
 10
103.19999694824219
 20
8.4000015258789063
 30
0.0
 11
103.19999694824219
 21
3.0
 31
0.0
  0
LINE
  8
LY_3
  6
CONTINUOUS
 62
               3
  5
20E
 10
103.19999694824219
 20
8.4000015258789063
 30
0.0
 11
104.0
 21
8.4000015258789063
 31
0.0
  0
LINE
  8
LY_3
  6
CONTINUOUS
 62
               3
  5
20F
 10
104.0
 20
8.4000015258789063
 30
0.0
 11
104.0
 21
3.0
 31
0.0
  0
LINE
  8
LY_3
  6
CONTINUOUS
 62
               3
  5
210
 10
107.0
 20
8.0
 30
0.0
 11
107.0
 21
3.0
 31
0.0
  0
LINE
  8
LY_3
  6
CONTINUOUS
 62
               3
  5
211
 10
125.69999255003222
 20
77.000005190308684
 30
0.0
 11
126.19999312297386
 21
76.500004659513934
 31
0.0
  0
LINE
  8
LY_3
  6
CONTINUOUS
 62
               3
  5
212
 10
125.69999347726298
 20
103.00000392104516
 30
0.0
 11
126.19999405020462
 21
103.50000445183991
 31
0.0
  0
LINE
  8
LY_3
  6
CONTINUOUS
 62
               3
  5
213
 10
125.69999694824219
 20
103.0
 30
0.0
 11
125.69999694824219
 21
77.0
 31
0.0
  0
LINE
  8
LY_3
  6
CONTINUOUS
 62
               3
  5
214
 10
130.0
 20
7.4000015258789062
 30
0.0
 11
130.0
 21
3.0
 31
0.0
  0
LINE
  8
LY_3
  6
CONTINUOUS
 62
               3
  5
215
 10
50.0
 20
92.5
 30
0.0
 11
50.0
 21
87.5
 31
0.0
  0
LINE
  8
LY_3
  6
CONTINUOUS
 62
               3
  5
216
 10
254.69999694824219
 20
89.0
 30
0.0
 11
252.198974609375
 21
89.0
 31
0.0
  0
LINE
  8
LY_3
  6
CONTINUOUS
 62
               3
  5
217
 10
254.69999694824219
 20
91.0
 30
0.0
 11
252.198974609375
 21
91.0
 31
0.0
  0
LINE
  8
LY_3
  6
CONTINUOUS
 62
               3
  5
218
 10
254.69999694824219
 20
91.5
 30
0.0
 11
252.06969451904297
 21
91.5
 31
0.0
  0
LINE
  8
LY_3
  6
CONTINUOUS
 62
               3
  5
219
 10
254.69999694824219
 20
88.5
 30
0.0
 11
252.06969451904297
 21
88.5
 31
0.0
  0
LINE
  8
LY_3
  6
CONTINUOUS
 62
               3
  5
21A
 10
126.19999694824219
 20
76.5
 30
0.0
 11
192.0
 21
76.5
 31
0.0
  0
LINE
  8
LY_3
  6
PHANTOM
 62
             110
  5
21C
 10
137.5
 20
-3.9770126342773438
 30
0.0
 11
142.08245372772217
 21
-3.9770126342773438
 31
0.0
  0
LINE
  8
LY_3
  6
PHANTOM
 62
             110
  5
21D
 10
139.0
 20
-10.975292205810547
 30
0.0
 11
142.6502857208252
 21
-10.975292205810547
 31
0.0
  0
LINE
  8
LY_3
  6
PHANTOM
 62
             110
  5
21E
 10
137.5
 20
3.9770126342773438
 30
0.0
 11
145.5518159866333
 21
3.9770126342773438
 31
0.0
  0
LINE
  8
LY_3
  6
PHANTOM
 62
             110
  5
21F
 10
139.0
 20
10.975292205810547
 30
0.0
 11
144.92083168029785
 21
10.975292205810547
 31
0.0
  0
LINE
  8
LY_3
  6
CONTINUOUS
 62
               3
  5
220
 10
126.19999694824219
 20
103.5
 30
0.0
 11
192.0
 21
103.5
 31
0.0
  0
LINE
  8
LY_3
  6
CONTINUOUS
 62
               3
  5
221
 10
125.69999694824219
 20
12.0
 30
0.0
 11
144.451003074646
 21
12.0
 31
0.0
  0
LINE
  8
LY_3
  6
CONTINUOUS
 62
               3
  5
222
 10
136.0
 20
-11.0
 30
0.0
 11
136.0
 21
-3.0
 31
0.0
  0
LINE
  8
LY_3
  6
CONTINUOUS
 62
               3
  5
223
 10
130.0
 20
-3.0
 30
0.0
 11
130.0
 21
-7.4000015258789062
 31
0.0
  0
LINE
  8
LY_3
  6
CONTINUOUS
 62
               3
  5
224
 10
111.19999694824219
 20
3.0
 30
0.0
 11
111.19999694824219
 21
9.0
 31
0.0
  0
LINE
  8
LY_3
  6
CONTINUOUS
 62
               3
  5
225
 10
50.499984741210938
 20
93.0
 30
0.0
 11
100.0
 21
93.0
 31
0.0
  0
LINE
  8
LY_3
  6
CONTINUOUS
 62
               3
  5
226
 10
50.5
 20
87.0
 30
0.0
 11
100.0
 21
87.0
 31
0.0
  0
LINE
  8
LY_3
  6
CONTINUOUS
 62
               3
  5
227
 10
107.0
 20
7.4000015258789062
 30
0.0
 11
130.0
 21
7.4000015258789062
 31
0.0
  0
LINE
  8
LY_3
  6
CONTINUOUS
 62
               3
  5
228
 10
107.19999694824219
 20
106.09999847412109
 30
0.0
 11
107.19999694824219
 21
73.899971008300781
 31
0.0
  0
LINE
  8
LY_3
  6
CONTINUOUS
 62
               3
  5
229
 10
101.19999694824219
 20
9.0975074768066406
 30
0.0
 11
101.19999694824219
 21
3.0
 31
0.0
  0
LINE
  8
LY_3
  6
CONTINUOUS
 62
               3
  5
22A
 10
100.5999972816777
 20
9.1500054830773934
 30
0.0
 11
101.1999927025314
 21
9.0975128203601798
 31
0.0
  0
LINE
  8
LY_3
  6
CONTINUOUS
 62
               3
  5
22B
 10
100.59999399975106
 20
9.1500024059211
 30
0.0
 11
101.0420322885808
 21
10.364493897683701
 31
0.0
  0
LINE
  8
LY_3
  6
CENTER
 62
             110
  5
22C
 10
98.0
 20
103.5
 30
0.0
 11
109.19999694824219
 21
103.5
 31
0.0
  0
LINE
  8
LY_3
  6
CONTINUOUS
 62
               3
  5
22D
 10
99.999970699911046
 20
106.10002442053019
 30
0.0
 11
100.79997047022334
 21
106.90002419084249
 31
0.0
  0
LINE
  8
LY_3
  6
CONTINUOUS
 62
               3
  5
22E
 10
106.40000853098002
 20
106.90001721144074
 30
0.0
 11
107.20001275199331
 21
106.10001110223641
 31
0.0
  0
LINE
  8
LY_3
  6
CONTINUOUS
 62
               3
  5
22F
 10
100.0
 20
11.299999237060547
 30
0.0
 11
107.19999694824219
 21
11.299999237060547
 31
0.0
  0
LINE
  8
LY_3
  6
CONTINUOUS
 62
               3
  5
230
 10
100.0
 20
15.700000762939453
 30
0.0
 11
107.19999694824219
 21
15.700000762939453
 31
0.0
  0
LINE
  8
LY_3
  6
CONTINUOUS
 62
               3
  5
231
 10
100.59999847412109
 20
9.1500015258789062
 30
0.0
 11
100.59999847412109
 21
3.0
 31
0.0
  0
LINE
  8
LY_3
  6
CONTINUOUS
 62
               3
  5
232
 10
100.0
 20
10.700000762939453
 30
0.0
 11
100.80711364746094
 21
10.700000762939453
 31
0.0
  0
LINE
  8
LY_3
  6
CONTINUOUS
 62
               3
  5
233
 10
100.79999542236328
 20
106.90000152587891
 30
0.0
 11
106.39999389648437
 21
106.90000152587891
 31
0.0
  0
LINE
  8
LY_3
  6
CONTINUOUS
 62
               3
  5
234
 10
107.19999694824219
 20
81.0
 30
0.0
 11
125.69999694824219
 21
81.0
 31
0.0
  0
LINE
  8
LY_3
  6
CONTINUOUS
 62
               3
  5
235
 10
107.19999694824219
 20
99.0
 30
0.0
 11
125.69999694824219
 21
99.0
 31
0.0
  0
LINE
  8
LY_3
  6
CONTINUOUS
 62
               3
  5
236
 10
111.19999694824219
 20
-9.0
 30
0.0
 11
111.19999694824219
 21
-3.0
 31
0.0
  0
LINE
  8
LY_3
  6
CONTINUOUS
 62
               3
  5
237
 10
101.19999694824219
 20
-9.0975074768066406
 30
0.0
 11
101.19999694824219
 21
-3.0
 31
0.0
  0
LINE
  8
LY_3
  6
CONTINUOUS
 62
               3
  5
238
 10
100.0
 20
73.900001525878906
 30
0.0
 11
100.0
 21
106.10003662109375
 31
0.0
  0
LINE
  8
LY_3
  6
CONTINUOUS
 62
               3
  5
239
 10
100.60000070481249
 20
-9.1500051097575579
 30
0.0
 11
101.19999612566619
 21
-9.0975124470403443
 31
0.0
  0
LINE
  8
LY_3
  6
CONTINUOUS
 62
               3
  5
23A
 10
100.59999756792347
 20
-9.1499970168183609
 30
0.0
 11
101.0420371614553
 21
-10.364492093224271
 31
0.0
  0
LINE
  8
LY_3
  6
CENTER
 62
             110
  5
23B
 10
98.0
 20
76.5
 30
0.0
 11
109.19999694824219
 21
76.5
 31
0.0
  0
LINE
  8
LY_3
  6
CONTINUOUS
 62
               3
  5
23C
 10
99.999977443406692
 20
73.899979717495057
 30
0.0
 11
100.79997181892247
 21
73.099985341979277
 31
0.0
  0
LINE
  8
LY_3
  6
CONTINUOUS
 62
               3
  5
23D
 10
106.40000549639922
 20
73.099984229391566
 30
0.0
 11
107.20000702001744
 21
73.899987641194457
 31
0.0
  0
LINE
  8
LY_3
  6
CONTINUOUS
 62
               3
  5
23E
 10
100.0
 20
-11.299999237060547
 30
0.0
 11
107.19999694824219
 21
-11.299999237060547
 31
0.0
  0
LINE
  8
LY_3
  6
CONTINUOUS
 62
               3
  5
23F
 10
100.0
 20
-15.700000762939453
 30
0.0
 11
107.19999694824219
 21
-15.700000762939453
 31
0.0
  0
LINE
  8
LY_3
  6
CONTINUOUS
 62
               3
  5
240
 10
100.59999847412109
 20
-9.1500015258789062
 30
0.0
 11
100.59999847412109
 21
-3.0
 31
0.0
  0
LINE
  8
LY_3
  6
CONTINUOUS
 62
               3
  5
241
 10
100.0
 20
-10.700000762939453
 30
0.0
 11
100.80711364746094
 21
-10.700000762939453
 31
0.0
  0
LINE
  8
LY_3
  6
CONTINUOUS
 62
               3
  5
242
 10
100.79999542236328
 20
73.099998474121094
 30
0.0
 11
106.39999389648437
 21
73.099998474121094
 31
0.0
  0
LINE
  8
LY_3
  6
CENTER
 62
             110
  5
243
 10
44.383682250976562
 20
90.0
 30
0.0
 11
170.66476631164551
 21
90.0
 31
0.0
  0
DIMENSION
  8
LY_3
  6
CONTINUOUS
 62
             110
  5
253
  2
*D11
 10
40.0
 20
2.0
 30
0.0
 11
40.0
 21
10.831250190734863
 31
0.0
 70
             128
  1
<>
 13
50.5
 23
-3.0
 33
0.0
 14
50.0
 24
2.0
 34
0.0
 50
90.0
  3
MXDIMSTYLE
1001
ACAD
1000
DSTYLE
1002
{
1070
              41
1040
2.77
1070
             140
1040
4.1999998092651367
1070
             271
1070
               4
1070
             284
1070
               8
1002
}
  0
DIMENSION
  8
LY_3
  6
CONTINUOUS
 62
             110
  5
260
  2
*D12
 10
270.0
 20
-8.0
 30
0.0
 11
270.0
 21
-3.1687500476837167
 31
0.0
 70
             128
  1
<>
 13
266.23340606689453
 23
-0.0000000000000009
 33
0.0
 14
264.86941528320312
 24
-8.0
 34
0.0
 50
90.0
  3
MXDIMSTYLE
1001
ACAD
1000
DSTYLE
1002
{
1070
              41
1040
2.77
1070
             140
1040
4.1999998092651367
1070
             271
1070
               4
1070
             284
1070
               8
1002
}
  0
ENDSEC
  0
EOF
