  0
SECTION
  2
HEADER
  9
$ACADVER
  1
AC1009
  9
$DWGCODEPAGE
  3
dos932
  9
$INSBASE
 10
0.0
 20
0.0
 30
0.0
  9
$EXTMIN
 10
-19.90765380859375
 20
-30.0
 30
0.0
  9
$EXTMAX
 10
245.77161306142807
 20
125.80000019073486
 30
0.0
  9
$LIMMIN
 10
-19.90765380859375
 20
-30.0
  9
$LIMMAX
 10
245.77161306142807
 20
125.80000019073486
  9
$ORTHOMODE
 70
               0
  9
$REGENMODE
 70
               1
  9
$FILLMODE
 70
               1
  9
$QTEXTMODE
 70
               0
  9
$MIRRTEXT
 70
               1
  9
$DRAGMODE
 70
               2
  9
$LTSCALE
 40
1.0
  9
$OSMODE
 70
               0
  9
$ATTMODE
 70
               1
  9
$TEXTSIZE
 40
3.2000000476837158
  9
$TRACEWID
 40
0.05
  9
$TEXTSTYLE
  7
MX_NOTE_STANDARD
  9
$CLAYER
  8
LY_3
  9
$CELTYPE
  6
CONTINUOUS
  9
$CECOLOR
 62
             256
  9
$DIMSCALE
 40
1.0
  9
$DIMASZ
 40
2.5
  9
$DIMEXO
 40
2.0
  9
$DIMDLI
 40
3.75
  9
$DIMRND
 40
0.0
  9
$DIMDLE
 40
0.0
  9
$DIMEXE
 40
1.0
  9
$DIMTP
 40
0.0
  9
$DIMTM
 40
0.0
  9
$DIMTXT
 40
4.1655998229980469
  9
$DIMCEN
 40
2.5
  9
$DIMTSZ
 40
0.0
  9
$DIMTOL
 70
               0
  9
$DIMLIM
 70
               0
  9
$DIMTIH
 70
               0
  9
$DIMTOH
 70
               0
  9
$DIMSE1
 70
               0
  9
$DIMSE2
 70
               0
  9
$DIMTAD
 70
               1
  9
$DIMZIN
 70
               8
  9
$DIMBLK
  1

  9
$DIMASO
 70
               1
  9
$DIMSHO
 70
               1
  9
$DIMPOST
  1

  9
$DIMAPOST
  1

  9
$DIMALT
 70
               0
  9
$DIMALTD
 70
               4
  9
$DIMALTF
 40
0.03937007874016
  9
$DIMLFAC
 40
1.0
  9
$DIMTOFL
 70
               1
  9
$DIMTVP
 40
0.0
  9
$DIMTIX
 70
               0
  9
$DIMSOXD
 70
               0
  9
$DIMSAH
 70
               1
  9
$DIMBLK1
  1
_OPEN30
  9
$DIMBLK2
  1
_OPEN30
  9
$DIMSTYLE
  2
MXDIMSTYLE
  9
$DIMCLRD
 70
               0
  9
$DIMCLRE
 70
               0
  9
$DIMCLRT
 70
               0
  9
$DIMTFAC
 40
1.0
  9
$DIMGAP
 40
1.0
  9
$LUNITS
 70
               2
  9
$LUPREC
 70
               4
  9
$AXISMODE
 70
               0
  9
$AXISUNIT
 10
0.0
 20
0.0
  9
$SKETCHINC
 40
0.1
  9
$FILLETRAD
 40
0.0
  9
$AUNITS
 70
               0
  9
$AUPREC
 70
               0
  9
$MENU
  1
acad
  9
$ELEVATION
 40
0.0
  9
$PELEVATION
 40
0.0
  9
$THICKNESS
 40
0.0
  9
$LIMCHECK
 70
               0
  9
$BLIPMODE
 70
               1
  9
$CHAMFERA
 40
0.0
  9
$CHAMFERB
 40
0.0
  9
$SKPOLY
 70
               0
  9
$TDCREATE
 40
2455216.644571759
  9
$TDUPDATE
 40
2455216.644571759
  9
$TDINDWG
 40
0.0000000000
  9
$TDUSRTIMER
 40
0.0000000000
  9
$USRTIMER
 70
               1
  9
$ANGBASE
 50
0.0
  9
$ANGDIR
 70
               0
  9
$PDMODE
 70
               0
  9
$PDSIZE
 40
0.0
  9
$PLINEWID
 40
0.0
  9
$COORDS
 70
               1
  9
$SPLFRAME
 70
               0
  9
$SPLINETYPE
 70
               6
  9
$SPLINESEGS
 70
               8
  9
$ATTDIA
 70
               0
  9
$ATTREQ
 70
               1
  9
$HANDLING
 70
               1
  9
$HANDSEED
  5
304
  9
$SURFTAB1
 70
               6
  9
$SURFTAB2
 70
               6
  9
$SURFTYPE
 70
               6
  9
$SURFU
 70
               6
  9
$SURFV
 70
               6
  9
$UCSNAME
  2

  9
$UCSORG
 10
0.0
 20
0.0
 30
0.0
  9
$UCSXDIR
 10
1.0
 20
0.0
 30
0.0
  9
$UCSYDIR
 10
0.0
 20
1.0
 30
0.0
  9
$PUCSNAME
  2

  9
$PUCSORG
 10
0.0
 20
0.0
 30
0.0
  9
$PUCSXDIR
 10
1.0
 20
0.0
 30
0.0
  9
$PUCSYDIR
 10
0.0
 20
1.0
 30
0.0
  9
$USERI1
 70
               0
  9
$USERI2
 70
               0
  9
$USERI3
 70
               0
  9
$USERI4
 70
               0
  9
$USERI5
 70
               0
  9
$USERR1
 40
0.0
  9
$USERR2
 40
0.0
  9
$USERR3
 40
0.0
  9
$USERR4
 40
0.0
  9
$USERR5
 40
0.0
  9
$WORLDVIEW
 70
               1
  9
$SHADEDGE
 70
               3
  9
$SHADEDIF
 70
              70
  9
$TILEMODE
 70
               1
  9
$MAXACTVP
 70
              16
  9
$PINSBASE
 10
0.0
 20
0.0
 30
0.0
  9
$PLIMCHECK
 70
               0
  9
$PEXTMIN
 10
1.0000000000000000E+20
 20
1.0000000000000000E+20
 30
1.0000000000000000E+20
  9
$PEXTMAX
 10
-1.0000000000000000E+20
 20
-1.0000000000000000E+20
 30
-1.0000000000000000E+20
  9
$PLIMMIN
 10
0.0
 20
0.0
  9
$PLIMMAX
 10
12.0
 20
9.0
  9
$UNITMODE
 70
               0
  9
$VISRETAIN
 70
               0
  9
$PLINEGEN
 70
               1
  9
$PSLTSCALE
 70
               0
  9
$TREEDEPTH
 70
            3020
  0
ENDSEC
  0
SECTION
  2
TABLES
  0
TABLE
  2
VPORT
 70
               1
  0
VPORT
  2
*ACTIVE
 70
               0
 10
0.0
 20
0.0
 11
1.0
 21
1.0
 12
112.93197962641716
 22
47.900000095367432
 13
0.0
 23
0.0
 14
1.0
 24
1.0
 15
0.0
 25
0.0
 16
0.0
 26
0.0
 36
1.0
 17
0.0
 27
0.0
 37
0.0
 40
157.35800019264221
 41
1.7320508075688772
 42
50.0
 43
0.0
 44
0.0
 50
0.0
 51
0.0
 71
               0
 72
             100
 73
               1
 74
               1
 75
               0
 76
               0
 77
               0
 78
               0
  0
ENDTAB
  0
TABLE
  2
LTYPE
 70
               4
  0
LTYPE
  2
CONTINUOUS
 70
              64
  3
Solid line
 72
              65
 73
               0
 40
0.0
  0
LTYPE
  2
CENTER
 70
              64
  3
Center ____ _ ____ _ ____ _ ____ _ ____ _ ____
 72
              65
 73
               4
 40
50.800000000000004
 49
31.75
 49
-6.3499999999999996
 49
6.3499999999999996
 49
-6.3499999999999996
  0
LTYPE
  2
PHANTOM
 70
              64
  3
Phantom ______  __  __  ______  __  __  ______
 72
              65
 73
               6
 40
63.500000000000007
 49
31.75
 49
-6.3499999999999996
 49
6.3499999999999996
 49
-6.3499999999999996
 49
6.3499999999999996
 49
-6.3499999999999996
  0
LTYPE
  2
DASHED
 70
              64
  3
Dashed __ __ __ __ __ __ __ __ __ __ __ __ __ _
 72
              65
 73
               2
 40
19.049999999999997
 49
12.699999999999999
 49
-6.3499999999999996
  0
ENDTAB
  0
TABLE
  2
LAYER
 70
               3
  0
LAYER
  2
0
 70
               0
 62
               7
  6
CONTINUOUS
  0
LAYER
  2
DEFPOINTS
 70
               0
 62
               7
  6
CONTINUOUS
  0
LAYER
  2
LY_3
 70
               0
 62
               7
  6
CONTINUOUS
  0
ENDTAB
  0
TABLE
  2
STYLE
 70
               5
  0
STYLE
  2
MX_NOTE_STANDARD
 70
               0
 40
0.0
 41
1.0
 50
0.0
 71
               0
 42
3.2000000476837158
  3
txt.shx
  4
extfont.shx
  0
STYLE
  2
MX_DIMTXSTY_2
 70
               0
 40
0.0
 41
0.9
 50
0.0
 71
               0
 42
3.2000000476837158
  3
txt.shx
  4
extfont.shx
  0
STYLE
  2
MX_DIMTXSTY_3
 70
               0
 40
0.0
 41
1.3500000000000001
 50
0.0
 71
               0
 42
3.2000000476837158
  3
txt.shx
  4
extfont.shx
  0
STYLE
  2
MX_DIMTXSTY_4
 70
               0
 40
0.0
 41
1.05
 50
0.0
 71
               0
 42
3.2000000476837158
  3
txt.shx
  4
extfont.shx
  0
STYLE
  2
MX_DIMTXSTY_5
 70
               0
 40
0.0
 41
1.4500000000000002
 50
0.0
 71
               0
 42
3.2000000476837158
  3
txt.shx
  4
extfont.shx
  0
ENDTAB
  0
TABLE
  2
VIEW
 70
               0
  0
ENDTAB
  0
TABLE
  2
UCS
 70
               0
  0
ENDTAB
  0
TABLE
  2
APPID
 70
               1
  0
APPID
  2
ACAD
 70
               0
  0
ENDTAB
  0
TABLE
  2
DIMSTYLE
 70
               1
  0
DIMSTYLE
  2
MXDIMSTYLE
 70
               0
  3

  4

  5

  6
_OPEN30
  7
_OPEN30
 40
1.0
 41
2.5
 42
2.0
 43
3.75
 44
1.0
 45
0.0
 46
0.0
 47
0.0
 48
0.0
 71
               0
 72
               0
 73
               0
 74
               0
 75
               0
 76
               0
 77
               1
 78
               8
140
4.1655998229980469
141
2.5
142
0.0
143
0.03937007874016
144
1.0
145
0.0
146
1.0
147
1.0
170
               0
171
               4
172
               1
173
               1
174
               0
175
               0
176
               0
177
               0
178
               0
  0
ENDTAB
  0
ENDSEC
  0
SECTION
  2
BLOCKS
  0
BLOCK
  8
0
  5
26
  2
*U0
 70
               1
 10
0.0
 20
0.0
 30
0.0
  3
*U0
  0
LINE
  8
0
  6
CONTINUOUS
 62
             110
  5
27
 10
-1.0
 20
0.267949
 30
0.0
 11
0.0
 21
0.0
 31
0.0
  0
LINE
  8
0
  6
CONTINUOUS
 62
             110
  5
28
 10
0.0
 20
0.0
 30
0.0
 11
-1.0
 21
-0.267949
 31
0.0
  0
LINE
  8
0
  6
CONTINUOUS
 62
             110
  5
29
 10
0.0
 20
0.0
 30
0.0
 11
-1.0
 21
0.0
 31
0.0
  0
ENDBLK
  8
0
  5
2A
  0
BLOCK
  8
0
  6
BYBLOCK
 62
               0
  5
21
  2
_OPEN30
 70
               2
 10
0.0
 20
0.0
 30
0.0
  3
_OPEN30
  0
LINE
  8
0
  6
BYBLOCK
 62
               0
  5
22
 10
-1.0
 20
0.267949
 30
0.0
 11
0.0
 21
0.0
 31
0.0
  0
LINE
  8
0
  6
BYBLOCK
 62
               0
  5
23
 10
0.0
 20
0.0
 30
0.0
 11
-1.0
 21
-0.267949
 31
0.0
  0
LINE
  8
0
  6
BYBLOCK
 62
               0
  5
24
 10
0.0
 20
0.0
 30
0.0
 11
-1.0
 21
0.0
 31
0.0
  0
ENDBLK
  8
0
  6
BYBLOCK
 62
               0
  5
25
  0
BLOCK
  8
0
  6
BYBLOCK
 62
               0
  5
3E
  2
*D2
 70
               1
 10
0.0
 20
0.0
 30
0.0
  3
*D2
  0
LINE
  8
0
  6
CONTINUOUS
 62
             110
  5
3F
 10
240.0
 20
16.999996185302734
 30
0.0
 11
240.0
 21
-17.0
 31
0.0
  0
LINE
  8
0
  6
CONTINUOUS
 62
             110
  5
40
 10
197.30000305175781
 20
16.999996185302734
 30
0.0
 11
241.0
 21
16.999996185302734
 31
0.0
  0
LINE
  8
0
  6
CONTINUOUS
 62
             110
  5
41
 10
197.30000305175781
 20
-17.0
 30
0.0
 11
241.0
 21
-17.0
 31
0.0
  0
INSERT
  8
0
  6
CONTINUOUS
 62
             110
  5
42
  2
_OPEN30
 10
240.0
 20
16.999996185302734
 30
0.0
 41
2.77
 42
2.77
 50
90.0
 43
2.77
  0
INSERT
  8
0
  6
CONTINUOUS
 62
             110
  5
43
  2
_OPEN30
 10
240.0
 20
-17.0
 30
0.0
 41
2.77
 42
2.77
 50
270.0
 43
2.77
  0
TEXT
  8
0
  6
CONTINUOUS
 62
             110
  5
45
 10
239.0
 20
-3.9696988856661082
 30
0.0
 40
3.2000000476837158
  1
%%c34
 50
90.000000000000014
 41
0.9943181508382375
  7
MX_DIMTXSTY_2
 11
237.39999997615814
 21
-3.9696988856661086
 31
0.0
 73
               2
  0
POINT
  8
DEFPOINTS
  6
CONTINUOUS
 62
               0
  5
46
 10
195.30000305175781
 20
16.999996185302734
 30
0.0
  0
POINT
  8
DEFPOINTS
  6
CONTINUOUS
 62
               0
  5
47
 10
195.30000305175781
 20
-17.0
 30
0.0
  0
POINT
  8
DEFPOINTS
  6
CONTINUOUS
 62
               0
  5
48
 10
240.0
 20
-17.0
 30
0.0
  0
ENDBLK
  8
0
  6
BYBLOCK
 62
               0
  5
49
  0
BLOCK
  8
0
  6
BYBLOCK
 62
               0
  5
4C
  2
*D3
 70
               1
 10
0.0
 20
0.0
 30
0.0
  3
*D3
  0
LINE
  8
0
  6
CONTINUOUS
 62
             110
  5
4D
 10
230.0
 20
0.0
 30
0.0
 11
230.0
 21
-8.0
 31
0.0
  0
LINE
  8
0
  6
CONTINUOUS
 62
             110
  5
4E
 10
221.19441223144531
 20
0.0
 30
0.0
 11
231.0
 21
0.0
 31
0.0
  0
LINE
  8
0
  6
CONTINUOUS
 62
             110
  5
4F
 10
220.75045776367187
 20
-8.0
 30
0.0
 11
231.0
 21
-8.0
 31
0.0
  0
INSERT
  8
0
  6
CONTINUOUS
 62
             110
  5
50
  2
_OPEN30
 10
230.0
 20
0.0
 30
0.0
 41
2.77
 42
2.77
 50
90.0
 43
2.77
  0
INSERT
  8
0
  6
CONTINUOUS
 62
             110
  5
51
  2
_OPEN30
 10
230.0
 20
-8.0
 30
0.0
 41
2.77
 42
2.77
 50
270.0
 43
2.77
  0
TEXT
  8
0
  6
CONTINUOUS
 62
             110
  5
52
 10
229.0
 20
-4.9666666587193804
 30
0.0
 40
3.2000000476837158
  1
8
 50
90.000000000000014
  7
MX_NOTE_STANDARD
 11
227.39999997615814
 21
-4.9666666587193804
 31
0.0
 73
               2
  0
POINT
  8
DEFPOINTS
  6
CONTINUOUS
 62
               0
  5
53
 10
219.19441223144531
 20
0.0
 30
0.0
  0
POINT
  8
DEFPOINTS
  6
CONTINUOUS
 62
               0
  5
54
 10
218.75045776367188
 20
-8.0
 30
0.0
  0
POINT
  8
DEFPOINTS
  6
CONTINUOUS
 62
               0
  5
55
 10
230.0
 20
-8.0
 30
0.0
  0
ENDBLK
  8
0
  6
BYBLOCK
 62
               0
  5
56
  0
BLOCK
  8
0
  6
BYBLOCK
 62
               0
  5
59
  2
*D4
 70
               1
 10
0.0
 20
0.0
 30
0.0
  3
*D4
  0
LINE
  8
0
  6
CONTINUOUS
 62
             110
  5
5A
 10
40.0
 20
-3.0
 30
0.0
 11
40.0
 21
2.0
 31
0.0
  0
LINE
  8
0
  6
CONTINUOUS
 62
             110
  5
5B
 10
40.0
 20
2.0
 30
0.0
 11
40.0
 21
11.461180686950684
 31
0.0
  0
LINE
  8
0
  6
CONTINUOUS
 62
             110
  5
5C
 10
47.300003051757813
 20
-2.9999999999999996
 30
0.0
 11
39.0
 21
-3.0
 31
0.0
  0
LINE
  8
0
  6
CONTINUOUS
 62
             110
  5
5D
 10
46.800003051757813
 20
2.0000000000000004
 30
0.0
 11
39.0
 21
2.0
 31
0.0
  0
LINE
  8
0
  6
CONTINUOUS
 62
             110
  5
5E
 10
40.0
 20
-3.0
 30
0.0
 11
40.0
 21
-7.0
 31
0.0
  0
LINE
  8
0
  6
CONTINUOUS
 62
             110
  5
5F
 10
40.0
 20
2.0
 30
0.0
 11
40.0
 21
6.0
 31
0.0
  0
INSERT
  8
0
  6
CONTINUOUS
 62
             110
  5
60
  2
_OPEN30
 10
40.0
 20
-3.0
 30
0.0
 41
2.77
 42
2.77
 50
90.0
 43
2.77
  0
INSERT
  8
0
  6
CONTINUOUS
 62
             110
  5
61
  2
_OPEN30
 10
40.0
 20
2.0
 30
0.0
 41
2.77
 42
2.77
 50
270.0
 43
2.77
  0
TEXT
  8
0
  6
CONTINUOUS
 62
             110
  5
62
 10
39.0
 20
8.9945140282313023
 30
0.0
 40
3.2000000476837158
  1
5
 50
90.0
  7
MX_NOTE_STANDARD
 11
37.399999976158142
 21
8.9945140282313023
 31
0.0
 73
               2
  0
POINT
  8
DEFPOINTS
  6
CONTINUOUS
 62
               0
  5
63
 10
49.300003051757813
 20
-3.0
 30
0.0
  0
POINT
  8
DEFPOINTS
  6
CONTINUOUS
 62
               0
  5
64
 10
48.800003051757813
 20
2.0
 30
0.0
  0
POINT
  8
DEFPOINTS
  6
CONTINUOUS
 62
               0
  5
65
 10
40.0
 20
2.0
 30
0.0
  0
ENDBLK
  8
0
  6
BYBLOCK
 62
               0
  5
66
  0
BLOCK
  8
0
  6
BYBLOCK
 62
               0
  5
69
  2
*D5
 70
               1
 10
0.0
 20
0.0
 30
0.0
  3
*D5
  0
LINE
  8
0
  6
CONTINUOUS
 62
             110
  5
6A
 10
30.0
 20
-3.0
 30
0.0
 11
30.0
 21
3.0
 31
0.0
  0
LINE
  8
0
  6
CONTINUOUS
 62
             110
  5
6B
 10
30.0
 20
3.0
 30
0.0
 11
30.0
 21
17.616666793823242
 31
0.0
  0
LINE
  8
0
  6
CONTINUOUS
 62
             110
  5
6C
 10
47.300003051757813
 20
-2.9999999999999996
 30
0.0
 11
29.0
 21
-3.0
 31
0.0
  0
LINE
  8
0
  6
CONTINUOUS
 62
             110
  5
6D
 10
56.800003051757812
 20
3.0000000000000004
 30
0.0
 11
29.0
 21
3.0
 31
0.0
  0
LINE
  8
0
  6
CONTINUOUS
 62
             110
  5
6E
 10
30.0
 20
-3.0
 30
0.0
 11
30.0
 21
-7.0
 31
0.0
  0
LINE
  8
0
  6
CONTINUOUS
 62
             110
  5
6F
 10
30.0
 20
3.0
 30
0.0
 11
30.0
 21
7.0
 31
0.0
  0
INSERT
  8
0
  6
CONTINUOUS
 62
             110
  5
70
  2
_OPEN30
 10
30.0
 20
-3.0
 30
0.0
 41
2.77
 42
2.77
 50
90.0
 43
2.77
  0
INSERT
  8
0
  6
CONTINUOUS
 62
             110
  5
71
  2
_OPEN30
 10
30.0
 20
3.0
 30
0.0
 41
2.77
 42
2.77
 50
270.0
 43
2.77
  0
TEXT
  8
0
  6
CONTINUOUS
 62
             110
  5
72
 10
29.0
 20
6.1530652546413291
 30
0.0
 40
3.2000000476837158
  1
%%c6h7
 50
90.0
 41
1.0057470990471131
  7
MX_DIMTXSTY_2
 11
27.399999976158142
 21
6.1530652546413291
 31
0.0
 73
               2
  0
POINT
  8
DEFPOINTS
  6
CONTINUOUS
 62
               0
  5
73
 10
49.300003051757813
 20
-3.0
 30
0.0
  0
POINT
  8
DEFPOINTS
  6
CONTINUOUS
 62
               0
  5
74
 10
58.800003051757813
 20
3.0
 30
0.0
  0
POINT
  8
DEFPOINTS
  6
CONTINUOUS
 62
               0
  5
75
 10
30.0
 20
3.0
 30
0.0
  0
ENDBLK
  8
0
  6
BYBLOCK
 62
               0
  5
76
  0
BLOCK
  8
0
  6
BYBLOCK
 62
               0
  5
20A
  2
*D6
 70
               1
 10
0.0
 20
0.0
 30
0.0
  3
*D6
  0
LINE
  8
0
  6
CONTINUOUS
 62
             110
  5
20B
 10
48.800003051757813
 20
24.643459320068359
 30
0.0
 11
58.800003051757813
 21
24.643459320068359
 31
0.0
  0
LINE
  8
0
  6
CONTINUOUS
 62
             110
  5
20C
 10
58.800003051757813
 20
5.5399999618530273
 30
0.0
 11
58.800003051757813
 21
26.929458618164063
 31
0.0
  0
INSERT
  8
0
  6
CONTINUOUS
 62
             110
  5
20D
  2
_OPEN30
 10
48.800003051757813
 20
24.643459320068359
 30
0.0
 41
2.77
 42
2.77
 50
180.0
 43
2.77
  0
INSERT
  8
0
  6
CONTINUOUS
 62
             110
  5
20E
  2
_OPEN30
 10
58.800003051757813
 20
24.643459320068359
 30
0.0
 41
2.77
 42
2.77
 43
2.77
  0
TEXT
  8
0
  6
CONTINUOUS
 62
             110
  5
210
 10
51.126751983116684
 20
25.643459320068359
 30
0.0
 40
3.2000000476837158
  1
10
 41
0.9876543209876543
  7
MX_DIMTXSTY_3
 11
51.126751983116684
 21
27.243459343910217
 31
0.0
 73
               2
  0
POINT
  8
DEFPOINTS
  6
CONTINUOUS
 62
               0
  5
211
 10
48.800003051757813
 20
2.0
 30
0.0
  0
POINT
  8
DEFPOINTS
  6
CONTINUOUS
 62
               0
  5
212
 10
58.800003051757813
 20
3.0
 30
0.0
  0
POINT
  8
DEFPOINTS
  6
CONTINUOUS
 62
               0
  5
213
 10
58.800003051757813
 20
24.643459320068359
 30
0.0
  0
ENDBLK
  8
0
  6
BYBLOCK
 62
               0
  5
214
  0
BLOCK
  8
0
  6
BYBLOCK
 62
               0
  5
217
  2
*D7
 70
               1
 10
0.0
 20
0.0
 30
0.0
  3
*D7
  0
LINE
  8
0
  6
CONTINUOUS
 62
             110
  5
218
 10
48.800003051757813
 20
40.0
 30
0.0
 11
98.800003051757812
 21
40.0
 31
0.0
  0
INSERT
  8
0
  6
CONTINUOUS
 62
             110
  5
219
  2
_OPEN30
 10
48.800003051757813
 20
40.0
 30
0.0
 41
2.77
 42
2.77
 50
180.0
 43
2.77
  0
INSERT
  8
0
  6
CONTINUOUS
 62
             110
  5
21A
  2
_OPEN30
 10
98.800003051757812
 20
40.0
 30
0.0
 41
2.77
 42
2.77
 43
2.77
  0
TEXT
  8
0
  6
CONTINUOUS
 62
             110
  5
21B
 10
66.347948145298204
 20
41.0
 30
0.0
 40
3.2000000476837158
  1
50～60
 41
1.0273972585962288
  7
MX_NOTE_STANDARD
 11
66.347948145298204
 21
42.600000023841858
 31
0.0
 73
               2
  0
POINT
  8
DEFPOINTS
  6
CONTINUOUS
 62
               0
  5
21C
 10
48.800003051757813
 20
12.0
 30
0.0
  0
POINT
  8
DEFPOINTS
  6
CONTINUOUS
 62
               0
  5
21D
 10
98.800003051757812
 20
26.100002288818359
 30
0.0
  0
POINT
  8
DEFPOINTS
  6
CONTINUOUS
 62
               0
  5
21E
 10
98.800003051757812
 20
40.0
 30
0.0
  0
ENDBLK
  8
0
  6
BYBLOCK
 62
               0
  5
21F
  0
BLOCK
  8
0
  6
BYBLOCK
 62
               0
  5
222
  2
*D8
 70
               1
 10
0.0
 20
0.0
 30
0.0
  3
*D8
  0
LINE
  8
0
  6
CONTINUOUS
 62
             110
  5
223
 10
98.800003051757812
 20
40.0
 30
0.0
 11
204.80000305175781
 21
40.0
 31
0.0
  0
LINE
  8
0
  6
CONTINUOUS
 62
             110
  5
224
 10
98.800003051757812
 20
19.440001487731934
 30
0.0
 11
98.800003051757812
 21
42.285999298095703
 31
0.0
  0
INSERT
  8
0
  6
CONTINUOUS
 62
             110
  5
225
  2
_OPEN30
 10
98.800003051757812
 20
40.0
 30
0.0
 41
2.77
 42
2.77
 50
180.0
 43
2.77
  0
INSERT
  8
0
  6
CONTINUOUS
 62
             110
  5
226
  2
_OPEN30
 10
204.80000305175781
 20
40.0
 30
0.0
 41
2.77
 42
2.77
 43
2.77
  0
TEXT
  8
0
  6
CONTINUOUS
 62
             110
  5
228
 10
142.73467292055528
 20
41.0
 30
0.0
 40
3.2000000476837158
  1
96～106
 41
1.0025062572776298
  7
MX_DIMTXSTY_4
 11
142.73467292055528
 21
42.600000023841858
 31
0.0
 73
               2
  0
POINT
  8
DEFPOINTS
  6
CONTINUOUS
 62
               0
  5
229
 10
98.800003051757812
 20
16.900001525878906
 30
0.0
  0
POINT
  8
DEFPOINTS
  6
CONTINUOUS
 62
               0
  5
22A
 10
204.80000305175781
 20
24.499996185302734
 30
0.0
  0
POINT
  8
DEFPOINTS
  6
CONTINUOUS
 62
               0
  5
22B
 10
204.80000305175781
 20
40.0
 30
0.0
  0
ENDBLK
  8
0
  6
BYBLOCK
 62
               0
  5
22C
  0
BLOCK
  8
0
  6
BYBLOCK
 62
               0
  5
22F
  2
*D9
 70
               1
 10
0.0
 20
0.0
 30
0.0
  3
*D9
  0
LINE
  8
0
  6
CONTINUOUS
 62
             110
  5
230
 10
48.800003051757813
 20
50.0
 30
0.0
 11
204.80000305175781
 21
50.0
 31
0.0
  0
LINE
  8
0
  6
CONTINUOUS
 62
             110
  5
231
 10
48.800003051757813
 20
2.5399999618530273
 30
0.0
 11
48.800003051757813
 21
52.285999298095703
 31
0.0
  0
INSERT
  8
0
  6
CONTINUOUS
 62
             110
  5
232
  2
_OPEN30
 10
48.800003051757813
 20
50.0
 30
0.0
 41
2.77
 42
2.77
 50
180.0
 43
2.77
  0
INSERT
  8
0
  6
CONTINUOUS
 62
             110
  5
233
  2
_OPEN30
 10
204.80000305175781
 20
50.0
 30
0.0
 41
2.77
 42
2.77
 43
2.77
  0
TEXT
  8
0
  6
CONTINUOUS
 62
             110
  5
234
 10
116.14422057276714
 20
51.0
 30
0.0
 40
3.2000000476837158
  1
146～156
 41
1.0204081496115975
  7
MX_DIMTXSTY_4
 11
116.14422057276714
 21
52.600000023841858
 31
0.0
 73
               2
  0
POINT
  8
DEFPOINTS
  6
CONTINUOUS
 62
               0
  5
235
 10
48.800003051757813
 20
0.0
 30
0.0
  0
POINT
  8
DEFPOINTS
  6
CONTINUOUS
 62
               0
  5
236
 10
204.80000305175781
 20
24.499996185302734
 30
0.0
  0
POINT
  8
DEFPOINTS
  6
CONTINUOUS
 62
               0
  5
237
 10
204.80000305175781
 20
50.0
 30
0.0
  0
ENDBLK
  8
0
  6
BYBLOCK
 62
               0
  5
238
  0
BLOCK
  8
0
  6
BYBLOCK
 62
               0
  5
23B
  2
*D10
 70
               1
 10
0.0
 20
0.0
 30
0.0
  3
*D10
  0
LINE
  8
0
  6
CONTINUOUS
 62
             110
  5
23C
 10
204.80000305175781
 20
50.0
 30
0.0
 11
215.5
 21
50.0
 31
0.0
  0
LINE
  8
0
  6
CONTINUOUS
 62
             110
  5
23D
 10
215.5
 20
50.0
 30
0.0
 11
240.31849455833435
 21
50.0
 31
0.0
  0
LINE
  8
0
  6
CONTINUOUS
 62
             110
  5
23E
 10
204.80000305175781
 20
19.039996147155762
 30
0.0
 11
204.80000305175781
 21
52.285995483398437
 31
0.0
  0
LINE
  8
0
  6
CONTINUOUS
 62
             110
  5
23F
 10
215.5
 20
0.5399999618530273
 30
0.0
 11
215.5
 21
52.285995483398437
 31
0.0
  0
INSERT
  8
0
  6
CONTINUOUS
 62
             110
  5
240
  2
_OPEN30
 10
204.80000305175781
 20
50.0
 30
0.0
 41
2.77
 42
2.77
 50
180.0
 43
2.77
  0
INSERT
  8
0
  6
CONTINUOUS
 62
             110
  5
241
  2
_OPEN30
 10
215.5
 20
50.0
 30
0.0
 41
2.77
 42
2.77
 43
2.77
  0
TEXT
  8
0
  6
CONTINUOUS
 62
             110
  5
243
 10
222.91932186380583
 20
51.0
 30
0.0
 40
3.2000000476837158
  1
(10.7)
 41
0.9931034364371466
  7
MX_DIMTXSTY_5
 11
222.91932186380583
 21
52.600000023841858
 31
0.0
 73
               2
  0
POINT
  8
DEFPOINTS
  6
CONTINUOUS
 62
               0
  5
244
 10
204.80000305175781
 20
16.499996185302734
 30
0.0
  0
POINT
  8
DEFPOINTS
  6
CONTINUOUS
 62
               0
  5
245
 10
215.5
 20
-2.0
 30
0.0
  0
POINT
  8
DEFPOINTS
  6
CONTINUOUS
 62
               0
  5
246
 10
215.5
 20
50.0
 30
0.0
  0
ENDBLK
  8
0
  6
BYBLOCK
 62
               0
  5
247
  0
BLOCK
  8
0
  6
BYBLOCK
 62
               0
  5
24A
  2
*D11
 70
               1
 10
0.0
 20
0.0
 30
0.0
  3
*D11
  0
LINE
  8
0
  6
CONTINUOUS
 62
             110
  5
24B
 10
150.0
 20
-13.5
 30
0.0
 11
150.0
 21
13.5
 31
0.0
  0
INSERT
  8
0
  6
CONTINUOUS
 62
             110
  5
24C
  2
_OPEN30
 10
150.0
 20
-13.5
 30
0.0
 41
2.77
 42
2.77
 50
270.0
 43
2.77
  0
INSERT
  8
0
  6
CONTINUOUS
 62
             110
  5
24D
  2
_OPEN30
 10
150.0
 20
13.5
 30
0.0
 41
2.77
 42
2.77
 50
90.0
 43
2.77
  0
TEXT
  8
0
  6
CONTINUOUS
 62
             110
  5
24E
 10
149.0
 20
2.9549919446637807
 30
0.0
 40
3.2000000476837158
  1
%%c27
 50
90.0
 41
0.9545454390285431
  7
MX_NOTE_STANDARD
 11
147.39999997615814
 21
2.9549919446637807
 31
0.0
 73
               2
  0
POINT
  8
DEFPOINTS
  6
CONTINUOUS
 62
               0
  5
24F
 10
164.80000305175781
 20
-13.5
 30
0.0
  0
POINT
  8
DEFPOINTS
  6
CONTINUOUS
 62
               0
  5
250
 10
164.80000305175781
 20
13.5
 30
0.0
  0
POINT
  8
DEFPOINTS
  6
CONTINUOUS
 62
               0
  5
251
 10
150.0
 20
13.5
 30
0.0
  0
ENDBLK
  8
0
  6
BYBLOCK
 62
               0
  5
252
  0
BLOCK
  8
0
  6
BYBLOCK
 62
               0
  5
255
  2
*D12
 70
               1
 10
0.0
 20
0.0
 30
0.0
  3
*D12
  0
LINE
  8
0
  6
CONTINUOUS
 62
             110
  5
256
 10
120.0
 20
9.0
 30
0.0
 11
120.0
 21
-9.0
 31
0.0
  0
LINE
  8
0
  6
CONTINUOUS
 62
             110
  5
257
 10
120.0
 20
25.884745478630066
 30
0.0
 11
120.0
 21
9.0
 31
0.0
  0
INSERT
  8
0
  6
CONTINUOUS
 62
             110
  5
258
  2
_OPEN30
 10
120.0
 20
9.0
 30
0.0
 41
2.77
 42
2.77
 50
90.0
 43
2.77
  0
INSERT
  8
0
  6
CONTINUOUS
 62
             110
  5
259
  2
_OPEN30
 10
120.0
 20
-9.0
 30
0.0
 41
2.77
 42
2.77
 50
270.0
 43
2.77
  0
TEXT
  8
0
  6
CONTINUOUS
 62
             110
  5
25A
 10
119.0
 20
16.827118211318556
 30
0.0
 40
3.2000000476837158
  1
%%c18
 50
90.000000000000014
 41
1.0169491268580966
  7
MX_DIMTXSTY_4
 11
117.39999997615814
 21
16.827118211318556
 31
0.0
 73
               2
  0
POINT
  8
DEFPOINTS
  6
CONTINUOUS
 62
               0
  5
25B
 10
112.86602401733398
 20
9.0
 30
0.0
  0
POINT
  8
DEFPOINTS
  6
CONTINUOUS
 62
               0
  5
25C
 10
112.86602401733398
 20
-9.0
 30
0.0
  0
POINT
  8
DEFPOINTS
  6
CONTINUOUS
 62
               0
  5
25D
 10
120.0
 20
-9.0
 30
0.0
  0
ENDBLK
  8
0
  6
BYBLOCK
 62
               0
  5
25E
  0
ENDSEC
  0
SECTION
  2
ENTITIES
  0
INSERT
  8
0
  6
BYBLOCK
  5
2B
  2
*U0
 10
204.43745807178249
 20
-15.648364514166136
 30
0.0
 41
2.77
 42
2.77
 50
111.18580337534237
 43
2.77
  0
INSERT
  8
0
  6
BYBLOCK
  5
2C
  2
*U0
 10
166.23207899413805
 20
-14.042833197556908
 30
0.0
 41
2.77
 42
2.77
 50
103.28573925253959
 43
2.77
  0
INSERT
  8
0
  6
BYBLOCK
  5
2D
  2
*U0
 10
104.30000305175781
 20
-8.0
 30
0.0
 41
2.77
 42
2.77
 50
104.52540901787462
 43
2.77
  0
INSERT
  8
0
  6
BYBLOCK
  5
2E
  2
*U0
 10
102.0
 20
-8.4000015258789063
 30
0.0
 41
2.77
 42
2.77
 50
60.945394182636186
 43
2.77
  0
INSERT
  8
0
  6
BYBLOCK
  5
2F
  2
*U0
 10
212.25
 20
-1.0
 30
0.0
 41
2.77
 42
2.77
 50
240.20538279583388
 43
2.77
  0
INSERT
  8
0
  6
BYBLOCK
  5
30
  2
*U0
 10
102.39999771118164
 20
106.90000152587891
 30
0.0
 41
2.77
 42
2.77
 50
239.87971136542248
 43
2.77
  0
POLYLINE
  8
0
  6
CONTINUOUS
 62
             110
  5
31
 66
               1
 10
0.0
 20
0.0
 30
0.0
  0
VERTEX
  8
0
  6
CONTINUOUS
 62
             110
  5
2A1
 10
204.43745807178249
 20
-15.648364514166136
 30
0.0
  0
VERTEX
  8
0
  6
CONTINUOUS
 62
             110
  5
2A2
 10
210.0
 20
-30.0
 30
0.0
  0
VERTEX
  8
0
  6
CONTINUOUS
 62
             110
  5
2A3
 10
223.19491159915924
 20
-30.0
 30
0.0
  0
SEQEND
  8
0
  6
CONTINUOUS
 62
             110
  5
2A4
  0
TEXT
  8
0
  6
CONTINUOUS
 62
             110
  5
32
 10
211.61157824926906
 20
-28.199999928474426
 30
0.0
 40
3.2000000476837158
  1
ハンドル
 41
0.7812499573143839
  7
MX_NOTE_STANDARD
 11
211.61157824926906
 21
-26.599999904632568
 31
0.0
 73
               2
  0
POLYLINE
  8
0
  6
CONTINUOUS
 62
             110
  5
33
 66
               1
 10
0.0
 20
0.0
 30
0.0
  0
VERTEX
  8
0
  6
CONTINUOUS
 62
             110
  5
2A5
 10
166.23207899413805
 20
-14.042833197556908
 30
0.0
  0
VERTEX
  8
0
  6
CONTINUOUS
 62
             110
  5
2A6
 10
170.0
 20
-30.0
 30
0.0
  0
VERTEX
  8
0
  6
CONTINUOUS
 62
             110
  5
2A7
 10
198.32158446311951
 20
-30.0
 30
0.0
  0
SEQEND
  8
0
  6
CONTINUOUS
 62
             110
  5
2A8
  0
TEXT
  8
0
  6
CONTINUOUS
 62
             110
  5
34
 10
171.73825111322932
 20
-28.199999928474426
 30
0.0
 40
3.2000000476837158
  1
目盛リング１０分割
 41
0.7812499573143839
  7
MX_NOTE_STANDARD
 11
171.73825111322932
 21
-26.599999904632568
 31
0.0
 73
               2
  0
POLYLINE
  8
0
  6
CONTINUOUS
 62
             110
  5
35
 66
               1
 10
0.0
 20
0.0
 30
0.0
  0
VERTEX
  8
0
  6
CONTINUOUS
 62
             110
  5
2A9
 10
104.30000305175781
 20
-8.0
 30
0.0
  0
VERTEX
  8
0
  6
CONTINUOUS
 62
             110
  5
2AA
 10
110.0
 20
-30.0
 30
0.0
  0
VERTEX
  8
0
  6
CONTINUOUS
 62
             110
  5
2AB
 10
139.44912385940552
 20
-30.0
 30
0.0
  0
SEQEND
  8
0
  6
CONTINUOUS
 62
             110
  5
2AC
  0
TEXT
  8
0
  6
CONTINUOUS
 62
             110
  5
36
 10
112.86579050951534
 20
-28.199999928474426
 30
0.0
 40
3.2000000476837158
  1
軸受（ポリイミド）
 41
0.7812499573143839
  7
MX_NOTE_STANDARD
 11
112.86579050951534
 21
-26.599999904632568
 31
0.0
 73
               2
  0
POLYLINE
  8
0
  6
CONTINUOUS
 62
             110
  5
37
 66
               1
 10
0.0
 20
0.0
 30
0.0
  0
VERTEX
  8
0
  6
CONTINUOUS
 62
             110
  5
2AD
 10
102.0
 20
-8.4000015258789063
 30
0.0
  0
VERTEX
  8
0
  6
CONTINUOUS
 62
             110
  5
2AE
 10
90.0
 20
-30.0
 30
0.0
  0
VERTEX
  8
0
  6
CONTINUOUS
 62
             110
  5
2AF
 10
74.957121308892965
 20
-30.0
 30
0.0
  0
SEQEND
  8
0
  6
CONTINUOUS
 62
             110
  5
2B0
  0
TEXT
  8
0
  6
CONTINUOUS
 62
             110
  5
38
 10
75.388155777476882
 20
-28.199999928474426
 30
0.0
 40
3.2000000476837158
  1
C型 止め輪
 41
0.8081896165518745
  7
MX_NOTE_STANDARD
 11
75.388155777476882
 21
-26.599999904632568
 31
0.0
 73
               2
  0
POLYLINE
  8
0
  6
CONTINUOUS
 62
             110
  5
39
 66
               1
 10
0.0
 20
0.0
 30
0.0
  0
VERTEX
  8
0
  6
CONTINUOUS
 62
             110
  5
2B1
 10
212.25
 20
-1.0
 30
0.0
  0
VERTEX
  8
0
  6
CONTINUOUS
 62
             110
  5
2B2
 10
230.0
 20
30.0
 30
0.0
  0
VERTEX
  8
0
  6
CONTINUOUS
 62
             110
  5
2B3
 10
245.77161306142807
 20
30.0
 30
0.0
  0
SEQEND
  8
0
  6
CONTINUOUS
 62
             110
  5
2B4
  0
TEXT
  8
0
  6
CONTINUOUS
 62
             110
  5
3A
 10
231.18827971153789
 20
31.800000071525574
 30
0.0
 40
3.2000000476837158
  1
ストッパー
 41
0.7812499573143839
  7
MX_NOTE_STANDARD
 11
231.18827971153789
 21
33.400000095367432
 31
0.0
 73
               2
  0
POLYLINE
  8
0
  6
CONTINUOUS
 62
             110
  5
3B
 66
               1
 10
0.0
 20
0.0
 30
0.0
  0
VERTEX
  8
0
  6
CONTINUOUS
 62
             110
  5
2B5
 10
102.39999771118164
 20
106.90000152587891
 30
0.0
  0
VERTEX
  8
0
  6
CONTINUOUS
 62
             110
  5
2B6
 10
110.0
 20
120.0
 30
0.0
  0
VERTEX
  8
0
  6
CONTINUOUS
 62
             110
  5
2B7
 10
122.37653791904449
 20
120.0
 30
0.0
  0
SEQEND
  8
0
  6
CONTINUOUS
 62
             110
  5
2B8
  0
TEXT
  8
0
  6
CONTINUOUS
 62
             110
  5
3C
 10
110.87653791904449
 20
121.80000007152557
 30
0.0
 40
3.2000000476837158
  1
CF34
 41
0.9374999860301616
  7
MX_NOTE_STANDARD
 11
110.87653791904449
 21
123.40000009536743
 31
0.0
 73
               2
  0
DIMENSION
  8
LY_3
  6
CONTINUOUS
 62
             110
  5
4A
  2
*D2
 10
240.0
 20
-17.0
 30
0.0
 11
240.0
 21
-0.0000019073486328
 31
0.0
 70
             128
  1
%%c<>
 13
195.30000305175781
 23
16.999996185302734
 33
0.0
 14
195.30000305175781
 24
-17.0
 34
0.0
 50
90.0
  3
MXDIMSTYLE
1001
ACAD
1000
DSTYLE
1002
{
1070
              41
1040
2.77
1070
             140
1040
3.2000000476837158
1070
             284
1070
               8
1070
             340
1005
44
1002
}
  0
DIMENSION
  8
LY_3
  6
CONTINUOUS
 62
             110
  5
57
  2
*D3
 10
230.0
 20
-8.0
 30
0.0
 11
230.0
 21
-4.0
 31
0.0
 70
             128
  1
<>
 13
219.19441223144531
 23
0.0
 33
0.0
 14
218.75045776367188
 24
-8.0
 34
0.0
 50
90.0
  3
MXDIMSTYLE
1001
ACAD
1000
DSTYLE
1002
{
1070
              41
1040
2.77
1070
             140
1040
3.2000000476837158
1070
             284
1070
               8
1002
}
  0
DIMENSION
  8
LY_3
  6
CONTINUOUS
 62
             110
  5
67
  2
*D4
 10
40.0
 20
2.0
 30
0.0
 11
40.0
 21
9.9611806869506836
 31
0.0
 70
             128
  1
<>
 13
49.300003051757813
 23
-3.0
 33
0.0
 14
48.800003051757813
 24
2.0
 34
0.0
 50
90.0
  3
MXDIMSTYLE
1001
ACAD
1000
DSTYLE
1002
{
1070
              41
1040
2.77
1070
             140
1040
3.2000000476837158
1070
             284
1070
               8
1002
}
  0
DIMENSION
  8
LY_3
  6
CONTINUOUS
 62
             110
  5
77
  2
*D5
 10
30.0
 20
3.0
 30
0.0
 11
30.0
 21
11.616666793823242
 31
0.0
 70
             128
  1
%%c<>
 13
49.300003051757813
 23
-3.0
 33
0.0
 14
58.800003051757813
 24
3.0
 34
0.0
 50
90.0
  3
MXDIMSTYLE
1001
ACAD
1000
DSTYLE
1002
{
1070
              41
1040
2.77
1070
             140
1040
3.2000000476837158
1070
             284
1070
               8
1070
             340
1005
44
1002
}
  0
LINE
  8
LY_3
  6
CENTER
 62
             110
  5
79
 10
44.686798095703125
 20
90.0
 30
0.0
 11
153.45513916015625
 21
90.0
 31
0.0
  0
LINE
  8
LY_3
  6
CONTINUOUS
 62
               3
  5
7A
 10
99.599998474121094
 20
73.099998474121094
 30
0.0
 11
105.19999694824219
 21
73.099998474121094
 31
0.0
  0
LINE
  8
LY_3
  6
CONTINUOUS
 62
               3
  5
7B
 10
98.800003051757812
 20
-10.700000762939453
 30
0.0
 11
99.60711669921875
 21
-10.700000762939453
 31
0.0
  0
LINE
  8
LY_3
  6
CONTINUOUS
 62
               3
  5
7C
 10
99.400001525878906
 20
-9.1500015258789062
 30
0.0
 11
99.400001525878906
 21
-3.0
 31
0.0
  0
LINE
  8
LY_3
  6
CONTINUOUS
 62
               3
  5
7D
 10
98.800003051757812
 20
-15.700000762939453
 30
0.0
 11
106.0
 21
-15.700000762939453
 31
0.0
  0
LINE
  8
LY_3
  6
CONTINUOUS
 62
               3
  5
7E
 10
98.800003051757812
 20
-11.299999237060547
 30
0.0
 11
106.0
 21
-11.299999237060547
 31
0.0
  0
LINE
  8
LY_3
  6
CONTINUOUS
 62
               3
  5
7F
 10
105.2000181975219
 20
73.09997520743002
 30
0.0
 11
106.00001972114012
 21
73.899978619232911
 31
0.0
  0
LINE
  8
LY_3
  6
CONTINUOUS
 62
               3
  5
80
 10
98.799977163260564
 20
73.899980979345173
 30
0.0
 11
99.599982328369379
 21
73.099975814236359
 31
0.0
  0
LINE
  8
LY_3
  6
CENTER
 62
             110
  5
81
 10
96.800003051757813
 20
76.5
 30
0.0
 11
108.0
 21
76.5
 31
0.0
  0
LINE
  8
LY_3
  6
CONTINUOUS
 62
               3
  5
82
 10
99.399997876738098
 20
-9.1499988584567973
 30
0.0
 11
99.842037470269929
 21
-10.364493934862708
 31
0.0
  0
LINE
  8
LY_3
  6
CONTINUOUS
 62
               3
  5
83
 10
99.400002480751709
 20
-9.1500049599328577
 30
0.0
 11
99.999997901605411
 21
-9.0975122972156441
 31
0.0
  0
LINE
  8
LY_3
  6
CONTINUOUS
 62
               3
  5
84
 10
98.800003051757812
 20
73.900001525878906
 30
0.0
 11
98.800003051757812
 21
106.10003662109375
 31
0.0
  0
LINE
  8
LY_3
  6
CONTINUOUS
 62
               3
  5
85
 10
100.0
 20
-9.0975074768066406
 30
0.0
 11
100.0
 21
-3.0
 31
0.0
  0
LINE
  8
LY_3
  6
CONTINUOUS
 62
               3
  5
86
 10
110.0
 20
-9.0
 30
0.0
 11
110.0
 21
-3.0
 31
0.0
  0
LINE
  8
LY_3
  6
CONTINUOUS
 62
               3
  5
87
 10
106.0
 20
99.0
 30
0.0
 11
124.30000305175781
 21
99.0
 31
0.0
  0
LINE
  8
LY_3
  6
CONTINUOUS
 62
               3
  5
88
 10
106.0
 20
81.0
 30
0.0
 11
124.30000305175781
 21
81.0
 31
0.0
  0
LINE
  8
LY_3
  6
CONTINUOUS
 62
               3
  5
89
 10
99.599998474121094
 20
106.90000152587891
 30
0.0
 11
105.19999694824219
 21
106.90000152587891
 31
0.0
  0
LINE
  8
LY_3
  6
CONTINUOUS
 62
               3
  5
8A
 10
98.800003051757812
 20
10.700000762939453
 30
0.0
 11
99.60711669921875
 21
10.700000762939453
 31
0.0
  0
LINE
  8
LY_3
  6
CONTINUOUS
 62
               3
  5
8B
 10
99.400001525878906
 20
9.1500015258789062
 30
0.0
 11
99.400001525878906
 21
3.0
 31
0.0
  0
LINE
  8
LY_3
  6
CONTINUOUS
 62
               3
  5
8C
 10
98.800003051757812
 20
15.700000762939453
 30
0.0
 11
106.0
 21
15.700000762939453
 31
0.0
  0
LINE
  8
LY_3
  6
CONTINUOUS
 62
               3
  5
8D
 10
98.800003051757812
 20
11.299999237060547
 30
0.0
 11
106.0
 21
11.299999237060547
 31
0.0
  0
LINE
  8
LY_3
  6
CONTINUOUS
 62
               3
  5
8E
 10
105.20000875662959
 20
106.90002066493639
 30
0.0
 11
106.00001297764288
 21
106.10001455573206
 31
0.0
  0
LINE
  8
LY_3
  6
CONTINUOUS
 62
               3
  5
8F
 10
98.799993347650116
 20
106.10000545189337
 30
0.0
 11
99.599993117962413
 21
106.90000522220566
 31
0.0
  0
LINE
  8
LY_3
  6
CENTER
 62
             110
  5
90
 10
96.800003051757813
 20
103.5
 30
0.0
 11
108.0
 21
103.5
 31
0.0
  0
LINE
  8
LY_3
  6
CONTINUOUS
 62
               3
  5
91
 10
99.400003438204124
 20
9.150000934939726
 30
0.0
 11
99.842041727033859
 21
10.364492426702327
 31
0.0
  0
LINE
  8
LY_3
  6
CONTINUOUS
 62
               3
  5
92
 10
99.400002955774369
 20
9.1500046977149623
 30
0.0
 11
99.999998376628071
 21
9.0975120349977487
 31
0.0
  0
LINE
  8
LY_3
  6
CONTINUOUS
 62
               3
  5
93
 10
100.0
 20
9.0975074768066406
 30
0.0
 11
100.0
 21
3.0
 31
0.0
  0
LINE
  8
LY_3
  6
CONTINUOUS
 62
               3
  5
94
 10
106.0
 20
106.09999847412109
 30
0.0
 11
106.0
 21
73.899971008300781
 31
0.0
  0
LINE
  8
LY_3
  6
CONTINUOUS
 62
               3
  5
95
 10
105.80000305175781
 20
7.4000015258789062
 30
0.0
 11
127.80000305175781
 21
7.4000015258789062
 31
0.0
  0
LINE
  8
LY_3
  6
CONTINUOUS
 62
               3
  5
96
 10
49.300003051757813
 20
87.0
 30
0.0
 11
98.800003051757812
 21
87.0
 31
0.0
  0
LINE
  8
LY_3
  6
CONTINUOUS
 62
               3
  5
97
 10
49.300003051757813
 20
93.0
 30
0.0
 11
98.800003051757812
 21
93.0
 31
0.0
  0
LINE
  8
LY_3
  6
CONTINUOUS
 62
               3
  5
98
 10
110.0
 20
3.0
 30
0.0
 11
110.0
 21
9.0
 31
0.0
  0
LINE
  8
LY_3
  6
CONTINUOUS
 62
               3
  5
99
 10
134.80000305175781
 20
11.0
 30
0.0
 11
134.80000305175781
 21
3.0
 31
0.0
  0
LINE
  8
LY_3
  6
CONTINUOUS
 62
               3
  5
9A
 10
128.80000305175781
 20
-3.0
 30
0.0
 11
128.80000305175781
 21
-6.4000015258789062
 31
0.0
  0
LINE
  8
LY_3
  6
CONTINUOUS
 62
               3
  5
9B
 10
134.80000305175781
 20
-11.0
 30
0.0
 11
134.80000305175781
 21
-3.0
 31
0.0
  0
LINE
  8
LY_3
  6
CONTINUOUS
 62
               3
  5
9C
 10
124.5
 20
12.0
 30
0.0
 11
140.81058502197266
 21
12.0
 31
0.0
  0
LINE
  8
LY_3
  6
CONTINUOUS
 62
               3
  5
9D
 10
124.80000305175781
 20
103.5
 30
0.0
 11
164.80000305175781
 21
103.5
 31
0.0
  0
LINE
  8
LY_3
  6
PHANTOM
 62
             110
  5
9F
 10
137.80000305175781
 20
10.975292205810547
 30
0.0
 11
141.30821228027344
 21
10.975292205810547
 31
0.0
  0
LINE
  8
LY_3
  6
PHANTOM
 62
             110
  5
A0
 10
136.30000305175781
 20
3.9770126342773438
 30
0.0
 11
140.45946216583252
 21
3.9770126342773438
 31
0.0
  0
LINE
  8
LY_3
  6
PHANTOM
 62
             110
  5
A1
 10
137.80565643310547
 20
-10.975292205810547
 30
0.0
 11
139.78298759460449
 21
-10.975292205810547
 31
0.0
  0
LINE
  8
LY_3
  6
PHANTOM
 62
             110
  5
A2
 10
136.30000305175781
 20
-3.9770126342773438
 30
0.0
 11
138.16608285903931
 21
-3.9770126342773438
 31
0.0
  0
LINE
  8
LY_3
  6
CONTINUOUS
 62
               3
  5
A3
 10
124.5
 20
-12.0
 30
0.0
 11
140.22784996032715
 21
-12.0
 31
0.0
  0
LINE
  8
LY_3
  6
CONTINUOUS
 62
               3
  5
A4
 10
124.80000305175781
 20
76.5
 30
0.0
 11
164.80000305175781
 21
76.5
 31
0.0
  0
LINE
  8
LY_3
  6
CONTINUOUS
 62
               3
  5
A5
 10
48.800003051757813
 20
92.5
 30
0.0
 11
48.800003051757813
 21
87.5
 31
0.0
  0
LINE
  8
LY_3
  6
CONTINUOUS
 62
               3
  5
A6
 10
128.80000305175781
 20
6.4000015258789062
 30
0.0
 11
128.80000305175781
 21
3.0
 31
0.0
  0
LINE
  8
LY_3
  6
CONTINUOUS
 62
               3
  5
A7
 10
124.30000305175781
 20
103.0
 30
0.0
 11
124.30000305175781
 21
77.0
 31
0.0
  0
LINE
  8
LY_3
  6
CONTINUOUS
 62
               3
  5
A8
 10
124.2999997367242
 20
103.00000586567421
 30
0.0
 11
124.80000030966585
 21
103.50000639646896
 31
0.0
  0
LINE
  8
LY_3
  6
CONTINUOUS
 62
               3
  5
A9
 10
124.30000108542345
 20
77.000000796051836
 30
0.0
 11
124.80000165836509
 21
76.500000265257086
 31
0.0
  0
LINE
  8
LY_3
  6
CONTINUOUS
 62
               3
  5
AA
 10
105.80000305175781
 20
8.0
 30
0.0
 11
105.80000305175781
 21
3.0
 31
0.0
  0
LINE
  8
LY_3
  6
CONTINUOUS
 62
               3
  5
AB
 10
102.80000305175781
 20
8.4000015258789063
 30
0.0
 11
102.80000305175781
 21
3.0
 31
0.0
  0
LINE
  8
LY_3
  6
CONTINUOUS
 62
               3
  5
AC
 10
102.0
 20
8.4000015258789063
 30
0.0
 11
102.80000305175781
 21
8.4000015258789063
 31
0.0
  0
LINE
  8
LY_3
  6
CONTINUOUS
 62
               3
  5
AD
 10
102.0
 20
8.4000015258789063
 30
0.0
 11
102.0
 21
3.0
 31
0.0
  0
LINE
  8
LY_3
  6
CONTINUOUS
 62
               3
  5
AE
 10
102.0
 20
6.9000015258789062
 30
0.0
 11
102.80000305175781
 21
6.9000015258789062
 31
0.0
  0
LINE
  8
LY_3
  6
CONTINUOUS
 62
               3
  5
AF
 10
102.0
 20
-8.4000015258789063
 30
0.0
 11
102.0
 21
-3.0
 31
0.0
  0
LINE
  8
LY_3
  6
CONTINUOUS
 62
               3
  5
B0
 10
102.80000305175781
 20
-8.4000015258789063
 30
0.0
 11
102.80000305175781
 21
-3.0
 31
0.0
  0
LINE
  8
LY_3
  6
CONTINUOUS
 62
               3
  5
B1
 10
102.0
 20
-6.9000015258789062
 30
0.0
 11
102.80000305175781
 21
-6.9000015258789062
 31
0.0
  0
LINE
  8
LY_3
  6
CONTINUOUS
 62
               3
  5
B2
 10
102.0
 20
-8.4000015258789063
 30
0.0
 11
102.80000305175781
 21
-8.4000015258789063
 31
0.0
  0
LINE
  8
LY_3
  6
CONTINUOUS
 62
               3
  5
B3
 10
105.80000305175781
 20
-8.0
 30
0.0
 11
105.80000305175781
 21
-3.0
 31
0.0
  0
LINE
  8
LY_3
  6
CONTINUOUS
 62
               3
  5
B4
 10
105.80000305175781
 20
-7.4000015258789062
 30
0.0
 11
127.80000305175781
 21
-7.4000015258789062
 31
0.0
  0
LINE
  8
LY_3
  6
CONTINUOUS
 62
               3
  5
B5
 10
49.300003051757813
 20
93.0
 30
0.0
 11
49.300003051757813
 21
91.599998474121094
 31
0.0
  0
LINE
  8
LY_3
  6
CONTINUOUS
 62
               3
  5
B6
 10
48.800004301881415
 20
87.499993693156512
 30
0.0
 11
49.30000487482306
 21
86.999993162361761
 31
0.0
  0
LINE
  8
LY_3
  6
CONTINUOUS
 62
               3
  5
B7
 10
48.800003051757813
 20
2.0
 30
0.0
 11
58.800003051757813
 21
2.0
 31
0.0
  0
LINE
  8
LY_3
  6
CONTINUOUS
 62
               3
  5
B8
 10
58.800003051757813
 20
3.0
 30
0.0
 11
58.800003051757813
 21
2.0
 31
0.0
  0
LINE
  8
LY_3
  6
CONTINUOUS
 62
               3
  5
B9
 10
98.800003051757812
 20
16.100002288818359
 30
0.0
 11
98.800003051757812
 21
3.0
 31
0.0
  0
LINE
  8
LY_3
  6
CONTINUOUS
 62
               3
  5
BA
 10
98.799979860658823
 20
16.100020675864926
 30
0.0
 11
99.599976933572862
 21
16.900017748778964
 31
0.0
  0
LINE
  8
LY_3
  6
CONTINUOUS
 62
               3
  5
BB
 10
99.599998474121094
 20
16.900001525878906
 30
0.0
 11
105.19999694824219
 21
16.900001525878906
 31
0.0
  0
LINE
  8
LY_3
  6
CONTINUOUS
 62
               3
  5
BC
 10
105.20001617445848
 20
16.900010263476474
 30
0.0
 11
106.00001500068163
 21
16.100009549075025
 31
0.0
  0
LINE
  8
LY_3
  6
CONTINUOUS
 62
               3
  5
BD
 10
106.0
 20
16.099998474121094
 30
0.0
 11
106.0
 21
9.0
 31
0.0
  0
LINE
  8
LY_3
  6
CENTER
 62
             110
  5
BE
 10
96.800003051757813
 20
13.5
 30
0.0
 11
108.0
 21
13.5
 31
0.0
  0
LINE
  8
LY_3
  6
CONTINUOUS
 62
               3
  5
BF
 10
106.0
 20
9.0
 30
0.0
 11
107.13397598266602
 21
9.0
 31
0.0
  0
LINE
  8
LY_3
  6
CONTINUOUS
 62
               3
  5
C0
 10
110.0
 20
9.0
 30
0.0
 11
111.13397598266602
 21
9.0
 31
0.0
  0
LINE
  8
LY_3
  6
CONTINUOUS
 62
               3
  5
C1
 10
106.0
 20
-9.0
 30
0.0
 11
107.13397598266602
 21
-9.0
 31
0.0
  0
LINE
  8
LY_3
  6
CONTINUOUS
 62
               3
  5
C2
 10
106.0
 20
-16.099998474121094
 30
0.0
 11
106.0
 21
-9.0
 31
0.0
  0
LINE
  8
LY_3
  6
CENTER
 62
             110
  5
C3
 10
96.800003051757813
 20
-13.5
 30
0.0
 11
108.0
 21
-13.5
 31
0.0
  0
LINE
  8
LY_3
  6
CONTINUOUS
 62
               3
  5
C4
 10
105.2000188718655
 20
-16.900016312232538
 30
0.0
 11
106.00001769808864
 21
-16.100015597831089
 31
0.0
  0
LINE
  8
LY_3
  6
CONTINUOUS
 62
               3
  5
C5
 10
99.599998474121094
 20
-16.900001525878906
 30
0.0
 11
105.19999694824219
 21
-16.900001525878906
 31
0.0
  0
LINE
  8
LY_3
  6
CONTINUOUS
 62
               3
  5
C6
 10
98.799974465862306
 20
-16.100014586276302
 30
0.0
 11
99.599974236174603
 21
-16.900014356588599
 31
0.0
  0
LINE
  8
LY_3
  6
CONTINUOUS
 62
               3
  5
C7
 10
98.800003051757812
 20
-16.099998474121094
 30
0.0
 11
98.800003051757812
 21
-3.0
 31
0.0
  0
LINE
  8
LY_3
  6
CONTINUOUS
 62
               3
  5
C8
 10
49.300003051757813
 20
-3.0
 30
0.0
 11
138.19180536270142
 21
-3.0
 31
0.0
  0
LINE
  8
LY_3
  6
CONTINUOUS
 62
               3
  5
C9
 10
49.300003051757813
 20
2.0
 30
0.0
 11
49.300003051757813
 21
-3.0
 31
0.0
  0
LINE
  8
LY_3
  6
CONTINUOUS
 62
               3
  5
CA
 10
48.800003051757813
 20
2.0
 30
0.0
 11
48.800003051757813
 21
-2.5
 31
0.0
  0
LINE
  8
LY_3
  6
CONTINUOUS
 62
               3
  5
CB
 10
48.799997052622984
 20
-2.5000040641014039
 30
0.0
 11
49.299997625564629
 21
-3.0000045948961542
 31
0.0
  0
LINE
  8
LY_3
  6
CONTINUOUS
 62
               3
  5
CC
 10
128.80000305175781
 20
12.0
 30
0.0
 11
128.80000305175781
 21
9.0
 31
0.0
  0
LINE
  8
LY_3
  6
CONTINUOUS
 62
               3
  5
CD
 10
124.99999237060547
 20
13.5
 30
0.0
 11
164.80000305175781
 21
13.5
 31
0.0
  0
LINE
  8
LY_3
  6
CONTINUOUS
 62
               3
  5
CE
 10
125.0
 20
-13.5
 30
0.0
 11
164.80000305175781
 21
-13.5
 31
0.0
  0
LINE
  8
LY_3
  6
CENTER
 62
             110
  5
CF
 10
44.053359985351563
 20
0.0
 30
0.0
 11
219.19441223144531
 21
0.0
 31
0.0
  0
LINE
  8
LY_3
  6
CONTINUOUS
 62
               3
  5
D0
 10
99.600006103515625
 20
106.90000152587891
 30
0.0
 11
99.600006103515625
 21
73.099998474121094
 31
0.0
  0
LINE
  8
LY_3
  6
CONTINUOUS
 62
               3
  5
D1
 10
105.19999694824219
 20
106.90000152587891
 30
0.0
 11
105.19999694824219
 21
73.099967956542969
 31
0.0
  0
LINE
  8
LY_3
  6
CONTINUOUS
 62
               3
  5
D2
 10
124.80000305175781
 20
103.5
 30
0.0
 11
124.80000305175781
 21
76.5
 31
0.0
  0
LINE
  8
LY_3
  6
CONTINUOUS
 62
               3
  5
D3
 10
163.80000305175781
 20
92.0
 30
0.0
 11
163.80000305175781
 21
90.0
 31
0.0
  0
LINE
  8
LY_3
  6
CONTINUOUS
 62
               3
  5
D4
 10
162.80000305175781
 20
92.0
 30
0.0
 11
162.80000305175781
 21
90.0
 31
0.0
  0
LINE
  8
LY_3
  6
CONTINUOUS
 62
               3
  5
D5
 10
161.80000305175781
 20
92.0
 30
0.0
 11
161.80000305175781
 21
90.0
 31
0.0
  0
LINE
  8
LY_3
  6
CONTINUOUS
 62
               3
  5
D6
 10
160.80000305175781
 20
92.0
 30
0.0
 11
160.80000305175781
 21
90.0
 31
0.0
  0
LINE
  8
LY_3
  6
CONTINUOUS
 62
               3
  5
D7
 10
159.80000305175781
 20
93.0
 30
0.0
 11
159.80000305175781
 21
90.0
 31
0.0
  0
LINE
  8
LY_3
  6
CONTINUOUS
 62
               3
  5
D8
 10
153.80000305175781
 20
90.0
 30
0.0
 11
164.80000305175781
 21
90.0
 31
0.0
  0
LINE
  8
LY_3
  6
CENTER
 62
             110
  5
D9
 10
164.65555953979492
 20
90.0
 30
0.0
 11
219.75380706787109
 21
90.0
 31
0.0
  0
LINE
  8
LY_3
  6
CONTINUOUS
 62
               3
  5
DA
 10
58.800003051757813
 20
91.599998474121094
 30
0.0
 11
58.800003051757813
 21
88.400001525878906
 31
0.0
  0
LINE
  8
LY_3
  6
CONTINUOUS
 62
               3
  5
DB
 10
48.799998759570286
 20
92.500004728860617
 30
0.0
 11
49.29999680370085
 21
93.0000027308445
 31
0.0
  0
LINE
  8
LY_3
  6
CONTINUOUS
 62
               3
  5
DC
 10
48.800003051757813
 20
91.599998474121094
 30
0.0
 11
58.800003051757813
 21
91.599998474121094
 31
0.0
  0
LINE
  8
LY_3
  6
CONTINUOUS
 62
               3
  5
DD
 10
48.800003051757813
 20
88.400001525878906
 30
0.0
 11
58.800003051757813
 21
88.400001525878906
 31
0.0
  0
LINE
  8
LY_3
  6
CONTINUOUS
 62
               3
  5
DE
 10
49.300003051757813
 20
88.400001525878906
 30
0.0
 11
49.300003051757813
 21
87.0
 31
0.0
  0
LINE
  8
LY_3
  6
CONTINUOUS
 62
             110
  5
DF
 10
48.800012199492357
 20
88.400018414025908
 30
0.0
 11
58.79999001915985
 21
91.600011116057431
 31
0.0
  0
LINE
  8
LY_3
  6
CONTINUOUS
 62
             110
  5
E0
 10
58.799999610833765
 20
88.39999915074759
 30
0.0
 11
48.799996358697172
 21
91.599999991168715
 31
0.0
  0
LINE
  8
LY_3
  6
CONTINUOUS
 62
               3
  5
E1
 10
128.80000305175781
 20
5.0
 30
0.0
 11
134.80000305175781
 21
5.0
 31
0.0
  0
LINE
  8
LY_3
  6
CONTINUOUS
 62
               3
  5
E2
 10
128.80000305175781
 20
-5.0
 30
0.0
 11
134.80000305175781
 21
-5.0
 31
0.0
  0
LINE
  8
LY_3
  6
CONTINUOUS
 62
               3
  5
E3
 10
100.0
 20
8.0
 30
0.0
 11
102.0
 21
8.0
 31
0.0
  0
LINE
  8
LY_3
  6
CONTINUOUS
 62
               3
  5
E4
 10
100.0
 20
-8.0
 30
0.0
 11
102.0
 21
-8.0
 31
0.0
  0
LINE
  8
LY_3
  6
CONTINUOUS
 62
               3
  5
E5
 10
102.80000305175781
 20
-8.0
 30
0.0
 11
105.80000305175781
 21
-8.0
 31
0.0
  0
LINE
  8
LY_3
  6
CONTINUOUS
 62
               3
  5
E6
 10
102.80000305175781
 20
8.0
 30
0.0
 11
105.80000305175781
 21
8.0
 31
0.0
  0
LINE
  8
LY_3
  6
CONTINUOUS
 62
             110
  5
E7
 10
102.79999970197491
 20
2.9999950122694372
 30
0.0
 11
105.79999945099576
 21
7.9999948256720472
 31
0.0
  0
LINE
  8
LY_3
  6
CONTINUOUS
 62
             110
  5
E8
 10
105.80000347850788
 20
3.0000037092423781
 30
0.0
 11
102.80000581479783
 21
8.0000000471268322
 31
0.0
  0
LINE
  8
LY_3
  6
CONTINUOUS
 62
             110
  5
E9
 10
102.80000297305071
 20
-2.9999974447814566
 30
0.0
 11
105.80000370339428
 21
-7.9999988937220223
 31
0.0
  0
LINE
  8
LY_3
  6
CONTINUOUS
 62
             110
  5
EA
 10
105.80000245629662
 20
-3.0000005400369218
 30
0.0
 11
102.80000074463032
 21
-8.0000036245154433
 31
0.0
  0
LINE
  8
LY_3
  6
CONTINUOUS
 62
               3
  5
EB
 10
124.5
 20
13.0
 30
0.0
 11
124.5
 21
9.0
 31
0.0
  0
LINE
  8
LY_3
  6
CONTINUOUS
 62
             110
  5
EC
 10
125.80000305175781
 20
11.5
 30
0.0
 11
132.5
 21
11.5
 31
0.0
  0
LINE
  8
LY_3
  6
CONTINUOUS
 62
               3
  5
ED
 10
132.5
 20
12.0
 30
0.0
 11
132.5
 21
10.700002670288086
 31
0.0
  0
LINE
  8
LY_3
  6
CONTINUOUS
 62
               3
  5
EE
 10
124.49999465118333
 20
13.000005550103047
 30
0.0
 11
124.99999522412497
 21
13.500006080897798
 31
0.0
  0
LINE
  8
LY_3
  6
CONTINUOUS
 62
               3
  5
EF
 10
124.5
 20
-13.0
 30
0.0
 11
124.5
 21
-9.0
 31
0.0
  0
LINE
  8
LY_3
  6
CONTINUOUS
 62
               3
  5
F0
 10
124.49999985631894
 20
-13.000000324524422
 30
0.0
 11
125.00000042926058
 21
-13.500000855319172
 31
0.0
  0
LINE
  8
LY_3
  6
CONTINUOUS
 62
               3
  5
F1
 10
132.5
 20
-12.0
 30
0.0
 11
132.5
 21
-10.700002670288086
 31
0.0
  0
LINE
  8
LY_3
  6
CONTINUOUS
 62
               3
  5
F2
 10
125.80000305175781
 20
12.0
 30
0.0
 11
125.80000305175781
 21
9.0
 31
0.0
  0
LINE
  8
LY_3
  6
CONTINUOUS
 62
               3
  5
F3
 10
125.80000305175781
 20
-9.0
 30
0.0
 11
125.80000305175781
 21
-12.0
 31
0.0
  0
LINE
  8
LY_3
  6
CONTINUOUS
 62
               3
  5
F4
 10
127.80000486420727
 20
8.9999937510294217
 30
0.0
 11
128.80000322839851
 21
9.9999921995142245
 31
0.0
  0
LINE
  8
LY_3
  6
CONTINUOUS
 62
               3
  5
F5
 10
127.80000250398359
 20
-8.999998113859192
 30
0.0
 11
128.80000086817483
 21
-9.9999965623439948
 31
0.0
  0
LINE
  8
LY_3
  6
CONTINUOUS
 62
             110
  5
F6
 10
125.80000305175781
 20
-11.5
 30
0.0
 11
132.5
 21
-11.5
 31
0.0
  0
LINE
  8
LY_3
  6
CENTER
 62
             110
  5
F7
 10
124.01114654541016
 20
10.5
 30
0.0
 11
129.55841064453125
 21
10.5
 31
0.0
  0
LINE
  8
LY_3
  6
CONTINUOUS
 62
               3
  5
F8
 10
125.80000305175781
 20
11.100000381469727
 30
0.0
 11
128.80000305175781
 21
11.100000381469727
 31
0.0
  0
LINE
  8
LY_3
  6
CONTINUOUS
 62
               3
  5
F9
 10
125.80000305175781
 20
9.8999996185302734
 30
0.0
 11
128.80000305175781
 21
9.8999996185302734
 31
0.0
  0
LINE
  8
LY_3
  6
CONTINUOUS
 62
               3
  5
FA
 10
125.80000305175781
 20
-9.8999996185302734
 30
0.0
 11
128.80000305175781
 21
-9.8999996185302734
 31
0.0
  0
LINE
  8
LY_3
  6
CENTER
 62
             110
  5
FB
 10
124.01114654541016
 20
-10.5
 30
0.0
 11
129.55841064453125
 21
-10.5
 31
0.0
  0
LINE
  8
LY_3
  6
CONTINUOUS
 62
               3
  5
FC
 10
125.80000305175781
 20
-11.100000381469727
 30
0.0
 11
128.80000305175781
 21
-11.100000381469727
 31
0.0
  0
LINE
  8
LY_3
  6
CONTINUOUS
 62
               3
  5
FD
 10
158.80000305175781
 20
92.0
 30
0.0
 11
158.80000305175781
 21
90.0
 31
0.0
  0
LINE
  8
LY_3
  6
CONTINUOUS
 62
               3
  5
FE
 10
134.20000267028809
 20
11.0
 30
0.0
 11
134.80000305175781
 21
11.0
 31
0.0
  0
LINE
  8
LY_3
  6
CONTINUOUS
 62
               3
  5
FF
 10
134.20000267028809
 20
-11.0
 30
0.0
 11
134.80000305175781
 21
-11.0
 31
0.0
  0
LINE
  8
LY_3
  6
CONTINUOUS
 62
               3
  5
100
 10
157.80000305175781
 20
92.0
 30
0.0
 11
157.80000305175781
 21
90.0
 31
0.0
  0
LINE
  8
LY_3
  6
CONTINUOUS
 62
               3
  5
101
 10
156.80000305175781
 20
92.0
 30
0.0
 11
156.80000305175781
 21
90.0
 31
0.0
  0
LINE
  8
LY_3
  6
CONTINUOUS
 62
               3
  5
102
 10
155.80000305175781
 20
92.0
 30
0.0
 11
155.80000305175781
 21
90.0
 31
0.0
  0
LINE
  8
LY_3
  6
CONTINUOUS
 62
               3
  5
103
 10
154.80000305175781
 20
94.0
 30
0.0
 11
154.80000305175781
 21
90.0
 31
0.0
  0
LINE
  8
LY_3
  6
CONTINUOUS
 62
               3
  5
104
 10
153.80000305175781
 20
92.0
 30
0.0
 11
153.80000305175781
 21
90.0
 31
0.0
  0
LINE
  8
LY_3
  6
CONTINUOUS
 62
               3
  5
105
 10
207.5
 20
-9.5
 30
0.0
 11
204.80000305175781
 21
-9.5
 31
0.0
  0
LINE
  8
LY_3
  6
CONTINUOUS
 62
               3
  5
106
 10
207.5
 20
-6.5
 30
0.0
 11
204.80000305175781
 21
-6.5
 31
0.0
  0
LINE
  8
LY_3
  6
CONTINUOUS
 62
               3
  5
107
 10
207.5
 20
-7.0
 30
0.0
 11
204.80000305175781
 21
-7.0
 31
0.0
  0
LINE
  8
LY_3
  6
CONTINUOUS
 62
               3
  5
108
 10
207.5
 20
-9.0
 30
0.0
 11
204.80000305175781
 21
-9.0
 31
0.0
  0
LINE
  8
LY_3
  6
CONTINUOUS
 62
               3
  5
109
 10
207.5
 20
-3.5
 30
0.0
 11
207.5
 21
-12.5
 31
0.0
  0
LINE
  8
LY_3
  6
CONTINUOUS
 62
               3
  5
10A
 10
215.5
 20
-1.4999961853027344
 30
0.0
 11
215.5
 21
-14.500003814697266
 31
0.0
  0
LINE
  8
LY_3
  6
CONTINUOUS
 62
               3
  5
10B
 10
209.0
 20
-1.5000019073486328
 30
0.0
 11
209.0
 21
-14.5
 31
0.0
  0
LINE
  8
LY_3
  6
CONTINUOUS
 62
               3
  5
10C
 10
215.0
 20
-1.0
 30
0.0
 11
215.0
 21
-15.0
 31
0.0
  0
LINE
  8
LY_3
  6
CONTINUOUS
 62
               3
  5
10D
 10
209.5
 20
-1.0
 30
0.0
 11
209.5
 21
-15.0
 31
0.0
  0
LINE
  8
LY_3
  6
CONTINUOUS
 62
               3
  5
10E
 10
215.0
 20
-1.0
 30
0.0
 11
209.5
 21
-1.0
 31
0.0
  0
LINE
  8
LY_3
  6
CONTINUOUS
 62
               3
  5
10F
 10
215.0
 20
-15.0
 30
0.0
 11
209.5
 21
-15.0
 31
0.0
  0
LINE
  8
LY_3
  6
CONTINUOUS
 62
               3
  5
110
 10
209.00000315959414
 20
-1.5000000016561899
 30
0.0
 11
209.50000373253579
 21
-0.9999994708614395
 31
0.0
  0
LINE
  8
LY_3
  6
CONTINUOUS
 62
               3
  5
111
 10
215.00000440828899
 20
-1.0000050974658734
 30
0.0
 11
215.50000493908374
 21
-1.5000056704075178
 31
0.0
  0
LINE
  8
LY_3
  6
CONTINUOUS
 62
               3
  5
112
 10
209.00000147372009
 20
-14.50000111611871
 30
0.0
 11
209.50000204666173
 21
-15.000001646913461
 31
0.0
  0
LINE
  8
LY_3
  6
CONTINUOUS
 62
               3
  5
113
 10
214.99999867631755
 20
-15.000000066406756
 30
0.0
 11
215.4999992071123
 21
-14.499999493465111
 31
0.0
  0
LINE
  8
LY_3
  6
CONTINUOUS
 62
               3
  5
114
 10
208.5
 20
-3.5
 30
0.0
 11
208.5
 21
-12.5
 31
0.0
  0
LINE
  8
LY_3
  6
CONTINUOUS
 62
               3
  5
115
 10
208.5
 20
-3.5
 30
0.0
 11
207.5
 21
-3.5
 31
0.0
  0
LINE
  8
LY_3
  6
CONTINUOUS
 62
               3
  5
116
 10
208.5
 20
-12.5
 30
0.0
 11
207.5
 21
-12.5
 31
0.0
  0
LINE
  8
LY_3
  6
CONTINUOUS
 62
               3
  5
117
 10
209.0
 20
-12.0
 30
0.0
 11
208.5
 21
-12.0
 31
0.0
  0
LINE
  8
LY_3
  6
CONTINUOUS
 62
               3
  5
118
 10
209.0
 20
-4.0
 30
0.0
 11
208.5
 21
-4.0
 31
0.0
  0
LINE
  8
LY_3
  6
CONTINUOUS
 62
               3
  5
119
 10
215.0
 20
-1.2000007629394531
 30
0.0
 11
209.5
 21
-1.2000007629394531
 31
0.0
  0
LINE
  8
LY_3
  6
CONTINUOUS
 62
               3
  5
11A
 10
215.0
 20
-1.5
 30
0.0
 11
209.5
 21
-1.5
 31
0.0
  0
LINE
  8
LY_3
  6
CONTINUOUS
 62
               3
  5
11B
 10
215.0
 20
-2.0
 30
0.0
 11
209.5
 21
-2.0
 31
0.0
  0
LINE
  8
LY_3
  6
CONTINUOUS
 62
               3
  5
11C
 10
215.0
 20
-2.7000007629394531
 30
0.0
 11
209.5
 21
-2.7000007629394531
 31
0.0
  0
LINE
  8
LY_3
  6
CONTINUOUS
 62
               3
  5
11D
 10
215.0
 20
-14.799999237060547
 30
0.0
 11
209.5
 21
-14.799999237060547
 31
0.0
  0
LINE
  8
LY_3
  6
CONTINUOUS
 62
               3
  5
11E
 10
215.0
 20
-14.5
 30
0.0
 11
209.5
 21
-14.5
 31
0.0
  0
LINE
  8
LY_3
  6
CONTINUOUS
 62
               3
  5
11F
 10
215.0
 20
-14.0
 30
0.0
 11
209.5
 21
-14.0
 31
0.0
  0
LINE
  8
LY_3
  6
CONTINUOUS
 62
               3
  5
120
 10
215.0
 20
-13.299999237060547
 30
0.0
 11
209.5
 21
-13.299999237060547
 31
0.0
  0
LINE
  8
LY_3
  6
CONTINUOUS
 62
               3
  5
121
 10
214.30000305175781
 20
84.699996948242188
 30
0.0
 11
208.80000305175781
 21
84.699996948242188
 31
0.0
  0
LINE
  8
LY_3
  6
CONTINUOUS
 62
               3
  5
122
 10
214.30000305175781
 20
95.300003051757813
 30
0.0
 11
208.80000305175781
 21
95.300003051757813
 31
0.0
  0
LINE
  8
LY_3
  6
CONTINUOUS
 62
               3
  5
123
 10
214.30000305175781
 20
96.0
 30
0.0
 11
208.80000305175781
 21
96.0
 31
0.0
  0
LINE
  8
LY_3
  6
CONTINUOUS
 62
               3
  5
124
 10
214.30000305175781
 20
96.5
 30
0.0
 11
208.80000305175781
 21
96.5
 31
0.0
  0
LINE
  8
LY_3
  6
CONTINUOUS
 62
               3
  5
125
 10
214.30000305175781
 20
83.5
 30
0.0
 11
208.80000305175781
 21
83.5
 31
0.0
  0
LINE
  8
LY_3
  6
CONTINUOUS
 62
               3
  5
126
 10
214.30000305175781
 20
84.0
 30
0.0
 11
208.80000305175781
 21
84.0
 31
0.0
  0
LINE
  8
LY_3
  6
CONTINUOUS
 62
               3
  5
127
 10
214.30000305175781
 20
96.800003051757813
 30
0.0
 11
208.80000305175781
 21
96.800003051757813
 31
0.0
  0
LINE
  8
LY_3
  6
CONTINUOUS
 62
               3
  5
128
 10
206.80000305175781
 20
85.5
 30
0.0
 11
206.80000305175781
 21
90.0
 31
0.0
  0
LINE
  8
LY_3
  6
CONTINUOUS
 62
               3
  5
129
 10
214.80000305175781
 20
83.5
 30
0.0
 11
214.80000305175781
 21
96.5
 31
0.0
  0
LINE
  8
LY_3
  6
CONTINUOUS
 62
               3
  5
12A
 10
208.30000305175781
 20
83.5
 30
0.0
 11
208.30000305175781
 21
96.5
 31
0.0
  0
LINE
  8
LY_3
  6
CONTINUOUS
 62
               3
  5
12B
 10
214.30000305175781
 20
83.0
 30
0.0
 11
214.30000305175781
 21
97.0
 31
0.0
  0
LINE
  8
LY_3
  6
CONTINUOUS
 62
               3
  5
12C
 10
208.80000305175781
 20
83.0
 30
0.0
 11
208.80000305175781
 21
97.0
 31
0.0
  0
LINE
  8
LY_3
  6
CONTINUOUS
 62
               3
  5
12D
 10
214.30000305175781
 20
83.0
 30
0.0
 11
208.80000305175781
 21
83.0
 31
0.0
  0
LINE
  8
LY_3
  6
CONTINUOUS
 62
               3
  5
12E
 10
214.30000305175781
 20
97.0
 30
0.0
 11
208.80000305175781
 21
97.0
 31
0.0
  0
LINE
  8
LY_3
  6
CONTINUOUS
 62
               3
  5
12F
 10
208.30000324677476
 20
83.499993893290565
 30
0.0
 11
208.80000390401011
 21
82.999993278202126
 31
0.0
  0
LINE
  8
LY_3
  6
CONTINUOUS
 62
               3
  5
130
 10
214.30000171377742
 20
83.00000177079221
 30
0.0
 11
214.80000224457217
 21
83.500002343733854
 31
0.0
  0
LINE
  8
LY_3
  6
CONTINUOUS
 62
               3
  5
131
 10
208.30000720857822
 20
96.500004591946436
 30
0.0
 11
208.80000778151987
 21
97.000005122741186
 31
0.0
  0
LINE
  8
LY_3
  6
CONTINUOUS
 62
               3
  5
132
 10
214.29999749909217
 20
96.999999664724612
 30
0.0
 11
214.79999802988692
 21
96.499999091782968
 31
0.0
  0
LINE
  8
LY_3
  6
CONTINUOUS
 62
               3
  5
133
 10
207.80000305175781
 20
85.5
 30
0.0
 11
207.80000305175781
 21
94.5
 31
0.0
  0
LINE
  8
LY_3
  6
CONTINUOUS
 62
               3
  5
134
 10
207.80000305175781
 20
85.5
 30
0.0
 11
206.80000305175781
 21
85.5
 31
0.0
  0
LINE
  8
LY_3
  6
CONTINUOUS
 62
               3
  5
135
 10
207.80000305175781
 20
94.5
 30
0.0
 11
206.80000305175781
 21
94.5
 31
0.0
  0
LINE
  8
LY_3
  6
CONTINUOUS
 62
               3
  5
136
 10
208.30000305175781
 20
94.0
 30
0.0
 11
207.80000305175781
 21
94.0
 31
0.0
  0
LINE
  8
LY_3
  6
CONTINUOUS
 62
               3
  5
137
 10
208.30000305175781
 20
86.0
 30
0.0
 11
207.80000305175781
 21
86.0
 31
0.0
  0
LINE
  8
LY_3
  6
CONTINUOUS
 62
               3
  5
138
 10
214.30000305175781
 20
83.199996948242187
 30
0.0
 11
208.80000305175781
 21
83.199996948242187
 31
0.0
  0
LINE
  8
LY_3
  6
CONTINUOUS
 62
               3
  5
139
 10
206.80000305175781
 20
90.0
 30
0.0
 11
206.80000305175781
 21
94.5
 31
0.0
  0
LINE
  8
LY_3
  6
CENTER
 62
             110
  5
13A
 10
-19.90765380859375
 20
0.0
 30
0.0
 11
21.774993896484375
 21
0.0
 31
0.0
  0
LINE
  8
LY_3
  6
CENTER
 62
             110
  5
13B
 10
0.0
 20
21.863227844238281
 30
0.0
 11
0.0
 21
-22.059089660644531
 31
0.0
  0
LINE
  8
LY_3
  6
CENTER
 62
             110
  5
13C
 10
-8.2500030328619687
 20
14.289424015713848
 30
0.0
 11
-5.2500026752341
 21
9.0932716862689631
 31
0.0
  0
LINE
  8
LY_3
  6
CENTER
 62
             110
  5
13D
 10
5.2500023911611606
 20
-9.0932680740374963
 30
0.0
 11
8.2500027487890293
 21
-14.289420403482382
 31
0.0
  0
LINE
  8
LY_3
  6
CENTER
 62
             110
  5
13E
 10
-8.2500175968702933
 20
-14.289415262658167
 30
0.0
 11
-5.2500172392424247
 21
-9.0932629332132819
 31
0.0
  0
LINE
  8
LY_3
  6
CENTER
 62
             110
  5
13F
 10
5.2500010416515579
 20
9.0932691976977367
 30
0.0
 11
8.2499975845817062
 21
14.289414919893261
 31
0.0
  0
LINE
  8
LY_3
  6
CONTINUOUS
 62
               3
  5
140
 10
-2.2360687255859375
 20
2.0
 30
0.0
 11
2.2360687255859375
 21
2.0
 31
0.0
  0
LINE
  8
LY_3
  6
CONTINUOUS
 62
               3
  5
141
 10
-2.8527439138492809
 20
-7.741082371777793
 30
0.0
 11
-1.4579035070928512
 21
-5.3251482501891587
 31
0.0
  0
LINE
  8
LY_3
  6
CONTINUOUS
 62
               3
  5
142
 10
1.4578848443138668
 20
-5.3251467837640121
 30
0.0
 11
2.8527290657680169
 21
-7.7410875126020073
 31
0.0
  0
LINE
  8
LY_3
  6
CONTINUOUS
 62
               3
  5
143
 10
108.86602401733398
 20
9.0
 30
0.0
 11
110.0
 21
9.0
 31
0.0
  0
LINE
  8
LY_3
  6
CONTINUOUS
 62
               3
  5
144
 10
112.86602401733398
 20
9.0
 30
0.0
 11
128.80000305175781
 21
9.0
 31
0.0
  0
LINE
  8
LY_3
  6
CONTINUOUS
 62
               3
  5
145
 10
108.86602401733398
 20
-9.0
 30
0.0
 11
111.13397598266602
 21
-9.0
 31
0.0
  0
LINE
  8
LY_3
  6
CONTINUOUS
 62
               3
  5
146
 10
112.86602401733398
 20
-9.0
 30
0.0
 11
128.80000305175781
 21
-9.0
 31
0.0
  0
LINE
  8
LY_3
  6
CONTINUOUS
 62
               3
  5
147
 10
107.13397598266602
 20
99.0
 30
0.0
 11
107.13397598266602
 21
81.0
 31
0.0
  0
LINE
  8
LY_3
  6
CONTINUOUS
 62
               3
  5
148
 10
108.86602401733398
 20
99.0
 30
0.0
 11
108.86602401733398
 21
81.0
 31
0.0
  0
LINE
  8
LY_3
  6
CONTINUOUS
 62
               3
  5
149
 10
111.13397598266602
 20
99.0
 30
0.0
 11
111.13397598266602
 21
81.0
 31
0.0
  0
LINE
  8
LY_3
  6
CONTINUOUS
 62
               3
  5
14A
 10
112.86602401733398
 20
99.0
 30
0.0
 11
112.86602401733398
 21
81.0
 31
0.0
  0
LINE
  8
LY_3
  6
CONTINUOUS
 62
               3
  5
14B
 10
132.20000267028809
 20
11.5
 30
0.0
 11
132.20000267028809
 21
11.0
 31
0.0
  0
LINE
  8
LY_3
  6
CONTINUOUS
 62
               3
  5
14C
 10
133.20000302721627
 20
10.000000848047591
 30
0.0
 11
134.20000274010664
 21
11.000000560937963
 31
0.0
  0
LINE
  8
LY_3
  6
CONTINUOUS
 62
               3
  5
14D
 10
132.20000466302503
 20
10.999999212238833
 30
0.0
 11
133.20000302721627
 21
10.000000848047591
 31
0.0
  0
LINE
  8
LY_3
  6
CONTINUOUS
 62
               3
  5
14E
 10
128.80000430314283
 20
11.499999013892875
 30
0.0
 11
129.30000386456004
 21
11.999998533163279
 31
0.0
  0
LINE
  8
LY_3
  6
CONTINUOUS
 62
               3
  5
14F
 10
132.20000334382885
 20
11.499999056040053
 30
0.0
 11
131.70000277088721
 21
11.999999586834804
 31
0.0
  0
LINE
  8
LY_3
  6
CONTINUOUS
 62
               3
  5
150
 10
128.80000305175781
 20
-12.0
 30
0.0
 11
128.80000305175781
 21
-9.0
 31
0.0
  0
LINE
  8
LY_3
  6
CONTINUOUS
 62
               3
  5
151
 10
128.80000346020586
 20
-11.500001185086603
 30
0.0
 11
129.3000040331475
 21
-12.000001715881353
 31
0.0
  0
LINE
  8
LY_3
  6
CONTINUOUS
 62
               3
  5
152
 10
132.20000266947932
 20
-11.499999709947133
 30
0.0
 11
131.70000209653767
 21
-12.000000240741883
 31
0.0
  0
LINE
  8
LY_3
  6
CONTINUOUS
 62
               3
  5
153
 10
132.20000267028809
 20
-11.5
 30
0.0
 11
132.20000267028809
 21
-11.0
 31
0.0
  0
LINE
  8
LY_3
  6
CONTINUOUS
 62
               3
  5
154
 10
132.20000263997633
 20
-10.999999191796292
 30
0.0
 11
133.2000023528667
 21
-9.9999994789059201
 31
0.0
  0
LINE
  8
LY_3
  6
CONTINUOUS
 62
               3
  5
155
 10
133.2000023528667
 20
-9.9999994789059201
 30
0.0
 11
134.20000341445621
 21
-11.000000540495421
 31
0.0
  0
LINE
  8
LY_3
  6
CONTINUOUS
 62
               3
  5
156
 10
137.80000305175781
 20
11.0
 30
0.0
 11
137.80000305175781
 21
9.5
 31
0.0
  0
LINE
  8
LY_3
  6
CONTINUOUS
 62
               3
  5
157
 10
136.30000305175781
 20
8.0
 30
0.0
 11
136.30000305175781
 21
3.9770126342773438
 31
0.0
  0
LINE
  8
LY_3
  6
CONTINUOUS
 62
               3
  5
158
 10
134.80000256784086
 20
9.5000003172528409
 30
0.0
 11
136.30000281152599
 21
8.000000073567719
 31
0.0
  0
LINE
  8
LY_3
  6
CONTINUOUS
 62
               3
  5
159
 10
137.80000305521111
 20
9.5000003172528409
 30
0.0
 11
136.30000281152599
 21
8.000000073567719
 31
0.0
  0
LINE
  8
LY_3
  6
CONTINUOUS
 62
               3
  5
15A
 10
137.80000372956067
 20
-9.500000296810299
 30
0.0
 11
136.30000348587555
 21
-8.0000000531251771
 31
0.0
  0
LINE
  8
LY_3
  6
CONTINUOUS
 62
               3
  5
15B
 10
136.30000305175781
 20
-8.0
 30
0.0
 11
136.30000305175781
 21
-3.9770126342773438
 31
0.0
  0
LINE
  8
LY_3
  6
CONTINUOUS
 62
               3
  5
15C
 10
134.80000324219043
 20
-9.500000296810299
 30
0.0
 11
136.30000348587555
 21
-8.0000000531251771
 31
0.0
  0
LINE
  8
LY_3
  6
CONTINUOUS
 62
               3
  5
15D
 10
137.80000305175781
 20
-11.0
 30
0.0
 11
137.80000305175781
 21
-9.5
 31
0.0
  0
LINE
  8
LY_3
  6
CONTINUOUS
 62
               3
  5
15E
 10
170.47129058837891
 20
16.499996185302734
 30
0.0
 11
185.79999542236328
 21
16.499996185302734
 31
0.0
  0
LINE
  8
LY_3
  6
CONTINUOUS
 62
               3
  5
15F
 10
185.80000150917908
 20
16.500001961617272
 30
0.0
 11
186.29999938472224
 21
16.999999795013764
 31
0.0
  0
LINE
  8
LY_3
  6
CONTINUOUS
 62
               3
  5
160
 10
186.30000305175781
 20
16.999996185302734
 30
0.0
 11
195.30000305175781
 21
16.999996185302734
 31
0.0
  0
LINE
  8
LY_3
  6
CONTINUOUS
 62
               3
  5
161
 10
195.29999852875608
 20
16.999994020895429
 30
0.0
 11
195.79999905955083
 21
16.499993447953784
 31
0.0
  0
LINE
  8
LY_3
  6
CONTINUOUS
 62
               3
  5
162
 10
195.79999923706055
 20
16.499996185302734
 30
0.0
 11
202.80000305175781
 21
16.499996185302734
 31
0.0
  0
LINE
  8
LY_3
  6
CONTINUOUS
 62
               3
  5
163
 10
170.47127532958984
 20
-16.5
 30
0.0
 11
185.79999923706055
 21
-16.5
 31
0.0
  0
LINE
  8
LY_3
  6
CONTINUOUS
 62
               3
  5
164
 10
185.80000319505302
 20
-16.500002952699106
 30
0.0
 11
186.30000376799467
 21
-17.000003483493856
 31
0.0
  0
LINE
  8
LY_3
  6
CONTINUOUS
 62
               3
  5
165
 10
186.30000305175781
 20
-17.0
 30
0.0
 11
195.30000305175781
 21
-17.0
 31
0.0
  0
LINE
  8
LY_3
  6
CONTINUOUS
 62
               3
  5
166
 10
195.29999616853263
 20
-16.999999058074991
 30
0.0
 11
195.79999669932738
 21
-16.499998485133347
 31
0.0
  0
LINE
  8
LY_3
  6
CONTINUOUS
 62
               3
  5
167
 10
195.79999923706055
 20
-16.5
 30
0.0
 11
202.80000305175781
 21
-16.5
 31
0.0
  0
LINE
  8
LY_3
  6
CONTINUOUS
 62
               3
  5
168
 10
204.80000305175781
 20
-14.5
 30
0.0
 11
204.80000305175781
 21
14.499996185302734
 31
0.0
  0
LINE
  8
LY_3
  6
CONTINUOUS
 62
               3
  5
169
 10
164.80000108155201
 20
15.499998262451527
 30
0.0
 11
170.47128603716175
 21
16.49999884430531
 31
0.0
  0
LINE
  8
LY_3
  6
CONTINUOUS
 62
               3
  5
16A
 10
164.79999945273244
 20
-15.500002931615427
 30
0.0
 11
170.4712656246254
 21
-16.50000020139305
 31
0.0
  0
LINE
  8
LY_3
  6
CONTINUOUS
 62
               3
  5
16B
 10
164.80000305175781
 20
-15.500003814697266
 30
0.0
 11
164.80000305175781
 21
15.499996185302734
 31
0.0
  0
LINE
  8
LY_3
  6
CONTINUOUS
 62
               3
  5
16C
 10
204.80000305175781
 20
104.50000762939453
 30
0.0
 11
204.80000305175781
 21
75.5
 31
0.0
  0
LINE
  8
LY_3
  6
CONTINUOUS
 62
               3
  5
16D
 10
186.30000305175781
 20
73.0
 30
0.0
 11
195.30000305175781
 21
73.0
 31
0.0
  0
LINE
  8
LY_3
  6
CONTINUOUS
 62
               3
  5
16E
 10
185.7999976316687
 20
73.500006268501352
 30
0.0
 11
186.30000090200883
 21
73.000003040308343
 31
0.0
  0
LINE
  8
LY_3
  6
CONTINUOUS
 62
               3
  5
16F
 10
195.3000028488085
 20
73.000000616864554
 30
0.0
 11
195.80000337960325
 21
73.500001189806198
 31
0.0
  0
LINE
  8
LY_3
  6
CONTINUOUS
 62
               3
  5
170
 10
186.30000305175781
 20
107.0
 30
0.0
 11
195.30000305175781
 21
107.0
 31
0.0
  0
LINE
  8
LY_3
  6
CONTINUOUS
 62
               3
  5
171
 10
185.80000032906742
 20
106.50000983411883
 30
0.0
 11
186.30000090200906
 21
107.00001036491358
 31
0.0
  0
LINE
  8
LY_3
  6
CONTINUOUS
 62
               3
  5
172
 10
195.30000274344138
 20
107.0000072881935
 30
0.0
 11
195.80000327423613
 21
106.50000671525186
 31
0.0
  0
LINE
  8
LY_3
  6
CONTINUOUS
 62
               3
  5
173
 10
185.80000305175781
 20
73.5
 30
0.0
 11
185.80000305175781
 21
106.5
 31
0.0
  0
LINE
  8
LY_3
  6
CONTINUOUS
 62
               3
  5
174
 10
186.30000305175781
 20
73.0
 30
0.0
 11
186.30000305175781
 21
107.0
 31
0.0
  0
LINE
  8
LY_3
  6
CONTINUOUS
 62
               3
  5
175
 10
195.30000305175781
 20
73.0
 30
0.0
 11
195.30000305175781
 21
107.0
 31
0.0
  0
LINE
  8
LY_3
  6
CONTINUOUS
 62
               3
  5
176
 10
195.80000305175781
 20
73.5
 30
0.0
 11
195.80000305175781
 21
106.50000762939453
 31
0.0
  0
LINE
  8
LY_3
  6
CONTINUOUS
 62
               3
  5
177
 10
202.80000305175781
 20
75.544715881347656
 30
0.0
 11
202.80000305175781
 21
104.30443572998047
 31
0.0
  0
LINE
  8
LY_3
  6
CONTINUOUS
 62
               3
  5
178
 10
186.30000305175781
 20
73.300003051757812
 30
0.0
 11
195.30000305175781
 21
73.300003051757812
 31
0.0
  0
LINE
  8
LY_3
  6
CONTINUOUS
 62
               3
  5
179
 10
186.30000305175781
 20
73.800003051757812
 30
0.0
 11
195.30000305175781
 21
73.800003051757812
 31
0.0
  0
LINE
  8
LY_3
  6
CONTINUOUS
 62
               3
  5
17A
 10
186.30000305175781
 20
74.5
 30
0.0
 11
195.30000305175781
 21
74.5
 31
0.0
  0
LINE
  8
LY_3
  6
CONTINUOUS
 62
               3
  5
17B
 10
186.30000305175781
 20
75.5
 30
0.0
 11
195.30000305175781
 21
75.5
 31
0.0
  0
LINE
  8
LY_3
  6
CONTINUOUS
 62
               3
  5
17C
 10
186.30000305175781
 20
76.800003051757813
 30
0.0
 11
195.30000305175781
 21
76.800003051757813
 31
0.0
  0
LINE
  8
LY_3
  6
CONTINUOUS
 62
               3
  5
17D
 10
186.30000305175781
 20
103.20000457763672
 30
0.0
 11
195.30000305175781
 21
103.20000457763672
 31
0.0
  0
LINE
  8
LY_3
  6
CONTINUOUS
 62
               3
  5
17E
 10
186.30000305175781
 20
104.50000762939453
 30
0.0
 11
195.30000305175781
 21
104.50000762939453
 31
0.0
  0
LINE
  8
LY_3
  6
CONTINUOUS
 62
               3
  5
17F
 10
186.30000305175781
 20
105.50000762939453
 30
0.0
 11
195.30000305175781
 21
105.50000762939453
 31
0.0
  0
LINE
  8
LY_3
  6
CONTINUOUS
 62
               3
  5
180
 10
186.30000305175781
 20
106.20000457763672
 30
0.0
 11
195.30000305175781
 21
106.20000457763672
 31
0.0
  0
LINE
  8
LY_3
  6
CONTINUOUS
 62
               3
  5
181
 10
186.30000305175781
 20
106.70000457763672
 30
0.0
 11
195.30000305175781
 21
106.70000457763672
 31
0.0
  0
LINE
  8
LY_3
  6
CONTINUOUS
 62
               3
  5
182
 10
170.47130584716797
 20
73.5
 30
0.0
 11
185.80000305175781
 21
73.5
 31
0.0
  0
LINE
  8
LY_3
  6
CONTINUOUS
 62
               3
  5
183
 10
164.80000305175781
 20
74.500007629394531
 30
0.0
 11
164.80000305175781
 21
105.5
 31
0.0
  0
LINE
  8
LY_3
  6
CONTINUOUS
 62
               3
  5
184
 10
164.80000333310545
 20
74.499996670263727
 30
0.0
 11
170.4713033156886
 21
73.499993438749016
 31
0.0
  0
LINE
  8
LY_3
  6
CONTINUOUS
 62
               3
  5
185
 10
170.4713134765625
 20
106.50000762939453
 30
0.0
 11
185.80000305175781
 21
106.50000762939453
 31
0.0
  0
LINE
  8
LY_3
  6
CONTINUOUS
 62
               3
  5
186
 10
164.80000006607315
 20
81.409781821460683
 30
0.0
 11
167.80000006560385
 21
80.880800864133789
 31
0.0
  0
LINE
  8
LY_3
  6
CONTINUOUS
 62
               3
  5
187
 10
164.79999686287101
 20
98.590218071478148
 30
0.0
 11
167.79999686240171
 21
99.119199028805042
 31
0.0
  0
LINE
  8
LY_3
  6
CONTINUOUS
 62
               3
  5
188
 10
164.80000305175781
 20
90.0
 30
0.0
 11
167.80000305175781
 21
90.0
 31
0.0
  0
LINE
  8
LY_3
  6
CONTINUOUS
 62
               3
  5
189
 10
164.80000200709492
 20
76.209678970327673
 30
0.0
 11
167.80000200662562
 21
75.680698013000779
 31
0.0
  0
LINE
  8
LY_3
  6
CONTINUOUS
 62
               3
  5
18A
 10
164.80000068226445
 20
103.79032125381877
 30
0.0
 11
167.80000068179515
 21
104.31930221114567
 31
0.0
  0
LINE
  8
LY_3
  6
CONTINUOUS
 62
               3
  5
18B
 10
164.80000145473377
 20
105.4999957091884
 30
0.0
 11
170.47130143731692
 21
106.49999894070311
 31
0.0
  0
LINE
  8
LY_3
  6
CONTINUOUS
 62
               3
  5
18C
 10
170.47132873535156
 20
106.50000762939453
 30
0.0
 11
170.47132873535156
 21
73.5
 31
0.0
  0
LINE
  8
LY_3
  6
DASHED
 62
             110
  5
18E
 10
174.47132873535156
 20
106.09999847412109
 30
0.0
 11
174.47132873535156
 21
73.900001525878906
 31
0.0
  0
LINE
  8
LY_3
  6
CONTINUOUS
 62
               3
  5
18F
 10
177.47132873535156
 20
106.50000762939453
 30
0.0
 11
177.47132873535156
 21
73.5
 31
0.0
  0
LINE
  8
LY_3
  6
DASHED
 62
             110
  5
190
 10
164.80000305175781
 20
104.75
 30
0.0
 11
174.47126770019531
 21
104.75
 31
0.0
  0
LINE
  8
LY_3
  6
DASHED
 62
             110
  5
191
 10
164.80000305175781
 20
75.25
 30
0.0
 11
174.47126770019531
 21
75.25
 31
0.0
  0
LINE
  8
LY_3
  6
DASHED
 62
             110
  5
192
 10
174.47132873535156
 20
73.900001525878906
 30
0.0
 11
177.47132873535156
 21
73.900001525878906
 31
0.0
  0
LINE
  8
LY_3
  6
DASHED
 62
             110
  5
193
 10
174.47132873535156
 20
106.09999847412109
 30
0.0
 11
177.47132873535156
 21
106.09999847412109
 31
0.0
  0
LINE
  8
LY_3
  6
CENTER
 62
             110
  5
194
 10
199.0
 20
-3.351470947265625
 30
0.0
 11
199.0
 21
4.0394992828369141
 31
0.0
  0
LINE
  8
LY_3
  6
CONTINUOUS
 62
               3
  5
195
 10
204.86969757080078
 20
91.5
 30
0.0
 11
206.80000305175781
 21
91.5
 31
0.0
  0
LINE
  8
LY_3
  6
CONTINUOUS
 62
               3
  5
196
 10
204.95386505126953
 20
91.199996948242188
 30
0.0
 11
206.80000305175781
 21
91.199996948242188
 31
0.0
  0
LINE
  8
LY_3
  6
CONTINUOUS
 62
               3
  5
197
 10
204.95386505126953
 20
88.800003051757813
 30
0.0
 11
206.80000305175781
 21
88.800003051757813
 31
0.0
  0
LINE
  8
LY_3
  6
CONTINUOUS
 62
               3
  5
198
 10
204.86969757080078
 20
88.5
 30
0.0
 11
206.80000305175781
 21
88.5
 31
0.0
  0
LINE
  8
LY_3
  6
CONTINUOUS
 62
               3
  5
199
 10
164.80000113710173
 20
13.790319111152712
 30
0.0
 11
167.80000113663243
 21
14.319300068479606
 31
0.0
  0
LINE
  8
LY_3
  6
CONTINUOUS
 62
               3
  5
19A
 10
170.47132873535156
 20
-16.500007629394531
 30
0.0
 11
170.47132873535156
 21
16.5
 31
0.0
  0
LINE
  8
LY_3
  6
CONTINUOUS
 62
               3
  5
19B
 10
164.79999919607997
 20
8.5902162600197016
 30
0.0
 11
167.80000107398234
 21
9.1191975485542116
 31
0.0
  0
LINE
  8
LY_3
  6
CONTINUOUS
 62
               3
  5
19C
 10
164.80000305175781
 20
0.0
 30
0.0
 11
167.80000305175781
 21
0.0
 31
0.0
  0
LINE
  8
LY_3
  6
CONTINUOUS
 62
               3
  5
19D
 10
164.80000027365111
 20
-8.5902165644620254
 30
0.0
 11
167.80000027318181
 21
-9.1191975217889194
 31
0.0
  0
LINE
  8
LY_3
  6
CONTINUOUS
 62
               3
  5
19E
 10
164.80000409304455
 20
-13.790319746802652
 30
0.0
 11
167.80000409257525
 21
-14.319300704129546
 31
0.0
  0
LINE
  8
LY_3
  6
CONTINUOUS
 62
               3
  5
19F
 10
177.47132873535156
 20
-16.500007629394531
 30
0.0
 11
177.47132873535156
 21
16.5
 31
0.0
  0
LINE
  8
LY_3
  6
CONTINUOUS
 62
               3
  5
1A0
 10
185.80000305175781
 20
16.5
 30
0.0
 11
185.80000305175781
 21
-16.5
 31
0.0
  0
LINE
  8
LY_3
  6
CONTINUOUS
 62
               3
  5
1A1
 10
186.30000305175781
 20
17.0
 30
0.0
 11
186.30000305175781
 21
-17.0
 31
0.0
  0
LINE
  8
LY_3
  6
CONTINUOUS
 62
               3
  5
1A2
 10
186.30000305175781
 20
13.199996948242188
 30
0.0
 11
195.30000305175781
 21
13.199996948242188
 31
0.0
  0
LINE
  8
LY_3
  6
CONTINUOUS
 62
               3
  5
1A3
 10
186.30000305175781
 20
14.5
 30
0.0
 11
195.30000305175781
 21
14.5
 31
0.0
  0
LINE
  8
LY_3
  6
CONTINUOUS
 62
               3
  5
1A4
 10
186.30000305175781
 20
16.699996948242188
 30
0.0
 11
195.30000305175781
 21
16.699996948242188
 31
0.0
  0
LINE
  8
LY_3
  6
CONTINUOUS
 62
               3
  5
1A5
 10
186.30000305175781
 20
16.199996948242187
 30
0.0
 11
195.30000305175781
 21
16.199996948242187
 31
0.0
  0
LINE
  8
LY_3
  6
CONTINUOUS
 62
               3
  5
1A6
 10
186.30000305175781
 20
15.5
 30
0.0
 11
195.30000305175781
 21
15.5
 31
0.0
  0
LINE
  8
LY_3
  6
CONTINUOUS
 62
               3
  5
1A7
 10
195.30000305175781
 20
17.0
 30
0.0
 11
195.30000305175781
 21
-17.0
 31
0.0
  0
LINE
  8
LY_3
  6
CONTINUOUS
 62
               3
  5
1A8
 10
195.80000305175781
 20
16.5
 30
0.0
 11
195.80000305175781
 21
-16.500007629394531
 31
0.0
  0
LINE
  8
LY_3
  6
CONTINUOUS
 62
               3
  5
1A9
 10
186.30000305175781
 20
-13.200004577636719
 30
0.0
 11
195.30000305175781
 21
-13.200004577636719
 31
0.0
  0
LINE
  8
LY_3
  6
CONTINUOUS
 62
               3
  5
1AA
 10
186.30000305175781
 20
-14.500007629394531
 30
0.0
 11
195.30000305175781
 21
-14.500007629394531
 31
0.0
  0
LINE
  8
LY_3
  6
CONTINUOUS
 62
               3
  5
1AB
 10
186.30000305175781
 20
-15.500007629394531
 30
0.0
 11
195.30000305175781
 21
-15.500007629394531
 31
0.0
  0
LINE
  8
LY_3
  6
CONTINUOUS
 62
               3
  5
1AC
 10
186.30000305175781
 20
-16.200004577636719
 30
0.0
 11
195.30000305175781
 21
-16.200004577636719
 31
0.0
  0
LINE
  8
LY_3
  6
CONTINUOUS
 62
               3
  5
1AD
 10
186.30000305175781
 20
-16.700004577636719
 30
0.0
 11
195.30000305175781
 21
-16.700004577636719
 31
0.0
  0
LINE
  8
LY_3
  6
CENTER
 62
             110
  5
1AE
 10
199.0
 20
86.868865966796875
 30
0.0
 11
199.0
 21
92.626785278320312
 31
0.0
  0
LINE
  8
LY_3
  6
CENTER
 62
             110
  5
1AF
 10
218.75045776367188
 20
-8.0
 30
0.0
 11
201.10951232910156
 21
-8.0
 31
0.0
  0
LINE
  8
LY_3
  6
CONTINUOUS
 62
               3
  5
1B0
 10
202.80000305175781
 20
14.455284118652344
 30
0.0
 11
202.80000305175781
 21
-14.304435729980469
 31
0.0
  0
ARC
  8
LY_3
  6
CONTINUOUS
 62
               3
  5
1B1
 10
99.60711669921875
 20
-10.450000762939453
 30
0.0
 40
0.25
 50
269.9999838351435
 51
20.000042106868154
  0
ARC
  8
LY_3
  6
CONTINUOUS
 62
               3
  5
1B2
 10
99.60711669921875
 20
10.450000762939453
 30
0.0
 40
0.25
 50
339.99995789313192
 51
90.000016164856504
  0
CIRCLE
  8
LY_3
  6
CONTINUOUS
 62
               3
  5
1B3
 10
0.0
 20
0.0
 30
0.0
 40
8.25
  0
CIRCLE
  8
LY_3
  6
CONTINUOUS
 62
               3
  5
1B4
 10
0.0
 20
0.0
 30
0.0
 40
9.1499996185302734
  0
CIRCLE
  8
LY_3
  6
CENTER
 62
             110
  5
1B5
 10
0.0
 20
0.0
 30
0.0
 40
13.5
  0
ARC
  8
LY_3
  6
CONTINUOUS
 62
               3
  5
1B6
 10
0.0
 20
0.0
 30
0.0
 40
16.100000381469727
 50
90.0
 51
270.0
  0
CIRCLE
  8
LY_3
  6
CONTINUOUS
 62
               3
  5
1B7
 10
0.0
 20
0.0
 30
0.0
 40
16.899999618530273
  0
CIRCLE
  8
LY_3
  6
CONTINUOUS
 62
               3
  5
1B8
 10
6.75
 20
11.691341400146484
 30
0.0
 40
2.2000000476837158
  0
CIRCLE
  8
LY_3
  6
CONTINUOUS
 62
               3
  5
1B9
 10
-6.75
 20
11.691343307495117
 30
0.0
 40
2.2000000476837158
  0
CIRCLE
  8
LY_3
  6
CONTINUOUS
 62
               3
  5
1BA
 10
-13.5
 20
0.0000019073486328
 30
0.0
 40
2.2000000476837158
  0
CIRCLE
  8
LY_3
  6
CONTINUOUS
 62
               3
  5
1BB
 10
-6.75
 20
-11.691341400146484
 30
0.0
 40
2.2000000476837158
  0
CIRCLE
  8
LY_3
  6
CONTINUOUS
 62
               3
  5
1BC
 10
6.75
 20
-11.69134521484375
 30
0.0
 40
2.2000000476837158
  0
CIRCLE
  8
LY_3
  6
CONTINUOUS
 62
               3
  5
1BD
 10
13.5
 20
-0.0000038146972656
 30
0.0
 40
2.2000000476837158
  0
CIRCLE
  8
LY_3
  6
CONTINUOUS
 62
               3
  5
1BE
 10
0.0
 20
0.0
 30
0.0
 40
10.699999809265137
  0
ARC
  8
LY_3
  6
CONTINUOUS
 62
               3
  5
1BF
 10
0.0
 20
0.0
 30
0.0
 40
16.100000381469727
 50
270.0
 51
90.0
  0
CIRCLE
  8
LY_3
  6
CONTINUOUS
 62
               3
  5
1C0
 10
0.0
 20
0.0
 30
0.0
 40
3.0
  0
ARC
  8
LY_3
  6
CONTINUOUS
 62
               3
  5
1C1
 10
0.0
 20
0.0
 30
0.0
 40
2.5
 50
0.0
 51
53.130101779804903
  0
ARC
  8
LY_3
  6
CONTINUOUS
 62
               3
  5
1C2
 10
0.0
 20
0.0
 30
0.0
 40
2.5
 50
126.86990322915143
 51
0.0000100179126691
  0
ARC
  8
LY_3
  6
CONTINUOUS
 62
               3
  5
1C3
 10
0.0
 20
-0.5
 30
0.0
 40
6.9000000953674316
 50
328.82718396769644
 51
211.17278347521943
  0
ARC
  8
LY_3
  6
CONTINUOUS
 62
               3
  5
1C4
 10
-3.274993896484375
 20
-5.6724662780761719
 30
0.0
 40
1.8500000238418579
 50
10.820896239774658
 51
131.45862921924109
  0
ARC
  8
LY_3
  6
CONTINUOUS
 62
               3
  5
1C5
 10
3.274993896484375
 20
-5.6724662780761719
 30
0.0
 40
1.8500000238418579
 50
48.541392865188165
 51
169.17912755220189
  0
CIRCLE
  8
LY_3
  6
CONTINUOUS
 62
               3
  5
1C6
 10
-3.274993896484375
 20
-5.6724662780761719
 30
0.0
 40
0.8500000238418579
  0
CIRCLE
  8
LY_3
  6
CONTINUOUS
 62
               3
  5
1C7
 10
3.274993896484375
 20
-5.6724662780761719
 30
0.0
 40
0.8500000238418579
  0
ARC
  8
LY_3
  6
CONTINUOUS
 62
               3
  5
1C8
 10
-5.112274169921875
 20
-3.5927867889404297
 30
0.0
 40
0.925000011920929
 50
211.17278711768509
 51
311.45860371971725
  0
ARC
  8
LY_3
  6
CONTINUOUS
 62
               3
  5
1C9
 10
5.112274169921875
 20
-3.5927867889404297
 30
0.0
 40
0.925000011920929
 50
228.54137078075891
 51
328.8271942129802
  0
ARC
  8
LY_3
  6
CONTINUOUS
 62
               3
  5
1CA
 10
0.0
 20
0.0
 30
0.0
 40
8.0
 50
250.07865795091243
 51
289.9213165495637
  0
ARC
  8
LY_3
  6
CONTINUOUS
 62
               3
  5
1CB
 10
2.5
 20
0.0
 30
0.0
 40
1.5
 50
273.82255384565451
 51
86.177446154345517
  0
ARC
  8
LY_3
  6
CONTINUOUS
 62
               3
  5
1CC
 10
0.0
 20
2.5
 30
0.0
 40
1.5
 50
3.8225537888117174
 51
176.17744865882366
  0
ARC
  8
LY_3
  6
CONTINUOUS
 62
               3
  5
1CD
 10
-2.5
 20
0.0
 30
0.0
 40
1.5
 50
93.822552024421654
 51
266.17744433311265
  0
ARC
  8
LY_3
  6
CONTINUOUS
 62
               3
  5
1CE
 10
0.0
 20
-2.5
 30
0.0
 40
1.5
 50
183.82255134117631
 51
356.17744621118828
  0
ARC
  8
LY_3
  6
CONTINUOUS
 62
               3
  5
1CF
 10
127.80000305175781
 20
-6.4000015258789062
 30
0.0
 40
1.0
 50
269.99999749552182
 51
0.0
  0
ARC
  8
LY_3
  6
CONTINUOUS
 62
               3
  5
1D0
 10
127.80000305175781
 20
6.4000015258789062
 30
0.0
 40
1.0
 50
0.0
 51
90.000002504478161
  0
ARC
  8
LY_3
  6
CONTINUOUS
 62
               3
  5
1D1
 10
108.0
 20
9.5
 30
0.0
 40
1.0
 50
210.00000265605888
 51
329.99999916517396
  0
ARC
  8
LY_3
  6
CONTINUOUS
 62
               3
  5
1D2
 10
112.0
 20
9.5
 30
0.0
 40
1.0
 50
210.00000265605888
 51
329.99999916517396
  0
ARC
  8
LY_3
  6
CONTINUOUS
 62
               3
  5
1D3
 10
108.0
 20
-9.5
 30
0.0
 40
1.0
 50
30.000000834826057
 51
149.99999734394112
  0
ARC
  8
LY_3
  6
CONTINUOUS
 62
               3
  5
1D4
 10
112.0
 20
-9.5
 30
0.0
 40
1.0
 50
30.000000834826057
 51
149.99999734394112
  0
ARC
  8
LY_3
  6
CONTINUOUS
 62
               3
  5
1D5
 10
202.80000305175781
 20
14.499996185302734
 30
0.0
 40
2.0
 50
359.99999134857859
 51
90.000002504478161
  0
ARC
  8
LY_3
  6
CONTINUOUS
 62
               3
  5
1D6
 10
202.80000305175781
 20
-14.5
 30
0.0
 40
2.0
 50
269.99999749552182
 51
0.0000050089569452
  0
ARC
  8
LY_3
  6
CONTINUOUS
 62
               3
  5
1D7
 10
202.60000610351562
 20
-1.2999992370605469
 30
0.0
 40
0.1000000014901161
 50
359.99998998208775
 51
90.000029825234847
  0
ARC
  8
LY_3
  6
CONTINUOUS
 62
               3
  5
1D8
 10
200.10000610351562
 20
0.0
 30
0.0
 40
5.0
 50
340.05158217042612
 51
19.948417829573906
  0
ARC
  8
LY_3
  6
CONTINUOUS
 62
               3
  5
1D9
 10
202.60000610351562
 20
1.2999992370605469
 30
0.0
 40
0.1000000014901161
 50
269.99992919363012
 51
359.99996402782193
  0
ARC
  8
LY_3
  6
CONTINUOUS
 62
               3
  5
1DA
 10
202.80000305175781
 20
75.5
 30
0.0
 40
2.0
 50
269.99999749552182
 51
0.0000050089569452
  0
ARC
  8
LY_3
  6
CONTINUOUS
 62
               3
  5
1DB
 10
202.80000305175781
 20
104.50000762939453
 30
0.0
 40
2.0
 50
359.99999134857859
 51
90.000002504478161
  0
ARC
  8
LY_3
  6
CONTINUOUS
 62
               3
  5
1DC
 10
200.10000610351562
 20
90.0
 30
0.0
 40
5.0
 50
340.05158217042612
 51
19.948417829573906
  0
CIRCLE
  8
LY_3
  6
CONTINUOUS
 62
               3
  5
1DD
 10
199.0
 20
90.0
 30
0.0
 40
1.0
  0
CIRCLE
  8
LY_3
  6
CONTINUOUS
 62
               3
  5
1DE
 10
199.0
 20
90.0
 30
0.0
 40
1.5
  0
CIRCLE
  8
LY_3
  6
CONTINUOUS
 62
             110
  5
1DF
 10
199.0
 20
0.0
 30
0.0
 40
1.5
  0
CIRCLE
  8
LY_3
  6
CONTINUOUS
 62
               3
  5
1E0
 10
199.0
 20
0.0
 30
0.0
 40
1.2000000476837158
  0
POLYLINE
  8
LY_3
  6
CONTINUOUS
 62
               3
  5
1E1
 66
               1
 10
0.0
 20
0.0
 30
0.0
  0
VERTEX
  8
LY_3
  6
CONTINUOUS
 62
               3
  5
2B9
 10
137.80565643310547
 20
10.975292205810547
 30
0.0
  0
VERTEX
  8
LY_3
  6
CONTINUOUS
 62
               3
  5
2BA
 10
137.7811705514371
 20
10.133008936744988
 30
0.0
  0
VERTEX
  8
LY_3
  6
CONTINUOUS
 62
               3
  5
2BB
 10
137.87550354003906
 20
9.2990570068359375
 30
0.0
  0
VERTEX
  8
LY_3
  6
CONTINUOUS
 62
               3
  5
2BC
 10
138.11448678985343
 20
8.4720247334899277
 30
0.0
  0
VERTEX
  8
LY_3
  6
CONTINUOUS
 62
               3
  5
2BD
 10
138.37837219238281
 20
7.6507606506347656
 30
0.0
  0
VERTEX
  8
LY_3
  6
CONTINUOUS
 62
               3
  5
2BE
 10
138.53426051809643
 20
6.8980784742409877
 30
0.0
  0
VERTEX
  8
LY_3
  6
CONTINUOUS
 62
               3
  5
2BF
 10
138.62428482388634
 20
6.1312340753028574
 30
0.0
  0
VERTEX
  8
LY_3
  6
CONTINUOUS
 62
               3
  5
2C0
 10
138.68568420410156
 20
5.3599052429199219
 30
0.0
  0
VERTEX
  8
LY_3
  6
CONTINUOUS
 62
               3
  5
2C1
 10
138.73979771696031
 20
4.6682925075292587
 30
0.0
  0
VERTEX
  8
LY_3
  6
CONTINUOUS
 62
               3
  5
2C2
 10
138.78346252441406
 20
3.9770126342773438
 30
0.0
  0
SEQEND
  8
LY_3
  6
CONTINUOUS
 62
               3
  5
2C3
  0
POLYLINE
  8
LY_3
  6
CONTINUOUS
 62
               3
  5
1E2
 66
               1
 10
0.0
 20
0.0
 30
0.0
  0
VERTEX
  8
LY_3
  6
CONTINUOUS
 62
               3
  5
2C4
 10
139.79434204101562
 20
10.975292205810547
 30
0.0
  0
VERTEX
  8
LY_3
  6
CONTINUOUS
 62
               3
  5
2C5
 10
139.81883172930642
 20
10.133008897958513
 30
0.0
  0
VERTEX
  8
LY_3
  6
CONTINUOUS
 62
               3
  5
2C6
 10
139.72450256347656
 20
9.2990570068359375
 30
0.0
  0
VERTEX
  8
LY_3
  6
CONTINUOUS
 62
               3
  5
2C7
 10
139.48551931366219
 20
8.4720247334899277
 30
0.0
  0
VERTEX
  8
LY_3
  6
CONTINUOUS
 62
               3
  5
2C8
 10
139.22163391113281
 20
7.6507606506347656
 30
0.0
  0
VERTEX
  8
LY_3
  6
CONTINUOUS
 62
               3
  5
2C9
 10
139.06574558541919
 20
6.8980784742409877
 30
0.0
  0
VERTEX
  8
LY_3
  6
CONTINUOUS
 62
               3
  5
2CA
 10
138.97572127962928
 20
6.1312340753028574
 30
0.0
  0
VERTEX
  8
LY_3
  6
CONTINUOUS
 62
               3
  5
2CB
 10
138.91432189941406
 20
5.3599052429199219
 30
0.0
  0
VERTEX
  8
LY_3
  6
CONTINUOUS
 62
               3
  5
2CC
 10
138.86020838655531
 20
4.6682925075292587
 30
0.0
  0
VERTEX
  8
LY_3
  6
CONTINUOUS
 62
               3
  5
2CD
 10
138.81654357910156
 20
3.9770126342773438
 30
0.0
  0
SEQEND
  8
LY_3
  6
CONTINUOUS
 62
               3
  5
2CE
  0
POLYLINE
  8
LY_3
  6
CONTINUOUS
 62
               3
  5
1E3
 66
               1
 10
0.0
 20
0.0
 30
0.0
  0
VERTEX
  8
LY_3
  6
CONTINUOUS
 62
               3
  5
2CF
 10
139.80565643310547
 20
10.975292205810547
 30
0.0
  0
VERTEX
  8
LY_3
  6
CONTINUOUS
 62
               3
  5
2D0
 10
139.7811705514371
 20
10.133008936744988
 30
0.0
  0
VERTEX
  8
LY_3
  6
CONTINUOUS
 62
               3
  5
2D1
 10
139.87550354003906
 20
9.2990570068359375
 30
0.0
  0
VERTEX
  8
LY_3
  6
CONTINUOUS
 62
               3
  5
2D2
 10
140.11448678985343
 20
8.4720247334899277
 30
0.0
  0
VERTEX
  8
LY_3
  6
CONTINUOUS
 62
               3
  5
2D3
 10
140.37837219238281
 20
7.6507606506347656
 30
0.0
  0
VERTEX
  8
LY_3
  6
CONTINUOUS
 62
               3
  5
2D4
 10
140.53426051809643
 20
6.8980784742409877
 30
0.0
  0
VERTEX
  8
LY_3
  6
CONTINUOUS
 62
               3
  5
2D5
 10
140.62428482388634
 20
6.1312340753028574
 30
0.0
  0
VERTEX
  8
LY_3
  6
CONTINUOUS
 62
               3
  5
2D6
 10
140.68568420410156
 20
5.3599052429199219
 30
0.0
  0
VERTEX
  8
LY_3
  6
CONTINUOUS
 62
               3
  5
2D7
 10
140.74030247120311
 20
4.6615535041584621
 30
0.0
  0
SEQEND
  8
LY_3
  6
CONTINUOUS
 62
               3
  5
2D8
  0
POLYLINE
  8
LY_3
  6
CONTINUOUS
 62
               3
  5
1E4
 66
               1
 10
0.0
 20
0.0
 30
0.0
  0
VERTEX
  8
LY_3
  6
CONTINUOUS
 62
               3
  5
2D9
 10
137.80566024780273
 20
-10.975292205810547
 30
0.0
  0
VERTEX
  8
LY_3
  6
CONTINUOUS
 62
               3
  5
2DA
 10
137.78117246282326
 20
-10.133008917351221
 30
0.0
  0
VERTEX
  8
LY_3
  6
CONTINUOUS
 62
               3
  5
2DB
 10
137.87550354003906
 20
-9.2990570068359375
 30
0.0
  0
VERTEX
  8
LY_3
  6
CONTINUOUS
 62
               3
  5
2DC
 10
138.11448678985343
 20
-8.4720247334899277
 30
0.0
  0
VERTEX
  8
LY_3
  6
CONTINUOUS
 62
               3
  5
2DD
 10
138.37837219238281
 20
-7.6507606506347656
 30
0.0
  0
VERTEX
  8
LY_3
  6
CONTINUOUS
 62
               3
  5
2DE
 10
138.51739549097468
 20
-7.0036715463553261
 30
0.0
  0
SEQEND
  8
LY_3
  6
CONTINUOUS
 62
               3
  5
2DF
  0
POLYLINE
  8
LY_3
  6
CONTINUOUS
 62
             110
  5
1E5
 66
               1
 10
0.0
 20
0.0
 30
0.0
  0
VERTEX
  8
LY_3
  6
CONTINUOUS
 62
             110
  5
2E0
 10
139.80504844409509
 20
13.500176774147215
 30
0.0
  0
VERTEX
  8
LY_3
  6
CONTINUOUS
 62
             110
  5
2E1
 10
140.33172970373377
 20
12.773042034751043
 30
0.0
  0
VERTEX
  8
LY_3
  6
CONTINUOUS
 62
             110
  5
2E2
 10
140.80074503697423
 20
12.017309147035217
 30
0.0
  0
VERTEX
  8
LY_3
  6
CONTINUOUS
 62
             110
  5
2E3
 10
141.19526628300974
 20
11.239658994510469
 30
0.0
  0
VERTEX
  8
LY_3
  6
CONTINUOUS
 62
             110
  5
2E4
 10
141.49846528103367
 20
10.446772460687534
 30
0.0
  0
VERTEX
  8
LY_3
  6
CONTINUOUS
 62
             110
  5
2E5
 10
141.69351387023926
 20
9.6453304290771484
 30
0.0
  0
VERTEX
  8
LY_3
  6
CONTINUOUS
 62
             110
  5
2E6
 10
141.77041801367164
 20
8.7127327913790467
 30
0.0
  0
VERTEX
  8
LY_3
  6
CONTINUOUS
 62
             110
  5
2E7
 10
141.70318457598407
 20
7.7771542727396286
 30
0.0
  0
VERTEX
  8
LY_3
  6
CONTINUOUS
 62
             110
  5
2E8
 10
141.51556206322655
 20
6.8381322366030304
 30
0.0
  0
VERTEX
  8
LY_3
  6
CONTINUOUS
 62
             110
  5
2E9
 10
141.23129898144913
 20
5.8952040464133892
 30
0.0
  0
VERTEX
  8
LY_3
  6
CONTINUOUS
 62
             110
  5
2EA
 10
140.87414383670176
 20
4.9479070656148423
 30
0.0
  0
VERTEX
  8
LY_3
  6
CONTINUOUS
 62
             110
  5
2EB
 10
140.46784513503448
 20
3.9957786576515248
 30
0.0
  0
VERTEX
  8
LY_3
  6
CONTINUOUS
 62
             110
  5
2EC
 10
140.03615138249728
 20
3.0383561859675758
 30
0.0
  0
VERTEX
  8
LY_3
  6
CONTINUOUS
 62
             110
  5
2ED
 10
139.60281108514019
 20
2.0751770140071315
 30
0.0
  0
VERTEX
  8
LY_3
  6
CONTINUOUS
 62
             110
  5
2EE
 10
139.19157274901323
 20
1.1057785052143281
 30
0.0
  0
VERTEX
  8
LY_3
  6
CONTINUOUS
 62
             110
  5
2EF
 10
138.82618488016638
 20
0.1296980230333062
 30
0.0
  0
VERTEX
  8
LY_3
  6
CONTINUOUS
 62
             110
  5
2F0
 10
138.53039598464966
 20
-0.8535270690917969
 30
0.0
  0
VERTEX
  8
LY_3
  6
CONTINUOUS
 62
             110
  5
2F1
 10
138.32469173693914
 20
-1.8338578510129371
 30
0.0
  0
VERTEX
  8
LY_3
  6
CONTINUOUS
 62
             110
  5
2F2
 10
138.20484282794769
 20
-2.819776906552625
 30
0.0
  0
VERTEX
  8
LY_3
  6
CONTINUOUS
 62
             110
  5
2F3
 10
138.16524603848154
 20
-3.8094192409344414
 30
0.0
  0
VERTEX
  8
LY_3
  6
CONTINUOUS
 62
             110
  5
2F4
 10
138.20029814934693
 20
-4.800919859381966
 30
0.0
  0
VERTEX
  8
LY_3
  6
CONTINUOUS
 62
             110
  5
2F5
 10
138.30439594135009
 20
-5.7924137671187799
 30
0.0
  0
VERTEX
  8
LY_3
  6
CONTINUOUS
 62
             110
  5
2F6
 10
138.4719361952973
 20
-6.7820359693684624
 30
0.0
  0
VERTEX
  8
LY_3
  6
CONTINUOUS
 62
             110
  5
2F7
 10
138.69731569199476
 20
-7.7679214713545948
 30
0.0
  0
VERTEX
  8
LY_3
  6
CONTINUOUS
 62
             110
  5
2F8
 10
138.97493121224872
 20
-8.7482052783007589
 30
0.0
  0
VERTEX
  8
LY_3
  6
CONTINUOUS
 62
             110
  5
2F9
 10
139.29917953686544
 20
-9.7210223954305341
 30
0.0
  0
VERTEX
  8
LY_3
  6
CONTINUOUS
 62
             110
  5
2FA
 10
139.66445744665111
 20
-10.684507827967499
 30
0.0
  0
VERTEX
  8
LY_3
  6
CONTINUOUS
 62
             110
  5
2FB
 10
140.06516172241203
 20
-11.636796581135236
 30
0.0
  0
VERTEX
  8
LY_3
  6
CONTINUOUS
 62
             110
  5
2FC
 10
140.49568914495441
 20
-12.576023660157327
 30
0.0
  0
VERTEX
  8
LY_3
  6
CONTINUOUS
 62
             110
  5
2FD
 10
140.95043649508452
 20
-13.500324070257349
 30
0.0
  0
SEQEND
  8
LY_3
  6
CONTINUOUS
 62
             110
  5
2FE
  0
TEXT
  8
LY_3
  6
CONTINUOUS
 62
             110
  5
1E6
 10
163.74386155605316
 20
94.771896362304688
 30
0.0
 40
2.0
  1
0
 41
1.1430000293821105
  7
MX_NOTE_STANDARD
 72
               1
 11
164.69636154174805
 21
95.771896362304688
 31
0.0
 73
               2
  0
TEXT
  8
LY_3
  6
CONTINUOUS
 62
             110
  5
1E7
 10
152.74015808105469
 20
94.169761657714844
 30
0.0
 40
2.0
  1
10
 41
1.3333333333333337
  7
MX_NOTE_STANDARD
 72
               1
 11
154.74015808105469
 21
95.169761657714844
 31
0.0
 73
               2
  0
TEXT
  8
LY_3
  6
CONTINUOUS
 62
             110
  5
1E8
 10
171.41243743896484
 20
82.212717533111572
 30
0.0
 40
3.0
  1
1
 50
-90.0
 41
1.7364372258344805
  7
MX_NOTE_STANDARD
 72
               1
 11
172.91243743896484
 21
80.558967590332031
 31
0.0
 73
               2
  0
TEXT
  8
LY_3
  6
CONTINUOUS
 62
             110
  5
1E9
 10
171.47820281982422
 20
100.86168003082275
 30
0.0
 40
3.0
  1
9
 50
-90.0
 41
0.9525000017757219
  7
MX_NOTE_STANDARD
 72
               1
 11
172.97820281982422
 21
99.432929992675781
 31
0.0
 73
               2
  0
TEXT
  8
LY_3
  6
CONTINUOUS
 62
             110
  5
1EA
 10
171.45325469970703
 20
91.426346778869629
 30
0.0
 40
3.0
  1
0
 50
-90.0
 41
1.1430000293821105
  7
MX_NOTE_STANDARD
 72
               1
 11
172.95325469970703
 21
89.997596740722656
 31
0.0
 73
               2
  0
TEXT
  8
LY_3
  6
CONTINUOUS
 62
             110
  5
1EB
 10
171.27622222900391
 20
76.225647926330566
 30
0.0
 40
3.0
  1
2
 50
-90.0
 41
0.9525000017757219
  7
MX_NOTE_STANDARD
 72
               1
 11
172.77622222900391
 21
74.796897888183594
 31
0.0
 73
               2
  0
TEXT
  8
LY_3
  6
CONTINUOUS
 62
             110
  5
1EC
 10
171.27622222900391
 20
106.01585483551025
 30
0.0
 40
3.0
  1
8
 50
-90.0
 41
0.9525000017757219
  7
MX_NOTE_STANDARD
 72
               1
 11
172.77622222900391
 21
104.58710479736328
 31
0.0
 73
               2
  0
TEXT
  8
LY_3
  6
CONTINUOUS
 62
             110
  5
1ED
 10
171.27622222900391
 20
16.631852149963379
 30
0.0
 40
3.0
  1
2
 50
-90.0
 41
0.9525000017757219
  7
MX_NOTE_STANDARD
 72
               1
 11
172.77622222900391
 21
15.203102111816406
 31
0.0
 73
               2
  0
TEXT
  8
LY_3
  6
CONTINUOUS
 62
             110
  5
1EE
 10
171.41243743896484
 20
10.869782447814941
 30
0.0
 40
3.0
  1
3
 50
-90.0
 41
0.9525000017757219
  7
MX_NOTE_STANDARD
 72
               1
 11
172.91243743896484
 21
9.4410324096679687
 31
0.0
 73
               2
  0
TEXT
  8
LY_3
  6
CONTINUOUS
 62
             110
  5
1EF
 10
171.27622222900391
 20
-13.158354759216309
 30
0.0
 40
3.0
  1
6
 50
-90.0
 41
0.9525000017757219
  7
MX_NOTE_STANDARD
 72
               1
 11
172.77622222900391
 21
-14.587104797363281
 31
0.0
 73
               2
  0
TEXT
  8
LY_3
  6
CONTINUOUS
 62
             110
  5
1F0
 10
171.47820281982422
 20
-8.0041799545288086
 30
0.0
 40
3.0
  1
5
 50
-90.0
 41
0.9525000017757219
  7
MX_NOTE_STANDARD
 72
               1
 11
172.97820281982422
 21
-9.4329299926757812
 31
0.0
 73
               2
  0
TEXT
  8
LY_3
  6
CONTINUOUS
 62
             110
  5
1F1
 10
171.45325469970703
 20
1.4311532974243164
 30
0.0
 40
3.0
  1
4
 50
-90.0
 41
0.9525000017757219
  7
MX_NOTE_STANDARD
 72
               1
 11
172.95325469970703
 21
0.0024032592773438
 31
0.0
 73
               2
  0
LINE
  8
LY_3
  6
CONTINUOUS
 62
               3
  5
1F2
 10
100.66138527048618
 20
95.485211113160659
 30
0.0
 11
100.66138513244898
 21
93.65685296959262
 31
0.0
  0
LINE
  8
LY_3
  6
CONTINUOUS
 62
               3
  5
1F3
 10
103.25466875983267
 20
95.485210917373209
 30
0.0
 11
100.66138527048618
 21
95.485211113160659
 31
0.0
  0
LINE
  8
LY_3
  6
CONTINUOUS
 62
               3
  5
1F4
 10
104.09422079113753
 20
93.134464669401311
 30
0.0
 11
100.66138509300978
 21
93.13446492857318
 31
0.0
  0
LINE
  8
LY_3
  6
CONTINUOUS
 62
               3
  5
1F5
 10
104.09422066436868
 20
91.45536025183884
 30
0.0
 11
100.66138496624095
 21
91.455360511010696
 31
0.0
  0
LINE
  8
LY_3
  6
CONTINUOUS
 62
               3
  5
1F6
 10
104.09422079113753
 20
93.134464669401311
 30
0.0
 11
104.09422066436868
 21
91.45536025183884
 31
0.0
  0
LINE
  8
LY_3
  6
CONTINUOUS
 62
               3
  5
1F7
 10
104.16884739496844
 20
89.701628965639401
 30
0.0
 11
103.3106384704365
 21
89.701629030432372
 31
0.0
  0
LINE
  8
LY_3
  6
CONTINUOUS
 62
               3
  5
1F8
 10
100.66138509300978
 20
93.13446492857318
 30
0.0
 11
100.66138496624095
 21
91.455360511010696
 31
0.0
  0
LINE
  8
LY_3
  6
CONTINUOUS
 62
               3
  5
1F9
 10
103.31063813520332
 20
85.261330681767149
 30
0.0
 11
101.51959342313668
 21
85.261330816987254
 31
0.0
  0
LINE
  8
LY_3
  6
CONTINUOUS
 62
               3
  5
1FA
 10
103.25466862179549
 20
93.656852773805184
 30
0.0
 11
100.66138513244898
 21
93.65685296959262
 31
0.0
  0
LINE
  8
LY_3
  6
CONTINUOUS
 62
               3
  5
1FB
 10
103.25466875983267
 20
95.485210917373209
 30
0.0
 11
103.25466862179549
 21
93.656852773805184
 31
0.0
  0
LINE
  8
LY_3
  6
CONTINUOUS
 62
               3
  5
1FC
 10
101.51959375836985
 20
89.701629165652477
 30
0.0
 11
100.66138483383793
 21
89.701629230445448
 31
0.0
  0
LINE
  8
LY_3
  6
CONTINUOUS
 62
               3
  5
1FD
 10
103.3106384704365
 20
89.701629030432372
 30
0.0
 11
101.51959375836985
 21
89.701629165652477
 31
0.0
  0
ARC
  8
LY_3
  6
CONTINUOUS
 62
               3
  5
1FE
 10
102.41511611440318
 20
89.701629098042432
 30
0.0
 40
1.7537312805652618
 50
359.99997768819998
 51
179.99999635753463
  0
ARC
  8
LY_3
  6
CONTINUOUS
 62
               3
  5
1FF
 10
102.41511589467051
 20
86.791181440934125
 30
0.0
 40
1.7537312805652618
 50
300.69622159687685
 51
239.30374220357399
  0
ARC
  8
LY_3
  6
CONTINUOUS
 62
               3
  5
200
 10
102.41511611440318
 20
89.701629098042432
 30
0.0
 40
0.8955223560333252
 50
359.99997768819998
 51
179.99999635753463
  0
ARC
  8
LY_3
  6
CONTINUOUS
 62
               3
  5
201
 10
102.41511577917001
 20
85.261330749377208
 30
0.0
 40
0.8955223560333252
 50
359.99997768819998
 51
1.3976119773029889
  0
ARC
  8
LY_3
  6
CONTINUOUS
 62
               3
  5
202
 10
103.25466869081407
 20
94.571031845589189
 30
0.0
 40
0.9141790717840195
 50
269.99999567428938
 51
89.999959702110615
  0
ARC
  8
LY_3
  6
CONTINUOUS
 62
               3
  5
203
 10
103.25466869081407
 20
94.571031845589189
 30
0.0
 40
0.9141790717840195
 50
89.99997700495463
 51
269.99999567428938
  0
ARC
  8
LY_3
  6
CONTINUOUS
 62
               3
  5
204
 10
102.41511611440318
 20
89.701629098042432
 30
0.0
 40
0.8955223560333252
 50
180.00001366037864
 51
359.99997768819998
  0
ARC
  8
LY_3
  6
CONTINUOUS
 62
               3
  5
205
 10
102.41511577917001
 20
85.261330749377208
 30
0.0
 40
0.8955223560333252
 50
180.00001366037864
 51
359.99997768819998
  0
ARC
  8
LY_3
  6
CONTINUOUS
 62
               3
  5
206
 10
102.41511577917001
 20
85.261330749377208
 30
0.0
 40
0.8955223560333252
 50
1.3976119773029889
 51
178.60237572880993
  0
ARC
  8
LY_3
  6
CONTINUOUS
 62
               3
  5
207
 10
102.41511577917001
 20
85.261330749377208
 30
0.0
 40
0.8955223560333252
 50
178.60237937127562
 51
180.00001366037864
  0
SOLID
  8
LY_3
  6
CONTINUOUS
 62
             110
  5
208
 10
100.66138509300978
 20
93.13446492857318
 30
0.0
 11
100.66138496624095
 21
91.455360511010696
 31
0.0
 12
104.09422079113753
 22
93.134464669401311
 32
0.0
 13
104.09422066436868
 23
91.45536025183884
 33
0.0
  0
DIMENSION
  8
LY_3
  6
CONTINUOUS
 62
             110
  5
215
  2
*D6
 10
58.800003051757813
 20
24.643459320068359
 30
0.0
 11
53.800003051757813
 21
24.643459320068359
 31
0.0
 70
             128
  1
<>
 13
48.800003051757813
 23
2.0
 33
0.0
 14
58.800003051757813
 24
3.0
 34
0.0
  3
MXDIMSTYLE
1001
ACAD
1000
DSTYLE
1002
{
1070
              41
1040
2.77
1070
              42
1040
2.5399999618530273
1070
              44
1040
2.2859992980957031
1070
              75
1070
               1
1070
             140
1040
3.2000000476837158
1070
             271
1070
               0
1070
             284
1070
               8
1070
             340
1005
20F
1002
}
  0
DIMENSION
  8
LY_3
  6
CONTINUOUS
 62
             110
  5
220
  2
*D7
 10
98.800003051757812
 20
40.0
 30
0.0
 11
73.800003051757812
 21
40.0
 31
0.0
 70
             128
  1
<>
 13
48.800003051757813
 23
12.0
 33
0.0
 14
98.800003051757812
 24
26.100002288818359
 34
0.0
  3
MXDIMSTYLE
1001
ACAD
1000
DSTYLE
1002
{
1070
              41
1040
2.77
1070
              75
1070
               1
1070
              76
1070
               1
1070
             140
1040
3.2000000476837158
1070
             271
1070
               0
1070
             284
1070
               8
1002
}
  0
DIMENSION
  8
LY_3
  6
CONTINUOUS
 62
             110
  5
22D
  2
*D8
 10
204.80000305175781
 20
40.0
 30
0.0
 11
151.80000305175781
 21
40.0
 31
0.0
 70
             128
  1
96～<>
 13
98.800003051757812
 23
16.900001525878906
 33
0.0
 14
204.80000305175781
 24
24.499996185302734
 34
0.0
  3
MXDIMSTYLE
1001
ACAD
1000
DSTYLE
1002
{
1070
              41
1040
2.77
1070
              42
1040
2.5399999618530273
1070
              44
1040
2.2859992980957031
1070
              76
1070
               1
1070
             140
1040
3.2000000476837158
1070
             271
1070
               0
1070
             284
1070
               8
1070
             340
1005
227
1002
}
  0
DIMENSION
  8
LY_3
  6
CONTINUOUS
 62
             110
  5
239
  2
*D9
 10
204.80000305175781
 20
50.0
 30
0.0
 11
126.80000305175781
 21
50.0
 31
0.0
 70
             128
  1
146～<>
 13
48.800003051757813
 23
0.0
 33
0.0
 14
204.80000305175781
 24
24.499996185302734
 34
0.0
  3
MXDIMSTYLE
1001
ACAD
1000
DSTYLE
1002
{
1070
              41
1040
2.77
1070
              42
1040
2.5399999618530273
1070
              44
1040
2.2859992980957031
1070
              76
1070
               1
1070
             140
1040
3.2000000476837158
1070
             271
1070
               0
1070
             284
1070
               8
1070
             340
1005
227
1002
}
  0
DIMENSION
  8
LY_3
  6
CONTINUOUS
 62
             110
  5
248
  2
*D10
 10
215.5
 20
50.0
 30
0.0
 11
230.7184944152832
 21
50.0
 31
0.0
 70
             128
  1
(<>
 13
204.80000305175781
 23
16.499996185302734
 33
0.0
 14
215.5
 24
-2.0
 34
0.0
  3
MXDIMSTYLE
1001
ACAD
1000
DSTYLE
1002
{
1070
              41
1040
2.77
1070
              42
1040
2.5399999618530273
1070
              44
1040
2.2859954833984375
1070
             140
1040
3.2000000476837158
1070
             271
1070
               1
1070
             284
1070
               8
1070
             340
1005
242
1002
}
  0
DIMENSION
  8
LY_3
  6
CONTINUOUS
 62
             110
  5
253
  2
*D11
 10
150.0
 20
13.5
 30
0.0
 11
150.0
 21
7.2459011077880859
 31
0.0
 70
             128
  1
%%c<>
 13
164.80000305175781
 23
-13.5
 33
0.0
 14
164.80000305175781
 24
13.5
 34
0.0
 50
90.0
  3
MXDIMSTYLE
1001
ACAD
1000
DSTYLE
1002
{
1070
              41
1040
2.77
1070
              75
1070
               1
1070
              76
1070
               1
1070
             140
1040
3.2000000476837158
1070
             271
1070
               0
1070
             284
1070
               8
1002
}
  0
DIMENSION
  8
LY_3
  6
CONTINUOUS
 62
             110
  5
25F
  2
*D12
 10
120.0
 20
-9.0
 30
0.0
 11
120.0
 21
21.084745407104492
 31
0.0
 70
             128
  1
%%c<>
 13
112.86602401733398
 23
9.0
 33
0.0
 14
112.86602401733398
 24
-9.0
 34
0.0
 50
90.0
  3
MXDIMSTYLE
1001
ACAD
1000
DSTYLE
1002
{
1070
              41
1040
2.77
1070
              75
1070
               1
1070
              76
1070
               1
1070
             140
1040
3.2000000476837158
1070
             271
1070
               0
1070
             284
1070
               8
1070
             340
1005
227
1002
}
  0
POLYLINE
  8
LY_3
  6
CONTINUOUS
 62
             110
  5
260
 66
               1
 10
0.0
 20
0.0
 30
0.0
  0
VERTEX
  8
LY_3
  6
CONTINUOUS
 62
             110
  5
2FF
 10
139.62464676420575
 20
9.4567279434493798
 30
0.0
  0
VERTEX
  8
LY_3
  6
CONTINUOUS
 62
             110
  5
300
 10
131.97622785677106
 20
29.561143760224638
 30
0.0
  0
VERTEX
  8
LY_3
  6
CONTINUOUS
 62
             110
  5
301
 10
157.35483298410566
 20
29.561143760224638
 30
0.0
  0
SEQEND
  8
LY_3
  6
CONTINUOUS
 62
             110
  5
302
  0
TEXT
  8
LY_3
  6
CONTINUOUS
 62
             110
  5
261
 10
134.7315001491996
 20
30.881143693467436
 30
0.0
 40
3.2000000476837158
  1
溶接ベロ－ズ
 41
0.7812499573143839
  7
MX_NOTE_STANDARD
 11
134.7315001491996
 21
32.481143717309294
 31
0.0
 73
               2
  0
LINE
  8
LY_3
  6
CONTINUOUS
 62
               3
  5
262
 10
195.80000305175781
 20
106.50000762939453
 30
0.0
 11
202.80000305175781
 21
106.50000762939453
 31
0.0
  0
LINE
  8
LY_3
  6
CONTINUOUS
 62
               3
  5
263
 10
195.80000305175781
 20
73.5
 30
0.0
 11
202.80000305175781
 21
73.5
 31
0.0
  0
LINE
  8
LY_3
  6
CONTINUOUS
 62
               3
  5
264
 10
58.800003051757813
 20
3.0
 30
0.0
 11
140.01864528656006
 21
3.0
 31
0.0
  0
LINE
  8
LY_3
  6
CONTINUOUS
 62
             110
  5
265
 10
139.62464676420575
 20
9.4567279434493798
 30
0.0
 11
138.63971004665225
 21
12.045704510051511
 31
0.0
  0
LINE
  8
LY_3
  6
CONTINUOUS
 62
             110
  5
266
 10
139.62464676420575
 20
9.4567279434493798
 30
0.0
 11
137.94599636460779
 21
11.78179170151977
 31
0.0
  0
LINE
  8
LY_3
  6
CONTINUOUS
 62
             110
  5
267
 10
139.33342372869674
 20
12.30961731858325
 30
0.0
 11
139.62464676420575
 21
9.4567279434493798
 31
0.0
  0
LINE
  8
LY_3
  6
CONTINUOUS
 62
             110
  5
268
 10
-5.178259106127598
 20
13.306441650368015
 30
0.0
 11
-6.2340658311201924
 21
15.867334494565213
 31
0.0
  0
LINE
  8
LY_3
  6
CONTINUOUS
 62
             110
  5
269
 10
-5.178259106127598
 20
13.306441650368015
 30
0.0
 11
-6.9202545078299869
 21
15.584432138410172
 31
0.0
  0
LINE
  8
LY_3
  6
CONTINUOUS
 62
             110
  5
26A
 10
-5.5478771544103971
 20
16.150236850720255
 30
0.0
 11
-5.178259106127598
 21
13.306441650368015
 31
0.0
  0
LINE
  8
LY_3
  6
CONTINUOUS
 62
               3
  5
26B
 10
103.0
 20
84.583193050690895
 30
0.0
 11
103.0
 21
85.261330479646873
 31
0.0
  0
LINE
  8
LY_3
  6
CONTINUOUS
 62
               3
  5
26C
 10
102.5
 20
84.369840447012919
 30
0.0
 11
102.5
 21
85.261330606802787
 31
0.0
  0
LINE
  8
LY_3
  6
CONTINUOUS
 62
               3
  5
26D
 10
102.0
 20
84.467832683822195
 30
0.0
 11
102.0
 21
85.261330733958701
 31
0.0
  0
LINE
  8
LY_3
  6
CONTINUOUS
 62
               3
  5
26E
 10
101.55857241798773
 20
85.0
 30
0.0
 11
103.27165914035228
 21
85.0
 31
0.0
  0
LINE
  8
LY_3
  6
CONTINUOUS
 62
               3
  5
26F
 10
101.94359082732947
 20
84.5
 30
0.0
 11
102.88664073101054
 21
84.5
 31
0.0
  0
LINE
  8
LY_3
  6
CONTINUOUS
 62
               3
  5
270
 10
104.0
 20
86.040371360349823
 30
0.0
 11
104.0
 21
87.541991521518426
 31
0.0
  0
LINE
  8
LY_3
  6
CONTINUOUS
 62
               3
  5
271
 10
103.5
 20
85.413284535343394
 30
0.0
 11
103.5
 21
88.169078346524856
 31
0.0
  0
LINE
  8
LY_3
  6
CONTINUOUS
 62
               3
  5
272
 10
103.0
 20
85.939469013833772
 30
0.0
 11
103.0
 21
88.444506571622583
 31
0.0
  0
LINE
  8
LY_3
  6
CONTINUOUS
 62
               3
  5
273
 10
102.5
 20
86.15282200910373
 30
0.0
 11
102.5
 21
88.542857236592525
 31
0.0
  0
LINE
  8
LY_3
  6
CONTINUOUS
 62
               3
  5
274
 10
102.0
 20
86.054830482595193
 30
0.0
 11
102.0
 21
88.495074688301742
 31
0.0
  0
LINE
  8
LY_3
  6
CONTINUOUS
 62
               3
  5
275
 10
101.5
 20
85.295141233000365
 30
0.0
 11
101.5
 21
88.287221648867884
 31
0.0
  0
LINE
  8
LY_3
  6
CONTINUOUS
 62
               3
  5
276
 10
101.0
 20
85.755314456672167
 30
0.0
 11
101.0
 21
87.827048425196082
 31
0.0
  0
LINE
  8
LY_3
  6
CONTINUOUS
 62
               3
  5
277
 10
102.02076511601641
 20
88.5
 30
0.0
 11
102.80946667332461
 21
88.5
 31
0.0
  0
LINE
  8
LY_3
  6
CONTINUOUS
 62
               3
  5
278
 10
101.14455259609346
 20
88.0
 30
0.0
 11
103.68567919324755
 21
88.0
 31
0.0
  0
LINE
  8
LY_3
  6
CONTINUOUS
 62
               3
  5
279
 10
100.81101189094854
 20
87.5
 30
0.0
 11
104.01921989839248
 21
87.5
 31
0.0
  0
LINE
  8
LY_3
  6
CONTINUOUS
 62
               3
  5
27A
 10
100.67386111324916
 20
87.0
 30
0.0
 11
104.15637067609185
 21
87.0
 31
0.0
  0
LINE
  8
LY_3
  6
CONTINUOUS
 62
               3
  5
27B
 10
100.68572676180058
 20
86.5
 30
0.0
 11
104.14450502754043
 21
86.5
 31
0.0
  0
LINE
  8
LY_3
  6
CONTINUOUS
 62
               3
  5
27C
 10
102.9214051661601
 20
86.0
 30
0.0
 11
103.98023740176012
 21
86.0
 31
0.0
  0
LINE
  8
LY_3
  6
CONTINUOUS
 62
               3
  5
27D
 10
100.84999438758089
 20
86.0
 30
0.0
 11
101.9088245129432
 21
86.0
 31
0.0
  0
LINE
  8
LY_3
  6
CONTINUOUS
 62
               3
  5
27E
 10
103.27824816959946
 20
85.5
 30
0.0
 11
103.60188625620653
 21
85.5
 31
0.0
  0
LINE
  8
LY_3
  6
CONTINUOUS
 62
               3
  5
27F
 10
101.22834553313449
 20
85.5
 30
0.0
 11
101.55198150950383
 21
85.5
 31
0.0
  0
LINE
  8
LY_3
  6
CONTINUOUS
 62
               3
  5
280
 10
103.0
 20
89.023491110222366
 30
0.0
 11
103.0
 21
89.701628828312181
 31
0.0
  0
LINE
  8
LY_3
  6
CONTINUOUS
 62
               3
  5
281
 10
102.5
 20
88.810138763758616
 30
0.0
 11
102.5
 21
89.701628955468095
 31
0.0
  0
LINE
  8
LY_3
  6
CONTINUOUS
 62
               3
  5
282
 10
102.0
 20
88.908131207863576
 30
0.0
 11
102.0
 21
89.701629082624009
 31
0.0
  0
LINE
  8
LY_3
  6
CONTINUOUS
 62
               3
  5
283
 10
101.54258760657201
 20
89.5
 30
0.0
 11
103.28764462223434
 21
89.5
 31
0.0
  0
LINE
  8
LY_3
  6
CONTINUOUS
 62
               3
  5
284
 10
101.85862990708475
 20
89.0
 30
0.0
 11
102.9716023217216
 21
89.0
 31
0.0
  0
LINE
  8
LY_3
  6
CONTINUOUS
 62
               3
  5
285
 10
104.0
 20
89.701628480865864
 30
0.0
 11
104.0
 21
90.452439642459993
 31
0.0
  0
LINE
  8
LY_3
  6
CONTINUOUS
 62
               3
  5
286
 10
103.5
 20
89.701628675573048
 30
0.0
 11
103.5
 21
91.079526176639163
 31
0.0
  0
LINE
  8
LY_3
  6
CONTINUOUS
 62
               3
  5
287
 10
103.0
 20
90.379767085862497
 30
0.0
 11
103.0
 21
91.354954306464009
 31
0.0
  0
LINE
  8
LY_3
  6
CONTINUOUS
 62
               3
  5
288
 10
102.5
 20
90.593119432326247
 30
0.0
 11
102.5
 21
91.453304904348798
 31
0.0
  0
LINE
  8
LY_3
  6
CONTINUOUS
 62
               3
  5
289
 10
102.0
 20
90.495126988221287
 30
0.0
 11
102.0
 21
91.405522291877034
 31
0.0
  0
LINE
  8
LY_3
  6
CONTINUOUS
 62
               3
  5
28A
 10
101.5
 20
89.701629611672772
 30
0.0
 11
101.5
 21
91.197669171567441
 31
0.0
  0
LINE
  8
LY_3
  6
CONTINUOUS
 62
               3
  5
28B
 10
101.0
 20
89.701630369081045
 30
0.0
 11
101.0
 21
90.737495782123702
 31
0.0
  0
LINE
  8
LY_3
  6
CONTINUOUS
 62
               3
  5
28C
 10
101.23621560741246
 20
91.0
 30
0.0
 11
103.59401662139389
 21
91.0
 31
0.0
  0
LINE
  8
LY_3
  6
CONTINUOUS
 62
               3
  5
28D
 10
102.82078123869036
 20
90.5
 30
0.0
 11
103.97658251088455
 21
90.5
 31
0.0
  0
LINE
  8
LY_3
  6
CONTINUOUS
 62
               3
  5
28E
 10
100.8536497179218
 20
90.5
 30
0.0
 11
102.00945099011599
 21
90.5
 31
0.0
  0
LINE
  8
LY_3
  6
CONTINUOUS
 62
               3
  5
28F
 10
103.25947095392297
 20
90.0
 30
0.0
 11
104.14327936169728
 21
90.0
 31
0.0
  0
LINE
  8
LY_3
  6
CONTINUOUS
 62
               3
  5
290
 10
100.68695286710907
 20
90.0
 30
0.0
 11
101.57076127488338
 21
90.0
 31
0.0
  0
LINE
  8
LY_3
  6
CONTINUOUS
 62
               3
  5
291
 10
104.0
 20
94.041688275839746
 30
0.0
 11
104.0
 21
95.100375415338632
 31
0.0
  0
LINE
  8
LY_3
  6
CONTINUOUS
 62
               3
  5
292
 10
103.5
 20
93.690386670719647
 30
0.0
 11
103.5
 21
95.451677020458732
 31
0.0
  0
LINE
  8
LY_3
  6
CONTINUOUS
 62
               3
  5
293
 10
103.25466875134025
 20
95.0
 30
0.0
 11
104.06195407888279
 21
95.0
 31
0.0
  0
LINE
  8
LY_3
  6
CONTINUOUS
 62
               3
  5
294
 10
103.25466860034446
 20
94.5
 30
0.0
 11
104.16608399252898
 21
94.5
 31
0.0
  0
LINE
  8
LY_3
  6
CONTINUOUS
 62
               3
  5
295
 10
103.25466844934866
 20
94.0
 30
0.0
 11
103.96856364569952
 21
94.0
 31
0.0
  0
LINE
  8
LY_3
  6
CONTINUOUS
 62
               3
  5
296
 10
103.0
 20
95.449022297249655
 30
0.0
 11
103.0
 21
95.485210936600097
 31
0.0
  0
LINE
  8
LY_3
  6
CONTINUOUS
 62
               3
  5
297
 10
103.0
 20
93.656852793032371
 30
0.0
 11
103.0
 21
93.693041393928723
 31
0.0
  0
LINE
  8
LY_3
  6
CONTINUOUS
 62
               3
  5
298
 10
102.5
 20
95.086976166609261
 30
0.0
 11
102.5
 21
95.485210974349059
 31
0.0
  0
LINE
  8
LY_3
  6
CONTINUOUS
 62
               3
  5
299
 10
102.5
 20
93.656852830781261
 30
0.0
 11
102.5
 21
94.055087524569117
 31
0.0
  0
LINE
  8
LY_3
  6
CONTINUOUS
 62
               3
  5
29A
 10
102.0
 20
93.656852868530166
 30
0.0
 11
102.0
 21
95.48521101209802
 31
0.0
  0
LINE
  8
LY_3
  6
CONTINUOUS
 62
               3
  5
29B
 10
101.5
 20
93.656852906279056
 30
0.0
 11
101.5
 21
95.485211049846981
 31
0.0
  0
LINE
  8
LY_3
  6
CONTINUOUS
 62
               3
  5
29C
 10
101.0
 20
93.656852944027946
 30
0.0
 11
101.0
 21
95.485211087595957
 31
0.0
  0
LINE
  8
LY_3
  6
CONTINUOUS
 62
               3
  5
29D
 10
100.66138523385376
 20
95.0
 30
0.0
 11
102.44738330274535
 21
95.0
 31
0.0
  0
LINE
  8
LY_3
  6
CONTINUOUS
 62
               3
  5
29E
 10
100.66138519610482
 20
94.5
 30
0.0
 11
102.34325338909916
 21
94.5
 31
0.0
  0
LINE
  8
LY_3
  6
CONTINUOUS
 62
               3
  5
29F
 10
100.66138515835587
 20
94.0
 30
0.0
 11
102.54077373592862
 21
94.0
 31
0.0
  0
ENDSEC
  0
EOF
